osu file format v14

[General]
AudioFilename: twopizzas.mp3
AudioLeadIn: 0
PreviewTime: 71507
Countdown: 0
SampleSet: Soft
StackLeniency: 0.7
Mode: 0
LetterboxInBreaks: 0
WidescreenStoryboard: 1

[Editor]
Bookmarks: 1820,11820,21820,31820,41820,51820,61820,71820,81820,91820,101820,111820
DistanceSpacing: 1.2
BeatDivisor: 4
GridSize: 32
TimelineZoom: 2.4

[Metadata]
Title:Night sky
TitleUnicode:Night sky
Artist:USAO
ArtistUnicode:USAO
Creator:sukiNathan
Version:Len's Hard
Source:beatmania IIDX 22 PENDUAL
Tags:pumpcore bemani captin1 captin handsome kevin kevincela -kevincela- bonzi asphyxia asahina momoko mokori m_o_k_o_r_i len fast deetz
BeatmapID:916628
BeatmapSetID:396994

[Difficulty]
HPDrainRate:6
CircleSize:4
OverallDifficulty:6
ApproachRate:8
SliderMultiplier:1.44
SliderTickRate:2

[Events]
//Background and Video events
0,0,"nightsky.jpg",0,0
//Break Periods
2,32020,41070
//Storyboard Layer 0 (Background)
//Storyboard Layer 1 (Fail)
//Storyboard Layer 2 (Pass)
//Storyboard Layer 3 (Foreground)
//Storyboard Sound Samples

[TimingPoints]
1820,312.5,4,2,1,60,1,0
1820,-125,4,2,1,60,0,0
8070,-111.111111111111,4,2,1,60,0,0
11820,-100,4,2,1,60,0,0
41820,-111.111111111111,4,2,1,60,0,0
51820,-100,4,2,1,60,0,1
51898,-100,4,2,1,60,0,0
61820,-100,4,2,1,60,0,1
71741,-100,4,2,1,60,0,0
71820,-100,4,2,1,60,0,1
71898,-100,4,2,1,60,0,0
81507,-83.3333333333333,4,2,1,60,0,0
81820,-100,4,2,1,60,0,1
81898,-100,4,2,1,60,0,0
91820,-100,4,2,1,60,0,1
101507,-100,4,2,1,60,0,0
101820,-100,4,2,1,60,0,1
111820,-100,4,2,1,60,0,0

[Colours]
Combo1 : 255,62,62
Combo2 : 191,85,232
Combo3 : 67,81,250

[HitObjects]
408,112,1820,6,0,L|278:124,1,115.2
230,175,2288,2,0,P|210:122|231:70,1,115.2,2|0,0:0|0:0,0:0:0:0:
308,205,2757,1,0,0:0:0:0:
308,205,2913,6,0,P|328:252|292:324,1,115.2,2|0,0:0|0:0,0:0:0:0:
235,347,3382,1,0,0:0:0:0:
235,347,3538,2,0,L|158:336,1,57.6,2|0,0:0|0:0,0:0:0:0:
158,260,3851,2,0,L|100:268,1,57.6
47,328,4163,1,0,0:0:0:0:
18,252,4320,6,0,B|12:220|12:220|39:128,1,115.2,2|0,0:0|0:0,0:0:0:0:
62,64,4788,1,0,0:0:0:0:
115,125,4945,2,0,L|240:111,1,115.2,0|0,0:0|0:0,0:0:0:0:
309,100,5413,1,0,0:0:0:0:
339,191,5570,6,0,L|270:181,1,57.6,2|0,0:0|0:0,0:0:0:0:
212,223,5882,1,0,0:0:0:0:
243,296,6038,2,0,P|284:318|356:281,1,115.2,2|0,0:0|0:0,0:0:0:0:
412,251,6507,1,0,0:0:0:0:
412,251,6820,6,0,L|425:316,1,57.6,0|0,1:0|0:0,0:0:0:0:
343,314,7132,2,0,L|330:379,1,57.6,0|0,1:0|0:0,0:0:0:0:
244,275,7445,2,0,L|257:340,1,57.6,0|0,1:0|0:0,0:0:0:0:
163,377,7757,2,0,L|175:321,1,57.6,0|0,1:0|0:0,0:0:0:0:
110,271,8070,5,0,1:0:0:0:
146,198,8226,2,0,L|73:183,1,64.799998022461,0|0,0:0|1:0,0:0:0:0:
32,117,8538,2,0,P|62:89|153:106,1,129.599996044922,0|0,0:0|0:0,0:0:0:0:
211,149,9007,2,0,L|287:137,1,64.799998022461,0|0,1:0|0:0,0:0:0:0:
375,57,9320,6,0,L|380:89,3,32.3999990112305,0|0|0|0,0:0|0:0|0:0|0:0,0:0:0:0:
399,115,9632,2,0,L|393:147,3,32.3999990112305,0|0|0|0,0:0|0:0|0:0|0:0,0:0:0:0:
359,183,9945,6,0,L|364:215,3,32.3999990112305,0|0|0|0,0:0|0:0|0:0|0:0,0:0:0:0:
397,256,10257,2,0,L|391:288,3,32.3999990112305,0|0|0|0,0:0|0:0|0:0|0:0,0:0:0:0:
334,337,10570,5,0,0:0:0:0:
256,192,10648,12,0,11507,0:0:0:0:
334,337,11820,6,0,L|244:323,1,72,4|0,1:0|0:0,0:0:0:0:
188,369,12132,1,8,1:0:0:0:
119,316,12288,2,0,P|99:269|169:195,1,144,0|0,0:0|0:0,0:0:0:0:
233,183,12757,2,0,L|323:169,1,72,8|0,1:0|0:0,0:0:0:0:
171,116,13070,5,0,1:0:0:0:
87,139,13226,1,0,0:0:0:0:
105,54,13382,1,8,1:0:0:0:
147,198,13538,2,0,L|141:280,1,72,0|0,0:0|1:0,0:0:0:0:
135,357,13851,1,0,0:0:0:0:
135,357,14007,1,8,1:0:0:0:
295,292,14320,6,0,L|271:135,1,144,0|8,1:0|1:0,0:0:0:0:
326,82,14788,2,0,P|377:58|452:124,1,144,0|0,0:0|0:0,0:0:0:0:
404,176,15257,1,8,1:0:0:0:
482,211,15413,1,0,0:0:0:0:
436,284,15570,6,0,P|402:273|367:267,1,72,2|2,0:0|0:0,0:0:0:0:
325,343,15882,2,0,P|289:348|255:360,1,72,2|2,0:0|0:0,0:0:0:0:
182,312,16195,1,0,0:0:0:0:
182,312,16351,1,2,0:0:0:0:
235,244,16507,2,0,L|226:197,3,36,0|0|2|0,0:0|0:0|0:0|0:0,0:0:0:0:
202,183,16820,6,0,L|225:89,1,72,0|0,1:0|0:0,0:0:0:0:
243,30,17132,1,8,1:0:0:0:
303,91,17288,1,0,0:0:0:0:
380,51,17445,2,0,P|421:48|470:142,1,144,0|8,1:0|1:0,0:0:0:0:
447,206,17913,1,0,0:0:0:0:
474,288,18070,6,0,L|460:384,1,72,0|0,1:0|0:0,0:0:0:0:
379,379,18382,1,8,1:0:0:0:
340,301,18538,1,0,0:0:0:0:
254,287,18695,2,0,L|272:210,1,72,0|0,1:0|0:0,0:0:0:0:
233,138,19007,2,0,L|228:98,2,36,8|0|0,1:0|0:0|0:0,0:0:0:0:
153,172,19320,6,0,L|82:157,1,72,0|0,1:0|0:0,0:0:0:0:
126,252,19632,2,0,L|55:237,1,72,8|0,1:0|0:0,0:0:0:0:
175,327,19945,2,0,L|246:312,1,72,0|0,1:0|0:0,0:0:0:0:
327,338,20257,1,8,1:0:0:0:
327,338,20335,1,0,0:0:0:0:
327,338,20413,1,0,0:0:0:0:
341,219,20570,6,0,L|330:173,3,36,0|0|0|0,0:0|0:0|0:0|0:0,0:0:0:0:
302,158,20882,2,0,L|310:122,3,36,0|0|0|0,0:0|0:0|0:0|0:0,0:0:0:0:
337,93,21195,6,0,L|321:15,1,72,0|0,0:0|0:0,0:0:0:0:
248,67,21507,2,0,P|181:84|127:40,1,144,0|4,0:0|1:0,0:0:0:0:
37,166,21976,6,0,L|0:159,2,36,0|0|8,0:0|0:0|1:0,0:0:0:0:
84,238,22288,1,0,0:0:0:0:
38,311,22445,2,0,P|95:268|176:306,1,144,0|8,1:0|1:0,0:0:0:0:
195,365,22913,1,0,0:0:0:0:
249,297,23070,5,0,1:0:0:0:
331,320,23226,2,0,L|337:365,2,36,0|0|8,0:0|0:0|1:0,0:0:0:0:
353,236,23538,1,0,0:0:0:0:
430,274,23695,2,0,L|511:257,1,72,0|0,1:0|1:0,0:0:0:0:
504,173,24007,2,0,P|519:128|453:58,1,144,8|0,1:0|1:0,0:0:0:0:
374,55,24476,5,0,0:0:0:0:
374,55,24554,1,0,0:0:0:0:
374,55,24632,2,0,P|328:70|289:73,1,72,8|0,1:0|0:0,0:0:0:0:
246,137,24945,2,0,P|200:122|161:119,1,72,0|0,1:0|0:0,0:0:0:0:
101,76,25257,1,8,1:0:0:0:
28,123,25413,1,0,0:0:0:0:
102,166,25570,6,0,L|82:248,1,72,0|0,1:0|0:0,0:0:0:0:
133,307,25882,1,0,1:0:0:0:
214,278,26038,2,0,L|207:228,2,36,0|0|0,0:0|0:0|1:0,0:0:0:0:
264,348,26351,1,0,1:0:0:0:
347,328,26507,2,0,L|405:347,3,36,0|0|0|0,1:0|1:0|1:0|1:0,0:0:0:0:
419,318,26820,6,0,B|438:276|438:276|422:179,1,144,4|8,1:0|1:0,0:0:0:0:
486,122,27288,1,0,0:0:0:0:
486,122,27445,2,0,L|497:49,1,72,0|0,1:0|0:0,0:0:0:0:
424,3,27757,1,8,1:0:0:0:
343,32,27913,1,0,0:0:0:0:
404,94,28070,6,0,P|354:117|273:83,1,144,0|8,1:0|1:0,0:0:0:0:
206,34,28538,1,0,0:0:0:0:
125,65,28695,2,0,L|113:151,1,72,0|0,1:0|0:0,0:0:0:0:
56,199,29007,2,0,P|91:205|123:221,1,72,8|0,1:0|0:0,0:0:0:0:
197,267,29320,6,0,L|207:366,1,96,0|0,1:0|1:0,0:0:0:0:
276,328,29632,2,0,P|315:317|391:350,1,96,8|0,1:0|0:0,0:0:0:0:
441,365,29945,2,0,L|450:269,1,96,0|0,1:0|0:0,0:0:0:0:
383,225,30257,2,0,L|373:129,1,96,8|0,1:0|0:0,0:0:0:0:
366,49,30570,5,4,0:0:0:0:
256,192,30648,12,0,31820,0:0:0:0:
468,219,41820,6,0,L|388:207,1,64.799998022461,0|0,1:0|1:0,0:0:0:0:
338,155,42132,1,8,0:0:0:0:
283,219,42288,2,0,P|231:234|173:184,1,129.599996044922,0|0,1:0|1:0,0:0:0:0:
122,124,42757,2,0,L|139:48,1,64.799998022461,8|0,0:0|0:0,0:0:0:0:
58,27,43070,6,0,L|81:179,1,129.599996044922,0|8,1:0|0:0,0:0:0:0:
36,228,43538,2,0,P|97:205|155:257,1,129.599996044922,0|8,1:0|0:0,0:0:0:0:
188,311,44007,1,0,1:0:0:0:
188,311,44163,1,0,0:0:0:0:
268,286,44320,6,0,L|275:209,2,64.799998022461,0|0|8,1:0|0:0|0:0,0:0:0:0:
325,347,44788,2,0,P|376:367|448:326,1,129.599996044922,0|0,1:0|1:0,0:0:0:0:
477,261,45257,1,8,0:0:0:0:
415,203,45413,1,0,0:0:0:0:
495,178,45570,6,0,L|488:108,1,64.799998022461,0|0,1:0|0:0,0:0:0:0:
480,29,45882,1,8,0:0:0:0:
399,51,46038,2,0,P|338:39|259:30,1,129.599996044922,0|8,1:0|0:0,0:0:0:0:
266,115,46507,1,0,1:0:0:0:
192,74,46663,1,0,0:0:0:0:
142,142,46820,6,0,P|137:197|135:214,1,64.799998022461,0|0,1:0|0:0,0:0:0:0:
95,280,47132,2,0,P|51:267|13:260,1,64.799998022461,8|0,0:0|0:0,0:0:0:0:
5,384,47445,2,0,P|49:371|87:364,1,64.799998022461,0|0,1:0|1:0,0:0:0:0:
148,343,47757,2,0,P|192:356|230:363,1,64.799998022461,0|8,1:0|0:0,0:0:0:0:
274,303,48070,5,0,1:0:0:0:
341,353,48226,1,0,0:0:0:0:
417,315,48382,2,0,P|406:268|402:232,1,64.799998022461,8|0,0:0|1:0,0:0:0:0:
328,213,48695,2,0,P|339:166|343:130,1,64.799998022461,0|0,0:0|1:0,0:0:0:0:
331,66,49007,1,8,1:2:0:0:
409,100,49163,1,0,0:0:0:0:
265,118,49320,6,0,L|172:94,1,64.799998022461,0|0,1:0|1:0,0:0:0:0:
120,84,49632,1,8,1:2:0:0:
120,84,49788,1,0,1:0:0:0:
75,156,49945,2,0,L|94:235,1,64.799998022461,0|0,0:0|1:0,0:0:0:0:
83,302,50257,2,0,P|53:292|20:285,1,64.799998022461,8|0,1:2|1:0,0:0:0:0:
152,354,50570,6,0,L|198:339,3,32.3999990112305,0|0|0|0,1:0|1:0|1:0|1:0,0:0:0:0:
218,322,50882,2,0,L|248:332,3,32.3999990112305,0|0|0|0,1:0|0:0|1:0|1:0,0:0:0:0:
279,362,51195,2,0,B|316:347|316:347|359:351|359:351|421:323,1,129.599996044922,0|0,0:0|0:0,0:0:0:0:
503,174,51820,6,0,P|518:133|458:61,1,144,4|0,1:0|0:0,0:0:0:0:
376,42,52288,1,0,0:0:0:0:
339,120,52445,2,0,P|296:108|242:98,1,72,8|0,0:1|0:0,0:0:0:0:
216,34,52757,2,0,P|173:46|119:56,1,72
37,172,53070,6,0,P|104:190|151:140,1,144,0|0,1:0|0:0,0:0:0:0:
223,186,53538,1,0,1:0:0:0:
223,186,53695,2,0,L|212:268,1,72,8|0,0:1|0:0,0:0:0:0:
253,333,54007,1,0,1:0:0:0:
330,294,54163,1,8,0:1:0:0:
330,294,54241,1,0,0:0:0:0:
330,294,54320,6,0,B|408:280|379:343|480:323,2,144,0|0|8,1:0|0:0|0:1,0:0:0:0:
255,249,55101,2,0,P|251:202|264:164,1,72,0|0,0:0|0:0,0:0:0:0:
311,111,55413,1,0,0:0:0:0:
207,50,55570,6,0,P|161:38|88:109,1,144,0|0,1:0|0:0,0:0:0:0:
21,145,56038,1,0,1:0:0:0:
21,145,56195,2,0,P|34:215|31:293,1,144,8|0,0:1|1:0,0:0:0:0:
31,287,56820,6,0,P|62:318|161:296,1,144,4|0,1:2|0:0,0:0:0:0:
188,225,57288,1,0,0:0:0:0:
188,225,57445,2,0,P|181:181|176:143,1,72,8|0,0:1|0:0,0:0:0:0:
247,103,57757,1,0,0:0:0:0:
314,157,57913,1,0,0:0:0:0:
314,157,57991,1,0,0:0:0:0:
314,157,58070,6,0,P|359:147|393:148,1,72,0|0,1:0|0:0,0:0:0:0:
463,113,58382,1,0,0:0:0:0:
395,61,58538,1,0,1:0:0:0:
452,199,58695,2,0,L|442:248,3,36,8|0|0|0,0:1|0:0|0:0|0:0,0:0:0:0:
411,262,59007,2,0,L|427:343,1,72,0|8,1:0|0:1,0:0:0:0:
394,362,59241,1,0,0:0:0:0:
394,362,59320,6,0,B|351:317|301:331|301:331|246:378|166:333,1,216,0|0,1:0|0:0,0:0:0:0:
132,286,59945,2,0,P|144:247|150:193,1,72,8|0,0:1|0:0,0:0:0:0:
224,174,60257,2,0,P|212:135|206:81,1,72,0|0,0:0|0:0,0:0:0:0:
136,54,60570,6,0,P|97:57|50:78,2,72,4|0|0,1:0|0:0|0:0,0:0:0:0:
213,16,61038,1,0,1:0:0:0:
278,72,61195,2,0,P|272:107|261:141,1,72,8|0,0:1|0:0,0:0:0:0:
330,192,61507,2,0,P|335:227|346:261,1,72,0|0,0:0|0:0,0:0:0:0:
261,345,61820,6,0,P|203:358|145:293,2,144,4|8|0,1:0|0:1|0:0,0:0:0:0:
322,284,62601,1,0,1:0:0:0:
387,340,62757,2,0,L|467:327,1,72,8|0,0:1|0:0,0:0:0:0:
490,248,63070,5,0,1:0:0:0:
436,179,63226,2,0,L|428:130,2,36,0|0|8,0:0|0:0|0:1,0:0:0:0:
406,260,63538,1,0,0:0:0:0:
406,260,63616,1,0,0:0:0:0:
406,260,63695,2,0,P|351:243|311:237,1,72,0|0,0:0|1:0,0:0:0:0:
280,175,64007,2,0,P|216:194|148:191,1,108,8|0,0:1|0:0,0:0:0:0:
150,173,64320,6,0,P|156:225|144:276,1,72,0|0,1:0|0:0,0:0:0:0:
103,314,64632,1,8,0:1:0:0:
176,359,64788,2,0,P|240:372|298:309,1,144,0|0,0:0|1:0,0:0:0:0:
317,238,65257,1,8,0:1:0:0:
239,200,65413,6,0,P|232:127|221:41,2,144,0|0|0,0:0|0:0|0:0,0:0:0:0:
314,155,66195,1,0,0:0:0:0:
317,238,66351,2,0,L|302:323,1,72,0|0,1:0|1:0,0:0:0:0:
241,368,66663,1,0,1:0:0:0:
217,284,66820,6,0,L|136:304,1,72,4|0,1:0|0:0,0:0:0:0:
62,319,67132,1,8,0:1:0:0:
10,249,67288,1,0,0:0:0:0:
10,249,67445,2,0,P|2:188|72:133,1,144,0|8,0:0|0:1,0:0:0:0:
137,168,67913,1,0,0:0:0:0:
215,131,68070,6,0,L|208:54,1,72,0|0,1:0|0:0,0:0:0:0:
292,78,68382,2,0,L|299:1,1,72,8|0,0:1|0:0,0:0:0:0:
375,46,68695,1,0,0:0:0:0:
375,46,68773,1,0,0:0:0:0:
375,46,68851,2,0,L|451:33,1,72,0|8,1:0|0:1,0:0:0:0:
503,98,69163,1,0,0:0:0:0:
440,158,69320,6,0,B|421:234|478:226|456:320,1,144,0|8,0:0|0:1,0:0:0:0:
397,356,69788,1,0,0:0:0:0:
390,363,69866,1,0,0:0:0:0:
383,371,69945,2,0,L|327:362,3,36,0|0|0|0,1:0|0:0|0:0|0:0,0:0:0:0:
312,339,70257,2,0,L|276:344,3,36,8|0|0|0,0:0|0:0|0:0|0:0,0:0:0:0:
234,282,70570,6,0,L|198:276,3,36,0|0|0|0,0:0|0:0|0:0|0:0,0:0:0:0:
166,314,70882,2,0,L|130:319,3,36,0|0|0|0,0:0|0:0|0:0|0:0,0:0:0:0:
74,269,71195,6,0,L|38:263,7,36,0|0|0|0|0|0|0|0,0:0|0:0|0:0|0:0|0:0|0:0|0:0|0:0,0:0:0:0:
12,227,71820,6,0,B|3:193|3:193|23:85,1,144,4|8,1:0|1:0,0:0:0:0:
87,28,72288,1,0,0:0:0:0:
141,95,72445,2,0,P|201:122|272:77,1,144,0|8,1:0|1:0,0:0:0:0:
333,34,72913,6,0,P|317:97|311:191,1,144,0|0,0:0|0:0,0:0:0:0:
334,258,73382,1,8,1:0:0:0:
264,309,73538,2,0,P|207:293|170:287,1,72,0|0,0:0|1:0,0:0:0:0:
114,325,73851,1,0,0:0:0:0:
114,325,73929,1,0,0:0:0:0:
114,325,74007,1,8,1:0:0:0:
41,277,74163,1,0,0:0:0:0:
120,242,74320,6,0,L|110:159,1,72,0|0,1:0|0:0,0:0:0:0:
101,84,74632,1,8,1:0:0:0:
101,84,74788,1,0,0:0:0:0:
176,40,74945,2,0,P|223:30|294:94,1,144,0|8,1:0|1:0,0:0:0:0:
311,171,75413,1,0,0:0:0:0:
247,230,75570,6,0,P|213:217|160:211,2,72,0|0|8,1:0|0:0|1:0,0:0:0:0:
295,301,76038,2,0,P|346:333|431:283,1,144,0|0,0:0|0:0,0:0:0:0:
489,253,76507,2,0,P|478:200|474:170,1,72,8|0,1:0|0:0,0:0:0:0:
417,117,76820,5,0,1:0:0:0:
486,66,76976,1,0,0:0:0:0:
406,32,77132,2,0,L|327:48,1,72,8|0,1:0|0:0,0:0:0:0:
252,19,77445,1,0,1:0:0:0:
183,70,77601,2,0,P|196:112|201:145,1,72,0|8,0:0|1:0,0:0:0:0:
145,205,77913,6,0,P|197:161|277:210,1,144,0|0,0:0|0:0,0:0:0:0:
321,248,78382,2,0,P|304:170|303:84,1,144,8|0,1:0|1:0,0:0:0:0:
325,22,78851,1,0,0:0:0:0:
396,70,79007,1,8,1:0:0:0:
472,29,79163,1,0,0:0:0:0:
503,109,79320,6,0,P|493:143|490:190,1,72,0|0,0:0|0:0,0:0:0:0:
422,233,79632,1,8,0:0:0:0:
422,233,79710,1,0,0:0:0:0:
422,233,79788,1,0,0:0:0:0:
474,301,79945,2,0,P|430:264|331:290,1,144,0|8,0:0|0:0,0:0:0:0:
299,344,80413,1,0,0:0:0:0:
219,309,80570,6,0,L|213:263,3,36,4|0|0|0,0:0|0:0|0:0|0:0,0:0:0:0:
176,253,80882,2,0,L|182:207,3,36,0|0|0|0,0:0|0:0|0:0|0:0,0:0:0:0:
211,186,81195,6,0,L|205:140,3,36,0|0|0|0,0:0|0:0|2:0|0:0,0:0:0:0:
172,122,81507,2,0,P|181:78|190:28,1,86.3999973632813,4|0,0:2|0:0,0:0:0:0:
49,18,81820,6,0,P|65:95|76:176,1,144,4|8,1:0|1:0,0:0:0:0:
18,225,82288,1,0,0:0:0:0:
57,302,82445,2,0,P|88:323|181:274,1,144,0|8,1:0|1:0,0:0:0:0:
203,202,82913,1,0,0:0:0:0:
259,267,83070,6,0,P|301:252|348:247,1,72,0|0,1:0|0:0,0:0:0:0:
383,181,83382,1,8,0:1:0:0:
383,181,83538,1,0,0:0:0:0:
448,238,83695,2,0,P|470:188|416:99,1,144,0|8,1:0|1:0,0:0:0:0:
350,98,84163,1,0,0:0:0:0:
302,170,84320,6,0,P|238:146|154:138,1,144,0|8,1:0|1:0,0:0:0:0:
80,160,84788,2,0,P|88:118|90:77,1,72,0|0,0:0|1:0,0:0:0:0:
143,218,85101,2,0,P|145:253|152:289,1,72,0|8,0:0|1:0,0:0:0:0:
207,355,85413,1,0,0:0:0:0:
274,300,85570,6,0,P|309:284|396:335,2,144,0|8|0,1:0|1:0|1:0,0:0:0:0:
207,355,86351,2,0,P|162:344|118:340,1,72,0|8,0:0|0:1,0:0:0:0:
78,277,86663,1,0,0:0:0:0:
143,218,86820,6,0,L|116:56,1,144,4|8,1:0|1:0,0:0:0:0:
186,22,87288,1,0,0:0:0:0:
242,87,87445,2,0,P|281:70|323:63,1,72,0|0,1:0|0:0,0:0:0:0:
390,94,87757,1,8,1:0:0:0:
390,94,87913,1,0,0:0:0:0:
349,170,88070,6,0,L|366:257,1,72,0|0,1:0|0:0,0:0:0:0:
305,304,88382,2,0,P|261:289|219:285,1,72,8|0,1:0|0:0,0:0:0:0:
107,365,88695,2,0,P|142:359|176:346,1,72,0|0,1:0|1:0,0:0:0:0:
150,264,89007,2,0,L|159:179,1,72,8|0,1:0|0:0,0:0:0:0:
76,160,89320,6,0,P|67:89|53:16,1,144,0|8,0:0|1:0,0:0:0:0:
145,57,89788,1,0,0:0:0:0:
211,2,89945,2,0,L|290:17,1,72
359,50,90257,1,8,1:0:0:0:
296,109,90413,1,0,0:0:0:0:
296,109,90491,1,0,0:0:0:0:
296,109,90570,6,0,L|286:162,3,36,0|0|0|0,1:0|1:0|1:0|1:0,1:0:0:0:
260,176,90882,2,0,L|270:229,3,36,0|0|0|0,1:0|1:0|1:0|1:0,1:0:0:0:
313,267,91195,6,0,L|303:320,7,36,0|0|0|0|0|0|0|0,1:0|1:0|1:0|1:0|1:0|1:0|1:0|1:0,1:0:0:0:
280,337,91820,6,0,P|226:359|151:299,1,144,4|8,0:0|0:0,0:0:0:0:
95,257,92288,1,0,0:0:0:0:
160,199,92445,2,0,P|147:128|143:38,1,144,0|8,0:0|0:0,0:0:0:0:
218,15,92913,1,0,0:0:0:0:
284,70,93070,6,0,P|332:53|374:46,1,72,0|0,0:0|0:0,0:0:0:0:
435,72,93382,1,8,0:0:0:0:
374,133,93538,1,0,0:0:0:0:
457,157,93695,2,0,L|468:238,1,72,0|0,0:0|0:0,0:0:0:0:
480,313,94007,1,8,0:0:0:0:
480,313,94163,1,0,0:0:0:0:
412,367,94320,6,0,P|365:376|303:304,1,144,0|8,0:0|0:0,0:0:0:0:
281,228,94788,1,0,0:0:0:0:
223,292,94945,2,0,P|169:279|134:276,1,72,0|0,0:0|0:0,0:0:0:0:
93,339,95257,1,8,0:0:0:0:
69,256,95413,1,0,0:0:0:0:
129,193,95570,6,0,P|124:150|121:93,1,72,0|0,0:0|0:0,0:0:0:0:
138,36,95882,1,8,0:0:0:0:
57,64,96038,1,0,0:0:0:0:
201,94,96195,2,0,P|272:77|362:72,1,144,0|8,0:0|0:0,0:0:0:0:
427,85,96663,1,0,0:0:0:0:
427,85,96741,1,0,0:0:0:0:
427,85,96820,6,0,P|444:132|384:211,1,144,4|8,0:2|0:0,0:0:0:0:
344,274,97288,1,0,0:0:0:0:
258,257,97445,2,0,L|246:185,2,72,0|0|8,0:0|0:0|0:0,0:0:0:0:
194,315,97913,1,0,0:0:0:0:
194,315,97991,1,0,0:0:0:0:
194,315,98070,6,0,P|139:301|36:294,1,144,0|8,0:0|0:0,0:0:0:0:
9,218,98538,1,0,0:0:0:0:
83,173,98695,2,0,P|73:123|70:88,1,72,0|0,0:0|0:0,0:0:0:0:
110,25,99007,1,8,0:0:0:0:
178,77,99163,1,0,0:0:0:0:
255,38,99320,6,0,P|265:73|238:137,1,96,0|0,0:0|0:0,0:0:0:0:
175,161,99632,2,0,L|191:263,1,96,8|0,0:0|0:0,0:0:0:0:
208,333,99945,2,0,P|256:303|316:310,1,96,0|0,0:0|0:0,0:0:0:0:
345,241,100257,2,0,P|383:268|431:271,1,96,8|0,0:0|0:0,0:0:0:0:
496,223,100570,5,0,0:0:0:0:
256,192,100648,12,0,101507,2:0:0:0:
175,187,101820,6,0,P|171:148|163:112,1,72,4|0,0:0|0:0,0:0:0:0:
214,45,102132,1,8,0:0:0:0:
270,110,102288,2,0,P|305:128|386:64,1,144,0|0,0:0|0:0,0:0:0:0:
453,128,102757,1,8,0:0:0:0:
400,196,102913,6,0,P|406:232|416:270,1,72,0|0,0:0|0:0,0:0:0:0:
357,331,103226,2,0,P|322:312|271:295,1,72,0|8,0:0|0:0,0:0:0:0:
213,336,103538,1,0,0:0:0:0:
213,336,103616,1,0,0:0:0:0:
213,336,103695,1,0,0:0:0:0:
164,263,103851,1,0,0:0:0:0:
82,291,104007,2,0,P|74:229|69:192,1,72,8|0,0:0|0:0,0:0:0:0:
25,147,104320,6,0,P|79:191|144:171,1,144,0|8,0:0|0:0,0:0:0:0:
191,98,104788,1,0,0:0:0:0:
267,139,104945,2,0,L|250:290,1,144,0|8,0:0|0:0,0:0:0:0:
238,367,105413,1,0,0:0:0:0:
319,337,105570,6,0,P|363:358|402:365,2,72,0|0|8,0:0|0:0|0:0,0:0:0:0:
250,282,106038,2,0,L|88:299,1,144,0|0,0:0|0:0,0:0:0:0:
31,254,106507,2,0,P|27:213|14:163,1,72,8|0,0:0|0:0,0:0:0:0:
62,107,106820,6,0,P|100:74|199:120,1,144,4|8,0:0|0:0,0:0:0:0:
220,173,107288,1,0,0:0:0:0:
303,148,107445,2,0,P|306:112|315:71,2,72,0|0|8,0:0|0:0|0:0,0:0:0:0:
341,224,107913,6,0,P|376:215|417:211,1,72,0|4,0:0|0:0,0:0:0:0:
280,283,108226,2,0,P|298:313|315:352,1,72,0|8,0:0|0:0,0:0:0:0:
204,243,108538,2,0,P|169:220|78:268,1,144,0|0,0:0|0:0,0:0:0:0:
24,191,109007,2,0,L|12:112,1,72,8|0,0:0|0:0,0:0:0:0:
98,36,109320,6,0,L|142:47,3,36,0|0|0|0,1:0|1:0|1:0|1:0,1:0:0:0:
157,71,109632,2,0,L|201:60,3,36,8|0|0|0,1:0|1:0|1:0|1:0,1:0:0:0:
227,37,109945,6,0,L|271:48,3,36,0|0|0|0,1:0|1:0|1:0|1:0,1:0:0:0:
302,75,110257,2,0,L|346:64,3,36,8|0|0|0,1:0|1:0|1:0|1:0,1:0:0:0:
373,27,110570,5,4,1:0:0:0:
451,62,110726,2,0,P|457:98|467:147,1,72,0|0,0:0|0:0,0:0:0:0:
425,210,111038,2,0,P|391:242|291:214,1,144,0|0,0:0|0:0,0:0:0:0:
230,177,111507,2,0,P|236:141|242:106,1,72,0|0,0:0|0:0,0:0:0:0:
174,5,111820,5,0,0:0:0:0:
