osu file format v14

[General]
AudioFilename: twopizzas.mp3
AudioLeadIn: 0
PreviewTime: 71507
Countdown: 0
SampleSet: Soft
StackLeniency: 0.7
Mode: 0
LetterboxInBreaks: 0
WidescreenStoryboard: 1

[Editor]
DistanceSpacing: 1
BeatDivisor: 4
GridSize: 4
TimelineZoom: 1.8

[Metadata]
Title:Night sky
TitleUnicode:Night sky
Artist:USAO
ArtistUnicode:USAO
Creator:sukiNathan
Version:-kevincela-'s Extreme
Source:beatmania IIDX 22 PENDUAL
Tags:pumpcore bemani captin1 captin handsome kevin kevincela -kevincela- bonzi asphyxia asahina momoko mokori m_o_k_o_r_i len fast deetz
BeatmapID:863543
BeatmapSetID:396994

[Difficulty]
HPDrainRate:6
CircleSize:4
OverallDifficulty:8
ApproachRate:9.3
SliderMultiplier:2
SliderTickRate:1

[Events]
//Background and Video events
0,0,"nightsky.jpg",0,0
//Break Periods
2,32020,41266
//Storyboard Layer 0 (Background)
//Storyboard Layer 1 (Fail)
//Storyboard Layer 2 (Pass)
//Storyboard Layer 3 (Foreground)
//Storyboard Sound Samples

[TimingPoints]
1820,312.5,4,2,1,60,1,0
1820,-142.857142857143,4,2,1,60,0,0
6820,-125,4,2,1,60,0,0
8070,-125,4,2,1,70,0,0
9320,-111.111111111111,4,1,1,60,0,0
9945,-111.111111111111,4,1,1,70,0,0
10570,-142.857142857143,4,2,1,60,0,0
11507,-100,4,2,1,70,0,0
15570,-100,4,2,1,50,0,0
16195,-66.6666666666667,4,2,1,50,0,0
16820,-100,4,2,1,70,0,0
20882,-76.9230769230769,4,2,1,70,0,0
21195,-66.6666666666667,4,2,1,70,0,0
21820,-100,4,2,1,70,0,0
25882,-76.9230769230769,4,2,1,70,0,0
26195,-66.6666666666667,4,2,1,70,0,0
26820,-100,4,2,1,70,0,0
41820,-125,4,2,1,50,0,0
49320,-111.111111111111,4,2,1,60,0,0
50570,-100,4,2,1,60,0,0
51507,-117.647058823529,4,2,1,60,0,0
51820,-76.9230769230769,4,2,1,80,0,1
52913,-66.6666666666667,4,2,1,80,0,1
53226,-76.9230769230769,4,2,1,80,0,1
54320,-100,4,2,1,80,0,1
54945,-76.9230769230769,4,2,1,80,0,1
55726,-66.6666666666667,4,2,1,80,0,1
55882,-76.9230769230769,4,2,1,80,0,1
56507,-66.6666666666667,4,2,1,80,0,1
56820,-76.9230769230769,4,2,1,80,0,1
57913,-66.6666666666667,4,2,1,80,0,1
58226,-76.9230769230769,4,2,1,80,0,1
59320,-100,4,2,1,80,0,1
59945,-76.9230769230769,4,2,1,80,0,1
60882,-86.9565217391304,4,2,1,80,0,1
61195,-100,4,2,1,80,0,1
61507,-133.333333333333,4,2,1,80,0,1
61820,-76.9230769230769,4,2,1,80,0,1
62913,-66.6666666666667,4,2,1,80,0,1
63538,-76.9230769230769,4,2,1,80,0,1
67913,-66.6666666666667,4,2,1,80,0,1
68538,-76.9230769230769,4,2,1,80,0,1
69320,-100,4,1,1,50,0,1
69632,-76.9230769230769,4,1,1,50,0,1
69945,-76.9230769230769,4,1,1,60,0,1
71195,-76.9230769230769,4,1,1,70,0,1
71820,-83.3333333333333,4,2,1,70,0,0
75570,-125,4,2,1,70,0,0
76820,-83.3333333333333,4,2,1,70,0,0
79320,-83.3333333333333,4,1,1,60,0,0
81507,-55.5555555555556,4,2,1,60,0,0
81585,-55.5555555555556,4,2,1,5,0,0
81820,-100,4,2,1,70,0,0
86507,-166.666666666667,4,2,1,70,0,0
86820,-100,4,2,1,70,0,0
89320,-100,4,1,1,60,0,0
91820,-100,4,1,1,70,0,0
96976,-66.6666666666667,4,1,1,70,0,0
97445,-100,4,1,1,70,0,0
98070,-76.9230769230769,4,1,1,70,0,0
98538,-83.3333333333333,4,1,1,70,0,0
98851,-100,4,1,1,70,0,0

[Colours]
Combo1 : 62,62,255
Combo2 : 255,62,255
Combo3 : 62,149,255
Combo4 : 255,62,62

[HitObjects]
112,152,1820,5,0,0:0:0:0:
104,128,1976,1,0,0:0:0:0:
200,160,2132,1,0,0:0:0:0:
192,136,2288,1,2,0:0:0:0:
288,168,2445,2,0,L|264:88,2,69.9999978637696,0|0|0,0:0|0:0|0:0,0:0:0:0:
352,52,2913,6,0,P|328:28|288:12,1,69.9999978637696,2|0,0:0|0:0,0:0:0:0:
356,144,3226,2,0,P|388:135|422:108,1,69.9999978637696,0|0,0:0|0:0,0:0:0:0:
267,100,3538,2,0,P|258:132|264:175,1,69.9999978637696,2|0,0:0|0:0,0:0:0:0:
336,280,3851,2,0,B|280:276|280:276|252:284|252:284|192:280,1,139.999995727539,0|0,0:0|0:0,0:0:0:0:
60,304,4320,5,2,0:0:0:0:
108,208,4476,1,0,0:0:0:0:
48,120,4632,2,0,L|40:60,3,34.9999989318848,0|0|0|0,0:0|0:0|0:0|0:0,0:0:0:0:
116,32,4945,5,2,0:0:0:0:
208,112,5101,1,0,0:0:0:0:
320,64,5257,2,0,L|328:24,3,34.9999989318848,0|0|0|0,0:0|0:0|0:0|0:0,0:0:0:0:
368,140,5570,6,0,L|372:216,1,69.9999978637696,2|0,0:0|0:0,0:0:0:0:
424,60,5882,1,0,0:0:0:0:
288,180,6038,2,0,B|292:252|292:252|328:316,1,139.999995727539,2|0,0:0|0:0,0:0:0:0:
456,268,6507,1,0,0:0:0:0:
454,236,6585,1,0,0:0:0:0:
452,205,6663,1,0,0:0:0:0:
450,173,6741,1,0,0:0:0:0:
449,142,6820,6,0,L|441:46,1,80,0|0,1:0|0:0,0:0:0:0:
288,180,7132,2,0,L|296:84,1,80,0|0,1:0|0:0,0:0:0:0:
200,240,7445,6,0,L|206:319,1,80,0|0,1:0|0:0,0:0:0:0:
364,256,7757,2,0,L|357:335,1,80,0|0,1:0|0:0,0:0:0:0:
288,180,8070,5,0,1:0:0:0:
200,140,8226,1,0,0:0:0:0:
84,264,8382,5,0,1:0:0:0:
200,240,8538,1,0,0:0:0:0:
332,384,8695,5,0,1:0:0:0:
152,328,8851,1,0,0:0:0:0:
280,84,9007,5,0,1:0:0:0:
256,324,9163,1,0,0:0:0:0:
88,144,9320,5,0,0:0:0:0:
92,120,9398,1,0,0:0:0:0:
96,92,9476,1,0,0:0:0:0:
100,64,9554,1,0,0:0:0:0:
76,36,9632,5,0,0:0:0:0:
114,59,9710,1,0,0:0:0:0:
158,63,9788,1,0,0:0:0:0:
200,49,9866,1,0,0:0:0:0:
232,17,9945,5,0,0:0:0:0:
289,1,10023,1,0,0:0:0:0:
343,22,10101,1,0,0:0:0:0:
374,72,10179,1,0,0:0:0:0:
372,132,10257,5,0,0:0:0:0:
327,174,10335,1,0,0:0:0:0:
266,185,10413,1,0,0:0:0:0:
211,155,10491,1,0,0:0:0:0:
192,96,10570,6,0,L|110:112,1,69.9999978637696
289,1,10882,1,0,0:0:0:0:
432,160,11038,2,0,B|444:220|444:220|432:320,1,139.999995727539,0|0,0:0|0:0,0:0:0:0:
434,298,11507,6,0,L|264:284,1,150,0|0,0:0|0:0,0:0:0:0:
164,336,11820,6,0,L|154:224,1,100,4|0,1:0|0:0,0:0:0:0:
184,124,12132,1,8,1:0:0:0:
68,288,12288,1,0,0:0:0:0:
254,248,12445,2,0,L|155:236,1,100,0|0,1:0|0:0,0:0:0:0:
20,108,12757,1,8,1:0:0:0:
68,288,12913,1,0,0:0:0:0:
184,124,13070,6,0,B|192:76|192:76|184:16,1,100,0|0,1:0|0:0,0:0:0:0:
128,204,13382,1,8,1:0:0:0:
340,300,13538,2,0,L|448:288,1,100,0|0,0:0|1:0,0:0:0:0:
254,248,13851,1,0,0:0:0:0:
340,96,14007,2,0,B|332:144|332:144|340:204,1,100,8|0,1:0|0:0,0:0:0:0:
508,332,14320,6,0,B|516:284|516:284|508:224,1,100,0|0,1:0|0:0,0:0:0:0:
340,96,14632,1,8,1:0:0:0:
340,300,14788,1,0,0:0:0:0:
340,300,14866,1,0,0:0:0:0:
340,300,14945,2,0,L|368:236,1,50,0|0,1:0|0:0,0:0:0:0:
464,124,15101,1,0,0:0:0:0:
272,200,15257,1,8,1:0:0:0:
464,260,15413,1,0,0:0:0:0:
340,96,15570,6,0,L|232:92,1,100,2|2,0:0|0:0,0:0:0:0:
160,40,15804,1,0,0:0:0:0:
146,81,15882,1,2,0:0:0:0:
150,124,15960,1,0,0:0:0:0:
162,166,16038,1,2,0:0:0:0:
165,210,16116,1,0,0:0:0:0:
152,252,16195,6,0,L|66:246,1,75.0000028610231,0|0,0:0|0:0,0:0:0:0:
248,300,16351,2,0,L|326:295,1,75.0000028610231,2|0,0:0|0:0,0:0:0:0:
160,356,16507,1,0,1:0:0:0:
160,356,16820,5,0,1:0:0:0:
72,196,16976,2,0,L|16:192,1,50,0|0,0:0|0:0,0:0:0:0:
152,252,17132,5,8,1:0:0:0:
242,110,17288,2,0,L|298:106,1,50,0|0,0:0|0:0,0:0:0:0:
162,166,17445,5,0,1:0:0:0:
66,25,17601,2,0,L|10:21,1,50,0|0,0:0|0:0,0:0:0:0:
146,81,17757,5,8,1:0:0:0:
248,220,17913,2,0,L|328:208,1,50,0|0,0:0|0:0,0:0:0:0:
162,166,18070,5,0,1:0:0:0:
66,306,18226,2,0,L|-14:294,1,50,0|0,0:0|0:0,0:0:0:0:
152,252,18382,5,8,1:0:0:0:
264,368,18538,2,0,L|344:356,1,50,0|0,0:0|0:0,0:0:0:0:
176,344,18695,5,0,1:0:0:0:
146,81,18851,2,0,L|156:8,1,50,0|0,0:0|0:0,0:0:0:0:
162,166,19007,2,0,L|220:211,1,50,8|0,1:0|0:0,0:0:0:0:
76,140,19163,2,0,L|4:156,1,50,0|0,0:0|0:0,0:0:0:0:
146,81,19320,5,0,1:0:0:0:
183,78,19398,1,0,0:0:0:0:
220,76,19476,1,0,0:0:0:0:
258,74,19554,1,0,0:0:0:0:
312,40,19632,5,8,1:0:0:0:
290,84,19710,1,0,0:0:0:0:
290,134,19788,1,0,0:0:0:0:
310,179,19866,1,0,0:0:0:0:
376,216,19945,6,0,L|456:208,1,50,0|0,1:0|0:0,0:0:0:0:
268,248,20101,2,0,L|188:240,1,50,0|0,0:0|0:0,0:0:0:0:
432,312,20257,2,0,L|512:304,1,50,8|0,1:0|0:0,0:0:0:0:
212,340,20413,2,0,L|132:332,1,50,0|0,0:0|0:0,0:0:0:0:
328,304,20570,6,0,L|368:308,4,25,0|0|0|0|0,0:0|0:0|0:0|0:0|0:0,0:0:0:0:
268,248,20804,1,0,0:0:0:0:
268,248,20882,2,0,L|228:252,4,32.4999985122681
336,180,21116,1,0,0:0:0:0:
336,180,21195,6,0,L|376:184,2,37.5000014305115,0|0|0,1:0|1:0|1:0,1:0:0:0:
264,132,21351,2,0,L|224:136,2,37.5000014305115,0|0|0,1:0|1:0|1:0,1:0:0:0:
332,72,21507,5,8,1:2:0:0:
332,72,21820,6,0,L|444:64,1,100,4|0,1:0|0:0,0:0:0:0:
464,164,22054,1,0,0:0:0:0:
485,191,22132,2,0,L|335:179,1,150,8|0,1:0|0:0,0:0:0:0:
184,224,22445,6,0,P|176:264|184:328,1,100,0|0,1:0|0:0,0:0:0:0:
316,308,22679,1,0,0:0:0:0:
334,278,22757,2,0,P|342:238|334:174,1,100,8|0,1:0|0:0,0:0:0:0:
252,104,22991,1,0,0:0:0:0:
220,116,23070,6,0,L|120:108,1,100,0|0,1:0|0:0,0:0:0:0:
64,196,23304,1,0,0:0:0:0:
96,192,23382,2,0,B|136:200|161:227|161:227|192:200|248:200,1,150,8|0,1:0|0:0,0:0:0:0:
240,336,23695,6,0,L|224:280,1,50,0|0,1:0|0:0,0:0:0:0:
84,280,23851,2,0,L|62:324,1,50,0|0,1:0|0:0,0:0:0:0:
144,376,24007,2,0,L|164:208,1,150,8|0,1:0|0:0,0:0:0:0:
220,116,24320,6,0,P|176:104|120:108,1,100,0|0,1:0|0:0,0:0:0:0:
32,200,24554,1,0,0:0:0:0:
63,218,24632,2,0,P|107:230|163:226,1,100,8|0,1:0|0:0,0:0:0:0:
276,176,24866,1,0,0:0:0:0:
272,212,24945,6,0,L|260:332,1,100,0|0,1:0|0:0,0:0:0:0:
356,232,25179,1,0,0:0:0:0:
352,268,25257,2,0,L|340:388,1,100,8|0,1:0|0:0,0:0:0:0:
439,188,25570,6,0,L|426:337,1,150,4|0,1:3|0:0,0:0:0:0:
456,160,25882,6,0,L|438:356,1,194.999991073609,4|0,1:3|0:0,0:0:0:0:
472,132,26195,6,0,L|464:224,1,75.0000028610231,4|0,1:3|0:0,0:0:0:0:
460,300,26351,2,0,L|452:392,1,75.0000028610231,0|0,1:0|1:0,0:0:0:0:
352,268,26507,1,0,1:0:0:0:
356,218,26585,1,0,1:0:0:0:
361,168,26663,1,0,1:0:0:0:
365,118,26741,1,0,1:0:0:0:
370,68,26820,6,0,L|240:80,1,100,4|0,1:0|0:0,0:0:0:0:
140,124,27054,1,0,0:0:0:0:
116,136,27132,2,0,P|184:144|264:204,1,150,8|0,1:0|0:0,0:0:0:0:
164,272,27445,6,0,L|64:281,1,100,0|0,1:0|0:0,0:0:0:0:
136,372,27679,1,0,0:0:0:0:
168,368,27757,2,0,L|268:359,1,100,8|0,1:0|0:0,0:0:0:0:
344,292,27991,1,0,0:0:0:0:
352,268,28070,6,0,P|376:312|380:380,1,100,0|0,1:0|0:0,0:0:0:0:
448,264,28304,1,0,0:0:0:0:
460,244,28382,2,0,P|473:190|447:85,1,150,8|0,1:0|0:0,0:0:0:0:
344,52,28695,6,0,L|232:56,1,100,0|0,1:0|0:0,0:0:0:0:
164,112,28929,1,0,0:0:0:0:
144,128,29007,2,0,L|200:124,1,50,8|0,1:0|0:0,0:0:0:0:
72,36,29163,2,0,L|121:39,1,50,0|0,0:0|0:0,0:0:0:0:
40,136,29320,6,0,L|36:204,2,66.6666666666667,0|0|0,1:0|0:0|1:0,0:0:0:0:
144,128,29632,2,0,L|136:288,1,133.333333333333,8|0,1:0|0:0,0:0:0:0:
248,324,29945,6,0,L|251:257,1,66.6666666666667,0|0,0:0|0:0,0:0:0:0:
304,160,30153,1,0,0:0:0:0:
432,276,30257,6,0,L|428:342,1,66.6666666666667,8|0,1:0|0:0,0:0:0:0:
404,168,30465,1,0,0:0:0:0:
340,332,30570,5,4,0:0:0:0:
256,192,30648,12,0,31820,0:0:0:0:
148,120,41820,6,0,L|248:116,1,80,0|0,1:0|1:0,0:0:0:0:
76,172,42132,1,8,0:0:0:0:
260,232,42288,2,0,L|140:236,1,120,0|0,1:0|0:0,0:0:0:0:
84,312,42601,1,0,1:0:0:0:
244,352,42757,6,0,L|144:356,1,80,8|0,0:0|0:0,0:0:0:0:
260,232,43070,6,0,B|296:240|312:256|312:256|336:244|376:248,1,120,0|0,1:0|0:0,0:0:0:0:
352,332,43382,1,8,0:0:0:0:
464,152,43538,2,0,B|428:160|412:176|412:176|388:164|348:168,1,120,0|0,1:0|0:0,0:0:0:0:
372,247,43851,1,8,0:0:0:0:
336,80,44007,5,0,1:0:0:0:
260,232,44163,1,0,0:0:0:0:
92,132,44320,6,0,L|232:124,1,120,0|0,1:0|0:0,0:0:0:0:
296,152,44632,1,8,0:0:0:0:
244,324,44788,6,0,P|204:304|164:224,1,120,0|0,1:0|0:0,0:0:0:0:
184,148,45101,1,0,1:0:0:0:
336,80,45257,6,0,L|428:88,1,80,8|0,0:0|0:0,0:0:0:0:
184,148,45570,5,0,1:0:0:0:
92,132,45726,1,0,0:0:0:0:
0,116,45882,1,8,0:0:0:0:
177,28,46038,2,0,P|185:84|183:147,1,120,0|0,1:0|0:0,0:0:0:0:
116,228,46351,1,8,0:0:0:0:
224,304,46507,6,0,L|328:296,1,80,0|0,1:0|0:0,0:0:0:0:
116,228,46820,6,0,L|12:236,1,80,0|0,1:0|0:0,0:0:0:0:
224,304,47132,1,8,0:0:0:0:
295,182,47288,2,0,B|359:170|344:201|417:182,1,120,0|0,1:0|0:0,0:0:0:0:
380,108,47601,1,0,1:0:0:0:
320,264,47757,5,0,1:0:0:0:
268,104,47913,1,8,0:0:0:0:
413,183,48070,6,0,L|408:328,1,120,0|0,1:0|0:0,0:0:0:0:
500,224,48382,1,8,0:0:0:0:
320,264,48538,6,0,L|314:408,1,120,0|0,1:0|0:0,0:0:0:0:
409,303,48851,1,0,1:0:0:0:
232,228,49007,6,0,L|148:232,1,80,0|0,0:0|0:0,0:0:0:0:
4,188,49320,5,0,1:0:0:0:
20,64,49476,1,0,1:0:0:0:
68,252,49632,5,8,1:2:0:0:
124,112,49788,1,0,1:0:0:0:
132,316,49945,5,0,0:0:0:0:
240,170,50101,1,0,1:0:0:0:
196,380,50257,5,8,1:2:0:0:
366,244,50413,1,0,1:0:0:0:
224,56,50570,5,0,1:0:0:0:
273,52,50648,1,0,1:0:0:0:
323,48,50726,1,0,1:0:0:0:
373,44,50804,1,0,1:0:0:0:
423,41,50882,6,0,L|464:52,1,25,0|0,1:0|0:0,0:0:0:0:
432,76,50960,2,0,L|467:54,1,25,0|0,0:0|0:0,0:0:0:0:
452,96,51038,2,0,L|461:55,1,25,0|0,1:0|0:0,0:0:0:0:
480,96,51116,2,0,L|463:57,1,25,0|0,1:0|0:0,0:0:0:0:
504,84,51195,5,0,0:0:0:0:
480,188,51507,2,0,B|504:172|504:172|476:276,1,127.50000243187
460,288,51820,6,0,B|412:276|392:240|392:240|352:288|288:280,1,194.999991073609,4|0,1:0|0:0,0:0:0:0:
252,180,52132,2,0,L|315:194,1,64.9999970245363,0|0,0:0|0:0,0:0:0:0:
324,364,52288,2,0,L|260:378,1,64.9999970245363,0|0,0:0|0:0,0:0:0:0:
176,284,52445,6,0,B|124:276|124:276|88:288|88:288|24:280|24:280|-8:256,1,194.999991073609,8|0,0:1|0:0,0:0:0:0:
60,132,52757,2,0,B|68:164|68:164|68:196,1,64.9999970245363,0|0,0:0|0:0,0:0:0:0:
164,128,52913,6,0,B|152:92|152:92|172:24|172:24|209:6,1,150.000005722046,0|0,0:0|1:0,0:0:0:0:
315,164,53226,1,0,0:0:0:0:
315,164,53304,1,0,0:0:0:0:
315,164,53382,2,0,L|231:184,1,64.9999970245363,0|0,0:0|0:0,0:0:0:0:
92,220,53538,1,0,1:0:0:0:
380,296,53695,6,0,L|392:224,1,64.9999970245363,8|0,0:1|0:0,0:0:0:0:
220,280,53851,2,0,L|261:330,1,64.9999970245363,0|0,0:0|0:0,0:0:0:0:
390,231,54007,6,0,B|400:152|400:152|376:88,1,129.999994049073,0|8,1:0|0:1,0:0:0:0:
368,84,54241,1,0,0:0:0:0:
315,164,54320,6,0,B|208:176|208:176|136:108|136:108|288:92,1,350,0|0,1:0|0:0,0:0:0:0:
368,84,54945,6,0,L|460:76,1,64.9999970245363,8|0,0:1|0:0,0:0:0:0:
390,231,55101,2,0,L|482:223,1,64.9999970245363,0|0,0:0|0:0,0:0:0:0:
316,164,55257,1,0,0:0:0:0:
464,300,55413,1,0,0:0:0:0:
288,336,55570,6,0,L|208:328,1,64.9999970245363,0|0,1:0|0:0,0:0:0:0:
136,288,55726,2,0,P|128:328|136:372,1,75.0000028610231,0|0,0:0|0:0,0:0:0:0:
292,248,55882,2,0,B|220:240|220:240|180:184|104:196,1,194.999991073609
28,144,56195,5,8,0:1:0:0:
36,120,56273,1,0,0:0:0:0:
44,96,56351,1,0,0:0:0:0:
52,72,56429,1,0,0:0:0:0:
60,44,56507,6,0,L|144:36,1,75.0000028610231,2|0,1:0|0:0,0:0:0:0:
60,44,56820,6,0,B|136:36|136:36|176:52|176:52|256:44,1,194.999991073609,4|0,1:2|0:0,0:0:0:0:
284,124,57132,2,0,L|212:132,1,64.9999970245363,0|0,0:0|0:0,0:0:0:0:
60,124,57288,2,0,L|132:116,1,64.9999970245363,0|0,0:0|0:0,0:0:0:0:
276,204,57445,6,0,B|200:212|200:212|160:196|160:196|80:204,1,194.999991073609,8|0,0:1|0:0,0:0:0:0:
76,284,57757,2,0,L|148:276,1,64.9999970245363,0|0,0:0|0:0,0:0:0:0:
219,131,57913,6,0,B|284:124|284:124|316:100|316:100|272:104,1,150.000005722046,0|0,0:0|1:0,0:0:0:0:
60,124,58226,1,0,0:0:0:0:
60,124,58304,1,0,0:0:0:0:
60,124,58382,2,0,L|68:216,1,64.9999970245363,0|0,1:0|0:0,0:0:0:0:
76,284,58538,1,0,1:0:0:0:
219,131,58695,6,0,L|224:195,1,64.9999970245363,8|0,0:1|0:0,0:0:0:0:
232,308,58851,2,0,L|237:372,1,64.9999970245363,0|0,0:0|0:0,0:0:0:0:
287,228,59007,6,0,B|224:212|224:212|164:236,1,129.999994049073,0|8,1:0|0:1,0:0:0:0:
144,248,59241,1,0,0:0:0:0:
232,308,59320,6,0,B|308:328|308:328|372:276|372:276|372:224|372:224|432:172|432:172|500:184,1,350,0|0,1:0|0:0,0:0:0:0:
504,304,59945,6,0,L|448:252,1,64.9999970245363,8|0,0:1|0:0,0:0:0:0:
287,228,60101,2,0,L|231:176,1,64.9999970245363,0|0,0:0|0:0,0:0:0:0:
372,236,60257,1,0,0:0:0:0:
152,152,60413,1,8,0:1:0:0:
20,320,60570,6,0,L|-8:184,1,129.999994049073,0|0,1:0|0:0,0:0:0:0:
108,292,60882,2,0,L|128:164,1,115.000002193451,0|0,0:0|1:0,0:0:0:0:
196,316,61195,2,0,L|256:228,1,100,8|0,0:1|0:0,0:0:0:0:
256,384,61507,6,0,L|364:312,1,112.500004291535,0|0,0:0|0:0,0:0:0:0:
468,344,61820,6,0,B|349:321|349:321|419:274,1,194.999991073609,4|0,1:0|0:0,0:0:0:0:
272,264,62132,2,0,L|388:192,1,129.999994049073,8|0,0:1|0:0,0:0:0:0:
360,112,62366,1,0,0:0:0:0:
360,112,62445,6,0,L|296:152,1,64.9999970245363,0|0,0:0|0:0,0:0:0:0:
144,172,62601,2,0,L|80:212,1,64.9999970245363,0|0,1:0|0:0,0:0:0:0:
224,160,62757,1,8,0:1:0:0:
25,246,62913,6,0,L|89:206,1,75.0000028610231,0|0,0:0|0:0,0:0:0:0:
224,160,63070,6,0,B|216:220|216:220|132:280,1,150.000005722046,0|0,1:0|0:0,0:0:0:0:
168,88,63382,2,0,B|220:68|220:68|332:108,1,150.000005722046,8|0,0:1|0:0,0:0:0:0:
416,208,63695,1,0,0:0:0:0:
420,196,63773,1,0,0:0:0:0:
424,184,63851,1,0,1:0:0:0:
428,172,63929,1,0,0:0:0:0:
432,160,64007,5,8,0:1:0:0:
435,209,64085,1,0,0:0:0:0:
443,259,64163,1,0,0:0:0:0:
451,308,64241,1,0,0:0:0:0:
458,358,64320,6,0,B|304:352|304:352|348:316,1,194.999991073609,0|0,1:0|0:0,0:0:0:0:
443,259,64632,1,8,0:1:0:0:
256,248,64788,1,0,0:0:0:0:
432,160,64945,1,0,0:0:0:0:
244,148,65101,1,0,1:0:0:0:
268,344,65257,1,8,0:1:0:0:
132,208,65413,6,0,L|256:248,1,129.999994049073,0|0,0:0|1:0,0:0:0:0:
392,76,65726,2,0,L|332:104,1,64.9999970245363,0|0,0:0|0:0,0:0:0:0:
244,148,65882,1,8,0:1:0:0:
432,160,66038,1,0,0:0:0:0:
232,48,66195,6,0,L|172:76,1,64.9999970245363,0|0,0:0|0:0,0:0:0:0:
68,128,66351,2,0,L|8:156,1,64.9999970245363,0|0,1:0|0:0,0:0:0:0:
92,36,66507,1,0,1:0:0:0:
216,240,66663,1,0,1:0:0:0:
392,76,66820,6,0,B|432:160|432:160|412:280,1,194.999991073609,4|0,1:0|0:0,0:0:0:0:
320,296,67132,2,0,L|348:152,1,129.999994049073,8|0,0:1|0:0,0:0:0:0:
472,44,67366,1,0,0:0:0:0:
472,44,67445,6,0,L|508:112,1,64.9999970245363,0|0,0:0|0:0,0:0:0:0:
512,212,67601,2,0,L|502:276,1,64.9999970245363,0|0,1:0|0:0,0:0:0:0:
432,160,67757,1,8,0:1:0:0:
489,350,67913,6,0,L|501:276,1,75.0000028610231,0|0,0:0|0:0,0:0:0:0:
432,160,68070,2,0,B|360:180|360:180|280:156,1,150.000005722046,0|0,1:0|0:0,0:0:0:0:
143,156,68382,2,0,B|215:136|215:136|288:158,1,150.000005722046,8|0,0:1|0:0,0:0:0:0:
436,248,68695,5,0,0:0:0:0:
420,252,68773,1,0,0:0:0:0:
404,256,68851,1,0,1:0:0:0:
388,260,68929,1,0,0:0:0:0:
372,264,69007,5,8,0:1:0:0:
333,252,69085,1,0,0:0:0:0:
294,241,69163,1,0,0:0:0:0:
255,229,69241,1,0,0:0:0:0:
216,218,69320,6,0,L|156:244,3,50,0|0|0|0,0:0|0:0|0:0|0:0,0:0:0:0:
64,216,69632,2,0,L|36:148,3,64.9999970245363,8|0|0|0,0:1|0:0|0:0|0:0,0:0:0:0:
72,64,69945,5,0,1:0:0:0:
107,45,70023,1,0,0:0:0:0:
147,40,70101,1,0,0:0:0:0:
187,49,70179,1,0,0:0:0:0:
220,72,70257,5,8,0:0:0:0:
266,104,70335,1,0,0:0:0:0:
322,111,70413,1,0,0:0:0:0:
374,91,70491,1,0,0:0:0:0:
411,49,70570,6,0,L|424:96,4,32.4999985122681,0|0|0|0|0,0:0|0:0|0:0|0:0|0:0,0:0:0:0:
484,128,70804,1,0,0:0:0:0:
484,128,70882,2,0,L|471:174,4,32.4999985122681,0|0|0|0|0,0:0|0:0|0:0|0:0|0:0,0:0:0:0:
408,204,71116,1,0,0:0:0:0:
408,204,71195,6,0,L|420:250,2,32.4999985122681
480,282,71351,2,0,L|467:328,2,32.4999985122681
392,356,71507,1,0,0:0:0:0:
343,353,71585,1,0,0:0:0:0:
294,350,71663,1,0,0:0:0:0:
246,347,71741,1,0,0:0:0:0:
197,344,71820,6,0,B|184:284|184:284|196:220,1,119.999996337891,4|0,1:0|0:0,0:0:0:0:
236,116,72132,1,8,1:0:0:0:
92,248,72288,1,0,0:0:0:0:
288,264,72445,1,0,1:0:0:0:
116,144,72601,2,0,L|-4:136,1,119.999996337891,0|8,0:0|1:0,0:0:0:0:
236,116,72913,2,0,L|308:108,1,59.9999981689454,0|0,0:0|0:0,0:0:0:0:
404,96,73070,5,0,1:0:0:0:
288,264,73226,1,0,0:0:0:0:
116,144,73382,1,8,1:0:0:0:
364,196,73538,2,0,B|384:252|384:252|376:316,1,119.999996337891,0|0,0:0|1:0,0:0:0:0:
80,268,73851,2,0,L|148:276,1,59.9999981689454,0|0,0:0|0:0,0:0:0:0:
208,332,74007,2,0,B|188:276|188:276|196:212,1,119.999996337891,8|0,1:0|0:0,0:0:0:0:
195,215,74241,1,0,0:0:0:0:
195,215,74320,5,0,1:0:0:0:
376,312,74476,2,0,P|432:304|494:261,1,119.999996337891,0|8,0:0|1:0,0:0:0:0:
195,215,74788,2,0,P|148:182|111:115,1,119.999996337891,0|0,0:0|1:0,0:0:0:0:
406,87,75101,2,0,P|395:145|363:195,1,119.999996337891,0|8,0:0|1:0,0:0:0:0:
208,332,75413,2,0,L|128:320,1,59.9999981689454,0|0,0:0|0:0,0:0:0:0:
24,304,75570,5,0,1:0:0:0:
92,184,75726,1,0,0:0:0:0:
24,56,75882,1,8,1:0:0:0:
216,80,76038,2,0,L|108:88,1,80,0|0,0:0|1:0,0:0:0:0:
24,56,76351,1,0,0:0:0:0:
295,85,76507,2,0,L|187:77,1,80,8|0,1:0|0:0,0:0:0:0:
372,28,76820,6,0,B|388:84|388:84|372:148,1,119.999996337891,0|0,1:0|0:0,0:0:0:0:
320,264,77132,1,8,1:0:0:0:
296,84,77288,1,0,0:0:0:0:
464,136,77445,1,0,1:0:0:0:
240,176,77601,2,0,L|104:160,1,119.999996337891,0|8,0:0|1:0,0:0:0:0:
320,264,77913,2,0,L|251:272,1,59.9999981689454,0|0,0:0|0:0,0:0:0:0:
136,284,78070,5,0,1:0:0:0:
328,348,78226,1,0,0:0:0:0:
240,176,78382,1,8,1:0:0:0:
224,384,78538,2,0,B|240:328|240:328|224:256,1,119.999996337891,0|0,0:0|1:0,0:0:0:0:
176,104,78851,2,0,L|196:36,1,59.9999981689454,0|0,0:0|0:0,0:0:0:0:
104,60,79007,2,0,B|88:116|88:116|104:188,1,119.999996337891,8|0,1:0|0:0,0:0:0:0:
101,176,79241,1,0,0:0:0:0:
101,176,79320,6,0,L|88:248,3,59.9999981689454,0|0|0|0,0:0|0:0|0:0|0:0,0:0:0:0:
192,280,79632,2,0,L|178:208,3,59.9999981689454,8|0|0|0,0:0|0:0|0:0|0:0,0:0:0:0:
128,344,79945,5,0,0:0:0:0:
165,367,80023,1,0,0:0:0:0:
210,370,80101,1,0,0:0:0:0:
250,351,80179,1,0,0:0:0:0:
276,315,80257,5,8,0:0:0:0:
296,267,80335,1,0,0:0:0:0:
338,237,80413,1,0,0:0:0:0:
390,233,80491,1,0,0:0:0:0:
436,256,80570,6,0,L|444:208,6,29.9999990844727,4|0|0|0|0|0|0,0:0|0:0|0:0|0:0|0:0|0:0|0:0,0:0:0:0:
496,160,80882,2,0,L|488:111,6,29.9999990844727,0|0|0|0|0|0|0,0:0|0:0|0:0|0:0|0:0|0:0|0:0,0:0:0:0:
464,48,81195,6,0,B|428:64|412:92|412:92|372:44|308:56,1,179.999994506836,0|0,0:0|2:0,0:0:0:0:
252,117,81507,6,0,P|291:139|336:140,1,89.9999972534181,0|0,0:0|0:0,0:0:0:0:
335,140,81820,6,0,L|328:252,1,100,4|0,1:0|0:0,0:0:0:0:
436,312,82132,1,8,1:0:0:0:
452,188,82288,1,0,0:0:0:0:
328,340,82445,2,0,B|220:320|264:264|144:242,1,200,0|8,1:0|1:0,0:0:0:0:
152,344,82913,1,0,0:0:0:0:
328,239,83070,6,0,L|335:140,1,100,0|0,1:0|0:0,0:0:0:0:
436,312,83382,1,8,0:1:0:0:
452,188,83538,1,0,0:0:0:0:
335,140,83695,6,0,L|330:212,1,50,0|0,1:0|0:0,0:0:0:0:
321,317,83851,2,0,L|316:389,1,50,0|0,1:0|0:0,0:0:0:0:
232,240,84007,1,8,1:0:0:0:
452,188,84163,1,0,0:0:0:0:
236,76,84320,6,0,L|128:64,1,100,0|0,1:0|0:0,0:0:0:0:
336,40,84632,1,8,1:0:0:0:
116,164,84788,2,0,P|48:116|36:48,1,150
48,20,85101,1,0,1:0:0:0:
236,76,85257,2,0,L|244:192,1,100,8|0,1:0|0:0,0:0:0:0:
336,40,85570,5,0,1:0:0:0:
236,76,85726,1,0,0:0:0:0:
404,116,85882,2,0,L|508:104,1,100,8|0,1:0|0:0,0:0:0:0:
336,216,86195,5,0,1:0:0:0:
236,180,86351,1,0,0:0:0:0:
336,40,86507,2,0,L|314:112,1,59.9999981689454,8|0,0:1|0:0,0:0:0:0:
251,278,86820,6,0,L|219:383,1,100,4|0,1:0|0:0,0:0:0:0:
92,296,87132,1,8,1:0:0:0:
109,256,87210,1,0,0:0:0:0:
115,214,87288,1,0,0:0:0:0:
107,171,87366,1,0,0:0:0:0:
88,133,87444,2,0,L|192:120,1,100,0|0,1:0|0:0,0:0:0:0:
32,224,87757,5,8,1:0:0:0:
81,227,87835,1,0,0:0:0:0:
131,231,87913,1,0,0:0:0:0:
181,235,87991,1,0,0:0:0:0:
231,239,88070,2,0,L|344:244,1,100,0|0,1:0|0:0,0:0:0:0:
428,128,88382,5,8,1:0:0:0:
288,124,88538,1,0,0:0:0:0:
477,130,88695,6,0,L|428:128,1,50,0|0,1:0|0:0,0:0:0:0:
288,124,88851,2,0,L|238:121,1,50,0|0,1:0|0:0,0:0:0:0:
364,56,89007,1,8,1:0:0:0:
344,264,89163,1,0,0:0:0:0:
160,164,89320,5,0,0:0:0:0:
148,186,89398,1,0,0:0:0:0:
143,210,89476,1,0,0:0:0:0:
144,235,89554,1,0,0:0:0:0:
152,260,89632,5,0,0:0:0:0:
104,247,89710,1,0,0:0:0:0:
61,270,89788,1,0,0:0:0:0:
44,316,89866,1,0,0:0:0:0:
62,361,89945,6,0,L|136:352,1,50,0|0,0:0|0:0,0:0:0:0:
212,340,90101,2,0,L|285:330,1,50,0|0,0:0|0:0,0:0:0:0:
344,264,90257,6,0,L|261:252,1,50,0|0,0:0|0:0,0:0:0:0:
175,239,90413,2,0,L|92:227,1,50,0|0,0:0|0:0,0:0:0:0:
48,156,90570,6,0,L|88:148,4,25,0|0|0|0|0,0:0|0:0|0:0|0:0|0:0,0:0:0:0:
128,84,90804,1,0,0:0:0:0:
128,84,90882,2,0,L|154:114,4,25,0|0|0|0|0,0:0|0:0|0:0|0:0|0:0,0:0:0:0:
228,120,91116,1,0,0:0:0:0:
228,120,91195,6,0,L|214:158,2,25,0|0|0,0:0|0:0|0:0,0:0:0:0:
260,224,91351,2,0,L|220:232,2,25,0|0|0,0:0|0:0|0:0,0:0:0:0:
344,264,91507,1,0,0:0:0:0:
382,243,91585,1,0,0:0:0:0:
425,241,91663,1,0,0:0:0:0:
466,256,91741,1,0,0:0:0:0:
496,288,91820,6,0,L|480:120,1,150,4|0,0:0|2:0,0:0:0:0:
416,80,92132,2,0,B|368:96|368:96|312:84,1,100,8|0,0:0|0:0,0:0:0:0:
32,168,92445,6,0,B|100:145|100:145|179:162,1,150,0|0,0:0|0:0,0:0:0:0:
260,224,92757,2,0,L|248:336,1,100,8|0,0:0|0:0,0:0:0:0:
488,280,93070,6,0,B|419:302|419:302|340:285,1,150,0|0,0:0|0:0,0:0:0:0:
260,224,93382,2,0,L|272:112,1,100,8|0,0:0|0:0,0:0:0:0:
396,72,93695,6,0,L|348:96,1,50,0|0,0:0|2:0,0:0:0:0:
196,80,93851,2,0,L|158:46,1,50,0|0,0:0|2:0,0:0:0:0:
270,124,94007,1,8,0:0:0:0:
266,161,94085,1,0,0:0:0:0:
262,199,94163,1,0,0:0:0:0:
258,236,94241,1,0,0:0:0:0:
254,273,94320,6,0,B|352:264|352:264|408:288,1,150,0|0,0:0|0:0,0:0:0:0:
336,344,94632,2,0,L|232:352,1,100,8|0,0:0|0:0,0:0:0:0:
24,280,94945,6,0,B|122:289|122:289|178:265,1,150,0|0,0:0|0:0,0:0:0:0:
106,209,95257,2,0,L|2:201,1,100,8|0,0:0|0:0,0:0:0:0:
136,120,95570,5,0,0:0:0:0:
169,268,95726,1,0,0:0:0:0:
272,156,95882,2,0,B|281:109|281:109|267:58,1,100,8|0,0:0|0:0,0:0:0:0:
169,268,96195,2,0,B|160:315|160:315|174:366,1,100,0|0,0:0|0:0,0:0:0:0:
188,184,96507,1,8,0:0:0:0:
150,186,96585,1,0,0:0:0:0:
113,188,96663,1,0,0:0:0:0:
75,191,96741,1,0,0:0:0:0:
38,193,96819,5,4,0:2:0:0:
169,268,96976,2,0,L|264:260,1,75.0000028610231,0|0,0:0|2:0,0:0:0:0:
120,352,97132,1,8,0:0:0:0:
188,184,97288,1,0,0:0:0:0:
316,320,97445,6,0,L|312:388,1,50,0|0,0:0|2:0,0:0:0:0:
428,272,97601,2,0,L|432:340,1,50,0|0,0:0|2:0,0:0:0:0:
344,216,97757,1,8,0:0:0:0:
331,173,97835,1,0,0:0:0:0:
320,131,97913,1,0,0:0:0:0:
331,89,97991,1,0,0:0:0:0:
343,47,98070,6,0,L|424:60,1,64.9999970245363
492,140,98226,2,0,L|417:150,1,64.9999970245363,0|0,0:0|0:0,0:0:0:0:
256,228,98382,2,0,B|232:136|232:136|256:36,1,194.999991073609,8|0,0:0|0:0,0:0:0:0:
160,76,98695,6,0,B|144:136|144:136|160:208,1,119.999996337891
180,288,98929,1,0,0:0:0:0:
180,288,99007,2,0,L|60:276,1,100,8|0,0:0|0:0,0:0:0:0:
280,316,99320,6,0,B|284:348|284:348|280:384,2,66.6666666666667,0|0|0,0:0|0:0|0:0,0:0:0:0:
256,228,99632,2,0,L|400:216,1,133.333333333333,8|0,0:0|2:0,0:0:0:0:
392,104,99945,6,0,L|312:112,1,66.6666666666667,0|0,0:0|0:0,0:0:0:0:
232,120,100153,1,0,0:0:0:0:
256,228,100257,6,0,L|176:220,1,66.6666666666667,8|0,0:0|0:0,0:0:0:0:
96,212,100465,1,0,0:0:0:0:
208,336,100570,5,4,0:0:0:0:
256,192,100648,12,0,101507,2:0:0:0:
96,212,101820,6,0,L|216:204,1,100,4|0,0:0|0:0,0:0:0:0:
264,124,102132,1,8,0:0:0:0:
192,40,102288,1,0,0:0:0:0:
195,205,102445,2,0,L|200:312,1,100,0|0,0:0|0:0,0:0:0:0:
264,124,102757,1,8,0:0:0:0:
128,128,102913,6,0,L|68:132,2,50,0|0|0,0:0|2:0|0:0,0:0:0:0:
300,220,103226,2,0,B|348:228|348:228|408:204,1,100,0|8,0:0|0:0,0:0:0:0:
264,124,103538,1,0,0:0:0:0:
264,124,103616,1,0,0:0:0:0:
264,124,103695,1,0,0:0:0:0:
92,236,103851,1,0,0:0:0:0:
276,316,104007,2,0,B|228:308|228:308|168:332,1,100,8|0,0:0|0:0,0:0:0:0:
360,368,104320,6,0,P|368:324|356:256,1,100,0|0,0:0|0:0,0:0:0:0:
176,72,104632,2,0,P|168:116|180:184,1,100,8|0,0:0|0:0,0:0:0:0:
363,120,104945,2,0,L|264:124,1,100,0|0,0:0|0:0,0:0:0:0:
176,319,105257,2,0,L|275:315,1,100,8|0,0:0|0:0,0:0:0:0:
396,240,105570,5,0,0:0:0:0:
264,124,105726,1,0,0:0:0:0:
108,208,105882,1,8,0:0:0:0:
236,364,106038,2,0,L|248:252,1,100,0|0,0:0|0:0,0:0:0:0:
264,124,106351,1,0,0:0:0:0:
92,58,106507,2,0,L|108:213,1,150,8|0,0:0|0:0,0:0:0:0:
120,316,106820,5,4,0:0:0:0:
264,248,106976,1,0,0:0:0:0:
108,208,107132,2,0,L|8:200,1,100,8|0,0:0|0:0,0:0:0:0:
264,124,107445,5,0,0:0:0:0:
92,56,107601,1,0,0:0:0:0:
184,252,107757,1,8,0:0:0:0:
212,36,107913,1,0,0:0:0:0:
348,204,108070,6,0,B|360:252|360:252|348:308,1,100,4|0,0:0|0:0,0:0:0:0:
109,305,108382,2,0,B|97:257|97:257|109:201,1,100,8|0,0:0|0:0,0:0:0:0:
212,36,108695,5,0,0:0:0:0:
348,204,108851,1,0,0:0:0:0:
348,56,109007,1,8,0:0:0:0:
228,244,109163,1,0,0:0:0:0:
84,80,109320,5,0,0:0:0:0:
63,111,109398,1,0,0:0:0:0:
54,147,109476,1,0,0:0:0:0:
57,184,109554,1,0,0:0:0:0:
72,220,109632,5,8,0:0:0:0:
99,260,109710,1,0,0:0:0:0:
101,309,109788,1,0,0:0:0:0:
77,352,109866,1,0,0:0:0:0:
36,376,109945,5,0,0:0:0:0:
62,331,110023,1,0,0:0:0:0:
106,303,110101,1,0,0:0:0:0:
158,299,110179,1,0,0:0:0:0:
206,318,110257,5,8,0:0:0:0:
254,337,110335,1,0,0:0:0:0:
305,332,110413,1,0,0:0:0:0:
349,306,110491,1,0,0:0:0:0:
376,262,110569,5,4,0:0:0:0:
256,192,110648,12,0,111820,0:0:0:0:
