osu file format v14

[General]
AudioFilename: audio.mp3
AudioLeadIn: 0
PreviewTime: 71351
Countdown: 0
SampleSet: Soft
StackLeniency: 0.7
Mode: 0
LetterboxInBreaks: 0
WidescreenStoryboard: 1

[Editor]
DistanceSpacing: 0.8
BeatDivisor: 4
GridSize: 32
TimelineZoom: 2.899999

[Metadata]
Title:Night sky
TitleUnicode:Night sky
Artist:USAO
ArtistUnicode:USAO
Creator:StarrStyx
Version:Atmospheric
Source:beatmania IIDX 22 PENDUAL
Tags:pumpcore bemani chaoslitz crystal little cloudsplash16 choikapo rizia kawaiwkyik
BeatmapID:912625
BeatmapSetID:422045

[Difficulty]
HPDrainRate:6
CircleSize:4
OverallDifficulty:8.5
ApproachRate:9.5
SliderMultiplier:1.9
SliderTickRate:1

[Events]
//Background and Video events
0,0,"night_sky.jpg",0,0
//Break Periods
2,32019,41266
//Storyboard Layer 0 (Background)
//Storyboard Layer 1 (Fail)
//Storyboard Layer 2 (Pass)
//Storyboard Layer 3 (Foreground)
//Storyboard Sound Samples

[TimingPoints]
1820,312.5,4,2,1,40,1,0
1820,-142.857142857143,4,2,1,40,0,0
6820,-100,4,2,1,35,0,0
8070,-100,4,2,1,45,0,0
8695,-100,4,2,1,50,0,0
9320,-100,4,1,1,55,0,0
9945,-100,4,1,1,65,0,0
10101,-100,4,1,1,75,0,0
10570,-142.857142857143,4,2,1,60,0,0
11038,-142.857142857143,4,2,1,50,0,0
11507,-117.647058823529,4,2,1,50,0,0
11820,-100,4,2,1,60,0,0
12445,-76.9230769230769,4,2,1,60,0,0
12757,-100,4,2,1,60,0,0
13695,-76.9230769230769,4,2,1,60,0,0
14007,-100,4,2,1,60,0,0
14945,-76.9230769230769,4,2,1,60,0,0
15257,-100,4,2,1,60,0,0
15570,-100,4,2,1,60,0,0
15882,-83.3333333333333,4,2,1,50,0,0
16195,-71.4285714285714,4,2,1,60,0,0
16507,-62.5,4,2,1,70,0,0
16820,-83.3333333333333,4,2,1,60,0,0
19320,-90.9090909090909,4,2,1,50,0,0
19632,-76.9230769230769,4,2,1,60,0,0
19945,-66.6666666666667,4,2,1,70,0,0
20257,-58.8235294117647,4,2,1,80,0,0
20570,-83.3333333333333,4,2,1,60,0,0
20882,-66.6666666666667,4,2,1,75,0,0
21195,-55.5555555555556,4,2,1,90,0,0
21507,-66.6666666666667,4,2,1,90,0,0
21820,-76.9230769230769,4,2,1,60,0,0
25570,-66.6666666666667,4,2,1,60,0,0
26195,-76.9230769230769,4,2,1,75,0,0
26507,-76.9230769230769,4,2,1,60,0,0
29320,-100,4,2,1,50,0,0
29632,-151.515151515152,4,2,1,65,0,0
29945,-100,4,2,1,50,0,0
30257,-151.515151515152,4,2,1,65,0,0
30570,-100,4,2,1,50,0,0
41820,-142.857142857143,4,2,2,40,0,0
45570,-100,4,2,2,70,0,0
46820,-142.857142857143,4,2,2,55,0,0
49320,-71.4285714285714,4,2,2,70,0,0
49945,-71.4285714285714,4,2,2,80,0,0
50570,-100,4,2,2,85,0,0
51195,-142.857142857143,4,2,2,60,0,0
51507,-62.5,4,2,1,75,0,0
51820,-76.9230769230769,4,2,1,85,0,1
51898,-76.9230769230769,4,2,1,65,0,1
52757,-66.6666666666667,4,2,1,60,0,1
53070,-76.9230769230769,4,2,1,60,0,1
54320,-100,4,2,1,60,0,1
54945,-76.9230769230769,4,2,1,60,0,1
55570,-100,4,2,1,60,0,1
55882,-76.9230769230769,4,2,1,60,0,1
56195,-66.6666666666667,4,2,1,65,0,1
56507,-58.8235294117647,4,2,1,80,0,1
56820,-76.9230769230769,4,2,1,65,0,1
58695,-66.6666666666667,4,2,1,65,0,1
59320,-100,4,2,1,65,0,1
59945,-66.6666666666667,4,2,1,65,0,1
60570,-76.923076923077,4,2,1,65,0,1
61820,-76.923076923077,4,2,1,80,0,1
61898,-76.923076923077,4,2,1,65,0,1
62132,-66.6666666666667,4,2,1,65,0,1
62445,-76.9230769230769,4,2,1,65,0,1
63070,-66.6666666666667,4,2,1,65,0,1
64320,-76.9230769230769,4,2,1,65,0,1
66820,-76.9230769230769,4,2,1,80,0,1
66898,-76.9230769230769,4,2,1,65,0,1
69320,-100,4,2,1,55,0,1
69945,-100,4,2,1,70,0,1
70570,-76.9230769230769,4,2,1,70,0,1
70882,-66.6666666666667,4,2,1,75,0,1
71195,-66.6666666666667,4,2,1,85,0,1
71507,-66.6666666666667,4,2,1,85,0,1
71820,-76.9230769230769,4,2,1,60,0,0
76507,-100,4,2,1,60,0,0
76820,-76.9230769230769,4,2,1,60,0,0
79320,-76.9230769230769,4,2,1,50,0,0
79945,-76.9230769230769,4,2,1,65,0,0
80257,-76.9230769230769,4,2,1,75,0,0
80570,-76.9230769230769,4,2,1,85,0,0
80882,-66.6666666666667,4,2,1,85,0,0
81195,-58.8235294117647,4,2,1,85,0,0
81820,-76.9230769230769,4,2,1,60,0,0
88695,-66.6666666666667,4,2,1,60,0,0
89007,-76.9230769230769,4,2,1,60,0,0
89320,-76.9230769230769,4,2,1,50,0,0
89945,-76.9230769230769,4,2,1,65,0,0
90257,-76.9230769230769,4,2,1,75,0,0
90570,-76.9230769230769,4,2,1,85,0,0
90882,-66.6666666666667,4,2,1,85,0,0
91195,-58.8235294117647,4,2,1,85,0,0
91820,-76.9230769230769,4,2,1,80,0,1
91898,-76.9230769230769,4,2,1,60,0,1
99632,-125,4,2,1,60,0,1
99945,-76.9230769230769,4,2,1,60,0,1
100257,-125,4,2,1,60,0,1
100570,-125,4,2,1,60,0,0
101820,-76.9230769230769,4,2,1,70,0,1
106507,-100,4,2,1,70,0,1
106820,-76.9230769230769,4,2,1,70,0,1
109320,-76.9230769230769,4,2,1,65,0,1
109945,-76.9230769230769,4,2,1,75,0,1
110257,-76.9230769230769,4,2,1,85,0,1
110570,-76.9230769230769,4,2,1,90,0,1
111195,-76.9230769230769,4,2,1,70,0,1
111351,-76.9230769230769,4,2,1,60,0,1
111507,-76.9230769230769,4,2,1,50,0,1
111663,-76.9230769230769,4,2,1,40,0,1
111820,-76.9230769230769,4,2,1,40,0,0

[Colours]
Combo1 : 106,113,223
Combo2 : 210,87,251
Combo3 : 138,170,253
Combo4 : 251,151,241

[HitObjects]
140,294,1820,6,0,L|137:228,2,66.4999979705811,0|0|0,0:0|0:0|0:0,0:0:0:0:
66,172,2288,2,0,P|126:139|187:153,1,132.999995941162,0|0,0:0|0:0,0:0:0:0:
280,201,2757,1,0,0:0:0:0:
402,159,2913,6,0,L|473:154,1,66.4999979705811,0|0,0:0|0:0,0:0:0:0:
450,283,3226,2,0,L|384:288,1,66.4999979705811,2|0,0:0|0:0,0:0:0:0:
280,201,3538,2,0,P|216:188|159:220,1,132.999995941162,2|0,0:0|0:0,0:0:0:0:
179,112,4007,1,2,0:0:0:0:
122,304,4163,1,0,0:0:0:0:
267,281,4320,6,0,P|302:279|337:257,1,66.4999979705811,2|0,0:0|0:0,0:0:0:0:
202,176,4632,1,0,0:0:0:0:
202,176,4710,1,0,0:0:0:0:
202,176,4788,2,0,L|155:192,1,33.2499989852906,2|2,0:0|0:0,0:0:0:0:
87,216,4945,2,0,P|52:210|7:226,1,66.4999979705811,2|0,0:0|0:0,0:0:0:0:
144,339,5257,1,2,0:0:0:0:
144,339,5335,1,2,0:0:0:0:
144,339,5413,1,2,0:0:0:0:
144,339,5491,1,2,0:0:0:0:
144,339,5570,6,0,L|153:253,1,66.4999979705811,2|0,0:0|0:0,0:0:0:0:
256,192,5882,1,0,0:0:0:0:
249,125,6038,2,0,L|256:192,1,66.4999979705811,2|0,0:0|0:0,0:0:0:0:
267,323,6351,1,2,0:0:0:0:
373,269,6507,2,0,P|404:259|442:271,1,66.4999979705811
267,323,6820,6,0,L|162:335,1,95,0|0,1:0|0:0,0:0:0:0:
141,191,7132,2,0,L|36:203,1,95,0|0,1:0|0:0,0:0:0:0:
361,208,7445,2,0,L|256:220,1,95,0|0,1:0|0:0,0:0:0:0:
235,76,7757,2,0,L|130:88,1,95,0|0,1:0|0:0,0:0:0:0:
91,298,8070,5,0,1:0:0:0:
140,86,8226,1,0,0:0:0:0:
225,276,8382,5,0,1:0:0:0:
13,227,8538,1,0,0:0:0:0:
260,154,8695,5,0,1:0:0:0:
309,366,8851,1,0,0:0:0:0:
162,350,9007,5,0,1:0:0:0:
374,301,9163,1,0,0:0:0:0:
429,216,9320,5,0,0:0:0:0:
384,199,9398,1,0,0:0:0:0:
337,203,9476,1,0,0:0:0:0:
296,227,9554,1,0,0:0:0:0:
257,254,9632,1,0,0:0:0:0:
213,272,9710,1,0,0:0:0:0:
166,271,9788,1,0,0:0:0:0:
123,252,9866,1,0,0:0:0:0:
89,218,9945,5,0,0:0:0:0:
65,167,10023,1,0,0:0:0:0:
79,116,10101,1,0,0:0:0:0:
121,83,10179,1,0,0:0:0:0:
172,69,10257,5,0,0:0:0:0:
227,86,10335,1,0,0:0:0:0:
286,80,10413,1,0,0:0:0:0:
338,52,10491,1,0,0:0:0:0:
393,30,10570,6,0,P|426:25|462:40,2,66.4999979705811
324,92,11038,2,0,L|330:238,1,132.999995941162,0|0,0:0|0:0,0:0:0:0:
256,312,11507,2,0,B|219:300|219:300|133:312,1,121.125002310276,0|0,0:0|0:0,0:0:0:0:
62,288,11820,6,0,L|170:273,1,95,4|0,0:0|0:0,0:0:0:0:
329,224,12132,2,0,L|394:215,2,47.5,8|0|0,0:0|0:0|0:0,0:0:0:0:
257,330,12445,2,0,P|248:300|259:263,1,61.7499971733095,0|0,3:0|0:0,0:0:0:0:
264,87,12601,2,0,P|273:117|262:154,1,61.7499971733095,0|0,0:0|0:0,0:0:0:0:
172,201,12757,2,0,L|77:214,1,95,8|0,0:0|0:0,0:0:0:0:
379,208,13070,6,0,L|473:221,1,95,0|0,3:0|0:0,0:0:0:0:
413,116,13382,1,8,0:0:0:0:
336,287,13538,1,0,0:0:0:0:
266,146,13695,2,0,P|233:139|204:146,1,61.7499971733095,0|0,3:0|0:0,0:0:0:0:
112,278,13851,2,0,P|82:288|43:278,1,61.7499971733095,0|0,0:0|0:0,0:0:0:0:
164,79,14007,2,0,L|172:196,1,95,8|0,0:0|0:0,0:0:0:0:
256,355,14320,6,0,L|262:260,1,95,0|0,3:0|0:0,0:0:0:0:
164,334,14632,1,8,0:0:0:0:
356,296,14788,1,0,0:0:0:0:
229,161,14945,2,0,P|198:162|169:174,1,61.7499971733095,0|0,3:0|0:0,0:0:0:0:
347,195,15101,2,0,P|378:196|407:208,1,61.7499971733095
201,86,15257,2,0,P|154:82|112:61,1,95,8|0,0:0|0:0,0:0:0:0:
75,224,15570,6,0,L|76:271,1,47.5,2|0,0:0|0:0,0:0:0:0:
77,348,15726,1,0,0:0:0:0:
165,182,15882,6,0,L|178:248,1,56.9999982604981,2|0,0:0|0:0,0:0:0:0:
193,322,16038,1,0,0:0:0:0:
242,109,16195,6,0,L|271:183,1,66.4999979705811,2|0,0:0|0:0,0:0:0:0:
299,258,16351,1,0,0:0:0:0:
329,41,16507,6,0,L|378:121,1,76,2|0,0:3|0:0,0:0:0:0:
425,188,16663,1,0,0:0:0:0:
242,109,16820,5,4,3:2:0:0:
205,307,16976,1,0,0:0:0:0:
205,307,17054,1,0,0:0:0:0:
205,307,17132,2,0,P|154:290|97:316,1,113.999996520996,8|0,3:2|0:0,0:0:0:0:
26,176,17366,1,0,0:0:0:0:
26,176,17445,2,0,P|65:209|20:205,1,113.999996520996,0|0,3:0|0:0,0:0:0:0:
62,65,17679,1,0,0:0:0:0:
62,65,17757,2,0,P|116:50|180:85,1,113.999996520996,8|0,3:2|0:0,0:0:0:0:
245,188,17991,5,0,0:0:0:0:
245,188,18070,2,0,L|377:183,1,113.999996520996,0|0,3:0|0:0,0:0:0:0:
358,323,18304,1,0,0:0:0:0:
358,323,18382,2,0,B|307:347|307:347|243:326,1,113.999996520996,8|0,3:2|0:0,0:0:0:0:
139,215,18616,5,0,0:0:0:0:
139,215,18695,2,0,B|169:191|169:191|261:187,1,113.999996520996,0|0,3:0|0:0,0:0:0:0:
242,317,18929,1,0,0:0:0:0:
242,317,19007,2,0,B|116:323,1,113.999996520996,8|0,3:2|0:0,0:0:0:0:
49,265,19320,6,0,P|41:242|53:200,1,52.2500015945435,0|0,3:0|0:0,0:0:0:0:
124,125,19476,2,0,P|142:140|153:183,1,52.2500015945435,0|0,0:0|0:0,0:0:0:0:
219,274,19632,6,0,P|185:289|145:289,1,61.7499971733095,8|0,0:0|0:0,0:0:0:0:
49,265,19788,2,0,P|70:235|105:215,1,61.7499971733095,0|0,0:0|0:0,0:0:0:0:
283,217,19945,6,0,P|255:196|221:188,1,71.2500027179719,0|0,3:0|0:0,0:0:0:0:
111,107,20101,2,0,P|139:86|173:77,1,71.2500027179719,0|0,0:0|0:0,0:0:0:0:
310,136,20257,6,0,P|347:147|397:135,1,80.750001540184,8|0,0:0|0:0,0:0:0:0:
511,80,20413,2,0,P|474:68|424:80,1,80.750001540184,0|0,0:0|0:0,0:0:0:0:
364,217,20570,6,0,L|371:266,6,28.4999991302491,0|0|0|0|0|0|0,1:0|0:0|0:0|0:0|0:0|0:0|0:0,0:0:0:0:
259,289,20882,6,0,L|256:346,6,35.625001358986,0|0|0|0|0|0|0,1:0|0:0|0:0|0:0|0:0|0:0|0:0,0:0:0:0:
130,306,21195,6,0,L|112:376,6,42.7499986953736
62,222,21507,6,0,P|95:203|146:201,1,71.2500027179719,0|0,0:0|0:0,0:0:0:0:
259,289,21663,2,0,P|292:308|343:310,1,71.2500027179719,0|0,0:0|0:0,0:0:0:0:
458,242,21820,6,0,B|468:144|468:144|440:166,1,123.499994346619,4|0,3:2|0:0,0:0:0:0:
335,220,22054,1,0,0:0:0:0:
335,220,22132,2,0,B|316:236|316:236|326:138,1,123.499994346619,8|0,0:0|0:0,0:0:0:0:
329,98,22366,1,0,0:0:0:0:
329,98,22445,1,0,3:0:0:0:
255,316,22601,1,0,0:0:0:0:
255,316,22679,1,0,0:0:0:0:
255,316,22757,2,0,B|195:307|195:307|129:337,1,123.499994346619,8|0,0:0|0:0,0:0:0:0:
13,230,22991,5,0,0:0:0:0:
13,230,23070,2,0,B|73:239|73:239|131:214,1,123.499994346619,0|0,3:0|0:0,0:0:0:0:
48,76,23304,1,0,0:0:0:0:
48,76,23382,2,0,P|96:100|62:142,1,123.499994346619,8|0,0:0|0:0,0:0:0:0:
219,83,23695,2,0,L|294:91,1,61.7499971733095,0|0,3:0|0:0,0:0:0:0:
387,102,23851,2,0,L|462:110,1,61.7499971733095,0|0,3:0|0:0,0:0:0:0:
372,238,24007,2,0,B|298:257|298:257|247:239,1,123.499994346619,8|0,0:0|0:0,0:0:0:0:
127,283,24320,5,0,3:0:0:0:
30,145,24476,1,0,0:0:0:0:
30,145,24554,1,0,0:0:0:0:
30,145,24632,2,0,L|164:140,1,123.499994346619,8|0,0:0|0:0,0:0:0:0:
286,194,24945,1,0,3:0:0:0:
212,56,25101,1,0,0:0:0:0:
212,56,25179,1,0,0:0:0:0:
212,56,25257,2,0,B|153:35|153:35|97:58,1,123.499994346619,8|0,0:0|0:0,0:0:0:0:
56,231,25570,6,0,B|98:255|98:255|222:250,1,142.500005435944,2|0,0:0|0:0,0:0:0:0:
393,193,25804,1,0,0:0:0:0:
393,193,25882,2,0,B|350:169|350:169|256:172,1,142.500005435944,2|0,0:0|0:0,0:0:0:0:
144,152,26195,6,0,L|82:154,1,61.7499971733095,0|0,1:0|0:0,0:0:0:0:
63,330,26351,2,0,L|1:332,1,61.7499971733095,0|0,1:0|0:0,0:0:0:0:
84,240,26507,5,0,1:0:0:0:
141,236,26585,1,0,1:0:0:0:
200,234,26663,1,0,1:0:0:0:
257,232,26741,1,0,1:0:0:0:
315,231,26820,6,0,B|357:229|357:229|320:325,1,123.499994346619,4|0,3:2|0:0,0:0:0:0:
212,308,27054,1,0,0:0:0:0:
212,308,27132,2,0,B|170:309|170:309|207:213,1,123.499994346619,8|0,0:0|0:0,0:0:0:0:
273,64,27445,6,0,P|306:114|253:138,1,123.499994346619,0|0,3:0|0:0,0:0:0:0:
149,95,27679,1,0,0:0:0:0:
149,95,27757,2,0,P|116:145|169:169,1,123.499994346619,8|0,0:0|0:0,0:0:0:0:
384,268,28070,6,0,B|402:254|402:254|302:241,1,123.499994346619,0|0,3:0|0:0,0:0:0:0:
117,259,28304,1,0,0:0:0:0:
117,259,28382,2,0,B|217:246|217:246|199:231,1,123.499994346619,8|0,0:0|0:0,0:0:0:0:
42,138,28695,6,0,B|98:112|98:112|165:131,1,123.499994346619,0|0,3:0|0:0,0:0:0:0:
354,181,28929,1,0,0:0:0:0:
354,181,29007,2,0,B|295:165|295:165|239:191,1,123.499994346619,8|0,0:0|0:0,0:0:0:0:
423,303,29320,6,0,P|456:310|498:290,2,63.3333333333333,0|0|0,3:0|0:0|3:0,0:0:0:0:
306,344,29632,6,0,L|301:260,1,83.599999744873,8|0,0:0|0:0,0:0:0:0:
194,126,29945,6,0,P|161:119|119:139,2,63.3333333333333,0|0|0,3:0|0:0|0:0,0:0:0:0:
63,185,30257,6,0,L|57:278,1,83.599999744873,8|0,0:0|0:0,0:0:0:0:
256,192,30570,12,0,31819,0:0:0:0:
183,323,41820,6,0,L|180:282,1,33.2499989852906
183,323,42132,1,8,0:0:0:0:
170,163,42288,2,0,L|167:122,1,33.2499989852906,0|0,0:0|0:0,0:0:0:0:
270,235,42601,6,0,L|273:269,1,33.2499989852906
361,262,42757,2,0,L|364:296,1,33.2499989852906,8|0,0:0|0:0,0:0:0:0:
445,299,42913,2,0,L|448:333,1,33.2499989852906,0|0,0:0|0:0,0:0:0:0:
446,161,43070,5,0,0:0:0:0:
308,92,43382,1,8,0:0:0:0:
446,161,43538,2,0,L|476:175,1,33.2499989852906,0|0,0:0|0:0,0:0:0:0:
350,242,43851,6,0,L|320:228,1,33.2499989852906
265,297,44007,2,0,L|234:282,1,33.2499989852906,8|0,0:0|0:0,0:0:0:0:
176,349,44163,2,0,L|145:334,1,33.2499989852906,0|0,0:0|0:0,0:0:0:0:
58,294,44320,6,0,L|27:279,1,33.2499989852906,0|0,0:0|0:0,0:0:0:0:
205,267,44632,2,0,L|235:282,1,33.2499989852906,8|0,0:0|0:0,0:0:0:0:
341,335,44788,1,0,0:0:0:0:
341,335,45101,5,0,0:0:0:0:
452,270,45257,1,8,0:0:0:0:
340,212,45413,1,0,0:0:0:0:
451,269,45570,6,0,P|458:292|456:316,1,47.5
272,243,45726,2,0,P|265:220|267:196,1,47.5,0|0,0:0|0:0,0:0:0:0:
463,257,45882,6,0,P|469:279|467:303,1,47.5,0|0,0:0|0:0,0:0:0:0:
252,267,46038,2,0,P|245:244|247:220,1,47.5,0|0,0:0|0:0,0:0:0:0:
477,247,46195,6,0,P|483:269|481:293,1,47.5,0|0,0:0|0:0,0:0:0:0:
230,291,46351,2,0,P|223:268|225:244,1,47.5,0|0,0:0|0:0,0:0:0:0:
491,241,46507,6,0,P|497:263|495:287,1,47.5,0|0,0:0|0:0,0:0:0:0:
208,314,46663,2,0,P|201:291|203:267,1,47.5,0|0,0:0|0:0,0:0:0:0:
400,56,46820,6,0,L|425:132,1,66.4999979705811
89,300,47132,2,0,L|63:224,1,66.4999979705811
390,89,47445,6,0,L|387:168,1,66.4999979705811,0|0,0:0|0:0,0:0:0:0:
110,272,47757,2,0,L|112:192,1,66.4999979705811,8|0,0:0|0:0,0:0:0:0:
368,114,48070,6,0,L|338:188,1,66.4999979705811,0|0,0:0|0:0,0:0:0:0:
138,252,48382,2,0,L|167:177,1,66.4999979705811,8|0,0:0|0:0,0:0:0:0:
333,126,48695,6,0,L|279:185,1,66.4999979705811,0|0,0:0|0:0,0:0:0:0:
172,242,49007,2,0,L|216:192,1,66.4999979705811,8|0,0:0|0:0,0:0:0:0:
333,126,49320,6,0,L|288:175,1,66.4999979705811,0|0,0:0|0:0,0:0:0:0:
172,242,49476,2,0,L|216:192,1,66.4999979705811,0|0,0:0|0:0,0:0:0:0:
368,114,49632,6,0,L|343:175,1,66.4999979705811,8|0,0:0|0:0,0:0:0:0:
138,252,49788,2,0,L|162:190,1,66.4999979705811,0|0,0:0|0:0,0:0:0:0:
390,89,49945,6,0,L|387:155,1,66.4999979705811
110,272,50101,2,0,L|112:205,1,66.4999979705811
400,56,50257,6,0,L|420:119,1,66.4999979705811,8|0,0:0|0:0,0:0:0:0:
89,300,50413,2,0,L|68:236,1,66.4999979705811,0|0,0:0|0:0,0:0:0:0:
220,65,50570,5,2,0:0:0:0:
220,76,50648,1,2,0:0:0:0:
221,88,50726,1,2,0:0:0:0:
221,100,50804,1,2,0:0:0:0:
222,112,50882,1,2,0:0:0:0:
223,124,50960,1,2,0:0:0:0:
223,136,51038,1,2,0:0:0:0:
224,147,51116,1,2,0:0:0:0:
225,159,51195,6,0,L|336:154,1,99.7499969558717,2|0,0:0|0:0,0:0:0:0:
470,207,51507,6,0,B|416:210|416:210|372:237|372:237|322:240,1,152,8|0,0:0|0:0,0:0:0:0:
140,327,51820,6,0,B|168:302|168:302|204:300|204:300|249:318|249:318|320:314,1,185.249991519928,4|0,0:0|0:0,0:0:0:0:
390,198,52132,2,0,B|416:159|416:159|304:146|304:146|331:191,1,185.249991519928,2|0,0:0|0:0,0:0:0:0:
448,289,52445,6,0,P|421:303|391:307,1,61.7499971733095,8|0,0:0|0:0,0:0:0:0:
317,167,52601,2,0,P|290:152|259:149,1,61.7499971733095
166,308,52757,2,0,B|130:320|130:320|79:311,1,71.2500027179719,2|0,0:0|0:0,0:0:0:0:
78,124,52913,2,0,B|114:112|114:112|165:121,1,71.2500027179719
123,216,53070,6,0,L|-7:223,2,123.499994346619,0|0|2,3:0|0:0|0:0,0:0:0:0:
259,148,53538,2,0,P|293:136|338:146,1,61.7499971733095,0|0,0:0|0:0,0:0:0:0:
418,236,53695,2,0,P|452:248|497:238,1,61.7499971733095,8|0,0:0|0:0,0:0:0:0:
320,338,53851,2,0,P|286:350|241:340,1,61.7499971733095,0|0,0:0|0:0,0:0:0:0:
123,216,54007,5,0,3:0:0:0:
123,216,54085,1,0,0:0:0:0:
123,216,54163,1,8,0:0:0:0:
123,216,54241,1,0,0:0:0:0:
123,216,54320,6,0,B|30:119|142:48|142:48|155:88|115:134,1,285
43,296,54945,6,0,P|75:307|121:298,1,61.7499971733095,8|0,0:0|0:0,0:0:0:0:
198,194,55101,2,0,P|230:183|276:192,1,61.7499971733095,0|0,0:0|0:0,0:0:0:0:
369,320,55257,2,0,P|400:323|442:306,1,61.7499971733095,2|0,0:0|0:0,0:0:0:0:
387,186,55413,1,0,0:0:0:0:
387,186,55570,5,8,3:0:0:0:
387,186,55726,2,0,L|384:139,1,47.5
336,275,55882,2,0,B|397:290|397:290|462:260,1,123.499994346619,8|0,0:3|3:0,0:0:0:0:
448,82,56195,6,0,B|386:61|386:61|296:83|296:83|236:63,1,213.750008153916,8|0,0:0|0:0,0:0:0:0:
91,105,56507,6,0,P|164:130|96:79,1,242.250004620552,2|0,1:0|0:0,0:0:0:0:
91,105,56820,6,0,B|73:156|73:156|89:239|89:239|69:296,1,185.249991519928,0|0,0:0|0:0,0:0:0:0:
202,361,57132,2,0,B|217:317|217:317|201:234|201:234|219:183,1,185.249991519928,2|0,0:0|0:0,0:0:0:0:
355,105,57445,6,0,P|384:96|414:102,1,61.7499971733095,8|0,0:0|0:0,0:0:0:0:
219,182,57601,2,0,P|189:173|159:179,1,61.7499971733095,0|0,0:0|0:0,0:0:0:0:
76,367,57757,2,0,P|162:349|183:264,1,185.249991519928,2|0,0:0|0:0,0:0:0:0:
44,292,58070,6,0,L|106:289,1,61.7499971733095,0|0,3:0|0:0,0:0:0:0:
260,281,58226,2,0,L|321:277,1,61.7499971733095,0|0,0:0|0:0,0:0:0:0:
447,270,58382,2,0,L|500:268,4,30.8749985866547,2|0|0|0|0,0:0|0:0|0:0|0:0|3:0,0:0:0:0:
363,338,58695,6,0,B|353:165|353:165|328:221,1,213.750008153916,8|0,0:0|0:0,0:0:0:0:
197,322,59007,2,0,P|186:290|194:247,1,71.2500027179719,0|0,3:0|0:0,0:0:0:0:
309,110,59163,2,0,P|314:75|303:41,1,71.2500027179719,8|0,0:0|0:0,0:0:0:0:
105,225,59320,6,0,B|138:176|138:176|213:166|213:166|282:209|282:209|360:198|360:198|389:164,1,332.5,0|0,3:0|0:0,0:0:0:0:
462,239,59945,2,0,B|441:231|441:231|371:240,1,71.2500027179719,8|0,0:0|0:0,0:0:0:0:
277,322,60101,2,0,B|256:330|256:330|186:321,1,71.2500027179719,0|0,0:0|0:0,0:0:0:0:
55,229,60257,2,0,P|96:224|134:243,1,71.2500027179719,2|0,0:0|0:0,0:0:0:0:
277,322,60413,2,0,P|318:327|356:308,1,71.2500027179719,0|0,0:0|0:0,0:0:0:0:
442,151,60570,5,4,3:1:0:0:
442,151,60726,2,0,B|386:120|386:120|314:151,1,123.499994346619,0|0,0:0|0:0,0:0:0:0:
379,252,61038,1,0,3:0:0:0:
394,46,61195,2,0,L|396:8,14,30.8749985866547,8|0|0|0|0|0|0|0|2|0|0|0|0|0|0,0:0|0:0|0:0|0:0|0:0|0:0|0:0|0:0|0:0|0:0|0:0|0:0|0:0|0:0|0:0,0:0:0:0:
264,191,61820,6,0,B|207:205|207:205|139:179|139:179|84:193,1,185.249991519928,4|0,0:0|0:0,0:0:0:0:
212,119,62132,2,0,B|229:75|229:75|194:87,1,71.2500027179719,8|0,0:0|0:0,0:0:0:0:
136,265,62288,2,0,B|118:308|118:308|153:296,1,71.2500027179719
293,287,62445,6,0,B|442:276|442:276|411:250,1,185.249991519928,2|0,0:0|0:0,0:0:0:0:
319,245,62757,2,0,L|238:251,1,61.7499971733095,8|0,0:0|0:0,0:0:0:0:
148,187,62913,2,0,L|67:193,1,61.7499971733095,2|0,0:0|0:0,0:0:0:0:
65,379,63070,6,0,P|101:387|148:366,1,71.2500027179719,2|0,0:0|0:0,0:0:0:0:
216,185,63226,2,0,P|180:177|133:198,1,71.2500027179719,0|0,0:0|0:0,0:0:0:0:
315,342,63382,2,0,B|328:307|328:307|319:257,1,71.2500027179719,8|0,0:0|0:0,0:0:0:0:
417,83,63538,2,0,B|404:118|404:118|413:167,1,71.2500027179719,0|0,0:0|0:0,0:0:0:0:
451,259,63695,6,0,B|392:269|392:269|306:241|306:241|243:252,1,213.750008153916,0|0,0:0|0:0,0:0:0:0:
84,354,64007,2,0,P|74:323|85:283,1,71.2500027179719,8|0,0:0|0:0,0:0:0:0:
131,163,64163,1,0,0:0:0:0:
204,159,64241,1,0,0:0:0:0:
278,155,64320,6,0,B|417:151|417:151|371:121,1,185.249991519928,0|0,3:0|0:0,0:0:0:0:
164,92,64632,1,8,0:0:0:0:
77,298,64788,2,0,B|196:357|196:227|335:298,1,246.999988693238
428,208,65257,1,8,0:0:0:0:
325,100,65413,6,0,P|267:113|241:176,1,123.499994346619
445,316,65726,2,0,P|462:259|421:205,1,123.499994346619,0|8,0:0|0:0,0:0:0:0:
234,335,66038,5,0,0:0:0:0:
387,270,66195,1,0,0:0:0:0:
240,166,66351,1,8,3:0:0:0:
127,339,66507,2,0,B|178:320|178:320|258:340|258:340|323:318,1,185.249991519928,2|0,0:0|0:0,0:0:0:0:
454,218,66820,6,0,B|406:205|390:154|390:154|373:215|300:222,1,185.249991519928,4|0,3:2|0:0,0:0:0:0:
471,137,67132,2,0,P|479:106|468:72,1,61.7499971733095,8|0,0:0|0:0,0:0:0:0:
309,75,67288,2,0,P|301:105|309:135,1,61.7499971733095,0|0,0:0|0:0,0:0:0:0:
408,335,67445,6,0,B|267:349|267:349|303:324,1,185.249991519928,0|0,0:0|0:0,0:0:0:0:
367,137,67757,2,0,P|338:129|308:134,1,61.7499971733095,8|0,0:0|0:0,0:0:0:0:
206,255,67913,2,0,P|146:265|96:224,1,123.499994346619,0|0,0:0|0:0,0:0:0:0:
176,91,68226,6,0,B|182:125|182:125|174:151,1,61.7499971733095,0|0,0:0|0:0,0:0:0:0:
53,357,68382,2,0,B|47:323|47:323|55:297,1,61.7499971733095,8|0,0:0|0:0,0:0:0:0:
202,109,68538,2,0,B|208:143|208:143|199:168,1,61.7499971733095,0|0,0:0|0:0,0:0:0:0:
55,296,68695,6,0,B|23:262|23:262|185:278,1,185.249991519928,0|0,0:0|0:0,0:0:0:0:
358,288,69007,2,0,B|366:256|366:256|363:225,1,61.7499971733095,8|0,0:0|0:0,0:0:0:0:
325,72,69163,1,2,0:1:0:0:
325,72,69241,1,0,0:0:0:0:
325,72,69320,5,0,3:0:0:0:
281,88,69398,1,0,0:0:0:0:
234,80,69476,1,0,0:0:0:0:
190,63,69554,1,0,0:0:0:0:
144,50,69632,1,8,0:0:0:0:
98,54,69710,1,0,0:0:0:0:
65,89,69788,1,0,0:0:0:0:
53,135,69866,1,0,0:0:0:0:
53,183,69945,6,0,L|54:244,1,47.5,0|0,3:0|0:0,0:0:0:0:
154,335,70101,2,0,L|154:288,1,47.5,0|0,0:0|0:0,0:0:0:0:
256,161,70257,2,0,L|257:222,1,47.5,8|0,3:2|0:0,0:0:0:0:
352,352,70413,2,0,L|351:304,1,47.5,0|0,0:0|0:0,0:0:0:0:
434,149,70570,6,0,L|443:106,4,30.8749985866547,4|0|0|0|0,0:0|0:0|0:0|0:0|0:0,0:0:0:0:
300,94,70804,5,0,0:0:0:0:
300,94,70882,2,0,L|294:37,4,35.625001358986,2|0|0|0|0,0:0|0:0|0:0|0:0|0:0,0:0:0:0:
260,284,71195,5,2,0:0:0:0:
208,285,71273,1,2,0:0:0:0:
157,287,71351,1,2,0:0:0:0:
106,289,71429,1,2,0:0:0:0:
42,255,71507,5,2,0:0:0:0:
9,187,71585,1,2,0:0:0:0:
38,118,71663,1,2,0:0:0:0:
108,93,71741,1,2,0:0:0:0:
176,122,71820,6,0,B|205:142|205:142|207:239,1,123.499994346619,4|0,3:2|0:0,0:0:0:0:
328,127,72132,1,8,0:0:0:0:
356,369,72288,6,0,B|326:349|326:349|325:252,1,123.499994346619,0|0,0:0|3:0,0:0:0:0:
219,366,72601,1,0,0:0:0:0:
407,305,72757,1,8,0:0:0:0:
207,230,72913,6,0,L|161:216,4,30.8749985866547,2|0|0|0|0,0:0|0:0|0:0|0:0|3:0,0:0:0:0:
385,160,73226,2,0,L|431:146,4,30.8749985866547,2|0|0|0|8,0:0|0:0|0:0|0:0|0:0,0:0:0:0:
254,64,73538,2,0,L|208:50,4,30.8749985866547,2|0|0|0|0,0:0|0:0|0:0|0:0|3:0,0:0:0:0:
443,226,73851,1,2,0:0:0:0:
327,226,74007,2,0,B|385:247|385:247|443:226,1,123.499994346619,8|0,0:0|0:0,0:0:0:0:
256,64,74320,6,0,P|197:71|152:124,1,123.499994346619,0|0,3:0|0:0,0:0:0:0:
122,259,74632,1,8,0:0:0:0:
265,221,74788,1,0,0:0:0:0:
62,203,74945,2,0,B|39:261|39:261|67:320,1,123.499994346619,0|0,3:0|0:0,0:0:0:0:
272,312,75257,1,8,0:0:0:0:
129,274,75413,1,0,0:0:0:0:
327,376,75570,6,0,P|355:319|338:261,1,123.499994346619,0|0,3:0|0:0,0:0:0:0:
253,123,75882,1,8,0:0:0:0:
132,263,76038,6,0,P|188:290|246:274,1,123.499994346619
431,236,76351,1,0,0:0:0:0:
400,72,76507,6,0,P|339:75|280:136,1,142.5,8|0,0:0|0:0,0:0:0:0:
272,312,76820,6,0,B|213:332|213:332|147:308,1,123.499994346619,0|0,3:0|0:0,0:0:0:0:
74,368,77132,1,8,0:0:0:0:
275,229,77288,2,0,P|328:250|354:312,1,123.499994346619,0|0,0:0|3:0,0:0:0:0:
415,172,77601,1,0,0:0:0:0:
272,312,77757,1,8,0:0:0:0:
153,131,77913,6,0,L|129:95,4,30.8749985866547,2|0|0|0|0,0:0|0:0|0:0|0:0|3:0,0:0:0:0:
329,178,78226,2,0,L|346:152,4,30.8749985866547,2|0|0|0|8,0:0|0:0|0:0|0:0|0:0,0:0:0:0:
175,290,78538,2,0,L|151:254,4,30.8749985866547,2|0|0|0|0,0:0|0:0|0:0|0:0|3:0,0:0:0:0:
333,338,78851,5,0,0:0:0:0:
358,334,78929,1,0,0:0:0:0:
386,331,79007,1,8,0:0:0:0:
414,329,79085,1,0,0:0:0:0:
442,326,79163,2,0,L|488:320,2,30.8749985866547,0|0|0,0:0|0:0|0:0,0:0:0:0:
394,254,79320,5,0,3:0:0:0:
371,231,79398,1,0,0:0:0:0:
356,203,79476,1,0,0:0:0:0:
349,172,79554,1,0,0:0:0:0:
352,141,79632,1,8,0:0:0:0:
365,111,79710,1,0,0:0:0:0:
385,87,79788,1,0,0:0:0:0:
411,69,79866,1,0,0:0:0:0:
439,110,79945,5,0,3:0:0:0:
390,124,80023,1,0,0:0:0:0:
341,118,80101,1,0,0:0:0:0:
300,90,80179,1,0,0:0:0:0:
243,50,80257,5,8,0:0:0:0:
185,11,80335,1,0,0:0:0:0:
115,10,80413,1,0,0:0:0:0:
54,46,80491,1,0,0:0:0:0:
30,112,80570,6,0,L|25:157,4,30.8749985866547,2|0|0|0|0,0:0|0:0|0:0|0:0|0:0,0:0:0:0:
192,223,80882,6,0,L|200:274,4,35.625001358986,2|0|0|0|0,0:0|0:0|0:0|0:0|0:0,0:0:0:0:
337,318,81195,6,0,L|326:373,4,40.375000770092,2|0|0|0|0,0:0|0:0|0:0|0:0|0:0,0:0:0:0:
271,170,81507,6,0,B|344:135|344:135|420:177,1,161.500003080368,2|0,1:0|0:0,0:0:0:0:
337,318,81820,5,4,3:2:0:0:
199,125,81976,1,0,0:0:0:0:
342,233,82132,6,0,L|277:245,1,61.7499971733095,8|0,0:0|0:0,0:0:0:0:
113,273,82288,1,0,0:0:0:0:
302,93,82445,5,0,3:0:0:0:
254,362,82601,1,0,0:0:0:0:
141,187,82757,6,0,L|238:213,1,61.7499971733095,8|0,0:0|0:0,0:0:0:0:
413,255,82913,1,0,0:0:0:0:
272,141,83070,6,0,P|312:87|385:86,1,123.499994346619,0|0,0:0|0:0,0:0:0:0:
293,281,83304,1,0,0:0:0:0:
293,281,83382,2,0,L|157:273,1,123.499994346619,8|0,0:0|0:0,0:0:0:0:
350,159,83695,6,0,B|364:182|364:182|347:223,1,61.7499971733095,0|0,3:0|0:0,0:0:0:0:
228,378,83851,2,0,B|214:355|214:355|231:314,1,61.7499971733095,0|0,3:0|0:0,0:0:0:0:
372,129,84007,2,0,B|404:178|404:178|376:246,1,123.499994346619,8|0,0:0|0:0,0:0:0:0:
228,378,84320,5,0,3:0:0:0:
108,177,84476,2,0,L|245:173,1,123.499994346619,0|8,0:0|0:0,0:0:0:0:
159,312,84788,5,0,0:0:0:0:
296,129,84945,2,0,L|173:133,1,123.499994346619,0|0,3:0|0:0,0:0:0:0:
326,274,85257,5,8,0:0:0:0:
177,60,85413,1,0,0:0:0:0:
154,293,85570,5,0,3:0:0:0:
301,200,85726,1,0,0:0:0:0:
171,180,85882,5,8,0:0:0:0:
264,361,86038,1,0,0:0:0:0:
384,217,86195,5,0,3:0:0:0:
221,250,86351,1,0,0:0:0:0:
378,304,86507,5,2,0:0:0:0:
286,155,86663,1,2,0:0:0:0:
264,361,86820,6,0,B|211:361|211:361|178:351|178:351|146:361|146:361|76:361,1,185.249991519928,4|0,3:2|0:0,0:0:0:0:
226,283,87132,2,0,P|237:255|231:226,1,61.7499971733095,8|0,0:0|0:0,0:0:0:0:
6,220,87288,2,0,P|-4:248|1:277,1,61.7499971733095,0|0,0:0|0:0,0:0:0:0:
153,360,87445,5,0,3:0:0:0:
110,162,87601,1,0,0:0:0:0:
306,279,87757,6,0,L|314:218,1,61.7499971733095,8|0,0:0|0:0,0:0:0:0:
340,37,87913,1,0,0:0:0:0:
399,184,88070,5,0,3:0:0:0:
192,157,88226,1,0,0:0:0:0:
405,90,88382,2,0,L|336:125,1,61.7499971733095,8|0,0:0|0:0,0:0:0:0:
130,228,88538,1,0,0:0:0:0:
256,57,88695,6,0,P|267:95|254:132,1,71.2500027179719,0|0,3:0|0:0,0:0:0:0:
205,328,88851,2,0,P|194:290|207:253,1,71.2500027179719,0|0,3:0|0:0,0:0:0:0:
339,215,89007,2,0,L|470:224,1,123.499994346619,8|0,0:0|0:0,0:0:0:0:
332,365,89320,5,0,3:0:0:0:
288,341,89398,1,0,0:0:0:0:
239,345,89476,1,0,0:0:0:0:
194,363,89554,1,0,0:0:0:0:
144,366,89632,1,8,0:0:0:0:
98,347,89710,1,0,0:0:0:0:
76,302,89788,1,0,0:0:0:0:
85,253,89866,1,0,0:0:0:0:
113,211,89945,5,0,3:0:0:0:
132,157,90023,1,0,0:0:0:0:
123,101,90101,1,0,0:0:0:0:
88,55,90179,1,0,0:0:0:0:
62,106,90257,5,8,0:0:0:0:
120,140,90335,1,0,0:0:0:0:
192,147,90413,1,0,0:0:0:0:
256,119,90491,1,0,0:0:0:0:
312,73,90570,6,0,P|333:62|361:63,6,30.8749985866547,2|0|0|0|0|0|0,0:0|0:0|0:0|0:0|0:0|0:0|0:0,0:0:0:0:
416,170,90882,6,0,P|441:172|465:189,6,35.625001358986,2|0|0|0|0|0|0,0:0|0:0|0:0|0:0|0:0|0:0|0:0,0:0:0:0:
351,310,91195,6,0,P|347:335|359:361,6,40.375000770092,2|0|0|0|0|0|0,0:0|0:0|0:1|0:0|0:1|0:0|0:1,0:0:0:0:
306,227,91507,5,0,0:0:0:0:
235,228,91585,1,0,0:0:0:0:
166,231,91663,1,0,0:0:0:0:
96,234,91741,1,0,0:0:0:0:
25,237,91820,6,0,B|-1:183|-1:183|35:131,1,123.499994346619,4|0,3:2|0:0,0:0:0:0:
235,228,92132,2,0,B|377:224|377:224|333:195,1,185.249991519928,8|0,0:0|0:0,0:0:0:0:
242,315,92445,2,0,L|156:317,1,61.7499971733095,0|0,3:0|0:0,0:0:0:0:
157,192,92601,2,0,L|71:194,1,61.7499971733095,0|0,0:0|0:0,0:0:0:0:
0,334,92757,2,0,P|66:339|108:296,1,123.499994346619,8|0,0:0|0:0,0:0:0:0:
196,106,93070,6,0,P|255:98|301:137,1,123.499994346619,0|0,3:0|0:0,0:0:0:0:
346,362,93382,2,0,P|309:314|320:255,1,123.499994346619,8|0,0:0|0:0,0:0:0:0:
233,177,93695,1,0,3:0:0:0:
391,295,93851,1,0,3:0:0:0:
197,350,94007,2,0,L|126:335,1,61.7499971733095,8|0,0:0|0:0,0:0:0:0:
28,309,94163,1,0,3:0:0:0:
28,309,94241,1,0,3:0:0:0:
28,309,94320,6,0,B|53:273|53:273|29:188,1,123.499994346619,0|0,3:0|0:0,0:0:0:0:
214,121,94632,2,0,B|239:157|239:157|215:242,1,123.499994346619,8|0,0:0|0:0,0:0:0:0:
369,164,94945,5,0,3:0:0:0:
142,181,95101,1,0,0:0:0:0:
369,164,95257,6,0,B|395:173|424:144|424:144|414:179|411:230,1,123.499994346619,8|0,0:0|0:0,0:0:0:0:
384,351,95570,6,0,B|323:359|323:359|262:344|262:344|176:356,1,185.249991519928,0|0,3:0|0:0,0:0:0:0:
231,194,95882,2,0,P|290:196|326:245,1,123.499994346619,8|0,0:0|0:0,0:0:0:0:
121,191,96195,2,0,P|93:138|117:83,1,123.499994346619,0|0,3:0|0:0,0:0:0:0:
140,294,96508,2,0,L|8:314,1,123.499994346619,8|0,0:0|0:0,0:0:0:0:
196,250,96820,6,0,L|64:270,2,123.499994346619,4|0|8,3:2|0:0|0:0,0:0:0:0:
212,376,97288,1,0,0:0:0:0:
116,117,97445,1,0,3:0:0:0:
15,274,97601,2,0,P|45:279|82:261,1,61.7499971733095,0|0,3:0|0:0,0:0:0:0:
200,166,97757,2,0,P|230:164|265:185,1,61.7499971733095,8|0,0:0|0:0,0:0:0:0:
319,277,97913,1,0,3:0:0:0:
319,277,97991,1,0,3:0:0:0:
319,277,98070,6,0,B|372:298|372:298|434:277,1,123.499994346619,0|0,3:0|0:0,0:0:0:0:
375,212,98304,1,0,0:0:0:0:
375,212,98382,1,8,0:0:0:0:
201,274,98538,2,0,P|171:267|135:277,1,61.7499971733095,0|0,0:0|0:0,0:0:0:0:
52,301,98695,5,0,3:0:0:0:
254,332,98851,1,0,0:0:0:0:
51,288,99007,2,0,P|34:225|68:170,1,123.499994346619,8|0,0:0|0:0,0:0:0:0:
188,87,99320,6,0,P|200:47|183:5,2,82.3333295644126,0|0|0,3:0|0:0|3:0,0:0:0:0:
245,201,99632,6,0,L|363:209,1,101.333333333333,8|0,0:0|0:0,0:0:0:0:
409,326,99945,6,0,P|449:336|499:305,2,82.3333295644126,0|0|0,3:0|0:0|0:0,0:0:0:0:
279,167,100257,6,0,L|177:160,1,101.333333333333,8|0,0:0|0:0,0:0:0:0:
255,302,100570,5,4,0:0:0:0:
256,192,100726,12,0,101663,0:0:0:0:
73,275,101820,6,0,P|142:275|189:221,1,123.499994346619,4|0,3:2|0:0,0:0:0:0:
369,326,102131,1,8,0:0:0:0:
367,210,102288,2,0,B|390:265|390:265|369:325,1,123.499994346619,0|0,0:0|3:0,0:0:0:0:
250,188,102601,1,0,0:0:0:0:
429,104,102757,1,8,0:0:0:0:
292,260,102913,6,0,P|228:270|178:230,1,123.499994346619,0|0,0:0|3:0,0:0:0:0:
365,350,103226,2,0,P|388:289|447:266,1,123.499994346619,0|8,0:0|0:0,0:0:0:0:
395,83,103538,2,0,P|355:128|359:188,1,123.499994346619,0|0,0:0|3:0,0:0:0:0:
457,163,103851,1,0,0:0:0:0:
299,55,104007,1,8,0:0:0:0:
251,61,104085,1,0,0:0:0:0:
203,68,104163,1,0,0:0:0:0:
155,74,104241,1,0,0:0:0:0:
109,80,104319,5,0,3:3:0:0:
35,240,104476,1,0,0:0:0:0:
217,278,104632,2,0,B|255:262|255:262|352:278,1,123.499994346619,8|0,0:0|0:0,0:0:0:0:
265,376,104945,5,0,3:0:0:0:
375,200,105101,1,0,0:0:0:0:
170,170,105257,2,0,L|31:192,1,123.499994346619,8|0,0:0|0:0,0:0:0:0:
281,100,105570,6,0,B|304:154|304:154|284:225,2,123.499994346619,0|0|8,3:0|0:0|0:0,0:0:0:0:
184,276,106038,2,0,L|323:298,1,123.499994346619,0|0,0:0|3:0,0:0:0:0:
398,196,106351,1,0,0:0:0:0:
242,326,106507,2,0,L|93:302,1,142.5,8|0,0:0|0:0,0:0:0:0:
82,273,106820,6,0,B|105:216|105:216|85:153,1,123.499994346619,4|0,3:2|0:0,0:0:0:0:
250,188,107132,1,8,0:0:0:0:
255,72,107288,2,0,B|232:129|232:129|252:191,1,123.499994346619,0|0,0:0|3:0,0:0:0:0:
368,135,107601,1,0,0:0:0:0:
177,220,107757,1,8,0:0:0:0:
393,323,107913,6,0,P|365:266|297:253,1,123.499994346619,0|4,0:0|3:2,0:0:0:0:
79,342,108226,2,0,P|142:346|187:293,1,123.499994346619,0|8,0:0|0:0,0:0:0:0:
239,48,108538,2,0,P|203:100|226:166,1,123.499994346619,0|0,0:0|3:0,0:0:0:0:
411,123,108851,1,0,0:0:0:0:
411,123,108929,1,0,0:0:0:0:
411,123,109007,2,0,L|288:113,1,123.499994346619,8|0,0:0|0:0,0:0:0:0:
102,62,109320,5,4,3:2:0:0:
129,109,109398,1,0,0:0:0:0:
130,164,109476,1,0,0:0:0:0:
104,212,109554,1,0,0:0:0:0:
72,258,109632,1,8,0:0:0:0:
72,312,109710,1,0,0:0:0:0:
110,350,109788,1,0,0:0:0:0:
164,352,109866,1,0,0:0:0:0:
212,322,109945,5,4,3:2:0:0:
265,294,110023,1,0,0:0:0:0:
325,292,110101,1,0,0:0:0:0:
380,317,110179,1,0,0:0:0:0:
440,322,110257,5,8,0:0:0:0:
476,261,110335,1,0,0:0:0:0:
478,190,110413,1,0,0:0:0:0:
447,126,110491,1,0,0:0:0:0:
398,73,110570,6,0,P|390:48|402:14,3,61.7499971733095,2|0|0|0,0:0|0:0|0:0|0:0,0:0:0:0:
336,196,110882,2,0,P|344:221|332:255,3,61.7499971733095,2|0|0|0,0:0|0:0|0:0|0:0,0:0:0:0:
255,142,111195,5,2,0:0:0:0:
234,142,111273,1,0,0:0:0:0:
215,144,111351,1,0,0:0:0:0:
194,145,111429,1,0,0:0:0:0:
174,146,111507,1,0,0:0:0:0:
155,148,111585,1,0,0:0:0:0:
135,149,111663,1,0,0:0:0:0:
115,150,111741,1,0,0:0:0:0:
81,153,111820,5,4,0:0:0:0:
