osu file format v14

[General]
AudioFilename: audio.mp3
AudioLeadIn: 0
PreviewTime: 102024
Countdown: 0
SampleSet: Soft
StackLeniency: 0.3
Mode: 0
LetterboxInBreaks: 0
WidescreenStoryboard: 0

[Editor]
DistanceSpacing: 0.5
BeatDivisor: 4
GridSize: 32
TimelineZoom: 1.5

[Metadata]
Title:Night sky (Extended Mix)
TitleUnicode:Night sky (Extended Mix)
Artist:USAO
ArtistUnicode:USAO
Creator:sionKotori
Version:Dawn
Source:beatmania IIDX 22 PENDUAL
Tags:konami bemani pumpcore
BeatmapID:1068442
BeatmapSetID:502021

[Difficulty]
HPDrainRate:6
CircleSize:4
OverallDifficulty:7.5
ApproachRate:9.4
SliderMultiplier:1.8
SliderTickRate:1

[Events]
//Background and Video events
0,0,"ohai.jpg",0,0
//Break Periods
2,82224,91484
//Storyboard Layer 0 (Background)
//Storyboard Layer 1 (Fail)
//Storyboard Layer 2 (Pass)
//Storyboard Layer 3 (Foreground)
//Storyboard Sound Samples

[TimingPoints]
774,312.5,4,2,2,40,1,0
22336,-142.857142857143,4,2,2,40,0,0
26711,-86.9565217391304,4,2,2,40,0,0
27024,-111.111111111111,4,2,2,40,0,0
29133,-95.2380952380952,4,2,2,40,0,0
30149,-83.3333333333333,4,2,2,40,0,0
31399,-133.333333333333,4,2,2,40,0,0
31711,-166.666666666667,4,2,2,40,0,0
32024,-83.3333333333333,4,2,2,40,0,0
32649,-90.9090909090909,4,2,2,40,0,0
34211,-76.9230769230769,4,2,2,40,0,0
34524,-90.9090909090909,4,2,2,40,0,0
36399,-76.9230769230769,4,2,2,40,0,0
37024,-90.9090909090909,4,2,2,40,0,0
39992,-76.9230769230769,4,2,2,40,0,0
40461,-90.9090909090909,4,2,2,40,0,0
40774,-71.4285714285714,4,2,2,40,0,0
41086,-90.9090909090909,4,2,2,40,0,0
42336,-66.6666666666667,4,2,2,40,0,0
42961,-83.3333333333333,4,2,2,40,0,0
43274,-71.4285714285714,4,2,2,40,0,0
43586,-66.6666666666667,4,2,2,40,0,0
43899,-83.3333333333333,4,2,2,40,0,0
46399,-142.857142857143,4,2,2,40,0,0
46711,-83.3333333333333,4,2,2,40,0,0
47180,-76.9230769230769,4,2,2,40,0,0
47649,-83.3333333333333,4,2,2,40,0,0
49524,-83.3333333333333,4,2,2,20,0,0
50149,-83.3333333333333,4,2,2,30,0,0
51399,-66.6666666666667,4,2,4,40,0,0
51711,-90.9090909090909,4,2,2,40,0,0
52024,-71.4285714285714,4,2,2,40,0,0
52492,-76.9230769230769,4,2,2,40,0,0
55774,-83.3333333333333,4,2,2,40,0,0
56711,-76.9230769230769,4,2,2,40,0,0
59524,-76.9230769230769,4,2,2,20,0,0
60149,-90.9090909090909,4,2,2,30,0,0
61399,-66.6666666666667,4,2,2,40,0,0
62024,-71.4285714285714,4,2,2,40,0,0
63274,-76.9230769230769,4,2,2,40,0,0
65774,-100,4,2,2,40,0,0
67024,-76.9230769230769,4,2,2,40,0,0
69524,-76.9230769230769,4,2,2,20,0,0
70149,-76.9230769230769,4,2,2,30,0,0
70774,-71.4285714285714,4,2,4,70,0,0
71399,-66.6666666666667,4,2,4,70,0,0
71555,-60.6060606060606,4,2,4,70,0,0
71594,-60.6060606060606,4,2,4,40,0,0
72024,-83.3333333333333,4,2,2,40,0,0
75774,-71.4285714285714,4,2,4,60,0,0
76711,-71.4285714285714,4,2,4,40,0,0
77024,-83.3333333333333,4,2,2,40,0,0
79836,-90.9090909090909,4,2,2,40,0,0
80149,-83.3333333333333,4,2,2,40,0,0
92649,-142.857142857143,4,2,2,40,0,0
94524,-125,4,2,2,40,0,0
101711,-76.9230769230769,4,2,0,80,0,0
102024,-71.4285714285714,4,2,3,60,0,1
102336,-71.4285714285714,4,2,2,50,0,1
103117,-166.666666666667,4,2,2,50,0,1
103899,-111.111111111111,4,2,2,50,0,1
104524,-71.4285714285714,4,2,2,50,0,1
105774,-166.666666666667,4,2,2,50,0,1
106711,-100,4,2,2,50,0,1
107024,-71.4285714285714,4,2,2,50,0,1
108117,-166.666666666667,4,2,2,50,0,1
108899,-111.111111111111,4,2,2,50,0,1
109524,-71.4285714285714,4,2,2,50,0,1
110774,-166.666666666667,4,2,2,50,0,1
111711,-100,4,2,2,50,0,1
112024,-71.4285714285714,4,2,2,50,0,1
113117,-166.666666666667,4,2,2,50,0,1
113899,-83.3333333333333,4,2,2,50,0,1
114524,-71.4285714285714,4,2,2,50,0,1
115774,-166.666666666667,4,2,2,50,0,1
116399,-100,4,2,2,50,0,1
117024,-71.4285714285714,4,2,2,50,0,1
118117,-166.666666666667,4,2,2,50,0,1
118899,-100,4,2,2,50,0,1
119524,-71.4285714285714,4,2,2,50,0,1
120774,-166.666666666667,4,2,2,50,0,1
122024,-100,4,2,2,40,0,0
124211,-83.3333333333333,4,2,2,40,0,0
124524,-100,4,2,2,40,0,0
126711,-83.3333333333333,4,2,2,40,0,0
127024,-100,4,2,2,40,0,0
131086,-83.3333333333333,4,2,2,40,0,0
131711,-76.9230769230769,4,2,2,40,0,0
132024,-100,4,2,2,40,0,0
139524,-83.3333333333333,4,2,2,40,0,0
140774,-83.3333333333333,4,2,2,20,0,0
141711,-66.6666666666667,4,2,2,40,0,0
142024,-71.4285714285714,4,2,2,50,0,1
142336,-66.6666666666667,4,2,2,50,0,1
142649,-76.9230769230769,4,2,2,50,0,1
143117,-66.6666666666667,4,2,2,50,0,1
143899,-76.9230769230769,4,2,2,50,0,1
144524,-66.6666666666667,4,2,2,50,0,1
145149,-76.9230769230769,4,2,2,50,0,1
146086,-66.6666666666667,4,2,2,50,0,1
146399,-71.4285714285714,4,2,2,50,0,1
147024,-66.6666666666667,4,2,2,50,0,1
147649,-76.9230769230769,4,2,2,50,0,1
148117,-66.6666666666667,4,2,2,50,0,1
148586,-100,4,2,2,50,0,1
148899,-71.4285714285714,4,2,2,50,0,1
149524,-66.6666666666667,4,2,2,50,0,1
150149,-76.9230769230769,4,2,2,50,0,1
151399,-66.6666666666667,4,2,2,50,0,1
151711,-71.4285714285714,4,2,2,50,0,1
152024,-76.9230769230769,4,2,2,50,0,1
152649,-71.4285714285714,4,2,2,40,0,0
154524,-111.111111111111,4,2,2,55,0,1
154836,-62.5,4,2,2,55,0,1
155149,-76.9230769230769,4,2,2,55,0,1
157024,-66.6666666666667,4,2,2,55,0,1
158274,-76.9230769230769,4,2,2,55,0,1
158899,-66.6666666666667,4,2,2,55,0,1
159211,-58.8235294117647,4,2,0,70,0,1
159524,-76.9230769230769,4,2,2,55,0,1
161086,-66.6666666666667,4,2,2,55,0,1
161399,-76.9230769230769,4,2,2,55,0,1
162024,-66.6666666666667,4,2,2,55,0,1
162649,-76.9230769230769,4,2,2,55,0,1
164211,-125,4,2,2,55,0,1
164524,-66.6666666666667,4,2,2,55,0,1
164836,-90.9090909090909,4,2,2,55,0,1
165149,-66.6666666666667,4,2,2,55,0,1
166711,-62.5,4,2,2,55,0,1
167336,-83.3333333333333,4,2,2,55,0,1
168430,-71.4285714285714,4,2,2,55,0,1
168742,-83.3333333333333,4,2,2,55,0,1
169211,-66.6666666666667,4,2,2,55,0,1
169524,-76.9230769230769,4,2,2,55,0,1
169836,-71.4285714285714,4,2,2,55,0,1
170149,-83.3333333333333,4,2,2,55,0,1
170461,-71.4285714285714,4,2,2,55,0,1
170774,-76.9230769230769,4,2,2,55,0,1
171711,-62.5,4,2,2,55,0,1
172024,-76.9230769230769,4,2,2,35,0,1
172649,-76.9230769230769,4,2,2,40,0,1
173274,-76.9230769230769,4,2,2,30,0,1
173899,-83.3333333333333,4,2,2,40,0,0
176711,-66.6666666666667,4,2,2,40,0,0
177336,-83.3333333333333,4,2,2,40,0,0
178430,-71.4285714285714,4,2,2,40,0,0
178742,-83.3333333333333,4,2,2,40,0,0
179211,-100,4,2,2,40,0,0
179524,-83.3333333333333,4,2,2,40,0,0
180149,-76.9230769230769,4,2,2,40,0,0
180617,-83.3333333333333,4,2,2,40,0,0
182024,-83.3333333333333,4,2,2,30,0,0
182649,-74.0740740740741,4,2,2,30,0,0
183274,-58.8235294117647,4,2,2,30,0,0
184524,-83.3333333333333,4,2,2,40,0,0
193274,-74.0740740740741,4,2,2,40,0,0
193899,-74.0740740740741,4,2,4,60,0,0
194211,-58.8235294117647,4,2,4,70,0,0
194524,-83.3333333333333,4,2,2,40,0,0
197961,-71.4285714285714,4,2,2,40,0,0
198742,-83.3333333333333,4,2,2,40,0,0
199836,-66.6666666666667,4,2,2,40,0,0
200149,-83.3333333333333,4,2,2,40,0,0
201711,-66.6666666666667,4,2,2,40,0,0
202024,-90.9090909090909,4,2,2,30,0,0
202336,-90.9090909090909,4,2,2,32,0,0
202492,-90.9090909090909,4,2,2,34,0,0
202649,-90.9090909090909,4,2,2,36,0,0
202805,-90.9090909090909,4,2,2,38,0,0
202961,-90.9090909090909,4,2,2,40,0,0
203274,-58.8235294117647,4,2,2,30,0,0
203899,-58.8235294117647,4,2,2,40,0,0
204211,-55.5555555555556,4,2,0,70,0,0
204524,-76.9230769230769,4,2,2,40,0,0
206086,-66.6666666666667,4,2,2,40,0,0
206399,-76.9230769230769,4,2,2,40,0,0
206711,-66.6666666666667,4,2,2,40,0,0
207024,-76.9230769230769,4,2,2,40,0,0
208586,-71.4285714285714,4,2,2,40,0,0
208899,-83.3333333333333,4,2,2,40,0,0
209211,-111.111111111111,4,2,2,40,0,0
209524,-76.9230769230769,4,2,2,40,0,0
211711,-66.6666666666667,4,2,2,40,0,0
212024,-76.9230769230769,4,2,2,30,0,0
213274,-66.6666666666667,4,2,2,40,0,0
214524,-142.857142857143,4,2,2,40,0,0
218899,-111.111111111111,4,2,2,40,0,0
219524,-83.3333333333333,4,2,2,40,0,0
222024,-90.9090909090909,4,2,2,40,0,0
222336,-125,4,2,2,40,0,0
222649,-90.9090909090909,4,2,2,40,0,0
224211,-90.9090909090909,4,2,0,70,0,0
224524,-100,4,2,2,40,0,0
233274,-66.6666666666667,4,2,2,40,0,0
233899,-66.6666666666667,4,2,0,40,0,0
233977,-66.6666666666667,4,2,0,50,0,0
234055,-66.6666666666667,4,2,0,60,0,0
234133,-66.6666666666667,4,2,0,70,0,0
234211,-66.6666666666667,4,2,0,60,0,0
234289,-66.6666666666667,4,2,0,70,0,0
234367,-66.6666666666667,4,2,0,80,0,0
234445,-66.6666666666667,4,2,0,90,0,0
234524,-71.4285714285714,4,2,3,65,0,1
234758,-71.4285714285714,4,2,2,55,0,1
239211,-66.6666666666667,4,2,2,55,0,1
239524,-71.4285714285714,4,2,2,55,0,1
242024,-76.9230769230769,4,2,2,55,0,1
242336,-83.3333333333333,4,2,2,55,0,1
244211,-83.3333333333333,4,2,0,80,0,1
244524,-71.4285714285714,4,2,2,55,0,1
247024,-66.6666666666667,4,2,2,55,0,1
247649,-71.4285714285714,4,2,2,55,0,1
249211,-62.5,4,2,2,55,0,1
249524,-71.4285714285714,4,2,2,55,0,1
250774,-66.6666666666667,4,2,2,55,0,1
251086,-71.4285714285714,4,2,2,55,0,1
252024,-71.4285714285714,4,2,2,30,0,1
253274,-125,4,2,2,35,0,1
254524,-71.4285714285714,4,2,2,40,0,0

[Colours]
Combo1 : 192,192,192
Combo2 : 100,177,255
Combo3 : 255,149,98
Combo4 : 254,221,90

[HitObjects]
256,192,20774,12,0,22024,0:0:0:0:
198,342,22336,5,0,0:0:0:0:
198,342,22492,2,0,B|245:340|245:340|272:353|272:353|328:350,1,125.999996154785
120,343,22961,1,0,0:0:0:0:
135,211,23117,2,0,P|153:241|155:271,1,62.9999980773926
70,167,23430,2,0,P|35:167|8:154,1,62.9999980773926
140,132,23742,2,0,P|156:101|181:84,1,62.9999980773926
72,263,24055,1,0,0:0:0:0:
72,263,24367,6,0,L|208:255,1,125.999996154785
81,278,24836,1,0,0:0:0:0:
267,137,25149,2,0,L|204:140,1,62.9999980773926
342,188,25461,2,0,L|383:193,1,31.4999990386963
347,97,25617,2,0,L|352:56,1,31.4999990386963
497,35,25774,6,0,P|467:44|436:41,1,62.9999980773926
238,50,26086,2,0,P|257:50|280:59,1,31.4999990386963
347,97,26242,2,0,L|355:19,1,62.9999980773926
325,153,26555,2,0,L|330:112,1,31.4999990386963
334,270,26711,2,0,B|346:162|346:162|353:194|381:214,1,155.250002961159
448,235,27024,5,0,0:0:0:0:
220,256,27336,1,0,0:0:0:0:
436,147,27649,2,0,P|477:147|510:173,1,80.9999975280763
379,289,27961,5,0,0:0:0:0:
355,115,28117,1,0,0:0:0:0:
351,91,28195,1,0,0:0:0:0:
347,67,28274,1,0,0:0:0:0:
451,211,28430,1,0,0:0:0:0:
473,219,28508,1,0,0:0:0:0:
496,228,28587,1,0,0:0:0:0:
319,246,28742,1,0,0:0:0:0:
301,261,28820,1,0,0:0:0:0:
282,276,28899,1,0,0:0:0:0:
373,191,29055,1,0,0:0:0:0:
373,191,29133,2,0,L|376:142,2,47.2499985580445
458,117,29367,2,0,L|461:70,1,47.2499985580445
377,27,29524,5,0,0:0:0:0:
353,29,29602,1,0,0:0:0:0:
329,31,29680,1,0,0:0:0:0:
305,33,29758,1,0,0:0:0:0:
281,35,29836,1,0,0:0:0:0:
257,37,29914,1,0,0:0:0:0:
233,39,29992,1,0,0:0:0:0:
209,41,30070,1,0,0:0:0:0:
185,43,30149,6,0,L|244:51,1,53.9999983520508
370,132,30305,2,0,L|311:140,1,53.9999983520508
149,196,30461,2,0,L|208:204,1,53.9999983520508
406,285,30617,2,0,L|347:293,1,53.9999983520508
113,349,30774,5,0,0:0:0:0:
113,349,30930,5,0,0:0:0:0:
134,353,31008,1,0,0:0:0:0:
155,352,31086,1,0,0:0:0:0:
176,349,31164,1,0,0:0:0:0:
197,342,31242,1,0,0:0:0:0:
215,332,31320,1,0,0:0:0:0:
232,318,31399,6,0,L|227:350,1,33.7500012874604
391,301,31555,2,0,L|402:331,1,33.7500012874604
309,289,31711,2,0,L|319:384,1,80.9999975280763
329,377,32024,6,0,L|322:323,1,53.9999983520508,4|0,0:0|0:0,0:0:0:0:
198,213,32180,2,0,L|248:233,1,53.9999983520508,4|0,0:0|0:0,0:0:0:0:
405,181,32336,2,0,L|361:214,1,53.9999983520508,4|0,0:0|0:0,0:0:0:0:
232,318,32492,1,0,0:0:0:0:
139,143,32649,2,0,P|176:122|240:142,1,99.0000030212403,4|0,0:0|0:0,0:0:0:0:
322,323,32961,2,0,P|274:334|231:312,1,99.0000030212403,2|0,0:0|0:0,0:0:0:0:
316,114,33274,5,4,0:0:0:0:
283,256,33430,1,0,0:0:0:0:
283,256,33508,1,0,0:0:0:0:
283,256,33586,2,0,B|264:253|243:235|243:235|262:280|252:336,1,148.50000453186,2|0,0:0|0:0,0:0:0:0:
239,360,33899,1,4,0:0:0:0:
294,172,34055,2,0,P|301:141|296:117,1,49.5000015106202
183,233,34211,2,0,B|285:223|239:281|351:267,1,175.499991966248,2|0,0:0|0:0,0:0:0:0:
433,255,34524,5,4,0:0:0:0:
381,109,34680,1,0,0:0:0:0:
401,333,34836,1,2,0:0:0:0:
484,185,34992,2,0,P|462:173|428:172,1,49.5000015106202
311,92,35149,2,0,P|377:110|446:53,1,148.50000453186,4|0,0:0|0:0,0:0:0:0:
367,21,35461,1,2,0:0:0:0:
401,200,35617,2,0,L|410:256,1,49.5000015106202
386,125,35774,5,4,0:0:0:0:
180,184,35930,2,0,B|157:182|157:182|128:168,1,49.5000015106202
278,127,36086,2,0,B|288:107|288:107|315:89,1,49.5000015106202
277,239,36242,2,0,B|288:257|288:257|290:290,1,49.5000015106202
195,172,36399,6,0,P|261:142|218:238,1,233.999989288331,0|2,0:0|0:0,0:0:0:0:
238,244,37024,5,4,0:0:0:0:
372,192,37180,1,0,0:0:0:0:
372,192,37258,1,0,0:0:0:0:
372,192,37336,2,0,B|396:187|396:187|430:196,1,49.5000015106202,2|0,0:0|0:0,0:0:0:0:
244,260,37492,2,0,B|220:265|220:265|186:256,1,49.5000015106202
389,274,37649,1,4,0:0:0:0:
235,141,37805,1,0,0:0:0:0:
232,158,37883,1,0,0:0:0:0:
229,175,37961,1,2,0:0:0:0:
312,378,38117,6,0,L|302:329,2,49.5000015106202,0|0|4,0:0|0:0|0:0,0:0:0:0:
120,233,38430,1,0,0:0:0:0:
315,208,38586,1,2,0:0:0:0:
229,373,38742,2,0,L|219:324,1,49.5000015106202
131,223,38899,2,0,B|142:278|142:278|134:314|134:314|146:368,1,148.50000453186,4|0,0:0|0:0,0:0:0:0:
66,360,39211,2,0,B|54:306|54:306|62:270|62:270|51:215,1,148.50000453186,2|0,0:0|0:0,0:0:0:0:
4,146,39524,1,4,0:0:0:0:
4,146,39836,6,0,P|25:134|57:132,1,49.5000015106202,2|0,0:0|0:0,0:0:0:0:
126,285,39992,2,0,B|136:165|136:165|117:202|86:215,1,175.499991966248,4|0,0:0|0:0,0:0:0:0:
90,213,40305,1,0,0:0:0:0:
263,254,40461,2,0,P|238:251|217:238,1,49.5000015106202,2|0,0:0|0:0,0:0:0:0:
129,371,40617,2,0,P|154:368|175:355,1,49.5000015106202
48,307,40774,6,0,P|63:233|126:285,1,188.999994232178,4|0,0:0|0:0,0:0:0:0:
41,181,41086,2,0,L|49:235,1,49.5000015106202,4|0,0:0|0:0,0:0:0:0:
23,138,41242,2,0,L|31:192,1,49.5000015106202,4|0,0:0|0:0,0:0:0:0:
5,94,41399,6,0,L|13:148,1,49.5000015106202,4|0,0:0|0:0,0:0:0:0:
163,47,41555,2,0,L|160:102,1,49.5000015106202
70,30,41711,1,2,0:0:0:0:
70,30,41867,2,0,P|95:37|135:30,1,49.5000015106202
238,17,42024,5,4,0:0:0:0:
85,125,42180,1,4,0:0:0:0:
297,90,42336,2,0,P|328:107|242:130,1,202.500007724762,2|0,0:0|0:0,0:0:0:0:
245,149,42649,1,4,0:0:0:0:
420,127,42805,1,0,0:0:0:0:
258,54,42961,2,0,P|276:63|296:89,1,53.9999983520508,2|0,0:0|0:0,0:0:0:0:
462,201,43117,2,0,P|444:210|424:236,1,53.9999983520508
206,327,43274,6,0,B|248:336|281:316|281:316|315:334|315:334|347:313|396:331,1,188.999994232178,4|0,0:0|0:0,0:0:0:0:
396,360,43586,2,0,B|378:226|378:226|384:253|424:279,1,202.500007724762,2|0,0:0|0:0,0:0:0:0:
286,213,43899,6,0,P|264:226|232:229,1,53.9999983520508,4|0,0:0|0:0,0:0:0:0:
462,201,44055,6,0,P|488:204|511:217,1,53.9999983520508
296,200,44211,6,0,P|283:222|257:240,1,53.9999983520508,2|0,0:0|0:0,0:0:0:0:
376,130,44367,6,0,P|381:104|375:78,1,53.9999983520508
379,215,44524,6,0,B|386:275|386:275|366:315|366:315|370:372,1,161.999995056153,4|0,0:0|0:0,0:0:0:0:
379,368,44836,2,0,P|403:358|442:357,1,53.9999983520508,2|2,0:0|0:0,0:0:0:0:
304,259,44992,2,0,P|277:256|252:246,1,53.9999983520508
349,119,45149,2,0,B|409:111|463:153|463:153|444:131|435:99,1,161.999995056153,4|0,0:0|0:0,0:0:0:0:
436,106,45461,1,2,0:0:0:0:
207,52,45617,1,0,0:0:0:0:
209,61,45695,1,0,0:0:0:0:
211,70,45774,6,0,P|235:78|274:73,1,53.9999983520508,4|0,0:0|0:0,0:0:0:0:
387,30,45930,2,0,P|363:22|324:27,1,53.9999983520508
328,216,46086,2,0,P|356:171|343:110,1,107.999996704102,2|0,0:0|0:0,0:0:0:0:
179,263,46399,6,0,L|188:358,1,94.499997116089
186,337,46711,6,0,B|64:328|64:328|108:367,1,161.999995056153,2|0,0:0|0:0,0:0:0:0:
106,365,47024,5,4,0:0:0:0:
211,178,47180,2,0,B|182:170|182:170|146:178,1,58.4999973220826,4|0,0:0|0:0,0:0:0:0:
13,223,47336,2,0,B|115:212|68:272|192:262,1,175.499991966248,2|0,0:0|0:0,0:0:0:0:
261,248,47649,6,0,B|270:376|270:376|274:348|291:324,1,161.999995056153,4|0,0:0|0:0,0:0:0:0:
356,298,47961,1,2,0:0:0:0:
186,337,48117,1,0,0:0:0:0:
343,212,48274,6,0,P|413:221|445:305,1,161.999995056153,4|0,0:0|0:0,0:0:0:0:
432,214,48586,2,0,P|404:148|461:79,1,161.999995056153,2|0,0:0|0:0,0:0:0:0:
390,136,48899,6,0,P|359:150|330:151,1,53.9999983520508,4|0,0:0|0:0,0:0:0:0:
442,223,49055,2,0,P|473:237|502:238,1,53.9999983520508
343,69,49211,1,2,0:0:0:0:
489,156,49367,1,0,0:0:0:0:
340,238,49524,5,4,0:0:0:0:
313,235,49602,1,4,0:0:0:0:
286,232,49680,1,4,0:0:0:0:
259,229,49758,1,4,0:0:0:0:
232,226,49836,6,0,L|157:233,1,53.9999983520508,4|4,0:0|0:0,0:0:0:0:
67,326,49992,2,0,L|142:319,1,53.9999983520508,4|4,0:0|0:0,0:0:0:0:
226,380,50149,6,0,L|233:305,1,53.9999983520508,4|4,0:0|0:0,0:0:0:0:
39,320,50305,2,0,L|32:245,1,53.9999983520508,4|4,0:0|0:0,0:0:0:0:
240,231,50461,6,0,L|247:156,1,53.9999983520508,4|4,0:0|0:0,0:0:0:0:
53,171,50617,2,0,L|46:96,1,53.9999983520508,4|4,0:0|0:0,0:0:0:0:
101,43,50774,6,0,L|97:15,4,26.9999991760254,4|4|4|4|4,0:0|0:0|0:0|0:0|0:0,0:0:0:0:
41,213,51086,2,0,L|18:230,4,26.9999991760254,4|4|4|4|4,0:0|0:0|0:0|0:0|0:0,0:0:0:0:
219,180,51399,2,0,L|251:193,7,33.7500012874604,6|6|6|6|6|6|6|6,0:0|0:0|0:0|0:0|0:0|0:0|0:0|0:0,0:0:0:0:
198,204,51711,6,0,L|304:193,1,99.0000030212403,2|0,0:0|0:0,0:0:0:0:
67,315,52024,6,0,P|46:236|126:273,1,188.999994232178
124,264,52336,1,6,0:0:0:0:
114,83,52492,2,0,P|121:110|117:149,1,58.4999973220826
198,303,52649,2,0,P|205:276|201:237,1,58.4999973220826
40,122,52805,1,0,0:0:0:0:
256,109,52961,1,6,0:0:0:0:
95,271,53117,6,0,B|154:268|154:268|198:289|198:289|265:284,1,175.499991966248
286,282,53430,1,0,0:0:0:0:
129,357,53586,1,6,0:0:0:0:
142,184,53742,2,0,L|126:122,2,58.4999973220826
231,373,54055,1,0,0:0:0:0:
231,373,54133,1,0,0:0:0:0:
231,373,54211,1,6,0:0:0:0:
302,191,54367,5,0,0:0:0:0:
273,195,54445,1,0,0:0:0:0:
244,199,54524,1,0,0:0:0:0:
43,258,54680,5,0,0:0:0:0:
72,262,54758,1,0,0:0:0:0:
101,266,54837,1,6,0:0:0:0:
245,316,54992,6,0,L|229:378,2,58.4999973220826
142,184,55305,5,0,0:0:0:0:
142,184,55383,1,0,0:0:0:0:
142,184,55461,1,6,0:0:0:0:
333,337,55617,1,0,0:0:0:0:
212,128,55774,6,0,P|231:157|221:231,1,107.999996704102
128,95,56086,1,6,0:0:0:0:
311,165,56242,1,0,0:0:0:0:
158,288,56399,1,0,0:0:0:0:
103,77,56555,2,0,B|128:67|128:67|165:72,1,53.9999983520508
197,177,56711,2,0,B|141:194|66:174|66:174|89:188|117:222,1,175.499991966248,6|0,0:0|0:0,0:0:0:0:
158,288,57024,5,2,0:0:0:0:
399,99,57336,1,4,0:0:0:0:
357,230,57492,1,0,0:0:0:0:
264,128,57649,1,0,0:0:0:0:
448,199,57805,2,0,B|460:224|460:224|452:264,1,58.4999973220826
376,123,57961,2,0,B|369:92|369:92|381:67,1,58.4999973220826,4|0,0:0|0:0,0:0:0:0:
329,245,58117,6,0,B|424:237|387:300|501:282,1,175.499991966248
491,306,58430,2,0,B|383:323|420:260|325:268,1,175.499991966248
414,150,58742,2,0,P|477:136|460:221,1,175.499991966248
456,219,59055,1,0,0:0:0:0:
477,56,59211,1,4,0:0:0:0:
377,218,59367,2,0,P|380:251|397:275,1,58.4999973220826
349,375,59524,5,4,0:0:0:0:
341,356,59602,1,4,0:0:0:0:
333,338,59680,1,4,0:0:0:0:
320,323,59758,1,4,0:0:0:0:
305,311,59836,1,4,0:0:0:0:
289,302,59914,1,4,0:0:0:0:
270,296,59992,1,4,0:0:0:0:
252,294,60070,1,4,0:0:0:0:
232,296,60149,6,0,P|204:302|177:323,1,49.5000015106202,4|4,0:0|0:0,0:0:0:0:
306,220,60305,2,0,P|334:226|361:247,1,49.5000015106202,4|4,0:0|0:0,0:0:0:0:
178,159,60461,2,0,P|150:165|123:186,1,49.5000015106202,4|4,0:0|0:0,0:0:0:0:
360,83,60617,2,0,P|388:89|415:110,1,49.5000015106202,4|4,0:0|0:0,0:0:0:0:
139,25,60774,6,0,P|125:28|111:38,4,24.7500007553101,4|4|4|4|4,0:0|0:0|0:0|0:0|0:0,0:0:0:0:
340,152,61086,6,0,P|354:155|368:165,4,24.7500007553101,4|4|4|4|4,0:0|0:0|0:0|0:0|0:0,0:0:0:0:
205,295,61399,6,0,P|201:312|202:332,8,33.7500012874604,4|4|4|4|4|4|4|4|4,0:0|0:0|0:0|0:0|0:0|0:0|0:0|0:0|0:0,0:0:0:0:
205,295,62024,6,0,P|268:253|264:368,1,251.999992309571,4|6,0:0|0:0,0:0:0:0:
355,206,62492,2,0,P|325:222|309:246,1,62.9999980773926
155,288,62649,2,0,P|185:304|201:328,1,62.9999980773926,4|0,0:0|0:0,0:0:0:0:
385,285,62805,1,0,0:0:0:0:
221,174,62961,1,6,0:0:0:0:
332,351,63117,2,0,P|360:368|389:370,1,62.9999980773926
463,169,63274,6,0,B|455:225|455:225|479:278|479:278|468:344,1,175.499991966248,4|0,0:0|0:0,0:0:0:0:
467,351,63586,1,6,0:0:0:0:
340,249,63742,2,0,P|370:265|385:285,1,58.4999973220826
389,369,63899,1,4,0:0:0:0:
257,223,64055,1,0,0:0:0:0:
460,244,64211,2,0,P|472:272|469:302,1,58.4999973220826,6|0,0:0|0:0,0:0:0:0:
387,129,64367,2,0,P|406:102|431:92,1,58.4999973220826
339,245,64524,6,0,L|211:233,1,116.999994644165,4|0,0:0|0:0,0:0:0:0:
213,244,64758,1,0,0:0:0:0:
204,254,64836,2,0,L|262:258,1,58.4999973220826,6|0,0:0|0:0,0:0:0:0:
373,165,64992,2,0,L|315:161,1,58.4999973220826
159,122,65149,6,0,P|159:151|176:184,1,58.4999973220826,4|0,0:0|0:0,0:0:0:0:
316,276,65305,2,0,P|290:261|253:259,1,58.4999973220826
104,334,65461,2,0,P|129:318|150:287,1,58.4999973220826,6|0,0:0|0:0,0:0:0:0:
239,135,65617,1,0,0:0:0:0:
75,258,65774,6,0,B|73:293|89:323|89:323|122:314|146:288,1,135
129,193,66086,2,0,B|99:173|65:172|65:172|57:205|67:239,1,135
158,272,66399,2,0,B|189:256|207:227|207:227|182:203|148:195,1,135
207,342,66711,1,2,0:0:0:0:
213,349,67024,5,4,0:0:0:0:
303,198,67180,2,0,L|295:135,2,58.4999973220826,0|0|6,0:0|0:0|0:0,0:0:0:0:
99,252,67492,5,0,0:0:0:0:
128,256,67570,1,0,0:0:0:0:
157,260,67649,1,4,0:0:0:0:
370,335,67805,5,0,0:0:0:0:
341,339,67883,1,0,0:0:0:0:
312,343,67962,1,6,0:0:0:0:
207,103,68117,5,0,0:0:0:0:
207,103,68195,1,0,0:0:0:0:
207,103,68274,1,4,0:0:0:0:
391,234,68430,6,0,L|383:171,2,58.4999973220826,0|0|6,0:0|0:0|0:0,0:0:0:0:
211,132,68742,5,0,0:0:0:0:
215,161,68820,1,0,0:0:0:0:
219,190,68899,1,4,0:0:0:0:
312,343,69055,5,0,0:0:0:0:
308,314,69133,1,0,0:0:0:0:
304,285,69211,2,0,L|367:293,1,58.4999973220826,6|0,0:0|0:0,0:0:0:0:
167,328,69367,2,0,L|230:336,1,58.4999973220826
90,372,69524,5,4,0:0:0:0:
91,336,69602,1,4,0:0:0:0:
75,305,69680,1,4,0:0:0:0:
45,285,69758,1,4,0:0:0:0:
12,284,69836,5,4,0:0:0:0:
8,266,69914,1,4,0:0:0:0:
4,248,69992,1,4,0:0:0:0:
0,230,70070,1,4,0:0:0:0:
14,202,70149,6,0,L|26:259,1,58.4999973220826,4|4,0:0|0:0,0:0:0:0:
140,326,70305,2,0,L|128:269,1,58.4999973220826,4|4,0:0|0:0,0:0:0:0:
18,114,70461,2,0,P|48:119|73:139,1,58.4999973220826,4|4,0:0|0:0,0:0:0:0:
193,246,70617,2,0,P|169:262|140:267,1,58.4999973220826,4|4,0:0|0:0,0:0:0:0:
171,160,70774,6,0,P|235:160|274:207,1,125.999996154785,12|0,0:0|0:0,0:0:0:0:
333,277,71008,1,0,0:0:0:0:
341,314,71086,2,0,L|365:123,1,188.999994232178,12|0,0:0|0:0,0:0:0:0:
305,42,71399,2,0,B|275:35|275:35|228:49,1,67.5000025749208,12|0,0:0|0:0,0:0:0:0:
462,153,71555,2,0,B|482:156|482:156|506:149,11,37.1250003540516,12|0|0|0|0|0|0|0|0|0|0|0,0:0|0:0|0:0|0:0|0:0|0:0|0:0|0:0|0:0|0:0|0:0|0:0,0:0:0:0:
433,146,72024,6,0,L|442:210,1,53.9999983520508,4|0,0:0|0:0,0:0:0:0:
475,283,72180,1,0,0:0:0:0:
482,292,72258,1,0,0:0:0:0:
488,298,72336,2,0,P|465:308|416:304,1,53.9999983520508,2|0,0:0|0:0,0:0:0:0:
343,213,72492,2,0,P|363:227|384:272,1,53.9999983520508
343,381,72649,6,0,P|345:356|373:315,1,53.9999983520508,4|0,0:0|0:0,0:0:0:0:
440,199,72805,1,0,0:0:0:0:
442,186,72883,1,0,0:0:0:0:
441,172,72961,2,0,P|439:147|411:106,1,53.9999983520508,2|0,0:0|0:0,0:0:0:0:
317,22,73117,1,0,0:0:0:0:
319,35,73195,1,0,0:0:0:0:
322,48,73274,6,0,L|441:38,1,107.999996704102,4|0,0:0|0:0,0:0:0:0:
493,98,73508,1,0,0:0:0:0:
512,109,73586,2,0,L|434:118,1,53.9999983520508,2|0,0:0|0:0,0:0:0:0:
299,192,73742,1,0,0:0:0:0:
299,192,73820,1,0,0:0:0:0:
299,192,73899,6,0,L|377:183,1,53.9999983520508,4|0,0:0|0:0,0:0:0:0:
253,281,74055,2,0,L|331:272,1,53.9999983520508,4|0,0:0|0:0,0:0:0:0:
207,370,74211,2,0,B|265:364|265:364|310:380|310:380|369:374,1,161.999995056153,2|0,0:0|0:0,0:0:0:0:
444,364,74524,5,4,0:0:0:0:
496,245,74680,1,0,0:0:0:0:
503,236,74758,1,0,0:0:0:0:
509,230,74836,2,0,P|486:220|437:224,1,53.9999983520508,2|0,0:0|0:0,0:0:0:0:
306,274,74992,2,0,P|332:272|357:262,1,53.9999983520508
400,160,75149,5,4,0:0:0:0:
257,109,75305,1,0,0:0:0:0:
244,104,75383,1,0,0:0:0:0:
231,99,75461,2,0,L|243:163,1,53.9999983520508,2|0,0:0|0:0,0:0:0:0:
306,274,75617,2,0,L|318:210,1,53.9999983520508
127,116,75774,6,0,P|58:118|118:199,1,188.999994232178,12|0,0:0|0:0,0:0:0:0:
217,275,76086,2,0,B|158:271|158:271|111:295|111:295|16:285,1,188.999994232178,12|0,0:0|0:0,0:0:0:0:
207,186,76399,6,0,B|238:184|238:184|271:203,1,62.9999980773926,12|0,0:0|0:0,0:0:0:0:
265,350,76555,2,0,B|238:366|238:366|207:364,1,62.9999980773926,12|0,0:0|0:0,0:0:0:0:
64,282,76711,1,8,0:0:0:0:
58,235,76789,1,8,0:0:0:0:
52,188,76867,1,8,0:0:0:0:
46,141,76946,1,8,0:0:0:0:
40,94,77024,1,4,0:0:0:0:
207,186,77180,6,0,P|197:211|176:235,1,53.9999983520508
259,121,77336,2,0,P|285:117|316:123,1,53.9999983520508,2|0,0:0|0:0,0:0:0:0:
177,109,77492,2,0,P|160:87|150:57,2,53.9999983520508,0|0|4,0:0|0:0|0:0,0:0:0:0:
393,153,77805,6,0,P|399:127|395:99,1,53.9999983520508
299,32,77961,2,0,P|274:40|252:57,1,53.9999983520508,2|0,0:0|0:0,0:0:0:0:
240,174,78117,2,0,P|261:190|286:201,2,53.9999983520508,0|0|4,0:0|0:0|0:0,0:0:0:0:
419,287,78430,6,0,P|398:270|373:259,1,53.9999983520508
270,250,78586,2,0,P|243:252|217:262,1,53.9999983520508,2|0,0:0|0:0,0:0:0:0:
138,329,78742,2,0,P|121:350|110:374,2,53.9999983520508,0|0|4,0:0|0:0|0:0,0:0:0:0:
119,227,79055,6,0,P|109:201|94:180,1,53.9999983520508
217,261,79211,2,0,P|243:265|269:262,1,53.9999983520508,2|0,0:0|0:0,0:0:0:0:
200,163,79367,1,0,0:0:0:0:
200,163,79445,1,0,0:0:0:0:
200,163,79524,6,0,B|186:44|186:44|196:69|232:92,1,161.999995056153,4|0,0:0|0:0,0:0:0:0:
233,94,79836,2,0,B|179:101|179:101|139:88|139:88|87:95,1,148.50000453186,2|0,0:0|0:0,0:0:0:0:
5,132,80149,6,0,B|-5:100|-5:100|5:60,2,71.9999978027344,4|0|0,0:0|0:0|0:0,0:0:0:0:
96,187,80461,2,0,P|166:210|96:265,1,161.999995056153,2|0,0:0|0:0,0:0:0:0:
256,192,80774,12,0,82024,0:0:0:0:
91,345,92024,5,0,0:0:0:0:
262,306,92336,1,0,0:0:0:0:
190,355,92492,1,0,0:0:0:0:
190,355,92570,1,0,0:0:0:0:
190,355,92649,2,0,P|174:325|178:288,1,62.9999980773926
211,166,92961,2,0,P|227:196|223:233,1,62.9999980773926
102,243,93274,6,0,L|35:236,2,62.9999980773926
15,167,93742,1,0,0:0:0:0:
13,160,93820,1,0,0:0:0:0:
11,153,93899,2,0,L|137:168,1,125.999996154785
243,124,94367,1,0,0:0:0:0:
243,124,94445,1,0,0:0:0:0:
243,124,94524,5,0,0:0:0:0:
153,53,94680,1,0,0:0:0:0:
227,207,94836,2,0,P|266:210|301:185,1,72
348,146,95070,1,0,0:0:0:0:
359,128,95149,2,0,L|351:278,1,144
410,66,95774,5,0,0:0:0:0:
427,72,96008,2,0,L|476:74,1,36
383,147,96164,2,0,L|334:145,2,36
425,219,96399,2,0,B|459:256|459:256|440:350,1,144
458,352,97024,6,0,P|419:368|380:357,1,72
237,320,97336,1,0,0:0:0:0:
246,335,97492,2,0,L|253:245,1,72
417,270,97805,1,0,0:0:0:0:
408,285,97961,2,0,L|401:195,1,72
108,199,98274,6,0,P|147:215|186:204,1,72
329,167,98586,1,0,0:0:0:0:
320,182,98742,2,0,L|313:92,1,72
149,117,99055,1,0,0:0:0:0:
158,132,99211,2,0,L|165:42,1,72
387,171,99524,6,0,P|348:187|309:176,1,72
176,132,99836,1,0,0:0:0:0:
167,117,99992,2,0,L|160:207,1,72
319,181,100305,1,0,0:0:0:0:
328,166,100461,2,0,L|335:256,1,72
116,252,100774,6,0,P|203:199|120:308,1,396
190,275,101711,6,0,L|219:275,1,29.2499986610413,6|0,0:0|0:0,0:0:0:0:
219,275,102024,6,0,B|54:270|54:270|111:287|132:329,1,251.999992309571,12|0,0:0|0:0,0:0:0:0:
141,171,102492,2,0,B|137:237|137:237|161:286|161:286|156:373,1,188.999994232178,4|0,0:0|0:0,0:0:0:0:
0,303,102805,2,0,P|75:279|44:356,1,188.999994232178,4|0,0:0|0:0,0:0:0:0:
39,379,103117,6,0,B|18:241|89:307|71:138,1,242.999992584229,4|0,0:0|0:0,0:0:0:0:
73,119,103899,6,0,B|96:184|56:288|56:288|99:225|139:209,1,283.499991348267,2|0,0:0|0:0,0:0:0:0:
0,210,104524,6,0,B|165:205|165:205|108:222|87:264,1,251.999992309571,4|0,0:0|0:0,0:0:0:0:
179,328,104992,2,0,P|200:287|163:314,1,125.999996154785,4|0,0:0|0:0,0:0:0:0:
132,152,105305,2,0,P|125:182|131:213,1,62.9999980773926,4|0,0:0|0:0,0:0:0:0:
387,292,105461,2,0,P|361:270|326:260,1,62.9999980773926,4|0,0:0|0:0,0:0:0:0:
125,358,105617,2,0,P|157:346|183:321,1,62.9999980773926,4|0,0:0|0:0,0:0:0:0:
254,215,105774,6,0,B|248:273|248:273|265:318|265:318|257:374,1,161.999995056153
102,333,106399,2,0,P|142:342|189:314,1,80.9999975280763,2|0,0:0|0:0,0:0:0:0:
256,293,106711,6,0,P|316:277|376:329,1,135
433,375,107024,6,0,B|428:210|428:210|445:267|487:288,1,251.999992309571,4|0,0:0|0:0,0:0:0:0:
300,361,107492,2,0,B|180:350|180:350|270:326,1,188.999994232178,4|0,0:0|0:0,0:0:0:0:
371,317,107805,2,0,B|491:328|491:328|401:352,1,188.999994232178,4|0,0:0|0:0,0:0:0:0:
246,332,108117,6,0,P|198:298|302:282,1,242.999992584229,4|0,0:0|0:0,0:0:0:0:
306,284,108899,6,0,L|295:182,1,80.9999975280763,2|0,0:0|0:0,0:0:0:0:
317,368,109211,1,0,0:0:0:0:
144,263,109367,1,0,0:0:0:0:
144,263,109445,1,0,0:0:0:0:
144,263,109524,6,0,B|149:98|149:98|132:155|90:176,1,251.999992309571,4|0,0:0|0:0,0:0:0:0:
56,48,109992,2,0,P|35:89|72:62,1,125.999996154785,4|0,0:0|0:0,0:0:0:0:
50,220,110305,2,0,P|77:205|95:180,1,62.9999980773926,4|0,0:0|0:0,0:0:0:0:
202,36,110461,2,0,P|175:19|144:16,1,62.9999980773926,4|0,0:0|0:0,0:0:0:0:
0,89,110617,2,0,P|27:106|58:109,1,62.9999980773926,4|0,0:0|0:0,0:0:0:0:
225,160,110774,6,0,B|206:150|184:119|184:119|200:265,1,188.999994232178
171,274,111399,2,0,L|161:190,1,80.9999975280763,2|0,0:0|0:0,0:0:0:0:
140,181,111711,6,0,P|203:174|260:218,1,135
351,302,112024,6,0,P|280:233|380:232,1,251.999992309571,4|0,0:0|0:0,0:0:0:0:
146,297,112492,1,4,0:0:0:0:
142,308,112805,1,4,0:0:0:0:
351,302,112961,2,0,P|380:310|411:337,1,62.9999980773926
304,230,113117,6,0,B|262:252|249:306|275:352|275:352|221:361|235:258,1,242.999992584229,4|0,0:0|0:0,0:0:0:0:
237,266,113899,6,0,B|273:216|312:230|312:230|274:254|248:289|280:348,1,215.999993408203,2|4,0:0|0:0,0:0:0:0:
169,175,114367,1,4,0:0:0:0:
169,175,114445,1,4,0:0:0:0:
169,175,114524,6,0,P|240:106|140:105,1,251.999992309571,4|0,0:0|0:0,0:0:0:0:
374,170,114992,1,4,0:0:0:0:
378,181,115305,2,0,P|405:192|446:190,1,62.9999980773926,4|0,0:0|0:0,0:0:0:0:
256,218,115461,2,0,P|232:236|213:272,1,62.9999980773926,4|0,0:0|0:0,0:0:0:0:
284,93,115617,2,0,P|280:63|258:28,1,62.9999980773926,4|0,0:0|0:0,0:0:0:0:
74,205,115774,6,0,B|137:200|137:200|185:225|185:225|260:217,1,188.999994232178
340,250,116399,2,0,L|351:186,1,45,2|0,0:0|0:0,0:0:0:0:
193,97,116711,2,0,L|204:161,1,45,4|0,0:0|0:0,0:0:0:0:
119,339,117024,6,0,P|95:277|192:323,1,251.999992309571,4|0,0:0|0:0,0:0:0:0:
115,149,117492,1,4,0:0:0:0:
111,137,117805,1,4,0:0:0:0:
195,317,117961,2,0,P|203:343|196:383,1,62.9999980773926
40,249,118117,6,0,B|188:235|188:235|138:244|116:290,1,242.999992584229,4|0,0:0|0:0,0:0:0:0:
69,232,118899,6,0,L|175:222,1,90,2|0,0:0|0:0,0:0:0:0:
239,320,119211,2,0,L|185:315,1,45
239,216,119367,1,4,0:0:0:0:
239,216,119445,1,4,0:0:0:0:
239,216,119524,6,0,P|320:197|271:303,1,251.999992309571,4|0,0:0|0:0,0:0:0:0:
362,112,119992,1,4,0:0:0:0:
369,100,120305,2,0,P|400:89|437:97,1,62.9999980773926,4|0,0:0|0:0,0:0:0:0:
299,222,120461,2,0,P|268:226|238:215,1,62.9999980773926,4|0,0:0|0:0,0:0:0:0:
452,187,120617,2,0,P|471:211|476:242,1,62.9999980773926,4|0,0:0|0:0,0:0:0:0:
275,144,120774,6,0,B|258:15|258:15|265:33|298:64,1,188.999994232178
270,90,121399,6,0,P|231:103|189:92,1,80.9999975280763,2|0,0:0|0:0,0:0:0:0:
175,105,121711,6,0,P|214:118|256:107,1,80.9999975280763
378,167,122024,6,0,P|335:163|292:195,1,90,4|0,0:0|0:0,0:0:0:0:
88,192,122336,1,2,0:0:0:0:
359,257,122492,1,0,0:0:0:0:
204,146,122649,2,0,L|195:200,1,45,4|0,0:0|0:0,0:0:0:0:
212,332,122805,2,0,L|203:278,1,45,4|0,0:0|0:0,0:0:0:0:
208,124,122961,1,2,0:0:0:0:
30,258,123117,6,0,P|66:282|110:278,1,90,0|4,0:0|0:0,0:0:0:0:
187,238,123352,1,0,0:0:0:0:
210,215,123430,2,0,L|197:329,1,90,0|2,0:0|0:0,0:0:0:0:
88,192,123742,5,0,0:0:0:0:
64,159,123820,1,0,0:0:0:0:
64,118,123899,1,0,0:0:0:0:
88,85,123977,1,0,0:0:0:0:
126,73,124055,1,4,0:0:0:0:
165,85,124133,1,0,0:0:0:0:
188,118,124211,2,0,B|133:117|133:117|91:132|91:132|23:129,1,161.999995056153,2|0,0:0|0:0,0:0:0:0:
9,168,124524,6,0,L|-2:66,1,90,4|0,0:0|0:0,0:0:0:0:
17,252,124836,1,2,0:0:0:0:
154,196,124992,1,0,0:0:0:0:
154,196,125070,1,0,0:0:0:0:
154,196,125149,2,0,L|160:138,1,45,4|0,0:0|0:0,0:0:0:0:
236,249,125305,2,0,L|242:191,1,45,4|0,0:0|0:0,0:0:0:0:
318,302,125461,2,0,P|379:293|429:344,1,135,2|0,0:0|0:0,0:0:0:0:
433,358,125774,5,4,0:0:0:0:
462,230,125930,1,0,0:0:0:0:
362,370,126086,2,0,L|352:229,1,135,2|4,0:0|0:0,0:0:0:0:
335,215,126399,2,0,B|360:210|360:210|405:223,1,45
254,312,126555,2,0,B|229:317|229:317|184:304,1,45,4|0,0:0|0:0,0:0:0:0:
112,234,126711,2,0,B|103:357|103:357|91:322|73:312,1,161.999995056153,2|0,0:0|0:0,0:0:0:0:
0,285,127024,6,0,P|49:285|82:321,1,90,4|0,0:0|0:0,0:0:0:0:
208,334,127336,1,2,0:0:0:0:
19,365,127492,1,0,0:0:0:0:
105,189,127649,2,0,L|114:249,1,45,4|0,0:0|0:0,0:0:0:0:
113,366,127805,2,0,L|122:306,1,45,4|0,0:0|0:0,0:0:0:0:
193,201,127961,2,0,L|202:261,1,45,2|0,0:0|0:0,0:0:0:0:
208,334,128117,6,0,P|253:337|295:304,1,90,0|4,0:0|0:0,0:0:0:0:
44,282,128430,2,0,L|-16:291,2,45,0|0|2,0:0|0:0|0:0,0:0:0:0:
230,247,128742,5,0,0:0:0:0:
254,214,128820,1,0,0:0:0:0:
254,173,128899,1,0,0:0:0:0:
230,140,128977,1,0,0:0:0:0:
192,128,129055,1,4,0:0:0:0:
153,140,129133,1,0,0:0:0:0:
130,173,129211,1,2,0:0:0:0:
126,190,129524,6,0,L|121:99,1,90,4|0,0:0|0:0,0:0:0:0:
367,277,129836,2,0,L|372:186,1,90,2|0,0:0|0:0,0:0:0:0:
429,107,130070,1,0,0:0:0:0:
438,95,130149,2,0,P|417:103|382:103,1,45,4|0,0:0|0:0,0:0:0:0:
284,8,130305,2,0,P|301:22|318:52,1,45,4|0,0:0|0:0,0:0:0:0:
286,185,130461,2,0,P|289:162|307:132,1,45,2|0,0:0|0:0,0:0:0:0:
298,142,130774,6,0,P|254:150|197:117,1,90,4|0,0:0|0:0,0:0:0:0:
385,105,131086,2,0,B|392:163|392:163|375:198|375:198|383:266,1,161.999995056153,2|4,0:0|0:0,0:0:0:0:
385,280,131399,1,0,0:0:0:0:
511,194,131555,1,4,0:0:0:0:
307,303,131711,2,0,P|361:361|446:334,1,175.499991966248,2|0,0:0|0:0,0:0:0:0:
486,271,132024,6,0,L|495:383,1,90,4|0,0:0|0:0,0:0:0:0:
303,222,132336,1,10,0:0:0:0:
467,266,132492,6,0,L|476:378,1,90,0|4,0:0|0:0,0:0:0:0:
284,217,132804,1,0,0:0:0:0:
448,261,132961,6,0,L|457:373,1,90,10|0,0:0|0:0,0:0:0:0:
159,173,133274,6,0,L|150:285,1,90,4|0,0:0|0:0,0:0:0:0:
342,124,133586,1,10,0:0:0:0:
178,168,133742,6,0,L|169:280,1,90
361,119,134054,5,12,0:0:0:0:
197,163,134211,1,2,0:0:0:0:
318,284,134367,1,0,0:0:0:0:
421,54,134524,6,0,P|385:32|335:35,1,90,4|0,0:0|0:0,0:0:0:0:
309,189,134836,1,10,0:0:0:0:
387,203,134992,6,0,P|424:182|446:138,1,90,0|4,0:0|0:0,0:0:0:0:
326,38,135305,1,4,0:0:0:0:
274,99,135461,6,0,P|272:141|300:182,1,90,10|0,0:0|0:0,0:0:0:0:
448,128,135774,6,0,L|384:122,1,45,12|0,0:0|0:0,0:0:0:0:
270,201,135930,2,0,L|334:195,1,45,8|0,0:0|0:0,0:0:0:0:
458,249,136086,2,0,L|394:243,1,45,10|0,0:0|0:0,0:0:0:0:
280,322,136242,2,0,L|344:316,1,45,8|4,0:0|0:0,0:0:0:0:
483,252,136399,5,8,0:0:0:0:
245,204,136555,1,12,0:0:0:0:
473,131,136711,1,10,0:0:0:0:
235,83,136867,1,8,0:0:0:0:
389,28,137024,6,0,L|398:140,1,90,12|0,0:0|0:0,0:0:0:0:
370,23,137336,6,0,L|379:135,1,90,10|0,0:0|0:0,0:0:0:0:
351,18,137649,6,0,L|355:90,1,45,4|0,0:0|0:0,0:0:0:0:
327,141,137805,2,0,L|331:213,1,45,4|0,0:0|0:0,0:0:0:0:
303,264,137961,2,0,P|263:283|208:271,1,90,10|0,0:0|0:0,0:0:0:0:
123,356,138274,6,0,L|114:244,1,90,12|0,0:0|0:0,0:0:0:0:
142,361,138586,6,0,L|133:249,1,90,10|0,0:0|0:0,0:0:0:0:
161,366,138899,6,0,L|157:294,1,45,4|0,0:0|0:0,0:0:0:0:
185,243,139055,2,0,L|181:171,1,45,4|0,0:0|0:0,0:0:0:0:
209,120,139211,2,0,P|249:101|304:113,1,90,10|0,0:0|0:0,0:0:0:0:
392,368,139524,5,12,0:0:0:0:
392,152,139680,1,8,0:0:0:0:
264,325,139836,1,10,0:0:0:0:
469,260,139992,1,8,0:0:0:0:
264,193,140149,6,0,B|289:201|289:201|321:198,1,53.9999983520508,12|0,0:0|0:0,0:0:0:0:
469,260,140305,2,0,B|444:268|444:268|419:289,1,53.9999983520508,12|0,0:0|0:0,0:0:0:0:
264,325,140461,2,0,B|279:303|279:303|286:272,1,53.9999983520508,10|0,0:0|0:0,0:0:0:0:
392,152,140617,2,0,B|392:178|392:178|404:207,1,53.9999983520508,8|0,0:0|0:0,0:0:0:0:
392,368,140774,5,4,0:0:0:0:
376,336,140852,1,4,0:0:0:0:
355,307,140930,1,4,0:0:0:0:
330,289,141008,1,4,0:0:0:0:
299,275,141086,1,4,0:0:0:0:
268,272,141164,1,4,0:0:0:0:
234,275,141242,1,4,0:0:0:0:
204,289,141320,1,4,0:0:0:0:
176,307,141399,1,4,0:0:0:0:
172,322,141711,6,0,P|228:361|228:269,1,202.500007724762,2|0,0:0|0:0,0:0:0:0:
130,350,142024,6,0,B|197:345|197:345|245:367|245:367|316:361,1,188.999994232178,4|0,0:0|0:0,0:0:0:0:
403,379,142336,2,0,B|413:241|413:241|405:267|372:293,1,202.500007724762
278,202,142649,2,0,P|304:216|336:215,1,58.4999973220826,2|0,0:0|0:0,0:0:0:0:
500,290,142805,1,0,0:0:0:0:
504,297,142883,1,0,0:0:0:0:
508,304,142961,2,0,P|482:318|450:317,1,58.4999973220826
368,357,143117,6,0,B|350:312|372:274|372:274|351:241|351:241|370:211|365:167,1,202.500007724762
359,152,143430,1,0,0:0:0:0:
192,292,143586,2,0,B|337:282|337:282|312:293|295:322,1,202.500007724762
172,375,143899,2,0,P|142:366|120:345,1,58.4999973220826,2|0,0:0|0:0,0:0:0:0:
111,195,144055,1,0,0:0:0:0:
118,199,144133,1,0,0:0:0:0:
125,203,144211,2,0,P|132:233|125:263,1,58.4999973220826
0,329,144367,2,0,P|22:307|51:298,1,58.4999973220826
212,282,144524,6,0,P|160:342|196:205,1,472.500018024445,4|0,0:0|0:0,0:0:0:0:
126,259,145149,6,0,B|98:265|98:265|70:256,1,58.4999973220826,2|0,0:0|0:0,0:0:0:0:
273,223,145305,2,0,B|301:217|301:217|329:226,1,58.4999973220826
208,338,145461,2,0,B|202:310|202:310|211:282,1,58.4999973220826
195,144,145617,2,0,B|201:172|201:172|192:200,1,58.4999973220826
191,200,145930,5,0,0:0:0:0:
415,243,146086,2,0,B|422:147|422:147|396:187,1,135.000005149842
124,319,146399,2,0,B|188:325|188:325|230:353|230:353|305:360,1,188.999994232178,2|0,0:0|0:0,0:0:0:0:
441,367,146711,1,4,0:0:0:0:
441,367,147024,6,0,B|302:359|302:359|386:387,1,202.500007724762,4|0,0:0|0:0,0:0:0:0:
390,184,147336,2,0,B|406:314|340:244|362:382,1,202.500007724762
448,331,147649,2,0,P|469:311|497:302,1,58.4999973220826,2|0,0:0|0:0,0:0:0:0:
308,221,147805,2,0,P|286:201|259:193,1,58.4999973220826
472,147,147961,1,0,0:0:0:0:
242,192,148117,6,0,P|181:133|300:133,1,270.000010299683
302,135,148586,6,0,L|162:140,1,135
148,157,148899,6,0,L|221:154,1,62.9999980773926,2|0,0:0|0:0,0:0:0:0:
246,60,149055,1,0,0:0:0:0:
251,50,149133,1,0,0:0:0:0:
256,40,149211,2,0,L|183:43,1,62.9999980773926
129,175,149367,2,0,L|202:172,1,62.9999980773926
309,115,149524,6,0,B|236:111|236:111|187:138|187:138|107:133,1,202.500007724762,4|0,0:0|0:0,0:0:0:0:
175,74,149836,2,0,B|207:27|207:27|188:203,1,202.500007724762
173,265,150149,2,0,P|195:269|231:256,1,58.4999973220826,2|0,0:0|0:0,0:0:0:0:
372,211,150305,2,0,P|345:200|316:203,1,58.4999973220826
242,345,150461,1,0,0:0:0:0:
309,115,150617,1,0,0:0:0:0:
147,261,150774,5,4,0:0:0:0:
160,263,150852,1,0,0:0:0:0:
173,265,150930,2,0,P|195:269|231:256,1,58.4999973220826
316,202,151086,5,0,0:0:0:0:
329,200,151164,1,0,0:0:0:0:
342,198,151242,2,0,P|364:194|400:207,1,58.4999973220826
470,280,151399,6,0,L|472:316,3,33.7500012874604
394,299,151555,2,0,L|396:335,3,33.7500012874604
318,318,151711,2,0,L|322:386,1,62.9999980773926,2|0,0:0|0:0,0:0:0:0:
314,384,152024,6,0,B|310:333|310:333|294:304|294:304|308:274|308:274|305:211,1,175.499991966248,4|0,0:0|0:0,0:0:0:0:
304,203,152336,1,0,0:0:0:0:
170,329,152492,2,0,P|195:332|228:353,1,58.4999973220826
256,192,152649,12,0,153586,0:0:0:0:
150,339,154524,6,0,L|145:288,1,40.4999987640381,4|0,0:0|0:0,0:0:0:0:
318,251,154680,2,0,L|323:200,1,40.4999987640381
93,73,154836,2,0,B|213:55|213:55|209:103|209:103|161:114,1,216
291,104,155149,6,0,L|295:46,1,58.4999973220826,2|0,0:0|0:0,0:0:0:0:
139,211,155305,2,0,P|169:213|200:201,1,58.4999973220826
374,259,155461,2,0,P|346:249|317:251,1,58.4999973220826
196,370,155617,2,0,P|218:350|231:324,1,58.4999973220826
235,208,155774,6,0,B|175:204|175:204|129:228|129:228|49:225,1,175.499991966248,4|0,0:0|0:0,0:0:0:0:
43,224,156086,2,0,B|40:253|40:253|50:283,2,58.4999973220826
322,216,156399,1,2,0:0:0:0:
111,142,156555,1,0,0:0:0:0:
107,136,156633,1,0,0:0:0:0:
103,130,156711,1,4,0:0:0:0:
203,323,156867,1,0,0:0:0:0:
199,329,156945,1,0,0:0:0:0:
196,335,157024,6,0,B|146:341|104:307|96:252|123:197|191:185|241:211|245:267|245:267|264:293|356:298|356:298|323:306|297:336,1,472.500018024445,4|0,0:0|0:0,0:0:0:0:
322,216,157649,2,0,P|317:186|339:141,1,67.5000025749208,2|0,0:0|0:0,0:0:0:0:
428,259,157805,2,0,P|440:290|435:323,1,67.5000025749208
430,176,157961,2,0,P|450:150|481:137,1,67.5000025749208
358,216,158118,2,0,P|324:210|298:190,1,67.5000025749208
503,216,158274,5,4,0:0:0:0:
360,85,158430,1,0,0:0:0:0:
352,81,158508,1,0,0:0:0:0:
344,77,158586,2,0,L|357:205,1,116.999994644165
224,306,158899,2,0,P|305:285|266:363,1,202.500007724762,2|0,0:0|0:0,0:0:0:0:
412,306,159211,2,0,P|435:307|461:322,1,38.2500007295609,14|0,0:0|0:0,0:0:0:0:
459,318,159524,6,0,B|454:262|454:262|478:215|478:215|472:146,1,175.499991966248,4|0,0:0|0:0,0:0:0:0:
465,129,159836,2,0,L|474:53,2,58.4999973220826
327,212,160149,6,0,P|356:207|386:188,1,58.4999973220826,2|0,0:0|0:0,0:0:0:0:
510,135,160305,2,0,P|484:120|456:115,1,58.4999973220826
327,65,160461,2,0,L|333:124,1,58.4999973220826
483,227,160617,2,0,L|477:286,1,58.4999973220826
344,367,160774,5,4,0:0:0:0:
344,367,160930,2,0,P|369:373|409:365,1,58.4999973220826
254,342,161086,2,0,B|234:333|209:336|209:336|179:363|117:347|117:347|142:374|169:371,1,202.500007724762
330,376,161399,6,0,P|335:354|331:319,1,58.4999973220826,2|0,0:0|0:0,0:0:0:0:
226,234,161555,1,0,0:0:0:0:
226,234,161633,1,0,0:0:0:0:
226,234,161711,2,0,P|221:212|225:177,1,58.4999973220826,4|0,0:0|0:0,0:0:0:0:
289,77,161867,2,0,P|294:55|290:20,1,58.4999973220826
225,176,162024,6,0,B|146:152|146:152|244:153|349:93|349:93|318:158|350:228|350:228|304:194,1,472.500018024445,4|0,0:0|0:0,0:0:0:0:
397,294,162649,6,0,P|372:308|341:307,1,58.4999973220826,2|0,0:0|0:0,0:0:0:0:
261,159,162805,2,0,P|289:158|315:172,1,58.4999973220826
239,354,162961,2,0,P|224:330|223:300,1,58.4999973220826
419,276,163117,2,0,P|405:300|380:316,1,58.4999973220826
157,232,163274,6,0,B|216:229|216:229|257:254|257:254|327:250,1,175.499991966248,4|0,0:0|0:0,0:0:0:0:
340,260,163586,2,0,L|353:187,1,58.4999973220826
204,367,163742,2,0,L|191:294,1,58.4999973220826
161,150,163899,1,2,0:0:0:0:
161,150,164211,6,0,P|128:177|59:167,1,108,4|0,0:0|0:0,0:0:0:0:
47,212,164524,6,0,B|58:56|58:56|77:120,1,202.500007724762,4|0,0:0|0:0,0:0:0:0:
52,213,164836,6,0,L|-7:205,1,49.5000015106202,2|0,0:0|0:0,0:0:0:0:
141,68,164992,2,0,L|200:60,1,49.5000015106202
184,246,165149,6,0,P|142:193|246:203,1,202.500007724762,4|0,0:0|0:0,0:0:0:0:
241,179,165461,1,2,0:0:0:0:
54,336,165617,1,0,0:0:0:0:
216,327,165774,6,0,B|171:325|171:325|138:340|138:340|70:337,1,135.000005149842,4|0,0:0|0:0,0:0:0:0:
356,335,166086,2,0,B|215:328|215:328|278:357,1,202.500007724762,2|0,0:0|0:0,0:0:0:0:
417,269,166399,2,0,P|395:250|353:249,1,67.5000025749208
211,222,166555,2,0,P|244:220|270:200,1,67.5000025749208
354,106,166711,6,0,B|348:155|348:155|364:203|364:203|356:252,1,144,2|0,0:0|0:0,0:0:0:0:
356,335,166945,1,0,0:0:0:0:
327,348,167024,2,0,B|378:342|472:365|472:365|437:347|416:306,1,216,4|0,0:0|0:0,0:0:0:0:
467,203,167336,5,2,0:0:0:0:
147,272,167492,2,0,L|281:278,1,107.999996704102
392,151,167805,2,0,P|378:181|382:214,1,53.9999983520508,2|0,0:0|0:0,0:0:0:0:
435,333,167961,2,0,P|433:306|421:282,1,53.9999983520508
281,184,168117,6,0,P|236:167|177:181,1,107.999996704102,0|4,0:0|0:0,0:0:0:0:
467,203,168430,2,0,L|507:199,4,31.4999990386963,0|0|0|0|2,0:0|0:0|0:0|0:0|0:0,0:0:0:0:
225,310,168742,2,0,L|161:305,1,53.9999983520508
327,204,168899,1,2,0:0:0:0:
367,345,169055,1,4,0:0:0:0:
127,291,169211,2,0,B|288:306|288:306|228:322,1,202.500007724762,2|0,0:0|0:0,0:0:0:0:
247,350,169524,6,0,P|219:311|238:237,1,116.999994644165,4|0,0:0|0:0,0:0:0:0:
378,153,169836,2,0,B|335:138|335:138|290:159|290:159|248:141|248:141|197:159,1,188.999994232178,2|0,0:0|0:0,0:0:0:0:
173,180,170149,2,0,L|158:115,1,53.9999983520508
325,282,170305,2,0,L|340:217,1,53.9999983520508,4|0,0:0|0:0,0:0:0:0:
110,283,170461,2,0,P|178:266|246:356,1,188.999994232178,2|0,0:0|0:0,0:0:0:0:
163,347,170774,5,4,0:0:0:0:
356,372,170930,1,0,0:0:0:0:
84,379,171086,2,0,B|74:323|74:323|96:274|96:274|86:209,1,175.499991966248,2|0,0:0|0:0,0:0:0:0:
84,194,171399,1,4,0:0:0:0:
218,359,171555,2,0,P|189:359|158:342,1,58.4999973220826
186,234,171711,6,0,B|334:226|334:226|269:270,1,216,2|0,0:0|0:0,0:0:0:0:
357,359,172024,5,4,0:0:0:0:
357,349,172102,1,4,0:0:0:0:
357,339,172180,1,4,0:0:0:0:
357,329,172258,1,4,0:0:0:0:
412,273,172336,5,4,0:0:0:0:
412,263,172414,1,4,0:0:0:0:
412,253,172492,1,4,0:0:0:0:
412,243,172570,1,4,0:0:0:0:
467,187,172649,6,0,L|466:126,1,58.4999973220826,4|4,0:0|0:0,0:0:0:0:
320,41,172805,2,0,L|321:102,1,58.4999973220826,4|4,0:0|0:0,0:0:0:0:
483,177,172961,6,0,L|482:116,1,58.4999973220826,4|4,0:0|0:0,0:0:0:0:
336,31,173117,2,0,L|337:92,1,58.4999973220826,4|4,0:0|0:0,0:0:0:0:
290,221,173274,6,0,P|305:230|329:232,4,29.2499986610413,4|4|4|4|4,0:0|0:0|0:0|0:0|0:0,0:0:0:0:
214,136,173586,2,0,P|218:152|233:171,8,29.2499986610413,4|4|4|4|4|4|4|4|0,0:0|0:0|0:0|0:0|0:0|0:0|0:0|0:0|0:0,0:0:0:0:
224,162,174524,6,0,P|234:136|231:102,1,53.9999983520508,4|0,0:0|0:0,0:0:0:0:
113,237,174680,2,0,B|165:232|165:232|213:253|213:253|271:248,1,161.999995056153
298,246,174992,2,0,L|351:255,2,53.9999983520508
152,318,175305,1,4,0:0:0:0:
372,340,175461,2,0,L|319:331,1,53.9999983520508,2|0,0:0|0:0,0:0:0:0:
233,365,175617,1,0,0:0:0:0:
226,368,175695,1,0,0:0:0:0:
219,371,175774,6,0,P|198:326|217:267,1,107.999996704102
329,148,176086,1,2,0:0:0:0:
464,349,176242,2,0,B|411:340|411:340|364:348|364:348|291:334,1,161.999995056153
301,324,176555,2,0,L|290:267,1,53.9999983520508,4|0,0:0|0:0,0:0:0:0:
335,66,176711,5,2,0:0:0:0:
383,81,176790,1,0,0:0:0:0:
412,122,176868,1,0,0:0:0:0:
412,173,176946,1,0,0:0:0:0:
383,215,177024,6,0,B|302:201|277:137|277:137|314:162|352:144,1,202.500007724762,4|0,0:0|0:0,0:0:0:0:
334,230,177336,1,2,0:0:0:0:
98,136,177492,2,0,B|184:149|184:149|268:121,1,161.999995056153
266,104,177805,2,0,L|256:166,1,53.9999983520508,4|0,0:0|0:0,0:0:0:0:
150,235,177961,2,0,L|160:297,1,53.9999983520508,2|0,0:0|0:0,0:0:0:0:
284,367,178117,6,0,B|308:301|308:301|289:256,1,107.999996704102,0|4,0:0|0:0,0:0:0:0:
76,124,178430,2,0,P|55:158|89:127,1,125.999996154785
202,241,178743,2,0,P|175:242|149:234,1,53.9999983520508
2,267,178899,2,0,P|27:259|60:262,1,53.9999983520508
189,158,179055,1,4,0:0:0:0:
70,266,179211,2,0,L|74:369,1,90
83,369,179524,6,0,L|77:206,1,161.999995056153,4|0,0:0|0:0,0:0:0:0:
76,190,179836,1,2,0:0:0:0:
226,261,179992,2,0,P|204:282|180:291,1,53.9999983520508
35,295,180149,6,0,P|115:289|160:372,1,175.499991966248
160,375,180461,1,2,0:0:0:0:
157,216,180617,2,0,P|155:189|163:163,1,53.9999983520508
211,82,180774,5,4,0:0:0:0:
84,125,180930,1,0,0:0:0:0:
254,209,181086,2,0,P|298:225|367:195,1,107.999996704102,2|0,0:0|0:0,0:0:0:0:
127,252,181399,1,0,0:0:0:0:
305,87,181555,2,0,L|309:156,1,53.9999983520508,4|0,0:0|0:0,0:0:0:0:
354,324,181711,5,2,0:0:0:0:
312,353,181789,1,0,0:0:0:0:
261,353,181867,1,0,0:0:0:0:
220,324,181945,1,0,0:0:0:0:
205,276,182024,6,0,L|208:222,3,53.9999983520508,4|4|4|4,0:0|0:0|0:0|0:0,0:0:0:0:
111,249,182336,2,0,L|114:195,3,53.9999983520508,4|4|4|4,0:0|0:0|0:0|0:0,0:0:0:0:
17,222,182649,6,0,B|11:196|11:196|23:153,1,60.7500002317429,4|4,0:0|0:0,0:0:0:0:
233,57,182805,2,0,B|239:82|239:82|227:125,1,60.7500002317429,4|4,0:0|0:0,0:0:0:0:
141,274,182961,2,0,B|115:266|115:266|84:234,1,60.7500002317429,4|4,0:0|0:0,0:0:0:0:
108,5,183117,2,0,B|133:12|133:12|164:44,1,60.7500002317429,4|4,0:0|0:0,0:0:0:0:
250,192,183274,2,0,B|233:208|233:208|200:216,4,38.2500007295609,4|4|4|4|4,0:0|0:0|0:0|0:0|0:0,0:0:0:0:
0,87,183586,2,0,B|17:71|17:71|50:63,4,38.2500007295609,4|4|4|4|4,0:0|0:0|0:0|0:0|0:0,0:0:0:0:
124,139,183899,5,0,0:0:0:0:
125,155,183977,1,0,0:0:0:0:
126,171,184055,1,0,0:0:0:0:
127,187,184133,1,0,0:0:0:0:
128,203,184211,1,0,0:0:0:0:
129,219,184289,1,0,0:0:0:0:
130,235,184367,1,0,0:0:0:0:
131,251,184445,1,0,0:0:0:0:
161,278,184524,6,0,L|44:268,1,107.999996704102,4|0,0:0|0:0,0:0:0:0:
282,214,184836,1,4,0:0:0:0:
196,362,184992,1,0,0:0:0:0:
233,142,185149,2,0,B|255:126|255:126|288:126,1,53.9999983520508,4|0,0:0|0:0,0:0:0:0:
368,207,185305,2,0,B|370:233|370:233|353:263,1,53.9999983520508
244,291,185461,2,0,B|219:279|219:279|202:250,1,53.9999983520508,4|0,0:0|0:0,0:0:0:0:
282,214,185617,6,0,L|317:218,4,26.9999991760254,0|0|0|0|4,0:0|0:0|0:0|0:0|0:0,0:0:0:0:
122,264,185930,2,0,L|62:270,2,53.9999983520508,0|0|4,0:0|0:0|0:0,0:0:0:0:
302,333,186242,1,0,0:0:0:0:
275,335,186320,1,0,0:0:0:0:
248,337,186399,1,4,0:0:0:0:
102,169,186555,1,0,0:0:0:0:
129,171,186633,1,0,0:0:0:0:
156,173,186711,2,0,L|147:102,1,53.9999983520508,4|0,0:0|0:0,0:0:0:0:
169,31,186867,1,0,0:0:0:0:
196,33,186945,1,0,0:0:0:0:
223,35,187024,6,0,L|237:141,1,107.999996704102,4|0,0:0|0:0,0:0:0:0:
252,313,187336,2,0,P|302:289|357:302,1,107.999996704102,4|0,0:0|0:0,0:0:0:0:
161,255,187649,1,4,0:0:0:0:
313,373,187805,1,0,0:0:0:0:
339,183,187961,2,0,L|278:176,1,53.9999983520508,4|0,0:0|0:0,0:0:0:0:
132,235,188117,2,0,L|193:228,1,53.9999983520508
189,115,188274,5,4,0:0:0:0:
259,289,188430,2,0,P|269:315|273:275,1,107.999996704102,0|4,0:0|0:0,0:0:0:0:
53,242,188742,1,0,0:0:0:0:
209,227,188899,1,4,0:0:0:0:
32,341,189055,2,0,L|93:334,1,53.9999983520508
168,181,189211,2,0,P|147:234|42:232,1,161.999995056153,4|0,0:0|0:0,0:0:0:0:
90,167,189524,5,4,0:0:0:0:
293,224,189680,1,4,0:0:0:0:
142,371,189836,1,12,0:0:0:0:
151,375,190149,5,4,0:0:0:0:
244,210,190305,1,0,0:0:0:0:
217,212,190383,1,0,0:0:0:0:
190,214,190462,1,12,0:0:0:0:
383,283,190617,1,0,0:0:0:0:
356,281,190695,1,0,0:0:0:0:
329,279,190774,6,0,P|324:227|417:177,1,161.999995056153,4|0,0:0|0:0,0:0:0:0:
465,257,191086,2,0,P|471:286|464:313,1,53.9999983520508,12|0,0:0|0:0,0:0:0:0:
379,370,191242,1,0,0:0:0:0:
372,367,191320,1,0,0:0:0:0:
365,364,191399,2,0,L|253:371,1,107.999996704102,4|0,0:0|0:0,0:0:0:0:
161,352,191633,1,0,0:0:0:0:
138,358,191711,2,0,L|78:350,3,53.9999983520508,12|0|0|0,0:0|0:0|0:0|0:0,0:0:0:0:
102,271,192024,5,4,0:0:0:0:
68,244,192102,1,0,0:0:0:0:
49,205,192180,1,0,0:0:0:0:
49,161,192258,1,0,0:0:0:0:
68,123,192336,1,12,0:0:0:0:
102,96,192414,1,0,0:0:0:0:
144,86,192492,1,0,0:0:0:0:
186,96,192570,1,0,0:0:0:0:
220,123,192649,6,0,L|215:190,1,53.9999983520508,4|0,0:0|0:0,0:0:0:0:
309,258,192805,2,0,L|304:191,1,53.9999983520508,4|0,0:0|0:0,0:0:0:0:
335,79,192961,5,12,0:0:0:0:
367,50,193039,1,0,0:0:0:0:
408,36,193117,1,4,0:0:0:0:
451,39,193195,1,0,0:0:0:0:
490,58,193274,2,0,B|465:104|465:104|480:183,1,121.500000463486,4|0,0:0|0:0,0:0:0:0:
397,223,193508,1,0,0:0:0:0:
406,234,193586,2,0,B|431:280|431:280|416:359,1,121.500000463486,4|0,0:0|0:0,0:0:0:0:
388,212,193899,6,0,L|379:176,7,30.3750001158714,2|2|2|2|2|2|2|2,0:0|0:0|0:0|0:0|0:0|0:0|0:0|0:0,0:0:0:0:
298,197,194211,2,0,L|288:159,1,38.2500007295609,6|0,0:0|0:0,0:0:0:0:
264,130,194524,6,0,P|303:98|365:111,1,107.999996704102,4|0,0:0|0:0,0:0:0:0:
208,205,194836,1,2,0:0:0:0:
287,11,194992,2,0,L|295:68,1,53.9999983520508
160,133,195149,2,0,L|168:76,1,53.9999983520508,4|0,0:0|0:0,0:0:0:0:
357,105,195305,1,0,0:0:0:0:
304,247,195461,1,2,0:0:0:0:
157,226,195617,6,0,L|130:229,4,26.9999991760254,0|0|0|0|4,0:0|0:0|0:0|0:0|0:0,0:0:0:0:
366,187,195930,2,0,L|427:194,2,53.9999983520508,0|0|2,0:0|0:0|0:0,0:0:0:0:
193,129,196242,1,0,0:0:0:0:
160,133,196320,1,0,0:0:0:0:
127,137,196399,1,4,0:0:0:0:
257,12,196555,1,0,0:0:0:0:
290,16,196633,1,0,0:0:0:0:
323,20,196711,2,0,P|342:71|318:122,1,107.999996704102,2|0,0:0|0:0,0:0:0:0:
238,155,196945,1,0,0:0:0:0:
205,159,197023,6,0,P|186:210|210:261,1,107.999996704102,4|0,0:0|0:0,0:0:0:0:
426,311,197336,2,0,B|369:318|369:318|334:349|334:349|269:359,1,161.999995056153,2|0,0:0|0:0,0:0:0:0:
258,360,197649,1,4,0:0:0:0:
512,246,197805,2,0,L|504:311,1,53.9999983520508
365,363,197961,2,0,P|331:316|425:313,1,188.999994232178,2|0,0:0|0:0,0:0:0:0:
426,311,198274,5,4,0:0:0:0:
235,275,198430,2,0,B|148:290|148:290|205:298,1,125.999996154785,0|2,0:0|0:0,0:0:0:0:
368,183,198742,1,0,0:0:0:0:
288,356,198899,1,4,0:0:0:0:
177,199,199055,2,0,B|205:191|205:191|239:201,1,53.9999983520508
447,217,199211,2,0,P|404:269|311:247,1,161.999995056153,2|0,0:0|0:0,0:0:0:0:
296,269,199524,6,0,L|306:204,1,53.9999983520508,4|0,0:0|0:0,0:0:0:0:
134,271,199680,2,0,L|126:218,1,53.9999983520508,4|0,0:0|0:0,0:0:0:0:
280,360,199836,6,0,B|271:216|271:216|303:285,1,202.500007724762,4|0,0:0|0:0,0:0:0:0:
170,347,200149,6,0,P|142:357|109:354,1,53.9999983520508,4|0,0:0|0:0,0:0:0:0:
238,278,200305,2,0,P|264:277|289:287,2,53.9999983520508,0|0|2,0:0|0:0|0:0,0:0:0:0:
37,319,200617,6,0,L|25:209,1,107.999996704102,0|4,0:0|0:0,0:0:0:0:
33,199,200852,1,0,0:0:0:0:
47,186,200930,2,0,L|58:293,1,107.999996704102,0|2,0:0|0:0,0:0:0:0:
73,302,201164,1,0,0:0:0:0:
87,310,201242,2,0,P|133:323|185:297,1,107.999996704102,0|4,0:0|0:0,0:0:0:0:
51,96,201555,2,0,P|24:98|0:110,1,53.9999983520508
150,174,201711,2,0,B|196:170|196:170|228:184|228:184|289:180,1,135.000005149842,2|0,0:0|0:0,0:0:0:0:
379,200,201945,1,0,0:0:0:0:
401,205,202024,6,0,L|395:137,3,49.5000015106202,4|4|4|4,0:0|0:0|0:0|0:0,0:0:0:0:
488,300,202336,6,0,L|482:232,1,49.5000015106202,4|0,0:0|0:0,0:0:0:0:
322,320,202492,6,0,L|328:252,1,49.5000015106202,4|0,0:0|0:0,0:0:0:0:
502,309,202649,6,0,L|496:241,1,49.5000015106202,4|0,0:0|0:0,0:0:0:0:
308,329,202805,6,0,L|314:261,1,49.5000015106202,4|0,0:0|0:0,0:0:0:0:
512,316,202961,5,4,0:0:0:0:
507,266,203039,1,0,0:0:0:0:
502,216,203117,1,4,0:0:0:0:
497,166,203195,1,0,0:0:0:0:
492,116,203274,6,0,L|489:77,7,38.2500007295609,4|4|4|4|4|4|4|4,0:0|0:0|0:0|0:0|0:0|0:0|0:0|0:0,0:0:0:0:
402,199,203586,6,0,L|399:237,7,38.2500007295609,4|4|4|4|4|4|4|4,0:0|0:0|0:0|0:0|0:0|0:0|0:0|0:0,0:0:0:0:
215,141,203899,6,0,P|291:104|262:201,1,229.500004377365
131,98,204211,6,0,L|133:57,1,40.4999987640381,14|0,0:0|0:0,0:0:0:0:
132,57,204524,6,0,P|191:50|232:94,1,116.999994644165,4|0,0:0|0:0,0:0:0:0:
287,168,204758,1,0,0:0:0:0:
296,192,204836,2,0,L|303:127,1,58.4999973220826,2|0,0:0|0:0,0:0:0:0:
366,15,204992,2,0,L|373:80,1,58.4999973220826
388,183,205149,5,4,0:0:0:0:
157,141,205305,1,0,0:0:0:0:
481,162,205461,2,0,L|474:227,1,58.4999973220826,2|0,0:0|0:0,0:0:0:0:
392,338,205617,1,0,0:0:0:0:
381,352,205695,1,0,0:0:0:0:
370,366,205774,6,0,B|380:306|380:306|366:258|366:258|377:185,1,175.499991966248,4|0,0:0|0:0,0:0:0:0:
467,100,206086,2,0,B|447:256|447:256|485:205,1,202.500007724762,2|0,0:0|0:0,0:0:0:0:
384,116,206399,2,0,P|359:114|324:133,1,58.4999973220826,4|0,0:0|0:0,0:0:0:0:
407,323,206555,2,0,P|432:336|461:334,1,58.4999973220826,4|0,0:0|0:0,0:0:0:0:
366,224,206711,2,0,B|334:234|298:217|298:217|258:247|258:247|224:222|173:232,1,202.500007724762,2|0,0:0|0:0,0:0:0:0:
80,189,207024,6,0,L|90:264,1,58.4999973220826,4|0,0:0|0:0,0:0:0:0:
175,365,207180,1,0,0:0:0:0:
186,366,207258,1,0,0:0:0:0:
197,367,207336,2,0,L|207:292,1,58.4999973220826,2|0,0:0|0:0,0:0:0:0:
232,153,207492,1,0,0:0:0:0:
5,233,207649,1,4,0:0:0:0:
315,207,207805,5,0,0:0:0:0:
327,158,207884,1,0,0:0:0:0:
315,109,207962,1,2,0:0:0:0:
279,74,208040,1,0,0:0:0:0:
231,61,208118,1,0,0:0:0:0:
182,74,208196,1,0,0:0:0:0:
146,111,208274,6,0,B|136:135|136:135|142:173,2,58.4999973220826,4|0|0,0:0|0:0|0:0,0:0:0:0:
8,249,208586,2,0,B|70:244|70:244|128:267|128:267|198:263,1,188.999994232178,2|0,0:0|0:0,0:0:0:0:
291,239,208899,2,0,L|281:305,1,53.9999983520508,4|0,0:0|0:0,0:0:0:0:
270,376,209055,1,0,0:0:0:0:
309,227,209211,6,0,L|292:348,1,121.499996292114
394,358,209524,6,0,B|424:363|424:363|459:348,1,58.4999973220826,4|0,0:0|0:0,0:0:0:0:
488,253,209680,1,0,0:0:0:0:
488,253,209758,1,0,0:0:0:0:
488,253,209836,2,0,B|477:224|477:224|446:201,1,58.4999973220826,2|0,0:0|0:0,0:0:0:0:
351,225,209992,2,0,B|331:248|331:248|327:286,1,58.4999973220826
411,279,210149,5,4,0:0:0:0:
439,127,210305,1,0,0:0:0:0:
439,127,210383,1,0,0:0:0:0:
439,127,210461,2,0,L|369:132,1,58.4999973220826,2|0,0:0|0:0,0:0:0:0:
253,61,210617,2,0,L|323:66,1,58.4999973220826
451,37,210774,5,4,0:0:0:0:
288,157,210930,1,0,0:0:0:0:
288,157,211008,1,0,0:0:0:0:
288,157,211086,2,0,P|283:183|296:218,1,58.4999973220826,2|0,0:0|0:0,0:0:0:0:
226,344,211242,2,0,P|235:316|230:287,1,58.4999973220826
178,203,211399,5,4,0:0:0:0:
380,288,211555,1,4,0:0:0:0:
133,314,211711,2,0,B|-2:332|-2:332|78:348,1,202.500007724762,2|0,0:0|0:0,0:0:0:0:
105,236,212024,5,4,0:0:0:0:
111,207,212102,1,4,0:0:0:0:
109,178,212180,1,4,0:0:0:0:
96,149,212258,1,4,0:0:0:0:
90,71,212336,2,0,P|63:73|32:95,3,58.4999973220826,4|0|4|0,0:0|0:0|0:0|0:0,0:0:0:0:
198,41,212649,2,0,P|177:23|140:16,1,58.4999973220826,4|0,0:0|0:0,0:0:0:0:
295,96,212805,2,0,P|293:69|271:38,1,58.4999973220826,4|0,0:0|0:0,0:0:0:0:
324,203,212961,2,0,P|341:182|348:145,1,58.4999973220826,4|0,0:0|0:0,0:0:0:0:
269,300,213117,2,0,P|296:298|327:276,1,58.4999973220826,4|0,0:0|0:0,0:0:0:0:
162,329,213273,6,0,P|179:345|207:348,4,29.2499986610413
64,179,213586,2,0,P|81:163|103:158,4,33.7500012874604
267,232,213899,1,0,0:0:0:0:
290,229,213977,1,0,0:0:0:0:
313,226,214055,1,0,0:0:0:0:
336,223,214133,1,0,0:0:0:0:
359,220,214211,1,0,0:0:0:0:
382,217,214289,1,0,0:0:0:0:
405,214,214367,1,0,0:0:0:0:
428,211,214445,1,0,0:0:0:0:
451,174,214524,6,0,L|436:334,1,157.499995193482,4|0,0:0|0:0,0:0:0:0:
435,349,214992,1,4,0:0:0:0:
216,258,215149,1,2,0:0:0:0:
212,248,215305,2,0,P|249:217|328:235,1,125.999996154785
505,337,215774,2,0,B|450:341|450:341|414:362|414:362|347:365,1,157.499995193482,4|0,0:0|0:0,0:0:0:0:
331,365,216242,1,4,0:0:0:0:
439,162,216399,1,2,0:0:0:0:
451,174,216711,1,4,0:0:0:0:
236,202,216867,1,2,0:0:0:0:
246,46,217024,6,0,P|311:28|383:124,1,188.999994232178,4|0,0:0|0:0,0:0:0:0:
198,116,217649,1,2,0:0:0:0:
187,114,217805,2,0,L|199:249,1,125.999996154785
285,300,218274,2,0,L|273:174,1,125.999996154785,4|0,0:0|0:0,0:0:0:0:
74,281,218742,1,4,0:0:0:0:
66,284,218899,2,0,P|104:322|180:308,1,121.499996292114,2|0,0:0|0:0,0:0:0:0:
250,277,219211,2,0,L|257:357,1,80.9999975280763,4|0,0:0|0:0,0:0:0:0:
206,151,219524,5,4,0:0:0:0:
348,327,219680,2,0,P|378:342|356:304,1,107.999996704102,0|2,0:0|0:0,0:0:0:0:
135,247,219992,1,0,0:0:0:0:
322,183,220149,1,0,0:0:0:0:
283,376,220305,1,4,0:0:0:0:
85,177,220461,1,2,0:0:0:0:
124,159,220539,1,0,0:0:0:0:
167,163,220617,1,0,0:0:0:0:
202,189,220695,1,0,0:0:0:0:
219,228,220774,5,0,0:0:0:0:
197,83,220930,2,0,L|189:22,2,53.9999983520508,0|0|2,0:0|0:0|0:0,0:0:0:0:
134,246,221242,2,0,L|142:300,1,53.9999983520508
228,357,221399,1,0,0:0:0:0:
37,281,221555,1,4,0:0:0:0:
225,205,221711,1,2,0:0:0:0:
225,205,222024,6,0,P|195:216|153:207,2,66.0000020141602,4|0|0,0:0|0:0|0:0,0:0:0:0:
310,128,222336,2,0,L|320:238,1,96,2|0,0:0|0:0,0:0:0:0:
332,309,222649,2,0,L|399:315,2,66.0000020141602
490,236,222961,1,2,0:0:0:0:
462,234,223039,1,0,0:0:0:0:
434,232,223117,1,0,0:0:0:0:
406,230,223195,1,0,0:0:0:0:
256,192,223274,12,14,224211,0:0:0:0:
26,271,224524,6,0,L|17:383,1,90,4|0,0:0|0:0,0:0:0:0:
209,222,224836,1,2,0:0:0:0:
45,266,224992,6,0,L|36:378,1,90
228,217,225304,1,4,0:0:0:0:
64,261,225461,6,0,L|55:373,1,90,2|0,0:0|0:0,0:0:0:0:
310,274,225774,6,0,P|326:229|312:183,1,90,4|0,0:0|0:0,0:0:0:0:
251,123,226086,1,2,0:0:0:0:
138,260,226242,6,0,P|168:296|215:307,1,90
298,284,226555,5,4,0:0:0:0:
135,244,226711,1,2,0:0:0:0:
315,189,226867,1,0,0:0:0:0:
96,230,227024,6,0,L|87:118,1,90,4|0,0:0|0:0,0:0:0:0:
279,279,227336,1,2,0:0:0:0:
115,235,227492,6,0,L|106:123,1,90
298,284,227804,1,4,0:0:0:0:
134,240,227961,6,0,L|125:128,1,90,2|0,0:0|0:0,0:0:0:0:
314,67,228274,2,0,L|309:115,1,45,4|0,0:0|0:0,0:0:0:0:
382,227,228430,2,0,L|377:179,1,45
430,51,228586,2,0,L|425:99,1,45,2|0,0:0|0:0,0:0:0:0:
498,243,228742,2,0,L|493:195,1,45
432,30,228899,5,0,0:0:0:0:
384,248,229055,1,4,0:0:0:0:
316,46,229211,1,2,0:0:0:0:
268,232,229367,1,0,0:0:0:0:
454,181,229524,6,0,L|361:174,1,90,4|0,0:0|0:0,0:0:0:0:
473,166,229836,6,0,L|380:159,1,90,2|0,0:0|0:0,0:0:0:0:
492,151,230149,6,0,L|445:147,1,45
356,140,230305,2,0,L|309:136,1,45,4|0,0:0|0:0,0:0:0:0:
209,100,230461,2,0,P|194:140|214:202,1,90,2|0,0:0|0:0,0:0:0:0:
58,291,230774,6,0,L|151:298,1,90,4|0,0:0|0:0,0:0:0:0:
39,306,231086,6,0,L|132:313,1,90,2|0,0:0|0:0,0:0:0:0:
20,321,231399,6,0,L|67:325,1,45
156,332,231555,2,0,L|203:336,1,45,4|4,0:0|0:0,0:0:0:0:
303,372,231711,2,0,P|318:332|298:270,1,90,2|0,0:0|0:0,0:0:0:0:
193,207,232024,5,4,0:0:0:0:
313,168,232180,1,0,0:0:0:0:
152,79,232336,1,2,0:0:0:0:
354,40,232492,1,0,0:0:0:0:
179,59,232649,6,0,L|128:52,1,45
335,138,232805,2,0,L|386:131,1,45,4|0,0:0|0:0,0:0:0:0:
171,210,232961,2,0,L|120:203,1,45,2|0,0:0|0:0,0:0:0:0:
327,289,233117,2,0,L|378:282,1,45
157,369,233274,6,0,L|89:361,3,67.5000025749208
317,313,233586,2,0,L|385:305,3,67.5000025749208
216,252,233899,5,2,0:0:0:0:
217,240,233977,1,2,0:0:0:0:
218,228,234055,1,2,0:0:0:0:
219,216,234133,1,2,0:0:0:0:
298,177,234211,5,2,0:0:0:0:
293,124,234289,1,2,0:0:0:0:
289,73,234367,1,2,0:0:0:0:
284,22,234445,1,2,0:0:0:0:
308,65,234524,6,0,L|325:266,1,188.999994232178,6|0,0:0|0:0,0:0:0:0:
184,361,234836,2,0,B|329:349|329:349|288:377,1,188.999994232178,2|0,0:0|0:0,0:0:0:0:
232,220,235149,2,0,L|228:152,2,62.9999980773926,4|0|0,0:0|0:0|0:0,0:0:0:0:
37,314,235461,1,2,0:0:0:0:
77,284,235539,1,0,0:0:0:0:
128,284,235617,1,0,0:0:0:0:
168,314,235695,1,0,0:0:0:0:
184,361,235774,5,4,0:0:0:0:
72,169,235930,1,0,0:0:0:0:
103,360,236086,2,0,L|190:366,1,62.9999980773926,2|0,0:0|0:0,0:0:0:0:
275,215,236242,1,0,0:0:0:0:
275,215,236320,1,0,0:0:0:0:
275,215,236399,6,0,L|188:221,1,62.9999980773926,4|0,0:0|0:0,0:0:0:0:
348,165,236555,2,0,L|386:86,1,62.9999980773926,4|0,0:0|0:0,0:0:0:0:
354,253,236711,1,2,0:0:0:0:
380,292,236789,1,0,0:0:0:0:
406,331,236867,1,0,0:0:0:0:
432,370,236945,1,0,0:0:0:0:
326,345,237024,6,0,P|292:300|380:311,1,188.999994232178,4|0,0:0|0:0,0:0:0:0:
508,228,237336,2,0,B|470:237|436:218|436:218|382:247|382:247|301:243,1,188.999994232178,2|0,0:0|0:0,0:0:0:0:
304,238,237649,2,0,L|236:249,2,62.9999980773926,4|0|0,0:0|0:0|0:0,0:0:0:0:
484,151,237961,1,2,0:0:0:0:
478,117,238039,1,0,0:0:0:0:
475,85,238117,1,0,0:0:0:0:
472,52,238195,1,0,0:0:0:0:
469,19,238274,6,0,P|436:56|353:45,1,125.999996154785,4|0,0:0|0:0,0:0:0:0:
114,176,238586,2,0,B|178:171|178:171|207:182|207:182|230:165|230:165|301:157,1,188.999994232178,2|0,0:0|0:0,0:0:0:0:
314,155,238899,1,4,0:0:0:0:
153,261,239055,2,0,L|90:265,1,62.9999980773926
265,235,239211,2,0,B|292:188|292:188|280:335,1,202.500007724762,2|0,0:0|0:0,0:0:0:0:
174,359,239524,5,4,0:0:0:0:
386,314,239680,2,0,P|423:303|388:341,1,125.999996154785,0|2,0:0|0:0,0:0:0:0:
162,273,239992,2,0,P|194:272|224:292,1,62.9999980773926
285,363,240149,1,4,0:0:0:0:
230,143,240305,1,4,0:0:0:0:
69,301,240461,1,2,0:0:0:0:
113,324,240539,1,0,0:0:0:0:
163,320,240617,1,0,0:0:0:0:
203,289,240696,1,0,0:0:0:0:
220,242,240774,5,4,0:0:0:0:
29,112,240930,2,0,L|35:183,2,62.9999980773926,0|0|2,0:0|0:0|0:0,0:0:0:0:
133,240,241242,2,0,L|127:177,1,62.9999980773926
227,51,241399,2,0,P|183:89|112:79,1,125.999996154785,4|0,0:0|0:0,0:0:0:0:
238,206,241711,1,2,0:0:0:0:
155,12,241867,1,0,0:0:0:0:
155,12,241945,1,0,0:0:0:0:
155,12,242024,6,0,B|173:45|173:45|172:99,2,77.9999964294435,4|0|0,0:0|0:0|0:0,0:0:0:0:
81,170,242336,2,0,B|130:167|130:167|167:187|167:187|221:183,1,143.999995605469,2|0,0:0|0:0,0:0:0:0:
300,219,242649,5,4,0:0:0:0:
356,150,242753,2,0,P|329:132|287:132,1,71.9999978027344
331,301,242961,2,0,P|360:286|381:250,2,71.9999978027344,2|0|0,0:0|0:0|0:0,0:0:0:0:
256,192,243274,12,14,244211,0:0:0:0:
196,40,244524,6,0,L|203:186,1,125.999996154785,4|0,0:0|0:0,0:0:0:0:
386,322,244836,2,0,P|353:324|316:303,1,62.9999980773926,2|0,0:0|0:0,0:0:0:0:
184,269,244992,2,0,P|212:256|243:259,1,62.9999980773926
369,242,245149,1,4,0:0:0:0:
248,374,245305,2,0,B|220:316|220:316|247:247,1,125.999996154785,0|2,0:0|0:0,0:0:0:0:
385,85,245617,6,0,P|429:75|389:107,1,125.999996154785,0|4,0:0|0:0,0:0:0:0:
184,153,245930,1,0,0:0:0:0:
375,213,246086,1,2,0:0:0:0:
160,289,246242,2,0,P|124:256|172:259,1,125.999996154785,0|4,0:0|0:0,0:0:0:0:
412,200,246555,2,0,L|346:193,1,62.9999980773926
147,140,246711,2,0,L|213:133,1,62.9999980773926,2|0,0:0|0:0,0:0:0:0:
293,43,246867,1,0,0:0:0:0:
293,43,246945,1,0,0:0:0:0:
293,43,247024,6,0,B|275:189|275:189|280:161|300:136,1,202.500007724762,4|0,0:0|0:0,0:0:0:0:
387,122,247336,1,2,0:0:0:0:
196,39,247492,1,0,0:0:0:0:
196,39,247570,1,0,0:0:0:0:
196,39,247649,2,0,B|258:33|258:33|308:51|308:51|382:44,1,188.999994232178,4|0,0:0|0:0,0:0:0:0:
403,41,247961,1,2,0:0:0:0:
245,122,248117,1,0,0:0:0:0:
376,241,248274,6,0,P|381:171|459:142,1,125.999996154785,4|0,0:0|0:0,0:0:0:0:
218,282,248586,1,2,0:0:0:0:
458,218,248742,1,0,0:0:0:0:
245,122,248899,1,4,0:0:0:0:
478,249,249055,2,0,L|484:167,1,62.9999980773926
303,282,249211,2,0,B|306:333|355:362|404:362|404:362|419:320|419:320|355:329,1,216,2|0,0:0|0:0,0:0:0:0:
214,323,249524,6,0,P|149:324|97:375,1,125.999996154785,4|0,0:0|0:0,0:0:0:0:
386,233,249836,1,2,0:0:0:0:
183,179,249992,1,0,0:0:0:0:
294,371,250149,2,0,P|306:335|299:301,1,62.9999980773926,4|0,0:0|0:0,0:0:0:0:
279,160,250305,2,0,P|276:191|287:220,1,62.9999980773926
390,324,250461,1,2,0:0:0:0:
206,271,250617,1,0,0:0:0:0:
156,262,250696,1,0,0:0:0:0:
112,288,250774,6,0,B|132:151|132:151|102:215,1,202.500007724762,4|0,0:0|0:0,0:0:0:0:
225,195,251086,2,0,L|296:186,1,62.9999980773926,2|0,0:0|0:0,0:0:0:0:
171,348,251242,1,0,0:0:0:0:
171,348,251320,1,0,0:0:0:0:
171,348,251399,2,0,L|100:339,1,62.9999980773926,4|0,0:0|0:0,0:0:0:0:
241,213,251555,2,0,L|312:204,1,62.9999980773926
444,307,251711,2,0,B|386:300|386:300|335:320|335:320|231:305,1,188.999994232178,2|0,0:0|0:0,0:0:0:0:
146,256,252024,5,4,0:0:0:0:
145,247,252102,1,4,0:0:0:0:
144,238,252180,1,4,0:0:0:0:
143,229,252258,1,4,0:0:0:0:
142,220,252336,1,4,0:0:0:0:
141,211,252414,1,4,0:0:0:0:
140,202,252492,1,4,0:0:0:0:
139,193,252570,1,4,0:0:0:0:
138,184,252649,2,0,B|111:173|111:173|62:181,1,62.9999980773926,4|0,0:0|0:0,0:0:0:0:
200,88,252805,2,0,B|196:59|196:59|164:20,1,62.9999980773926,4|0,0:0|0:0,0:0:0:0:
312,88,252961,2,0,B|315:59|315:59|347:20,1,62.9999980773926,4|0,0:0|0:0,0:0:0:0:
374,184,253117,2,0,B|401:173|401:173|450:181,1,62.9999980773926,4|0,0:0|0:0,0:0:0:0:
458,293,253274,6,0,L|450:346,5,36
378,307,253742,2,0,L|370:360,5,36
298,321,254211,1,2,0:0:0:0:
218,335,254524,1,0,0:0:0:0:
