osu file format v14

[General]
AudioFilename: Usao - Night Sky (Extended Mix).mp3
AudioLeadIn: 0
PreviewTime: 102050
Countdown: 0
SampleSet: Normal
StackLeniency: 0.7
Mode: 0
LetterboxInBreaks: 0
WidescreenStoryboard: 0

[Editor]
Bookmarks: 22050,32050,49393,72050,82050,92050,102050,122050,132050,141737,164550,174550,184550,194550,204550,214550,224550,234550,253143
DistanceSpacing: 1.6
BeatDivisor: 4
GridSize: 4
TimelineZoom: 3.299999

[Metadata]
Title:Night sky (Extended Mix)
TitleUnicode:Night sky (Extended Mix)
Artist:USAO
ArtistUnicode:USAO
Creator:choikapo
Version:2016 DSE Midnight Time
Source:beatmania IIDX 22 PENDUAL OST DISC 1
Tags:Drumstep
BeatmapID:884038
BeatmapSetID:406853

[Difficulty]
HPDrainRate:7.2
CircleSize:4
OverallDifficulty:5
ApproachRate:9.2
SliderMultiplier:1.9
SliderTickRate:1

[Events]
//Background and Video events
0,0,"bg.jpg",0,0
//Break Periods
//Storyboard Layer 0 (Background)
//Storyboard Layer 1 (Fail)
//Storyboard Layer 2 (Pass)
//Storyboard Layer 3 (Foreground)
//Storyboard Sound Samples

[TimingPoints]
175,312.5,4,1,73,5,1,0
721,-100,4,1,73,7,0,0
800,-100,4,1,73,9,0,0
878,-100,4,1,73,11,0,0
956,-100,4,1,73,13,0,0
1034,-100,4,1,73,15,0,0
1112,-100,4,1,73,17,0,0
1190,-100,4,1,73,19,0,0
1268,-100,4,1,73,21,0,0
1346,-100,4,1,73,23,0,0
1425,-100,4,1,73,25,0,0
1503,-100,4,1,73,26,0,0
1581,-100,4,1,73,27,0,0
1659,-100,4,1,73,28,0,0
1737,-100,4,1,73,29,0,0
2050,-166.666666666667,4,1,73,10,0,0
22050,-133.333333333333,4,2,73,25,0,0
22206,-133.333333333333,4,1,73,25,0,0
22440,-133.333333333333,4,2,73,25,0,0
22675,-133.333333333333,4,1,73,25,0,0
22753,-133.333333333333,4,2,73,25,0,0
22831,-133.333333333333,4,1,73,25,0,0
22909,-133.333333333333,4,2,73,25,0,0
22987,-133.333333333333,4,1,73,25,0,0
23065,-133.333333333333,4,2,73,25,0,0
23143,-133.333333333333,4,1,73,25,0,0
23221,-133.333333333333,4,2,73,25,0,0
23456,-133.333333333333,4,1,73,25,0,0
24159,-133.333333333333,4,2,73,25,0,0
24237,-133.333333333333,4,1,73,25,0,0
24393,-133.333333333333,4,1,73,25,0,0
24550,-133.333333333333,4,1,73,25,0,0
24706,-133.333333333333,4,2,73,25,0,0
24862,-133.333333333333,4,1,73,25,0,0
24940,-133.333333333333,4,2,73,25,0,0
25018,-133.333333333333,4,1,73,25,0,0
25096,-133.333333333333,4,2,73,25,0,0
25175,-133.333333333333,4,1,73,25,0,0
25956,-133.333333333333,4,2,73,25,0,0
26112,-133.333333333333,4,1,73,25,0,0
26190,-133.333333333333,4,2,73,25,0,0
26268,-133.333333333333,4,1,73,25,0,0
26346,-133.333333333333,4,2,73,25,0,0
26425,-133.333333333333,4,1,73,25,0,0
26815,-133.333333333333,4,2,73,25,0,0
26893,-133.333333333333,4,1,73,25,0,0
26971,-133.333333333333,4,2,73,25,0,0
27050,-133.333333333333,4,1,73,25,0,0
27206,-133.333333333333,4,1,73,10,0,0
27362,-133.333333333333,4,1,73,20,0,0
27675,-133.333333333333,4,1,73,30,0,0
27987,-133.333333333333,4,1,73,40,0,0
28300,-125,4,1,73,50,0,0
28612,-125,4,1,73,60,0,0
28925,-125,4,1,73,70,0,0
29237,-125,4,1,73,80,0,0
29550,-100,4,1,73,90,0,0
30175,-100,4,1,73,100,0,0
30800,-166.666666666667,4,1,73,20,0,0
32050,-100,4,1,73,70,0,0
36737,-133.333333333333,4,1,73,50,0,0
37050,-100,4,1,73,70,0,0
41737,-133.333333333333,4,1,73,50,0,0
42050,-100,4,1,73,70,0,0
46425,-166.666666666667,4,1,73,40,0,0
47050,-100,4,1,73,70,0,0
49550,-100,4,1,73,80,0,0
50800,-100,4,1,73,50,0,0
51737,-133.333333333333,4,1,73,30,0,0
52050,-100,4,1,73,80,0,0
57050,-100,4,1,73,45,0,0
57128,-100,4,1,73,60,0,0
57675,-100,4,1,73,45,0,0
57753,-100,4,1,73,60,0,0
58300,-100,4,1,73,45,0,0
58378,-100,4,1,73,60,0,0
58925,-100,4,1,73,45,0,0
59003,-100,4,1,73,60,0,0
59550,-100,4,1,73,45,0,0
59628,-100,4,1,73,60,0,0
60175,-100,4,1,73,45,0,0
60253,-100,4,1,73,60,0,0
61737,-200,4,1,73,80,0,0
61776,-200,4,1,73,5,0,0
62050,-100,4,1,73,80,0,0
65800,-133.333333333333,4,1,73,30,0,0
67050,-100,4,1,73,80,0,0
70800,-100,4,1,73,50,0,0
71737,-133.333333333333,4,1,73,20,0,0
72050,-90.9090909090909,4,1,73,80,0,0
75800,-133.333333333333,4,1,73,50,0,0
75878,-133.333333333333,4,1,73,55,0,0
75956,-133.333333333333,4,1,73,60,0,0
76034,-133.333333333333,4,1,73,65,0,0
76112,-100,4,1,73,70,0,0
76190,-100,4,1,73,73,0,0
76268,-100,4,1,73,76,0,0
76346,-100,4,1,73,79,0,0
76425,-90.9090909090909,4,1,73,80,0,0
79550,-76.9230769230769,4,1,73,40,0,0
79862,-90.9090909090909,4,1,73,80,0,0
80175,-76.9230769230769,4,1,73,40,0,0
80487,-90.9090909090909,4,1,73,80,0,0
80800,-100,4,1,73,50,0,0
81737,-83.3333333333333,4,1,73,65,0,0
82050,-142.857142857143,4,1,73,40,0,0
87050,-142.857142857143,4,1,73,50,0,0
92050,-125,4,1,73,65,0,0
102050,-100,4,1,73,85,0,0
103143,-166.666666666667,4,1,73,85,0,0
104550,-100,4,1,73,85,0,0
105643,-166.666666666667,4,1,73,85,0,0
107050,-100,4,1,73,85,0,0
108143,-166.666666666667,4,1,73,85,0,0
109393,-100,4,1,73,85,0,0
110643,-166.666666666667,4,1,73,85,0,0
112050,-100,4,1,73,85,0,0
113143,-166.666666666667,4,1,73,85,0,0
114237,-100,4,1,73,85,0,0
115643,-166.666666666667,4,1,73,85,0,0
116737,-100,4,1,73,85,0,0
118143,-166.666666666667,4,1,73,85,0,0
119393,-100,4,1,73,85,0,0
120643,-166.666666666667,4,1,73,85,0,0
122050,-100,4,1,73,80,0,0
132050,-100,4,1,73,60,0,0
133300,-100,4,1,73,70,0,0
134550,-100,4,1,73,80,0,0
135800,-100,4,1,73,85,0,0
137050,-100,4,1,73,90,0,0
138300,-100,4,1,73,95,0,0
139550,-100,4,1,73,60,0,0
139706,-100,4,1,73,70,0,0
139862,-100,4,1,73,80,0,0
140018,-100,4,1,73,85,0,0
140175,-100,4,1,73,90,0,0
140331,-100,4,1,73,93,0,0
140487,-100,4,1,73,96,0,0
140643,-100,4,1,73,99,0,0
140800,-100,4,1,73,82,0,0
140839,-100,4,1,73,83,0,0
140878,-100,4,1,73,84,0,0
140917,-100,4,1,73,85,0,0
140956,-100,4,1,73,86,0,0
140995,-100,4,1,73,87,0,0
141034,-100,4,1,73,88,0,0
141073,-100,4,1,73,89,0,0
141112,-100,4,1,73,90,0,0
141151,-100,4,1,73,91,0,0
141190,-100,4,1,73,92,0,0
141229,-100,4,1,73,93,0,0
141268,-100,4,1,73,94,0,0
141307,-100,4,1,73,95,0,0
141346,-100,4,1,73,96,0,0
141385,-100,4,1,73,97,0,0
141425,-100,4,1,73,98,0,0
141464,-100,4,1,73,5,0,0
141737,-200,4,1,73,50,0,0
142050,-100,4,1,73,90,0,0
142362,-83.3333333333333,4,1,73,90,0,0
143300,-76.9230769230769,4,1,73,70,0,0
143612,-90.9090909090909,4,1,73,70,0,0
143925,-66.6666666666667,4,1,73,80,0,0
144237,-58.8235294117647,4,1,73,80,0,0
144550,-76.9230769230769,4,1,73,80,0,0
145175,-83.3333333333333,4,1,73,90,0,0
145800,-58.8235294117647,4,1,73,90,0,0
146268,-100,4,1,73,30,0,0
146425,-83.3333333333333,4,1,73,60,0,0
146737,-133.333333333333,4,1,73,100,0,0
146815,-133.333333333333,4,1,73,5,0,0
147050,-100,4,1,73,90,0,0
147362,-83.3333333333333,4,1,73,90,0,0
148300,-76.9230769230769,4,1,73,70,0,0
148612,-90.9090909090909,4,1,73,70,0,0
148925,-66.6666666666667,4,1,73,80,0,0
149237,-58.8235294117647,4,1,73,90,0,0
149550,-76.9230769230769,4,1,73,80,0,0
150175,-83.3333333333333,4,1,73,90,0,0
150800,-100,4,1,73,80,0,0
151425,-66.6666666666667,4,1,73,80,0,0
151737,-133.333333333333,4,1,73,80,0,0
151776,-133.333333333333,4,1,73,35,0,0
152050,-100,4,1,73,90,0,0
152362,-83.3333333333333,4,1,73,90,0,0
152675,-71.4285714285714,4,1,73,54,0,0
152987,-133.333333333333,4,1,73,54,0,0
154550,-66.6666666666667,4,1,73,90,0,0
154862,-71.4285714285714,4,1,73,80,0,0
155175,-83.3333333333333,4,1,73,70,0,0
155800,-100,4,1,73,65,0,0
156425,-66.6666666666667,4,1,73,80,0,0
156737,-58.8235294117647,4,1,73,90,0,0
157050,-100,4,1,73,75,0,0
157675,-83.3333333333333,4,1,73,75,0,0
158300,-58.8235294117647,4,1,73,90,0,0
158768,-100,4,1,73,30,0,0
158925,-83.3333333333333,4,1,73,60,0,0
159237,-133.333333333333,4,1,73,100,0,0
159315,-133.333333333333,4,1,73,5,0,0
159550,-66.6666666666667,4,1,73,90,0,0
159862,-71.4285714285714,4,1,73,80,0,0
160175,-83.3333333333333,4,1,73,70,0,0
160800,-100,4,1,73,65,0,0
161425,-66.6666666666667,4,1,73,80,0,0
161737,-58.8235294117647,4,1,73,90,0,0
162050,-100,4,1,73,75,0,0
162675,-83.3333333333333,4,1,73,75,0,0
163300,-66.6666666666667,4,1,73,75,0,0
163925,-200,4,1,73,100,0,0
164003,-200,4,1,73,5,0,0
164550,-83.3333333333333,4,1,73,90,0,1
169237,-133.333333333333,4,1,73,65,0,0
169550,-83.3333333333333,4,1,73,90,0,1
172050,-83.3333333333333,4,1,73,75,0,1
172362,-100,4,1,73,60,0,1
172675,-125,4,1,73,45,0,1
172987,-166.666666666667,4,1,73,30,0,1
173300,-100,4,1,73,50,0,0
174550,-83.3333333333333,4,1,73,90,0,0
182050,-100,4,1,73,75,0,0
182362,-125,4,1,73,60,0,0
182675,-166.666666666667,4,1,73,45,0,0
182987,-100,4,1,73,45,0,0
183300,-100,4,1,73,50,0,0
184550,-100,4,1,73,80,0,0
193300,-100,4,1,73,50,0,0
194237,-133.333333333333,4,1,73,30,0,0
194550,-100,4,1,73,80,0,0
204237,-133.333333333333,4,1,73,30,0,0
204550,-100,4,1,73,80,0,0
208925,-166.666666666667,4,1,73,65,0,0
209550,-100,4,1,73,80,0,0
213300,-100,4,1,73,50,0,0
214550,-142.857142857143,4,1,73,75,0,0
219550,-83.3333333333333,4,1,73,90,0,0
222050,-76.9230769230769,4,1,73,40,0,0
222362,-83.3333333333333,4,1,73,90,0,0
222675,-76.9230769230769,4,1,73,40,0,0
223300,-100,4,1,73,50,0,0
224237,-133.333333333333,4,1,73,30,0,0
224550,-100,4,1,73,80,0,0
234550,-83.3333333333333,4,1,73,90,0,1
243300,-100,4,1,73,50,0,0
244237,-133.333333333333,4,1,73,30,0,0
244550,-83.3333333333333,4,1,73,90,0,1
253300,-100,4,1,73,50,0,0
254237,-133.333333333333,4,1,73,30,0,0
254550,-181.818181818182,4,1,73,50,0,0
259758,-181.818181818182,4,1,73,5,0,0

[Colours]
Combo1 : 0,255,255
Combo2 : 0,128,255

[HitObjects]
256,192,643,12,0,2050,0:0:0:0:
152,328,3300,6,0,B|208:312|256:336|256:336|316:364|316:364|360:304|360:304|420:336|484:296|488:248,1,398.999987823487
457,60,4550,2,0,B|516:68|536:132|505:190|505:190|463:183|432:195|411:243|411:243|365:218|327:230|303:258,1,398.999987823487
221,351,5800,2,0,B|251:308|251:308|284:338|328:334|364:304|364:304|414:330|460:317|485:264|485:264|525:321|493:347,1,398.999987823487
303,254,7050,6,0,B|265:202|272:127|325:76|325:76|402:105|426:176|408:248,1,398.999987823487
448,8,8300,2,0,B|433:36|433:63|433:63|390:22|342:1|308:2|308:2|251:32|228:92|228:92|205:57|165:46,1,398.999987823487
183,206,9550,2,0,B|209:157|280:158|280:158|298:94|325:74|325:74|361:88|394:123|394:123|447:152|499:105,1,398.999987823487
496,200,10800,2,0,B|452:224|396:228|356:192|356:192|319:248|257:238|257:238|307:248|347:281|342:333,1,398.999987823487
428,139,12050,6,0,P|327:43|277:169,1,313.49999043274
220,248,13300,2,0,P|156:366|63:268,1,313.49999043274
82,227,14237,2,0,L|128:220,3,28.4999991302491
128,212,14550,6,0,B|185:195|208:136|208:136|227:196|304:200,1,227.999993041992
376,40,15800,2,0,B|319:57|296:116|296:116|277:56|200:52,1,227.999993041992
357,193,17050,6,0,P|369:129|477:221,1,284.999991302491
412,272,17987,1,0,0:0:0:0:
412,272,18065,1,0,0:0:0:0:
412,272,18143,1,0,0:0:0:0:
357,193,18300,6,0,P|280:256|280:156,2,227.999993041992
176,216,19862,1,0,0:0:0:0:
412,272,20175,1,0,0:0:0:0:
220,336,20487,1,0,0:0:0:0:
348,112,20800,2,0,B|298:102|298:102|214:117,2,113.999996520996
496,128,21737,2,0,B|433:139|433:139|383:129,1,113.999996520996
140,68,22206,5,8,0:0:0:0:
216,192,22362,1,8,0:0:0:0:
228,24,22518,1,0,0:0:0:0:
110,199,22675,1,8,0:0:0:0:
145,196,22753,1,0,0:0:0:0:
181,194,22831,1,8,0:0:0:0:
216,192,22909,1,0,0:0:0:0:
252,190,22987,2,8,L|307:197,1,35.625001358986,8|0,0:0|0:0,0:0:0:0:
472,160,23143,2,8,L|417:167,1,35.625001358986,8|0,0:0|0:0,0:0:0:0:
368,236,23300,5,0,0:0:0:0:
328,100,23456,1,8,0:0:0:0:
176,308,23612,1,8,0:0:0:0:
207,291,23690,1,8,0:0:0:0:
242,285,23768,1,8,0:0:0:0:
277,290,23846,1,8,0:0:0:0:
308,306,23925,1,8,0:0:0:0:
368,236,24081,1,8,0:0:0:0:
399,252,24159,1,0,0:0:0:0:
434,257,24237,1,8,0:0:0:0:
469,251,24315,1,8,1:0:0:0:
500,234,24393,1,8,0:0:0:0:
424,100,24550,6,8,L|430:194,1,71.2500027179719,8|0,0:0|0:0,0:0:0:0:
488,33,24862,1,8,0:0:0:0:
457,15,24940,1,0,0:0:0:0:
422,10,25018,1,8,0:0:0:0:
387,16,25096,1,0,0:0:0:0:
356,34,25175,1,8,0:0:0:0:
428,171,25331,1,8,0:0:0:0:
160,100,25487,1,8,0:0:0:0:
195,100,25565,1,8,0:0:0:0:
231,101,25643,1,8,0:0:0:0:
266,102,25721,1,8,0:0:0:0:
302,103,25800,6,0,L|296:200,1,71.2500027179719
216,252,26112,5,8,0:0:0:0:
182,262,26190,1,0,0:0:0:0:
148,273,26268,1,8,0:0:0:0:
113,266,26346,1,0,0:0:0:0:
78,257,26425,1,8,0:0:0:0:
148,136,26581,1,8,0:0:0:0:
216,252,26737,1,8,0:0:0:0:
250,242,26815,1,0,0:0:0:0:
284,231,26893,1,8,0:0:0:0:
319,238,26971,1,0,0:0:0:0:
354,247,27050,6,4,L|443:245,1,71.2500027179719,12|4,0:0|0:0,0:0:0:0:
288,116,27362,2,0,P|281:163|293:201,1,71.2500027179719,4|0,0:0|0:0,0:0:0:0:
464,144,27675,2,0,P|469:108|462:74,1,71.2500027179719,4|0,0:0|0:0,0:0:0:0:
316,36,27987,2,0,L|227:38,1,71.2500027179719,4|0,0:0|0:0,0:0:0:0:
84,124,28300,2,0,L|173:126,1,76,4|0,0:0|0:0,0:0:0:0:
352,224,28612,2,0,L|263:226,1,76,4|0,0:0|0:0,0:0:0:0:
64,316,28925,2,0,L|153:318,1,76,4|0,0:0|0:0,0:0:0:0:
368,308,29237,2,0,B|331:313|331:313|286:298,1,76,4|0,0:0|0:0,0:0:0:0:
436,48,29550,5,0,0:0:0:0:
468,81,29628,1,0,0:0:0:0:
480,127,29706,1,0,0:0:0:0:
468,172,29784,1,0,0:0:0:0:
435,206,29862,1,0,0:0:0:0:
390,220,29940,1,0,0:0:0:0:
345,209,30018,1,0,0:0:0:0:
310,178,30096,1,0,0:0:0:0:
295,134,30175,1,0,0:0:0:0:
327,167,30253,1,0,0:0:0:0:
339,213,30331,1,0,0:0:0:0:
327,258,30409,1,0,0:0:0:0:
294,292,30487,1,0,0:0:0:0:
249,306,30565,1,0,0:0:0:0:
204,295,30643,1,0,0:0:0:0:
169,264,30721,1,0,0:0:0:0:
155,221,30800,6,0,B|170:195|172:164|149:130|149:130|177:143|199:147|199:147|206:129|207:102|207:102|238:136|286:150|339:132|382:91|381:43,1,427.499986953736
280,44,32050,5,4,0:0:0:0:
376,224,32206,1,4,0:0:0:0:
456,24,32362,2,0,L|301:21,1,142.5,2|0,0:0|0:0,0:0:0:0:
280,44,32675,2,0,P|263:93|279:137,1,95,4|0,0:0|0:0,0:0:0:0:
380,312,32987,2,0,P|392:267|375:223,1,95,2|0,0:0|0:0,0:0:0:0:
216,264,33300,2,0,L|315:270,1,95,4|0,0:0|0:0,0:0:0:0:
440,84,33612,2,0,L|345:89,1,95,2|0,0:0|0:0,0:0:0:0:
172,48,33925,6,0,L|180:225,1,142.5,4|0,0:0|0:0,0:0:0:0:
216,264,34237,2,0,L|210:389,1,95,2|0,0:0|0:0,0:0:0:0:
452,232,34550,2,0,B|383:255|383:255|287:231,1,142.5,4|0,0:0|0:0,0:0:0:0:
292,208,34862,2,0,P|284:160|296:104,1,95,2|0,0:0|0:0,0:0:0:0:
452,232,35175,2,0,P|460:280|448:336,1,95,4|0,0:0|0:0,0:0:0:0:
212,84,35487,2,0,L|392:76,1,142.5,2|0,0:0|0:0,0:0:0:0:
423,118,35800,6,0,L|408:193,1,47.5,4|0,0:0|0:0,0:0:0:0:
308,340,35956,2,0,L|298:293,1,47.5
272,160,36112,2,0,L|257:235,1,47.5
157,382,36268,2,0,L|147:335,1,47.5
124,208,36425,2,0,L|109:283,3,47.5
7,260,36737,6,0,L|140:253,1,106.875004076958
179,272,37050,5,4,0:0:0:0:
64,368,37206,1,4,0:0:0:0:
128,116,37362,2,0,B|166:104|202:116|202:116|244:129|294:107,1,142.5,2|0,0:0|0:0,0:0:0:0:
300,104,37675,2,0,L|306:228,1,95,4|0,0:0|0:0,0:0:0:0:
156,324,37987,2,0,L|163:162,1,142.5,2|0,0:0|0:0,0:0:0:0:
128,116,38300,2,0,P|122:68|147:12,1,95,4|0,0:0|0:0,0:0:0:0:
304,198,38612,2,0,P|310:246|285:302,1,95,2|0,0:0|0:0,0:0:0:0:
128,116,38925,2,0,L|222:121,1,95,4|0,0:0|0:0,0:0:0:0:
294,289,39237,2,0,L|406:283,1,95,2|0,0:0|0:0,0:0:0:0:
476,112,39550,6,4,P|401:96|375:219,1,190,4|6,0:0|0:0,0:0:0:0:
436,344,40018,1,0,0:0:0:0:
426,165,40175,2,0,L|308:158,1,95,4|0,0:0|0:0,0:0:0:0:
156,104,40487,1,0,0:0:0:0:
240,60,40643,2,0,B|252:103|252:103|239:193,1,95,0|4,0:0|0:0,0:0:0:0:
136,328,40956,2,0,B|124:285|124:285|137:195,1,95,0|2,0:0|0:0,0:0:0:0:
140,224,41190,1,2,0:0:0:0:
148,212,41268,1,2,0:0:0:0:
240,308,41425,2,0,L|236:386,1,47.5,2|2,0:0|0:0,0:0:0:0:
156,200,41581,2,0,L|153:152,1,47.5,2|2,0:0|0:0,0:0:0:0:
300,240,41737,6,0,L|406:235,1,106.875004076958,2|0,0:0|0:0,0:0:0:0:
472,204,42050,5,4,0:0:0:0:
364,364,42206,1,4,0:0:0:0:
232,104,42362,2,0,L|388:96,1,142.5,2|0,0:0|0:0,0:0:0:0:
408,109,42675,2,0,B|425:148|425:148|416:235,1,95,4|0,0:0|0:0,0:0:0:0:
232,244,42987,2,0,B|215:283|215:283|220:335,1,95,2|0,0:0|0:0,0:0:0:0:
316,241,43300,2,0,P|291:189|186:183,1,142.5,4|0,0:0|0:0,0:0:0:0:
176,191,43612,2,0,P|134:200|68:185,1,95,2|0,0:0|0:0,0:0:0:0:
221,27,43925,2,0,L|211:198,1,142.5,4|0,0:0|0:0,0:0:0:0:
176,191,44237,2,0,P|218:182|284:197,1,95,2|0,0:0|0:0,0:0:0:0:
340,336,44550,6,0,L|216:327,1,95,4|0,0:0|0:0,0:0:0:0:
408,256,44862,1,2,0:0:0:0:
464,368,45018,1,0,0:0:0:0:
188,272,45175,2,8,P|182:186|196:62,1,190,4|2,0:0|0:0,0:0:0:0:
276,16,45643,1,0,0:0:0:0:
432,136,45800,2,0,L|306:140,1,95,4|0,0:0|0:0,0:0:0:0:
4,248,46112,2,0,L|158:252,1,142.5,2|0,0:0|0:0,0:0:0:0:
188,272,46425,5,0,0:0:0:0:
296,200,46581,2,0,L|352:197,1,56.9999982604981
188,272,46893,2,0,L|183:222,1,28.4999991302491
220,132,47050,5,4,0:0:0:0:
180,356,47206,1,4,0:0:0:0:
6,209,47362,2,0,P|0:158|13:65,1,142.5,2|0,0:0|0:0,0:0:0:0:
36,40,47675,2,0,L|148:45,1,95,4|0,0:0|0:0,0:0:0:0:
196,224,47987,2,0,L|290:219,1,95,2|0,0:0|0:0,0:0:0:0:
408,108,48300,2,0,B|400:160|400:160|408:204|408:204|396:272,1,142.5,4|0,0:0|0:0,0:0:0:0:
349,310,48612,2,0,P|393:326|440:320,1,95,2|0,0:0|0:0,0:0:0:0:
488,164,48925,1,2,0:0:0:0:
320,212,49081,1,0,0:0:0:0:
440,319,49237,1,2,0:0:0:0:
408,108,49393,1,0,0:0:0:0:
512,256,49550,5,2,0:0:0:0:
468,238,49628,1,2,0:0:0:0:
421,236,49706,1,2,0:0:0:0:
377,254,49784,1,2,0:0:0:0:
339,283,49862,1,2,0:0:0:0:
297,304,49940,1,2,0:0:0:0:
250,311,50018,1,2,0:0:0:0:
204,301,50096,1,2,0:0:0:0:
163,277,50175,2,0,P|142:258|126:219,1,47.5,2|2,0:0|0:0,0:0:0:0:
224,180,50331,2,0,P|212:153|214:111,1,47.5,2|2,0:0|0:0,0:0:0:0:
352,252,50487,2,0,P|355:280|341:320,1,47.5,2|2,0:0|0:0,0:0:0:0:
241,284,50643,2,0,P|232:310|203:341,1,47.5,2|2,0:0|0:0,0:0:0:0:
93,336,50800,6,0,L|60:348,3,23.75
132,241,51112,2,0,L|138:206,3,23.75
194,322,51425,2,0,L|220:344,7,23.75
184,320,51737,6,0,L|320:316,1,106.875004076958
348,376,52050,6,0,P|372:320|276:240,1,190,4|2,0:0|0:0,0:0:0:0:
184,320,52518,1,0,0:0:0:0:
440,358,52675,2,0,P|442:296|422:242,1,95,4|0,0:0|0:0,0:0:0:0:
288,152,52987,1,2,0:0:0:0:
184,320,53143,2,0,L|299:323,1,95,0|4,0:0|0:0,0:0:0:0:
382,149,53456,2,0,L|287:151,1,95,0|2,0:0|0:0,0:0:0:0:
90,317,53768,2,0,B|136:325|136:325|206:317,1,95,0|4,0:0|0:0,0:0:0:0:
475,151,54081,2,0,B|429:143|429:143|381:148,1,95,0|2,0:0|0:0,0:0:0:0:
424,296,54393,1,0,0:0:0:0:
512,88,54550,6,0,B|432:72|432:72|292:89,1,190,4|2,0:0|0:0,0:0:0:0:
424,296,55018,1,0,0:0:0:0:
251,124,55175,2,0,P|243:74|262:29,1,95,4|0,0:0|0:0,0:0:0:0:
431,205,55487,2,0,P|439:255|420:300,1,95,2|0,0:0|0:0,0:0:0:0:
200,248,55800,6,0,L|329:244,1,95,4|0,0:0|0:0,0:0:0:0:
196,341,56112,1,2,0:0:0:0:
56,292,56268,2,0,B|49:247|49:247|65:170,1,95,0|4,0:0|0:0,0:0:0:0:
152,96,56581,1,0,0:0:0:0:
200,248,56737,2,0,B|207:293|207:293|191:370,1,95,2|0,0:0|0:0,0:0:0:0:
144,172,57050,6,0,B|190:149|243:169|243:169|294:185|338:159,1,190,4|2,0:0|0:0,0:0:0:0:
424,80,57518,1,0,0:0:0:0:
196,244,57675,2,0,B|189:289|189:289|205:366,1,95,4|0,0:0|0:0,0:0:0:0:
388,284,57987,1,2,0:0:0:0:
196,244,58143,2,0,L|84:240,1,95,0|4,0:0|0:0,0:0:0:0:
388,284,58456,2,0,L|500:280,1,95,0|2,0:0|0:0,0:0:0:0:
191,149,58768,2,0,L|197:280,1,95,0|4,0:0|0:0,0:0:0:0:
388,284,59081,2,0,L|392:189,1,95,0|2,0:0|0:0,0:0:0:0:
296,96,59393,1,0,0:0:0:0:
337,347,59550,6,0,P|374:363|403:365,1,47.5,4|0,0:0|0:0,0:0:0:0:
208,320,59706,2,0,P|219:358|236:382,1,47.5
145,203,59862,2,0,P|122:236|115:264,1,47.5,2|0,0:0|0:0,0:0:0:0:
194,79,60018,2,0,P|153:83|127:96,1,47.5
320,36,60175,2,0,P|290:8|264:-3,1,47.5,4|0,0:0|0:0,0:0:0:0:
387,179,60331,2,0,P|425:167|449:150,1,47.5
229,165,60487,2,0,P|219:204|222:233,1,47.5,2|0,0:0|0:0,0:0:0:0:
256,356,60643,2,0,P|265:316|262:287,1,47.5
229,165,60800,6,0,L|188:168,4,23.75
300,124,61112,2,0,L|317:86,4,23.75
300,205,61425,2,0,L|323:239,7,23.75
324,248,61737,6,0,L|321:335,1,71.25
352,340,62050,6,0,B|356:228|356:228|388:136,1,190,4|2,0:0|0:0,0:0:0:0:
500,280,62518,1,0,0:0:0:0:
280,309,62675,2,0,L|286:176,1,95,4|0,0:0|0:0,0:0:0:0:
128,264,62987,2,0,L|132:358,1,95,2|0,0:0|0:0,0:0:0:0:
186,204,63300,6,0,B|140:177|100:180|66:213|66:213|46:272,1,190,4|2,0:0|0:0,0:0:0:0:
132,358,63768,1,0,0:0:0:0:
424,232,63925,2,0,L|289:235,1,95,4|0,0:0|0:0,0:0:0:0:
128,268,64237,2,0,L|263:271,1,95,2|0,0:0|0:0,0:0:0:0:
424,232,64550,6,0,B|456:268|456:268|464:96,1,190,4|2,0:0|0:0,0:0:0:0:
264,304,65018,2,0,P|309:293|362:310,1,95,0|4,0:0|0:0,0:0:0:0:
440,372,65331,1,0,0:0:0:0:
186,204,65487,2,0,L|190:72,1,95,2|0,0:0|0:0,0:0:0:0:
316,40,65800,6,0,L|312:172,1,106.875004076958
315,223,66112,2,0,P|367:203|385:138,1,106.875004076958
240,184,66425,2,0,B|230:217|229:239|229:239|243:268|237:319,1,106.875004076958
86,302,66737,2,0,B|127:322|127:322|138:290|174:274,1,106.875004076958,2|0,0:0|0:0,0:0:0:0:
296,348,67050,5,4,0:0:0:0:
296,348,67128,1,0,0:0:0:0:
296,348,67206,2,0,L|164:344,1,95,0|2,0:0|0:0,0:0:0:0:
24,336,67518,1,0,0:0:0:0:
343,103,67675,2,0,P|363:191|347:315,1,190,4|2,0:0|0:0,0:0:0:0:
220,204,68143,1,0,0:0:0:0:
343,103,68300,2,0,B|386:97|386:97|466:108,1,95,4|0,0:0|0:0,0:0:0:0:
220,204,68612,2,0,B|193:169|193:169|162:94,1,95,2|0,0:0|0:0,0:0:0:0:
369,261,68925,2,0,B|352:301|352:301|303:365,1,95,4|0,0:0|0:0,0:0:0:0:
125,206,69237,2,0,L|233:203,1,95,2|0,0:0|0:0,0:0:0:0:
55,295,69550,5,4,0:0:0:0:
26,257,69628,1,0,0:0:0:0:
14,211,69706,1,0,0:0:0:0:
22,165,69784,1,0,0:0:0:0:
49,126,69862,1,2,0:0:0:0:
89,101,69940,1,0,0:0:0:0:
135,94,70018,1,0,0:0:0:0:
181,106,70096,1,0,0:0:0:0:
226,118,70175,1,4,0:0:0:0:
273,111,70253,1,0,0:0:0:0:
312,86,70331,6,0,L|317:26,1,47.5
372,204,70487,2,0,L|367:264,1,47.5,2|0,0:0|0:0,0:0:0:0:
404,52,70643,2,0,L|409:-8,1,47.5
460,224,70800,6,0,L|456:268,4,23.75
304,324,71112,2,0,L|267:298,4,23.75
295,138,71425,2,0,L|335:118,7,23.75
296,116,71737,6,0,L|292:50,1,35.625001358986
192,212,71893,2,0,L|188:278,1,35.625001358986
67,106,72050,6,0,L|206:97,1,104.500003189087,4|0,0:0|0:0,0:0:0:0:
296,218,72284,1,0,0:0:0:0:
296,218,72362,2,0,L|191:211,1,104.500003189087,2|0,0:0|0:0,0:0:0:0:
376,364,72675,6,0,P|395:304|363:243,1,104.500003189087,4|0,0:0|0:0,0:0:0:0:
364,80,72909,1,0,0:0:0:0:
364,80,72987,2,0,P|345:140|377:201,1,104.500003189087,2|0,0:0|0:0,0:0:0:0:
512,24,73300,6,0,L|394:23,1,104.500003189087,4|0,0:0|0:0,0:0:0:0:
260,104,73534,1,0,0:0:0:0:
260,104,73612,2,0,L|142:103,1,104.500003189087,2|0,0:0|0:0,0:0:0:0:
20,164,73925,6,0,P|65:170|95:167,1,52.2500015945435,4|0,0:0|0:0,0:0:0:0:
311,98,74081,2,0,P|284:98|259:103,1,52.2500015945435,4|0,0:0|0:0,0:0:0:0:
176,204,74237,2,0,L|164:4,1,156.750004783631,2|0,0:0|0:0,0:0:0:0:
248,248,74550,6,0,L|240:371,1,104.500003189087,4|0,0:0|0:0,0:0:0:0:
376,168,74784,1,0,0:0:0:0:
376,168,74862,2,0,L|382:272,1,104.500003189087,2|0,0:0|0:0,0:0:0:0:
452,106,75175,2,0,P|401:73|327:87,1,104.500003189087,4|0,0:0|0:0,0:0:0:0:
71,209,75409,1,0,0:0:0:0:
71,209,75487,2,0,L|215:202,1,104.500003189087,2|0,0:0|0:0,0:0:0:0:
248,248,75800,6,0,L|246:302,3,35.625001358986,4|0|0|0,0:0|0:0|0:0|0:0,0:0:0:0:
356,348,76112,2,0,L|354:294,3,47.5,4|0|0|0,0:0|0:0|0:0|0:0,0:0:0:0:
424,172,76425,1,4,0:0:0:0:
156,320,76581,1,4,0:0:0:0:
435,367,76737,1,4,0:0:0:0:
456,319,76815,1,4,0:0:0:0:
462,268,76893,1,4,0:0:0:0:
451,217,76971,1,4,0:0:0:0:
424,172,77050,6,0,P|401:103|432:12,1,156.750004783631,4|0,0:0|0:0,0:0:0:0:
492,0,77362,2,0,L|355:5,1,104.500003189087,2|0,0:0|0:0,0:0:0:0:
208,103,77675,2,0,B|263:107|263:107|337:78,1,104.500003189087,4|0,0:0|0:0,0:0:0:0:
512,184,77909,1,0,0:0:0:0:
512,184,77987,2,0,B|457:188|457:188|383:159,1,104.500003189087,2|0,0:0|0:0,0:0:0:0:
208,103,78300,2,0,L|100:108,1,104.500003189087,4|0,0:0|0:0,0:0:0:0:
274,151,78534,1,0,0:0:0:0:
274,151,78612,2,0,P|292:95|247:37,1,104.500003189087,2|0,0:0|0:0,0:0:0:0:
147,213,78925,6,0,L|155:330,1,104.500003189087,4|0,0:0|0:0,0:0:0:0:
292,360,79159,1,0,0:0:0:0:
292,360,79237,2,0,L|299:255,1,104.500003189087,2|0,0:0|0:0,0:0:0:0:
404,128,79550,6,4,B|406:172|406:172|400:192|400:192|406:208,2,82.3333295644126
470,78,79862,2,0,P|387:48|323:132,1,156.750004783631,2|0,0:0|0:0,0:0:0:0:
392,286,80175,2,4,B|420:280|420:280|456:288|456:288|492:280,2,82.3333295644126
253,197,80487,2,0,B|317:186|317:186|441:217,1,156.750004783631,2|0,0:0|0:0,0:0:0:0:
223,312,80800,6,0,L|232:350,4,23.75
139,228,81112,2,0,L|101:216,4,23.75
253,197,81425,2,0,L|281:170,7,23.75
293,163,81737,6,0,L|341:174,1,28.4999991302491
276,148,81815,2,0,L|228:159,1,28.4999991302491
300,120,81893,2,0,L|348:131,1,28.4999991302491
283,105,81971,2,0,L|235:116,1,28.4999991302491
304,88,82050,6,0,B|352:76|352:76|368:124|440:156|496:105|494:-2|398:75|428:172|488:196|488:196|516:280|436:324,1,465.499985794068
319,196,83300,2,0,B|324:156|324:156|354:182|384:186|384:186|398:219|425:238|425:238|379:262|362:299|380:347|380:347|340:328|300:332|300:332|274:250,1,465.499985794068
448,312,84550,2,0,B|522:308|534:235|510:181|463:162|463:162|501:76|406:0|334:30|304:68,1,465.499985794068
360,352,85800,2,0,B|336:316|348:248|392:228|444:236|444:236|384:216|365:170|381:119|381:119|313:166|258:120,1,465.499985794068
451,19,87050,6,0,L|455:95,1,66.4999979705811
400,224,87362,1,0,0:0:0:0:
392,200,87440,1,0,0:0:0:0:
385,175,87518,1,0,0:0:0:0:
378,151,87596,1,0,0:0:0:0:
372,127,87675,1,0,0:0:0:0:
451,19,87831,1,0,0:0:0:0:
372,127,87987,5,0,0:0:0:0:
350,139,88065,1,0,0:0:0:0:
326,145,88143,1,0,0:0:0:0:
301,144,88221,1,0,0:0:0:0:
278,135,88300,1,0,0:0:0:0:
152,48,88456,1,0,0:0:0:0:
212,180,88612,5,0,0:0:0:0:
212,204,88690,1,0,0:0:0:0:
213,229,88768,1,0,0:0:0:0:
214,254,88846,1,0,0:0:0:0:
215,279,88925,1,0,0:0:0:0:
128,348,89081,1,0,0:0:0:0:
288,320,89237,5,0,0:0:0:0:
312,317,89315,1,0,0:0:0:0:
337,316,89393,1,0,0:0:0:0:
362,321,89471,1,0,0:0:0:0:
386,327,89550,1,0,0:0:0:0:
496,356,89706,1,0,0:0:0:0:
288,320,89862,5,0,0:0:0:0:
264,323,89940,1,0,0:0:0:0:
239,324,90018,1,0,0:0:0:0:
214,319,90096,1,0,0:0:0:0:
190,313,90175,1,0,0:0:0:0:
80,264,90331,1,0,0:0:0:0:
196,214,90487,5,0,0:0:0:0:
194,238,90565,1,0,0:0:0:0:
193,263,90643,1,0,0:0:0:0:
191,288,90721,1,0,0:0:0:0:
190,313,90800,1,0,0:0:0:0:
80,264,90956,1,0,0:0:0:0:
196,214,91112,5,0,0:0:0:0:
194,190,91190,1,0,0:0:0:0:
193,165,91268,1,0,0:0:0:0:
191,140,91346,1,0,0:0:0:0:
190,115,91425,1,0,0:0:0:0:
100,48,91581,1,0,0:0:0:0:
190,115,91737,2,0,P|216:114|237:117,1,33.2499989852906
296,152,91893,2,0,P|312:152|329:151,1,33.2499989852906
400,104,92050,6,0,L|396:192,1,76,4|0,0:0|0:0,0:0:0:0:
338,55,92362,2,0,P|402:28|474:78,1,152,8|0,0:0|0:0,0:0:0:0:
396,179,92831,1,4,0:0:0:0:
268,100,92987,2,0,P|259:66|266:19,1,76,8|0,0:0|0:0,0:0:0:0:
396,179,93300,1,4,0:0:0:0:
268,228,93456,1,4,0:0:0:0:
336,56,93612,2,0,L|456:63,1,114,8|0,0:0|0:0,0:0:0:0:
488,76,93925,1,4,0:0:0:0:
300,80,94081,1,4,0:0:0:0:
488,76,94237,2,0,L|496:176,1,76,8|0,0:0|0:0,0:0:0:0:
416,256,94550,5,4,0:0:0:0:
494,151,94706,1,4,0:0:0:0:
396,284,94862,2,0,P|390:334|400:368,1,76,8|0,0:0|0:0,0:0:0:0:
492,320,95175,1,0,0:0:0:0:
340,216,95331,2,0,P|346:166|336:132,1,76,4|8,0:0|0:0,0:0:0:0:
212,184,95643,1,0,0:0:0:0:
304,332,95800,5,4,0:0:0:0:
340,141,95956,1,4,0:0:0:0:
132,154,96112,2,0,P|127:197|181:266,1,114,8|0,0:0|0:0,0:0:0:0:
200,260,96425,1,4,0:0:0:0:
336,188,96581,1,4,0:0:0:0:
200,84,96737,6,0,L|44:89,1,152,8|4,0:0|0:0,0:0:0:0:
200,260,97206,1,4,0:0:0:0:
280,120,97362,2,0,P|287:81|211:0,1,152,8|0,0:0|0:0,0:0:0:0:
212,168,97831,2,0,P|244:194|292:205,1,76,4|8,0:0|0:0,0:0:0:0:
420,160,98143,1,0,0:0:0:0:
272,44,98300,6,4,L|278:123,1,76
420,160,98612,2,0,L|409:292,1,114,8|0,0:0|0:0,0:0:0:0:
392,308,98925,1,4,0:0:0:0:
432,140,99081,1,4,0:0:0:0:
480,340,99237,2,0,P|433:307|329:329,1,152,8|4,0:0|0:0,0:0:0:0:
248,368,99706,5,4,0:0:0:0:
139,284,99862,2,0,B|176:248|176:248|226:279|291:246,1,152,8|0,0:0|0:0,0:0:0:0:
368,228,100331,1,4,0:0:0:0:
244,116,100487,2,0,P|226:164|237:212,1,76,8|0,0:0|0:0,0:0:0:0:
344,320,100800,1,4,0:0:0:0:
304,164,100956,1,4,0:0:0:0:
189,277,101112,2,0,L|317:285,1,114,8|0,0:0|0:0,0:0:0:0:
344,320,101425,1,4,0:0:0:0:
232,376,101581,1,4,0:0:0:0:
304,160,101737,1,8,0:0:0:0:
304,160,102050,6,0,B|254:146|233:113|238:65|238:65|193:115|107:86,1,237.5,2|0,0:0|2:0,0:0:0:0:
193,3,102518,2,0,P|262:-7|315:45,1,142.5,2|0,0:0|2:0,0:0:0:0:
188,176,102831,2,0,B|138:164|84:171|84:171|91:200|121:227,1,142.5,2|0,0:0|2:0,0:0:0:0:
230,251,103143,2,0,B|272:217|362:212|418:244|418:244|368:239|332:264,1,284.999991302491,2|4,0:0|0:0,0:0:0:0:
329,274,104550,6,0,B|356:304|356:304|344:92,1,237.5,2|0,0:0|2:0,0:0:0:0:
416,88,105018,2,0,B|420:172|420:172|460:220,1,142.5,2|0,0:0|2:0,2:0:0:0:
493,124,105331,1,2,0:0:0:0:
420,296,105487,1,2,0:0:0:0:
457,216,105643,2,0,B|436:184|400:168|352:168|316:208|316:208|321:164|299:118|237:115,1,284.999991302491,2|4,0:0|0:0,0:0:0:0:
230,127,107050,6,0,B|171:112|171:112|126:147|58:128|58:128|-16:181,1,237.5,2|0,0:0|2:0,0:0:0:0:
104,56,107518,2,0,B|144:32|192:40|192:40|276:60,1,142.5,2|0,0:0|2:0,0:0:0:0:
315,187,107831,2,0,B|275:211|227:203|227:203|143:183,1,142.5,2|0,0:0|2:0,0:0:0:0:
260,128,108143,2,0,P|338:111|316:268,1,284.999991302491,2|6,0:0|0:0,0:0:0:0:
121,254,109393,5,0,0:0:0:0:
121,254,109471,1,0,0:0:0:0:
121,254,109550,6,0,B|176:280|176:280|260:264|260:264|320:288|360:264,1,237.5,2|0,0:0|2:0,0:0:0:0:
151,187,110018,2,0,B|189:205|189:205|253:192|253:192|301:195|323:215,1,142.5,2|0,0:0|2:0,0:0:0:0:
348,269,110331,1,2,0:0:0:0:
412,105,110487,1,2,0:0:0:0:
468,208,110643,2,0,B|419:212|388:182|388:182|339:216|281:202|281:202|268:251|196:258,1,284.999991302491,2|4,0:0|2:0,0:0:0:0:
219,254,112050,6,0,B|160:243|117:268|117:268|160:278|192:308,1,190,2|0,0:0|0:0,0:0:0:0:
213,182,112518,2,0,P|164:178|85:208,1,95,2|0,0:0|0:0,0:0:0:0:
368,288,112831,2,0,L|376:181,1,95,2|0,0:0|0:0,0:0:0:0:
208,336,113143,2,0,L|496:328,1,284.999991302491,2|4,0:0|0:0,0:0:0:0:
504,312,114237,5,4,0:0:0:0:
320,284,114393,1,4,0:0:0:0:
332,292,114471,1,4,0:0:0:0:
344,300,114550,2,0,L|336:72,1,190,2|0,0:0|0:0,0:0:0:0:
260,248,115018,2,0,L|264:361,1,95,2|0,0:0|0:0,0:0:0:0:
464,160,115331,2,0,L|391:164,1,47.5,2|0,0:0|0:0,0:0:0:0:
260,248,115487,2,0,L|212:250,1,47.5,2|0,0:0|0:0,0:0:0:0:
344,300,115643,2,0,B|352:208|352:208|292:124|292:124|304:28,1,284.999991302491,2|4,0:0|0:0,0:0:0:0:
324,16,116737,5,4,0:0:0:0:
324,16,117050,2,0,P|333:101|321:230,1,190,2|0,0:0|0:0,0:0:0:0:
228,284,117518,2,0,L|236:384,1,95,2|0,0:0|0:0,0:0:0:0:
460,176,117831,2,0,L|452:276,1,95,2|0,0:0|0:0,0:0:0:0:
240,100,118143,2,0,B|273:124|333:123|376:100|376:100|419:74|496:72|522:111,1,284.999991302491,2|4,0:0|0:0,0:0:0:0:
444,180,119393,5,4,0:0:0:0:
444,180,119471,1,4,0:0:0:0:
444,180,119550,2,0,P|441:266|378:223,1,190,2|0,0:0|0:0,0:0:0:0:
396,92,120018,2,0,L|521:85,1,95,2|0,0:0|0:0,0:0:0:0:
284,236,120331,2,0,P|301:204|307:166,1,47.5,2|2,0:0|0:0,0:0:0:0:
300,56,120487,2,0,P|312:76|320:98,1,47.5,2|0,0:0|0:0,0:0:0:0:
380,232,120643,2,0,L|95:210,1,284.999991302491,2|4,0:0|0:0,0:0:0:0:
76,224,122050,6,0,P|67:132|92:27,1,190,4|2,0:0|0:0,0:0:0:0:
184,8,122518,1,0,0:0:0:0:
256,176,122675,2,4,L|131:183,1,95,4|0,0:0|0:0,0:0:0:0:
40,288,122987,1,2,0:0:0:0:
326,226,123143,2,0,P|339:170|311:103,1,95,0|4,0:0|0:0,0:0:0:0:
176,264,123456,2,0,P|163:309|170:355,1,95,0|2,0:0|0:0,0:0:0:0:
380,334,123768,2,0,L|267:322,1,95
88,300,124081,1,4,0:0:0:0:
371,144,124237,6,0,L|380:349,1,190,4|4,0:0|0:0,0:0:0:0:
188,240,124706,1,0,0:0:0:0:
294,90,124862,2,0,P|383:59|461:126,1,190,2|4,0:0|0:0,0:0:0:0:
188,240,125331,2,0,L|81:243,1,95,4|2,0:0|0:0,0:0:0:0:
240,360,125643,1,0,0:0:0:0:
364,156,125800,2,0,L|471:153,1,95,4|0,0:0|0:0,0:0:0:0:
192,64,126112,2,0,L|206:225,1,142.5,2|0,0:0|0:0,0:0:0:0:
188,240,126425,1,4,0:0:0:0:
240,360,126581,1,4,0:0:0:0:
272,144,126737,2,0,P|183:117|115:179,1,190,2|4,0:0|0:0,0:0:0:0:
224,312,127206,5,0,0:0:0:0:
342,191,127362,2,0,P|352:151|334:85,1,95,2|0,0:0|0:0,0:0:0:0:
223,219,127675,2,4,P|213:259|231:325,1,95
304,368,127987,1,2,0:0:0:0:
436,103,128143,2,0,L|324:98,1,95,0|4,0:0|0:0,0:0:0:0:
223,219,128456,2,0,L|128:215,1,95,0|2,0:0|0:0,0:0:0:0:
304,368,128768,1,0,0:0:0:0:
428,276,128925,2,0,P|431:226|425:179,1,95,0|4,0:0|0:0,0:0:0:0:
272,64,129237,2,0,B|315:82|367:66|367:66|415:50|457:70,1,190,2|4,0:0|0:0,0:0:0:0:
348,240,129706,5,0,0:0:0:0:
96,120,129862,2,0,P|96:88|230:22,1,190,2|4,0:0|0:0,0:0:0:0:
348,240,130331,1,4,0:0:0:0:
274,91,130487,2,0,L|148:95,1,95,2|0,0:0|0:0,0:0:0:0:
348,240,130800,6,0,P|361:153|336:24,1,190,4|2,0:0|0:0,0:0:0:0:
56,320,131268,1,4,0:0:0:0:
56,320,131346,2,0,L|126:326,1,47.5
360,344,131503,1,4,0:0:0:0:
217,347,131737,2,0,L|398:343,1,142.5,2|0,0:0|0:0,0:0:0:0:
382,320,132050,6,0,B|387:279|387:279|370:175|370:175|380:117,1,190,4|0,0:0|0:0,0:0:0:0:
260,48,132518,2,0,B|267:90|267:90|250:194|250:194|255:235,1,190
80,144,132987,2,0,P|124:126|187:135,1,95,2|0,0:0|0:0,0:0:0:0:
255,235,133300,2,0,B|270:283|249:327|249:327|189:328|151:292,1,190,4|0,0:0|0:0,0:0:0:0:
312,186,133768,2,0,P|336:278|300:386,1,190
64,301,134237,2,0,L|176:298,1,95,2|0,0:0|0:0,0:0:0:0:
312,186,134550,6,0,L|88:180,1,190,4|0,0:0|0:0,0:0:0:0:
403,152,135018,2,0,P|408:199|395:245,1,95
288,328,135331,1,0,0:0:0:0:
264,76,135487,2,0,B|306:96|354:79|354:79|397:60|448:78,1,190,2|0,0:0|0:0,0:0:0:0:
200,184,135956,5,0,0:0:0:0:
168,20,136112,1,0,0:0:0:0:
326,74,136268,1,0,0:0:0:0:
108,108,136425,1,0,0:0:0:0:
379,23,136581,2,0,P|397:66|389:113,1,95
264,280,136893,1,0,0:0:0:0:
128,80,137050,6,0,L|341:72,1,190,4|0,0:0|0:0,0:0:0:0:
444,200,137518,2,0,L|311:195,1,95
196,184,137831,1,0,0:0:0:0:
358,350,137987,1,0,0:0:0:0:
421,127,138143,1,0,0:0:0:0:
131,130,138300,6,0,P|114:194|203:273,1,190,4|0,0:0|0:0,0:0:0:0:
344,240,138768,1,0,0:0:0:0:
232,0,138925,2,0,L|198:208,1,190
172,344,139393,1,0,0:0:0:0:
133,201,139550,5,4,0:0:0:0:
312,292,139706,1,0,0:0:0:0:
272,164,139862,1,2,0:0:0:0:
15,213,140018,1,0,0:0:0:0:
208,332,140175,1,4,0:0:0:0:
215,106,140331,1,4,0:0:0:0:
95,339,140487,1,2,0:0:0:0:
88,113,140643,1,0,0:0:0:0:
288,220,140800,6,0,L|292:177,1,23.75
288,220,140878,2,0,L|323:244,1,23.75
288,220,140956,2,0,L|248:238,1,23.75
288,220,141034,2,0,L|260:186,1,23.75
288,220,141112,2,0,L|330:212,1,23.75
288,220,141190,2,0,L|273:260,1,23.75
288,220,141268,2,0,L|292:177,1,23.75
288,220,141346,2,0,L|323:244,1,23.75
288,220,141425,2,0,L|248:238,1,23.75
301,217,141737,6,0,L|376:215,1,71.25,0|0,0:0|2:0,0:0:0:0:
485,120,142050,6,0,P|436:104|474:161,1,142.5,4|0,0:0|2:0,0:0:0:0:
496,34,142362,2,0,P|456:27|409:35,1,56.9999982604981,0|0,0:0|2:0,0:0:0:0:
264,120,142518,2,0,P|292:119|320:113,1,56.9999982604981,4|0,0:0|2:0,0:0:0:0:
192,24,142675,2,0,P|160:50|136:91,1,56.9999982604981,2|0,0:0|2:0,0:0:0:0:
156,268,142831,2,0,P|178:250|196:228,1,56.9999982604981,0|0,0:0|2:0,0:0:0:0:
12,192,142987,2,0,P|17:219|29:245,1,56.9999982604981,0|0,0:0|2:0,0:0:0:0:
256,176,143143,2,0,P|232:160|205:150,1,56.9999982604981,0|0,0:0|2:0,0:0:0:0:
192,340,143300,6,4,B|238:332|238:332|285:345|285:345|337:339|337:339|395:359,1,185.249991519928,4|0,0:0|2:0,0:0:0:0:
412,232,143612,2,0,B|344:264|344:264|444:300,1,156.750004783631,0|0,0:0|2:0,0:0:0:0:
475,184,143925,2,0,P|419:158|369:162,1,71.2500027179719,2|0,0:0|2:0,0:0:0:0:
268,220,144081,1,0,0:0:0:0:
268,220,144159,1,0,0:0:0:0:
268,220,144237,2,0,L|127:216,1,80.750001540184,4|0,0:0|2:0,0:0:0:0:
20,168,144393,1,0,0:0:0:0:
20,168,144471,1,0,0:0:0:0:
20,168,144550,6,0,B|72:139|72:139|142:168|142:168|155:230|155:230|130:289|130:289|138:341|138:341|199:363|199:363|244:332,1,432.249980213166,4|0,0:0|2:0,0:0:0:0:
248,192,145175,2,0,L|252:268,1,56.9999982604981,2|0,0:0|2:0,0:0:0:0:
440,156,145331,2,0,L|436:232,1,56.9999982604981,0|0,0:0|2:0,0:0:0:0:
240,184,145487,2,0,L|244:265,1,56.9999982604981,0|0,0:0|2:0,0:0:0:0:
446,145,145643,2,0,L|441:226,1,56.9999982604981,0|0,0:0|2:0,0:0:0:0:
213,113,145800,6,0,B|255:129|255:129|313:97|313:97|373:114|373:114|392:66|436:54|473:63|504:82|504:82|484:32|504:0,1,403.75000770092,4|0,0:0|2:0,0:0:0:0:
446,145,146268,2,0,L|526:144,1,47.5,4|0,0:0|2:0,0:0:0:0:
288,260,146425,2,0,L|208:259,1,56.9999982604981,2|0,0:0|2:0,0:0:0:0:
64,264,146581,1,0,0:0:0:0:
64,264,146659,1,0,0:0:0:0:
64,264,146737,6,0,P|41:271|77:274,1,106.875004076958,4|0,0:0|2:0,0:0:0:0:
88,164,147050,6,0,B|106:197|106:197|57:175|4:202,1,142.5,4|0,0:0|2:0,0:0:0:0:
24,52,147362,2,0,B|20:86|20:86|27:134,1,56.9999982604981,0|0,0:0|2:0,0:0:0:0:
184,184,147518,2,0,L|179:104,1,56.9999982604981,4|0,0:0|2:0,0:0:0:0:
80,288,147675,2,0,L|76:344,1,56.9999982604981,2|0,0:0|2:0,0:0:0:0:
4,196,147831,2,0,B|26:190|26:190|60:190,1,56.9999982604981,0|0,0:0|2:0,0:0:0:0:
212,304,147987,2,0,B|246:304|246:304|268:298,1,56.9999982604981,0|0,0:0|2:0,0:0:0:0:
356,192,148143,2,0,P|363:150|353:111,1,56.9999982604981,0|0,0:0|2:0,0:0:0:0:
300,256,148300,6,0,B|344:294|410:266|410:266|377:292|366:330,1,185.249991519928,4|0,0:0|2:0,0:0:0:0:
490,329,148612,2,0,B|478:297|478:297|497:249|461:209|461:209|473:150,1,156.750004783631,0|0,0:0|2:0,0:0:0:0:
386,65,148925,6,0,L|395:158,1,71.2500027179719,2|0,0:0|2:0,0:0:0:0:
408,264,149081,1,0,0:0:0:0:
408,264,149159,1,0,0:0:0:0:
408,264,149237,6,0,B|365:268|365:268|300:261,1,80.750001540184,0|0,0:0|2:0,2:0:0:0:
136,220,149393,1,0,0:0:0:0:
136,220,149471,1,0,0:0:0:0:
136,220,149550,6,0,B|134:306|134:306|95:273|95:273|103:228|71:184|71:184|105:138|85:69|85:69|118:101|173:90,1,432.249980213166,4|0,0:0|0:0,0:0:0:0:
4,28,150175,2,0,P|4:63|16:89,1,56.9999982604981,2|0,0:0|2:0,0:0:0:0:
136,220,150331,2,0,P|166:236|195:238,1,56.9999982604981,0|0,0:0|2:0,0:0:0:0:
183,72,150487,2,0,P|148:76|124:92,1,56.9999982604981,0|0,0:0|2:0,0:0:0:0:
11,229,150643,2,0,P|0:261|1:290,1,56.9999982604981,0|0,0:0|2:0,0:0:0:0:
103,358,150800,6,0,L|166:352,3,47.5
220,320,151112,2,0,L|267:324,3,47.5
340,352,151425,2,0,L|387:347,6,35.625001358986,2|0|0|0|0|0|0,0:0|0:0|0:0|0:0|0:0|0:0|0:0,0:0:0:0:
330,339,151737,6,0,L|336:222,1,106.875004076958,0|0,0:0|2:0,0:0:0:0:
398,173,152050,6,0,B|390:130|349:121|349:121|313:126|297:168,1,142.5,4|0,0:0|2:0,0:0:0:0:
463,135,152362,2,0,P|450:109|424:76,1,56.9999982604981,0|0,0:0|2:0,0:0:0:0:
264,80,152518,2,0,P|247:103|234:128,1,56.9999982604981,0|0,0:0|2:0,0:0:0:0:
335,232,152675,2,0,L|344:284,7,33.2499989852906,2|0|0|0|0|0|0|0,0:0|0:0|0:0|0:0|0:0|0:0|0:0|0:0,0:0:0:0:
364,208,152987,2,0,L|371:161,8,35.625001358986
382,215,154550,6,0,B|351:180|285:164|235:208|235:208|267:203|317:231,1,213.750008153916,4|0,0:0|2:0,0:0:0:0:
248,120,154862,2,0,B|202:135|175:171|175:171|130:135|70:144,1,199.499993911743,4|0,0:0|2:0,0:0:0:0:
21,207,155175,6,0,L|31:271,1,56.9999982604981,2|0,0:0|2:0,0:0:0:0:
180,364,155331,2,0,L|188:307,1,56.9999982604981,0|0,0:0|2:0,0:0:0:0:
13,200,155487,2,0,L|24:269,1,56.9999982604981,0|0,0:0|2:0,0:0:0:0:
187,370,155643,2,0,L|196:309,1,56.9999982604981,0|0,0:0|2:0,0:0:0:0:
60,48,155800,6,0,B|36:70|36:70|74:62|125:62|163:81|163:81|205:47|252:40,1,237.5,4|0,0:0|2:0,0:0:0:0:
304,132,156268,2,0,P|273:122|229:120,1,47.5
384,74,156425,6,0,L|380:167,1,71.2500027179719,2|0,0:0|2:0,0:0:0:0:
444,356,156581,1,0,0:0:0:0:
444,356,156659,1,0,0:0:0:0:
444,356,156737,6,0,L|439:268,1,80.750001540184,4|0,0:0|2:0,0:0:0:0:
380,145,156893,1,0,0:0:0:0:
380,145,156971,1,0,0:0:0:0:
380,145,157050,6,0,B|384:68|384:68|336:93|325:144|325:144|360:198|341:248|341:248|374:268|379:312,1,332.5,4|0,0:0|2:0,0:0:0:0:
212,214,157675,2,0,P|243:204|281:206,1,56.9999982604981,2|0,0:0|2:0,0:0:0:0:
140,316,157831,2,0,P|111:314|84:305,1,56.9999982604981,0|0,0:0|2:0,0:0:0:0:
216,157,157987,2,0,L|210:240,1,56.9999982604981,0|0,0:0|2:0,0:0:0:0:
144,372,158143,2,0,L|139:315,1,56.9999982604981,0|0,0:0|2:0,0:0:0:0:
152,112,158300,6,0,B|191:72|240:73|275:103|275:103|315:93|315:93|343:108|343:108|387:78|439:83|482:118|478:180,1,403.75000770092,4|0,0:0|2:0,0:0:0:0:
400,216,158768,2,0,L|397:153,1,47.5,4|0,0:0|2:0,0:0:0:0:
312,312,158925,2,0,L|309:368,1,56.9999982604981,2|0,0:0|2:0,0:0:0:0:
212,212,159081,1,0,0:0:0:0:
212,212,159159,1,0,0:0:0:0:
212,212,159237,6,0,B|178:223|178:223|151:210|151:210|130:207|88:208,1,106.875004076958,4|0,0:0|0:0,0:0:0:0:
16,280,159550,6,0,B|44:274|75:289|75:289|108:279|108:279|142:304|182:289|182:289|224:340,1,213.750008153916,4|0,0:0|2:0,0:0:0:0:
280,356,159862,2,0,B|268:308|268:308|304:328|352:308|352:308|384:327|444:308|444:308,1,199.499993911743,4|0,0:0|2:0,0:0:0:0:
468,256,160175,6,0,P|471:220|459:181,1,56.9999982604981,2|0,0:0|2:0,0:0:0:0:
392,56,160331,2,0,P|389:92|401:131,1,56.9999982604981,0|0,0:0|2:0,0:0:0:0:
476,264,160487,2,0,P|479:228|467:189,1,56.9999982604981,0|0,0:0|2:0,0:0:0:0:
384,48,160643,2,0,P|381:84|393:123,1,56.9999982604981,0|0,0:0|2:0,0:0:0:0:
448,16,160800,6,0,B|361:20|361:20|318:46|264:52|264:52|297:56|318:85,1,237.5,4|0,0:0|2:0,0:0:0:0:
394,94,161268,2,0,L|474:90,1,47.5,4|0,0:0|2:0,0:0:0:0:
279,139,161425,6,0,B|262:127|262:127|238:141|212:140,1,71.2500027179719,2|0,0:0|2:0,0:0:0:0:
12,72,161581,1,0,0:0:0:0:
12,72,161659,1,0,0:0:0:0:
12,72,161737,6,4,L|28:176,1,80.750001540184,4|4,0:0|2:0,0:0:0:0:
108,320,161893,1,0,0:0:0:0:
108,320,161971,1,0,0:0:0:0:
108,320,162050,6,0,B|140:336|184:312|184:312|224:328|224:328|266:296|324:320|324:320|368:304|368:304|436:316,1,332.5,4|0,0:0|0:0,0:0:0:0:
487,264,162675,6,0,L|484:196,1,56.9999982604981,2|0,0:0|2:0,0:0:0:0:
356,68,162831,2,0,L|353:124,1,56.9999982604981,0|0,0:0|2:0,0:0:0:0:
272,308,162987,2,0,P|295:306|349:312,1,56.9999982604981
194,168,163143,2,0,P|171:170|117:164,1,56.9999982604981
82,313,163300,2,0,L|88:336,28,17.812500679493
92,308,163925,6,0,B|131:327|171:311|171:311|222:294|266:321,1,166.25,2|0,0:0|0:0,0:0:0:0:
316,364,164550,6,0,P|248:319|268:205,1,170.999994781494,4|0,0:0|0:0,0:0:0:0:
348,112,164862,2,0,B|354:145|354:145|338:173|338:173|342:228|342:228|319:289,1,170.999994781494,2|0,0:0|0:0,0:0:0:0:
268,136,165175,1,0,0:0:0:0:
460,112,165331,1,4,0:0:0:0:
164,216,165487,2,0,L|161:135,1,56.9999982604981,2|0,0:0|0:0,0:0:0:0:
270,79,165643,2,0,L|267:135,1,56.9999982604981
92,48,165800,5,4,0:0:0:0:
383,75,165956,2,0,L|240:79,1,113.999996520996,0|2,0:0|0:0,0:0:0:0:
164,216,166268,1,0,0:0:0:0:
447,115,166425,2,0,P|456:87|457:59,1,56.9999982604981
336,168,166581,2,0,P|336:196|345:223,1,56.9999982604981,4|0,0:0|0:0,0:0:0:0:
423,327,166737,2,0,L|206:332,1,170.999994781494,2|0,0:0|0:0,0:0:0:0:
164,360,167050,6,0,P|163:300|73:353,1,170.999994781494,4|0,0:0|0:0,0:0:0:0:
36,340,167362,2,0,B|51:293|51:293|42:169,1,170.999994781494,2|0,0:0|0:0,0:0:0:0:
16,120,167675,2,0,P|9:67|42:7,1,113.999996520996,0|4,0:0|0:0,0:0:0:0:
168,144,167987,1,2,0:0:0:0:
33,217,168143,1,0,0:0:0:0:
145,55,168300,2,0,P|172:52|212:58,1,56.9999982604981,4|0,0:0|0:0,0:0:0:0:
368,148,168456,2,0,L|224:142,1,113.999996520996,0|2,0:0|0:0,0:0:0:0:
88,136,168768,1,0,0:0:0:0:
424,104,168925,6,0,P|432:65|419:18,1,56.9999982604981,4|0,0:0|0:0,0:0:0:0:
332,216,169081,2,0,P|330:244|338:271,1,56.9999982604981,4|0,0:0|0:0,0:0:0:0:
412,360,169237,6,0,L|416:368,12,8.90625033974649
418,340,169550,6,0,L|220:336,1,170.999994781494,4|0,0:0|0:0,0:0:0:0:
136,224,169862,2,0,B|160:178|160:178|184:306,1,170.999994781494,2|0,0:0|0:0,0:0:0:0:
128,352,170175,1,0,0:0:0:0:
8,240,170331,1,4,0:0:0:0:
256,136,170487,2,0,L|251:215,1,56.9999982604981,2|0,0:0|0:0,0:0:0:0:
128,352,170643,2,0,L|124:295,1,56.9999982604981
112,132,170800,5,4,0:0:0:0:
14,344,170956,2,0,L|140:352,1,113.999996520996,0|2,0:0|0:0,0:0:0:0:
336,312,171268,1,0,0:0:0:0:
232,276,171425,2,0,P|239:248|239:220,1,56.9999982604981
412,208,171581,2,0,P|401:181|384:158,1,56.9999982604981,4|0,0:0|0:0,0:0:0:0:
328,332,171737,2,0,B|392:320|392:320|520:336,1,170.999994781494,2|0,0:0|0:0,0:0:0:0:
298,310,172050,6,0,L|211:321,3,56.9999982604981,4|0|0|0,0:0|0:0|0:0|0:0,0:0:0:0:
140,236,172362,2,0,L|227:247,3,47.5
272,156,172675,2,0,L|228:161,3,38,4|0|0|0,0:0|0:0|0:0|0:0,0:0:0:0:
164,72,172987,2,0,L|207:77,3,28.4999991302491,2|0|0|0,0:0|0:0|0:0|0:0,0:0:0:0:
284,44,173300,6,0,L|323:42,4,23.75
360,136,173612,2,0,L|342:170,4,23.75
242,155,173925,2,0,L|220:122,14,23.75
250,123,174550,6,0,L|62:127,1,170.999994781494,4|0,0:0|0:0,0:0:0:0:
0,236,174862,2,0,B|19:199|19:199|64:221|108:215|159:188,1,170.999994781494,2|0,0:0|0:0,0:0:0:0:
184,120,175175,2,0,P|196:60|159:5,1,113.999996520996,0|4,0:0|0:0,0:0:0:0:
0,236,175487,1,2,0:0:0:0:
148,304,175643,2,0,L|286:296,1,113.999996520996,0|4,0:0|0:0,0:0:0:0:
428,328,175956,2,0,P|383:321|345:327,1,56.9999982604981
216,192,176112,2,0,P|261:199|299:193,1,56.9999982604981,2|0,0:0|0:0,0:0:0:0:
392,104,176268,1,0,0:0:0:0:
164,128,176425,2,0,L|172:273,1,113.999996520996,0|4,0:0|0:0,0:0:0:0:
212,64,176737,2,0,P|165:50|115:58,1,56.9999982604981,2|0,0:0|0:0,0:0:0:0:
81,197,176893,2,0,L|155:192,1,56.9999982604981
25,123,177050,6,0,B|-3:179|-3:179|14:300,1,170.999994781494,4|0,0:0|0:0,0:0:0:0:
72,340,177362,2,0,B|120:360|160:344|160:344|224:320|276:360,1,170.999994781494,2|0,0:0|0:0,0:0:0:0:
316,352,177675,2,0,L|388:346,1,56.9999982604981
446,267,177831,2,0,P|452:227|439:182,1,56.9999982604981,4|0,0:0|0:0,0:0:0:0:
272,148,177987,2,0,P|270:176|275:204,1,56.9999982604981,2|0,0:0|0:0,0:0:0:0:
344,280,178143,1,0,0:0:0:0:
384,76,178300,1,4,0:0:0:0:
110,254,178456,2,0,L|270:252,1,113.999996520996,0|2,0:0|0:0,0:0:0:0:
384,76,178768,1,0,0:0:0:0:
200,152,178925,6,0,B|232:159|232:159|282:155,1,56.9999982604981
328,296,179081,2,0,B|360:289|360:289|410:293,1,56.9999982604981,4|0,0:0|0:0,0:0:0:0:
456,176,179237,2,0,B|436:216|456:252|456:252|480:300|440:356,1,170.999994781494
304,352,179550,6,0,B|268:324|268:324|309:278|390:291,1,170.999994781494,4|0,0:0|0:0,0:0:0:0:
185,363,179862,2,0,B|180:328|180:328|130:244|130:244|122:185,1,170.999994781494,2|0,0:0|0:0,0:0:0:0:
153,131,180175,2,0,L|157:7,1,113.999996520996,0|4,0:0|0:0,0:0:0:0:
253,193,180487,2,0,L|164:195,1,56.9999982604981,2|0,0:0|0:0,0:0:0:0:
8,136,180643,2,0,L|97:138,1,56.9999982604981
253,193,180800,6,0,B|280:196|312:188|312:188|360:200|360:200|384:192|424:200,1,170.999994781494,4|0,0:0|0:0,0:0:0:0:
484,256,181112,2,0,L|480:52,1,170.999994781494,2|0,0:0|0:0,0:0:0:0:
450,15,181425,2,0,P|415:13|353:22,1,56.9999982604981
240,100,181581,2,0,P|275:98|337:107,1,56.9999982604981,4|0,0:0|0:0,0:0:0:0:
379,217,181737,6,0,B|339:232|299:218|299:218|250:202|183:227,1,170.999994781494
150,277,182050,6,0,L|156:336,3,47.5,4|0|0|0,0:0|0:0|0:0|0:0,0:0:0:0:
240,360,182362,2,0,L|243:322,3,38,2|0|0|0,0:0|0:0|0:0|0:0,0:0:0:0:
328,308,182675,2,0,L|331:345,3,28.4999991302491,4|0|0|0,0:0|0:0|0:0|0:0,0:0:0:0:
415,374,182987,1,2,0:0:0:0:
416,350,183065,1,0,0:0:0:0:
417,326,183143,1,0,0:0:0:0:
419,302,183221,1,0,0:0:0:0:
420,279,183300,6,0,L|424:240,4,23.75
316,200,183612,2,0,L|280:216,4,23.75
299,329,183925,2,0,L|330:351,7,23.75
271,332,184237,5,0,0:0:0:0:
226,303,184315,1,0,0:0:0:0:
173,298,184393,1,0,0:0:0:0:
125,319,184471,1,0,0:0:0:0:
91,360,184550,6,0,B|96:312|96:312|68:220|68:220|76:148,1,190,4|4,0:0|0:0,0:0:0:0:
140,92,185018,1,0,0:0:0:0:
230,202,185175,2,4,L|361:199,1,95,0|0,0:0|0:0,0:0:0:0:
416,284,185487,1,4,0:0:0:0:
164,148,185643,2,0,B|153:193|153:193|163:278,1,95,0|4,0:0|0:0,0:0:0:0:
320,292,185956,2,0,B|331:247|331:247|325:198,1,95,0|4,0:0|0:0,0:0:0:0:
65,231,186268,2,0,B|109:244|109:244|194:238,1,95,0|4,0:0|0:0,0:0:0:0:
418,208,186581,2,0,B|373:194|373:194|288:200,1,95,0|4,0:0|0:0,0:0:0:0:
330,338,186893,2,0,L|345:268,1,47.5
188,348,187050,6,0,L|367:336,1,142.5,4|0,0:0|0:0,0:0:0:0:
387,281,187362,2,0,P|372:230|315:274,1,142.5,4|0,0:0|0:0,0:0:0:0:
446,324,187675,2,0,B|476:283|452:213|452:213|422:174,1,142.5,4|0,0:0|0:0,0:0:0:0:
380,152,187987,2,0,L|373:57,1,95,4|0,0:0|0:0,0:0:0:0:
312,320,188300,1,4,0:0:0:0:
92,240,188456,2,0,P|145:229|206:247,1,95,0|4,0:0|0:0,0:0:0:0:
380,152,188768,2,0,P|327:163|266:145,1,95,0|4,0:0|0:0,0:0:0:0:
32,28,189081,1,0,0:0:0:0:
164,88,189237,2,0,L|330:84,1,142.5,4|0,0:0|0:0,0:0:0:0:
336,101,189550,5,4,0:0:0:0:
260,308,189706,1,4,0:0:0:0:
118,138,189862,2,0,B|127:117|130:88|130:88|142:201,1,142.5,2|0,0:0|0:0,0:0:0:0:
132,196,190175,2,0,P|82:210|26:195,1,95,4|0,0:0|0:0,0:0:0:0:
228,256,190409,1,0,0:0:0:0:
228,256,190487,2,0,P|278:242|334:257,1,95,2|0,0:0|0:0,0:0:0:0:
428,339,190800,6,0,L|420:166,1,142.5,4|0,0:0|0:0,0:0:0:0:
408,165,191112,2,0,L|411:61,1,95,2|0,0:0|0:0,0:0:0:0:
224,160,191425,2,0,L|226:254,1,95,4|0,0:0|0:0,0:0:0:0:
280,52,191737,2,0,B|241:43|207:58|207:58|169:72|110:52,1,142.5,2|0,0:0|0:0,0:0:0:0:
60,28,192050,5,4,0:0:0:0:
50,73,192128,1,0,0:0:0:0:
68,117,192206,1,0,0:0:0:0:
107,142,192284,1,0,0:0:0:0:
154,141,192362,2,0,L|233:147,1,47.5,2|0,0:0|0:0,0:0:0:0:
368,172,192518,1,0,0:0:0:0:
359,194,192596,1,0,0:0:0:0:
348,208,192675,2,0,L|272:212,1,47.5,4|0,0:0|0:0,0:0:0:0:
161,297,192831,2,0,B|159:321|159:321|162:354,1,47.5
350,344,192987,2,0,B|353:321|353:321|351:297,1,47.5,2|0,0:0|0:0,0:0:0:0:
256,144,193143,2,0,L|256:224,1,47.5
256,332,193300,6,0,L|256:356,4,23.75
196,244,193612,2,0,L|168:228,4,23.75
316,244,193925,2,0,L|343:228,7,23.75
351,216,194237,6,0,B|351:247|351:247|360:281|360:281|360:328,1,106.875004076958
344,360,194550,6,0,B|344:298|344:298|332:249|332:249|332:166,1,190,4|2,0:0|0:0,0:0:0:0:
380,56,195018,1,0,0:0:0:0:
244,256,195175,2,0,L|244:356,1,95,4|0,0:0|0:0,0:0:0:0:
416,216,195487,1,2,0:0:0:0:
244,351,195643,6,0,B|196:359|196:359|128:348,1,95,0|4,0:0|0:0,0:0:0:0:
188,180,195956,2,0,B|236:172|236:172|304:183,1,95,0|2,0:0|0:0,0:0:0:0:
76,240,196268,2,0,P|71:188|81:126,1,95,0|4,0:0|0:0,0:0:0:0:
340,268,196581,1,0,0:0:0:0:
340,268,196659,1,0,0:0:0:0:
340,268,196737,2,0,P|345:320|335:382,1,95,2|0,0:0|0:0,0:0:0:0:
260,192,196971,1,0,0:0:0:0:
281,179,197050,6,0,L|449:178,1,142.5,4|0,0:0|0:0,0:0:0:0:
488,142,197362,2,0,P|499:190|408:248,1,142.5,2|0,0:0|0:0,0:0:0:0:
360,292,197675,2,0,B|327:304|288:289|288:289|255:278|219:289,1,142.5,4|0,0:0|0:0,0:0:0:0:
151,320,197987,2,0,L|20:312,1,95,2|0,0:0|0:0,0:0:0:0:
256,368,198300,1,4,0:0:0:0:
164,184,198456,1,0,0:0:0:0:
52,356,198612,1,2,0:0:0:0:
256,368,198768,2,0,L|350:362,1,95,0|4,0:0|0:0,0:0:0:0:
444,292,199081,1,0,0:0:0:0:
228,192,199237,2,0,P|221:275|235:348,1,142.5,2|0,0:0|0:0,0:0:0:0:
256,368,199550,5,4,0:0:0:0:
412,276,199706,1,4,0:0:0:0:
174,142,199862,2,0,B|114:122|59:145|59:145|66:159|77:170,1,142.5,2|0,0:0|0:0,0:0:0:0:
228,192,200175,2,0,P|244:145|226:94,1,95,4|0,0:0|0:0,0:0:0:0:
132,256,200409,1,0,0:0:0:0:
132,256,200487,2,0,L|140:372,1,95,2|0,0:0|0:0,0:0:0:0:
344,208,200800,6,0,B|305:207|305:207|249:231|249:231|197:231,1,142.5,4|0,0:0|0:0,0:0:0:0:
132,256,201112,2,0,P|92:200|160:208,1,142.5,2|0,0:0|0:0,0:0:0:0:
196,303,201425,2,0,P|135:335|91:327,1,95,4|0,0:0|0:0,0:0:0:0:
24,268,201659,1,0,0:0:0:0:
24,268,201737,2,0,B|16:221|16:221|25:156,1,95,2|0,0:0|0:0,0:0:0:0:
106,90,202050,5,4,0:0:0:0:
151,103,202128,1,0,0:0:0:0:
198,100,202206,1,0,0:0:0:0:
243,85,202284,1,0,0:0:0:0:
289,73,202362,1,2,0:0:0:0:
336,76,202440,1,0,0:0:0:0:
381,89,202518,2,0,L|448:92,1,47.5
340,180,202675,2,0,L|406:182,1,47.5,4|0,0:0|0:0,0:0:0:0:
392,272,202831,2,0,L|458:274,1,47.5
350,362,202987,2,0,L|416:364,1,47.5,2|0,0:0|0:0,0:0:0:0:
256,236,203143,2,0,L|208:237,1,47.5
103,297,203300,6,0,L|112:324,4,23.75
28,224,203612,2,0,L|0:218,4,23.75
128,195,203925,2,0,L|146:173,7,23.75
134,189,204237,6,0,L|251:188,1,106.875004076958
317,234,204550,6,0,P|332:177|225:102,1,190,4|2,0:0|0:0,0:0:0:0:
120,200,205018,1,0,0:0:0:0:
264,300,205175,2,0,P|314:314|373:294,1,95,4|0,0:0|0:0,0:0:0:0:
440,184,205487,2,0,P|390:170|331:190,1,95,2|0,0:0|0:0,0:0:0:0:
165,307,205800,6,0,L|361:304,1,190,4|2,0:0|0:0,0:0:0:0:
464,256,206268,1,0,0:0:0:0:
294,142,206425,1,4,0:0:0:0:
354,304,206581,1,0,0:0:0:0:
465,172,206737,2,0,P|471:124|467:67,1,95,2|0,0:0|0:0,0:0:0:0:
184,224,207050,6,0,B|236:208|236:208|320:224|320:224|360:264,1,190,4|2,0:0|0:0,0:0:0:0:
244,348,207518,1,0,0:0:0:0:
186,147,207675,2,0,B|231:135|231:135|303:143,1,95,4|0,0:0|0:0,0:0:0:0:
337,341,207987,2,0,B|292:353|292:353|220:345,1,95,2|0,0:0|0:0,0:0:0:0:
424,180,208300,2,0,P|432:263|426:376,1,190,4|2,0:0|0:0,0:0:0:0:
284,272,208768,1,0,0:0:0:0:
424,180,208925,6,0,B|416:123|416:123|366:76|292:107,1,170.999994781494,4|0,0:0|0:0,0:0:0:0:
296,172,209550,6,0,P|352:161|354:40,1,190,4|2,0:0|0:0,0:0:0:0:
216,64,210018,1,0,0:0:0:0:
140,208,210175,2,0,L|144:320,1,95,4|0,0:0|0:0,0:0:0:0:
316,196,210487,2,0,L|312:84,1,95,2|0,0:0|0:0,0:0:0:0:
264,296,210800,6,0,B|310:314|358:298|358:298|410:282|470:306,1,190,4|2,0:0|0:0,0:0:0:0:
400,376,211268,1,0,0:0:0:0:
312,220,211425,1,4,0:0:0:0:
372,48,211581,1,4,0:0:0:0:
300,232,211737,2,0,L|182:228,1,95,2|0,0:0|0:0,0:0:0:0:
53,49,212050,5,4,0:0:0:0:
93,24,212128,1,0,0:0:0:0:
141,18,212206,1,0,0:0:0:0:
185,29,212284,1,0,0:0:0:0:
223,58,212362,1,2,0:0:0:0:
246,100,212440,1,0,0:0:0:0:
250,146,212518,1,0,0:0:0:0:
237,192,212596,1,0,0:0:0:0:
205,228,212675,2,0,P|174:250|155:256,1,47.5,4|0,0:0|0:0,0:0:0:0:
32,188,212831,2,0,P|66:203|81:217,1,47.5
83,357,212987,2,0,P|79:319|83:299,1,47.5,2|0,0:0|0:0,0:0:0:0:
205,228,213143,2,0,P|239:243|254:257,1,47.5
212,364,213300,6,0,L|228:381,4,23.75
160,160,213612,2,0,L|136:165,4,23.75,2|0|0|0|0,0:0|0:0|0:0|0:0|0:0,0:0:0:0:
362,216,213925,2,0,L|369:193,7,23.75
392,219,214237,5,0,0:0:0:0:
407,152,214315,1,0,0:0:0:0:
360,103,214393,1,0,0:0:0:0:
293,117,214471,1,0,0:0:0:0:
268,180,214550,6,0,B|224:188|200:224|200:224|156:196|100:196|76:208,1,199.499993911743,4|0,0:0|0:0,0:0:0:0:
276,260,215175,2,0,B|322:253|340:216|340:216|332:365,1,199.499993911743,2|0,0:0|0:0,0:0:0:0:
184,356,215800,2,0,B|158:352|128:360|128:360|154:323|218:315|270:344,1,199.499993911743,4|0,0:0|0:0,0:0:0:0:
108,264,216425,2,0,B|141:253|141:253|36:239,1,132.999995941162,2|4,0:0|0:0,0:0:0:0:
56,328,216893,1,4,0:0:0:0:
216,232,217050,6,0,B|226:186|226:186|216:32,1,199.499993911743,4|0,0:0|0:0,0:0:0:0:
185,270,217675,2,0,P|256:250|188:197,1,199.499993911743,2|0,0:0|0:0,0:0:0:0:
162,342,218300,2,0,B|206:361|252:347|252:347|301:366|364:344,1,199.499993911743,4|4,0:0|0:0,0:0:0:0:
409,291,218925,2,0,P|412:251|355:280,1,132.999995941162,2|0,0:0|0:0,0:0:0:0:
354,276,219550,6,0,B|360:228|360:228|352:148|352:148|344:188,1,170.999994781494,2|0,0:0|0:0,0:0:0:0:
300,336,219862,2,0,P|363:354|434:273,1,170.999994781494,2|0,0:0|0:0,0:0:0:0:
350,220,220175,2,0,P|350:255|356:285,1,56.9999982604981
452,136,220331,2,0,P|452:107|448:79,1,56.9999982604981,4|0,0:0|0:0,0:0:0:0:
340,40,220487,1,2,0:0:0:0:
283,40,220565,1,0,0:0:0:0:
226,41,220643,1,0,0:0:0:0:
169,42,220721,1,0,0:0:0:0:
112,43,220800,6,0,P|103:112|120:172,1,113.999996520996,4|0,0:0|0:0,0:0:0:0:
192,336,221034,1,0,0:0:0:0:
192,336,221112,2,0,P|201:267|184:207,1,113.999996520996,2|0,0:0|0:0,0:0:0:0:
53,286,221425,2,0,P|86:285|126:293,1,56.9999982604981
332,356,221581,2,0,P|303:359|275:358,1,56.9999982604981
412,188,221737,2,0,B|432:272|432:272|416:372,1,170.999994781494,2|0,0:0|0:0,0:0:0:0:
360,132,222050,6,0,P|398:111|454:126,2,82.3333295644126
474,183,222362,2,0,P|508:135|433:40,1,170.999994781494,2|0,0:0|0:0,0:0:0:0:
382,238,222675,6,0,B|381:267|381:267|386:288|386:288|382:331,2,82.3333295644126
435,115,222987,2,0,L|227:111,1,185.249991519928,2|0,0:0|0:0,0:0:0:0:
201,178,223300,6,0,L|208:216,4,23.75
308,292,223612,2,0,L|271:279,4,23.75
155,327,223925,2,0,L|184:301,7,23.75
158,303,224237,6,0,P|108:298|43:304,1,106.875004076958
16,316,224550,6,0,P|64:289|47:147,1,190,4|2,0:0|0:0,0:0:0:0:
248,32,225018,2,0,P|200:59|217:201,1,190,0|4,0:0|0:0,0:0:0:0:
359,141,225487,2,0,P|312:122|262:123,1,95,2|0,0:0|0:0,0:0:0:0:
268,264,225800,2,0,L|504:260,1,190,0|2,0:0|0:0,0:0:0:0:
260,352,226268,2,0,B|114:349|114:349|180:309,1,190,0|4,0:0|0:0,0:0:0:0:
328,212,226737,2,0,B|340:260|340:260|331:321,1,95,2|0,0:0|0:0,0:0:0:0:
224,116,227050,6,0,B|271:112|271:112|367:133|367:133|419:129,1,190,4|2,0:0|0:0,0:0:0:0:
328,212,227518,2,0,B|281:208|281:208|185:229|185:229|133:225,1,190,0|4,0:0|0:0,0:0:0:0:
59,164,227987,2,0,L|52:60,1,95,2|0,0:0|0:0,0:0:0:0:
140,225,228300,1,4,0:0:0:0:
120,344,228456,1,0,0:0:0:0:
272,192,228612,1,2,0:0:0:0:
251,310,228768,1,0,0:0:0:0:
403,158,228925,2,0,P|408:104|397:51,1,95,0|4,0:0|0:0,0:0:0:0:
272,112,229237,1,2,0:0:0:0:
448,248,229393,1,0,0:0:0:0:
401,64,229550,6,0,L|208:60,1,190,4|2,0:0|0:0,0:0:0:0:
120,136,230018,1,0,0:0:0:0:
248,228,230175,2,0,B|257:188|257:188|247:104,1,95,0|4,0:0|0:0,0:0:0:0:
44,92,230487,2,0,B|35:132|35:132|45:216,1,95,2|0,0:0|0:0,0:0:0:0:
200,304,230800,6,0,P|266:309|328:223,1,142.5,4|0,0:0|0:0,0:0:0:0:
323,224,231112,2,0,L|319:113,1,95,2|0,0:0|0:0,0:0:0:0:
488,76,231425,2,0,L|484:170,1,95,0|4,0:0|0:0,0:0:0:0:
308,120,231737,2,0,L|304:9,1,95,2|0,0:0|0:0,0:0:0:0:
168,152,232050,5,4,0:0:0:0:
204,288,232206,1,0,0:0:0:0:
283,156,232362,1,2,0:0:0:0:
104,291,232518,1,0,0:0:0:0:
365,286,232675,1,0,0:0:0:0:
33,150,232831,1,4,0:0:0:0:
384,296,232987,2,0,L|275:295,1,95,2|0,0:0|0:0,0:0:0:0:
56,160,233300,5,0,0:0:0:0:
100,174,233378,1,0,0:0:0:0:
146,164,233456,1,0,0:0:0:0:
180,132,233534,1,0,0:0:0:0:
194,87,233612,1,0,0:0:0:0:
207,131,233690,1,0,0:0:0:0:
241,163,233768,1,0,0:0:0:0:
287,174,233846,1,0,0:0:0:0:
332,159,233925,6,0,L|400:165,3,47.5
264,252,234237,2,0,L|196:258,3,47.5
168,324,234550,6,0,P|235:344|293:211,1,227.999993041992,4|2,0:0|0:0,0:0:0:0:
192,204,235018,1,0,0:0:0:0:
352,360,235175,2,0,L|481:358,1,113.999996520996,4|0,0:0|0:0,0:0:0:0:
192,204,235487,2,0,L|63:206,1,113.999996520996,2|0,0:0|0:0,0:0:0:0:
288,72,235800,6,0,B|280:148|280:148|296:220|296:220|284:328,1,227.999993041992,4|2,0:0|0:0,0:0:0:0:
180,368,236268,1,0,0:0:0:0:
368,160,236425,1,4,0:0:0:0:
208,220,236581,1,4,0:0:0:0:
452,60,236737,1,2,0:0:0:0:
395,58,236815,1,0,0:0:0:0:
338,56,236893,1,0,0:0:0:0:
281,54,236971,1,0,0:0:0:0:
224,52,237050,6,0,B|152:48|152:48|56:80|56:80|148:88,1,227.999993041992,4|2,0:0|0:0,0:0:0:0:
360,148,237518,1,0,0:0:0:0:
192,188,237675,2,0,L|69:183,1,113.999996520996,4|0,0:0|0:0,0:0:0:0:
428,208,237987,2,0,B|445:165|445:165|440:97,1,113.999996520996,2|0,0:0|0:0,0:0:0:0:
216,320,238300,6,0,B|264:296|324:324|324:324|380:352|452:308,1,227.999993041992,4|6,0:0|0:0,0:0:0:0:
504,248,238768,1,0,0:0:0:0:
144,268,238925,2,0,P|127:314|143:377,1,113.999996520996,4|0,0:0|0:0,0:0:0:0:
368,252,239237,2,0,P|384:205|368:142,1,113.999996520996,2|0,0:0|0:0,0:0:0:0:
133,199,239550,6,0,B|176:191|176:191|326:199,1,170.999994781494,4|0,0:0|0:0,0:0:0:0:
368,252,239862,2,0,B|376:308|376:308|365:374,1,113.999996520996,2|0,0:0|0:0,0:0:0:0:
192,288,240175,1,4,0:0:0:0:
256,48,240331,1,4,0:0:0:0:
264,340,240487,2,0,P|208:332|131:336,1,113.999996520996,2|0,0:0|0:0,0:0:0:0:
37,230,240800,6,0,P|119:231|177:77,1,227.999993041992,4|2,0:0|0:0,0:0:0:0:
52,84,241268,1,0,0:0:0:0:
37,230,241425,2,0,L|49:382,1,113.999996520996,4|0,0:0|0:0,0:0:0:0:
197,230,241737,2,0,L|185:78,1,113.999996520996,2|0,0:0|0:0,0:0:0:0:
136,316,242050,5,4,0:0:0:0:
216,352,242154,1,4,0:0:0:0:
300,328,242258,1,4,0:0:0:0:
388,344,242362,2,0,B|448:305|448:305|381:292|356:222,1,170.999994781494,2|2,0:0|0:0,0:0:0:0:
356,140,242675,5,4,0:0:0:0:
444,212,242779,1,4,0:0:0:0:
463,100,242883,1,4,0:0:0:0:
356,140,242987,2,0,L|176:136,1,170.999994781494,2|0,0:0|0:0,0:0:0:0:
116,177,243300,6,0,L|120:204,4,23.75
338,78,243612,2,0,L|313:68,4,23.75
313,320,243925,2,0,L|334:303,7,23.75
319,312,244237,6,0,B|351:309|351:309|442:318,1,106.875004076958
504,312,244550,6,0,B|433:317|433:317|351:308|351:308|259:318,1,227.999993041992,4|2,0:0|0:0,0:0:0:0:
164,220,245018,1,0,0:0:0:0:
428,128,245175,2,0,B|438:182|438:182|429:254,1,113.999996520996,4|0,0:0|0:0,0:0:0:0:
164,220,245487,2,0,B|154:166|154:166|163:94,1,113.999996520996,2|0,0:0|0:0,0:0:0:0:
280,264,245800,2,0,B|219:281|170:241|170:241|150:300|72:304,1,227.999993041992,4|0,0:0|0:0,0:0:0:0:
207,379,246268,1,0,0:0:0:0:
351,315,246425,2,0,P|363:258|338:201,1,113.999996520996,4|0,0:0|0:0,0:0:0:0:
176,152,246737,2,0,L|259:149,1,56.9999982604981,2|0,0:0|0:0,0:0:0:0:
188,293,246893,2,0,L|132:296,1,56.9999982604981
52,228,247050,6,0,L|329:217,1,227.999993041992,4|2,0:0|0:0,0:0:0:0:
16,344,247518,1,0,0:0:0:0:
284,144,247675,2,0,L|164:148,1,113.999996520996,4|0,0:0|0:0,0:0:0:0:
44,304,247987,2,0,L|164:300,1,113.999996520996,2|0,0:0|0:0,0:0:0:0:
284,144,248300,6,0,B|332:108|332:108|132:116,1,227.999993041992,4|2,0:0|0:0,0:0:0:0:
64,176,248768,1,0,0:0:0:0:
400,184,248925,2,0,B|414:145|414:145|402:50,1,113.999996520996,4|0,0:0|0:0,0:0:0:0:
256,296,249237,2,0,L|382:299,1,113.999996520996,2|0,0:0|0:0,0:0:0:0:
164,114,249550,6,0,B|144:160|168:220|168:220|192:288|158:347,1,227.999993041992,4|2,0:0|0:0,0:0:0:0:
56,368,250018,1,0,0:0:0:0:
240,168,250175,2,0,L|366:166,1,113.999996520996,4|0,0:0|0:0,0:0:0:0:
447,299,250487,2,0,P|447:328|441:356,1,56.9999982604981
353,166,250643,2,0,P|353:137|359:109,1,56.9999982604981
447,299,250800,6,0,L|216:308,1,227.999993041992,4|2,0:0|0:0,0:0:0:0:
100,360,251268,1,0,0:0:0:0:
24,224,251425,2,0,P|19:168|31:92,1,113.999996520996,4|0,0:0|0:0,0:0:0:0:
221,194,251737,2,0,P|226:250|214:326,1,113.999996520996,2|0,0:0|0:0,0:0:0:0:
25,110,252050,5,4,0:0:0:0:
40,84,252128,1,0,0:0:0:0:
56,60,252206,2,0,L|124:68,1,56.9999982604981
180,224,252362,5,2,0:0:0:0:
148,224,252440,1,0,0:0:0:0:
120,223,252518,2,0,L|92:160,1,56.9999982604981
201,35,252675,5,4,0:0:0:0:
216,60,252753,1,0,0:0:0:0:
230,86,252831,2,0,L|189:140,1,56.9999982604981
32,204,252987,2,0,P|60:199|88:201,1,56.9999982604981,2|0,0:0|0:0,0:0:0:0:
288,312,253143,2,0,P|259:316|231:314,1,56.9999982604981
116,355,253300,2,0,L|113:314,4,23.75
236,88,253612,2,0,L|273:105,4,23.75
409,325,253925,2,0,L|375:348,7,23.75
398,332,254237,6,0,L|400:224,1,106.875004076958,2|0,0:0|0:0,0:0:0:0:
376,338,254550,6,0,B|364:252|364:252|276:228|276:228|356:196|356:196|348:100|348:100|408:172|408:172|490:143|490:143|446:216|446:216|508:276|508:276|420:260|420:260|376:338|376:338|306:335|256:368|256:368|207:326|142:322|90:356|90:356|106:232|106:232|165:187|154:108|89:49|1:87,1,1567.50004783631
256,192,259550,12,0,264550,0:0:0:0:
