osu file format v14

[General]
AudioFilename: audio.mp3
AudioLeadIn: 0
PreviewTime: 141603
Countdown: 0
SampleSet: Normal
StackLeniency: 0.2
Mode: 1
LetterboxInBreaks: 0
WidescreenStoryboard: 1

[Editor]
Bookmarks: 22072,32072,52072,72072,82072,92072,102072,122072,142072,154572,164572,174572,184572,194572,204572,214572,219572,234572,254572
DistanceSpacing: 0.7
BeatDivisor: 4
GridSize: 32
TimelineZoom: 3.2

[Metadata]
Title:Night sky (Extended Mix)
TitleUnicode:Night sky (Extended Mix)
Artist:USAO
ArtistUnicode:USAO
Creator:Jaye
Version:Ulqui's Inner Oni
Source:beatmania IIDX 22 PENDUAL
Tags:bemani Pumpcore Hardtek Electronic
BeatmapID:1140239
BeatmapSetID:536313

[Difficulty]
HPDrainRate:5
CircleSize:2
OverallDifficulty:6
ApproachRate:10
SliderMultiplier:1.4
SliderTickRate:1

[Events]
//Background and Video events
0,0,"starry-night-sky-free-wallpaper-1366x768.jpg",0,-70
//Break Periods
//Storyboard Layer 0 (Background)
//Storyboard Layer 1 (Fail)
//Storyboard Layer 2 (Pass)
//Storyboard Layer 3 (Foreground)
//Storyboard Sound Samples

[TimingPoints]
2072,312.5,4,1,0,15,1,0
3322,-100,4,1,0,20,0,0
4572,-100,4,1,0,25,0,0
5822,-100,4,1,0,30,0,0
7072,-100,4,1,0,35,0,0
8322,-100,4,1,0,40,0,0
9572,-100,4,1,0,50,0,0
12072,-100,4,1,0,65,0,0
12384,-100,4,1,0,50,0,0
18322,-100,4,1,0,55,0,0
22384,-100,4,1,0,65,0,0
27072,-100,4,1,0,66,0,0
27384,-100,4,1,0,67,0,0
27697,-100,4,1,0,68,0,0
28009,-100,4,1,0,69,0,0
28322,-100,4,1,0,70,0,0
28634,-100,4,1,0,71,0,0
28947,-100,4,1,0,72,0,0
29259,-100,4,1,0,73,0,0
29572,-100,4,1,0,74,0,0
29884,-100,4,1,0,76,0,0
30197,-100,4,1,0,78,0,0
30509,-100,4,1,0,80,0,0
32072,-100,4,1,0,95,0,0
32384,-100,4,1,0,80,0,0
83322,-100,4,1,0,55,0,0
84572,-100,4,1,0,55,0,0
85822,-100,4,1,0,60,0,0
87072,-100,4,1,0,67,0,0
87853,-100,4,1,0,68,0,0
89572,-100,4,1,0,70,0,0
92072,-100,4,1,0,75,0,0
97072,-100,4,1,0,78,0,0
98165,-100,4,1,0,80,0,0
99259,-100,4,1,0,82,0,0
100197,-100,4,1,0,84,0,0
101134,-100,4,1,0,86,0,0
102072,-83.3333333333333,4,1,0,90,0,0
122384,-100,4,1,0,80,0,0
142072,-100,4,1,0,100,0,1
142228,-100,4,1,0,80,0,1
147072,-100,4,1,0,100,0,1
147228,-100,4,1,0,80,0,1
152072,-100,4,1,0,80,0,0
152228,-100,4,1,0,80,0,0
154572,-100,4,1,0,100,0,0
154728,-100,4,1,0,85,0,0
159572,-100,4,1,0,100,0,0
159728,-100,4,1,0,85,0,0
164572,-100,4,1,0,85,0,1
174259,-100,4,1,0,85,0,0
174572,-100,4,1,0,85,0,1
184572,-100,4,1,0,85,0,0
204572,-100,4,1,0,85,0,1
204728,-100,4,1,0,85,0,1
214572,-100,4,1,0,85,0,0
219572,-100,4,1,0,85,0,1
224572,-100,4,1,0,85,0,0
234572,-100,4,1,0,85,0,1
254572,-100,4,1,0,85,0,0
254884,-100,4,1,0,80,0,0
255040,-100,4,1,0,75,0,0
255353,-100,4,1,0,70,0,0

[HitObjects]
256,128,2072,5,0,0:0:0:0:
192,32,2384,1,8,0:0:0:0:
192,128,2540,1,0,0:0:0:0:
160,128,2853,1,0,0:0:0:0:
224,128,3322,1,8,0:0:0:0:
160,64,3634,1,0,0:0:0:0:
160,160,3790,1,0,0:0:0:0:
160,160,4103,1,8,0:0:0:0:
192,128,4572,1,0,0:0:0:0:
160,96,4884,1,0,0:0:0:0:
160,128,5040,1,8,0:0:0:0:
160,128,5353,1,0,0:0:0:0:
224,96,5822,1,8,0:0:0:0:
192,64,6134,1,0,0:0:0:0:
160,96,6290,1,0,0:0:0:0:
160,96,6603,1,8,0:0:0:0:
192,32,7072,1,0,0:0:0:0:
192,64,7384,1,8,0:0:0:0:
192,192,7540,1,0,0:0:0:0:
192,192,7853,1,0,0:0:0:0:
224,160,8322,1,8,0:0:0:0:
192,96,8634,1,0,0:0:0:0:
192,128,8790,1,0,0:0:0:0:
192,128,9103,1,8,0:0:0:0:
224,128,9572,1,0,0:0:0:0:
192,96,9884,1,0,0:0:0:0:
128,96,10040,1,8,0:0:0:0:
128,96,10353,1,0,0:0:0:0:
224,128,10822,1,8,0:0:0:0:
192,64,11134,1,0,0:0:0:0:
192,128,11290,1,0,0:0:0:0:
192,128,11603,1,8,0:0:0:0:
224,160,12072,1,0,0:0:0:0:
224,160,12384,1,0,0:0:0:0:
224,160,12540,1,0,0:0:0:0:
224,160,12853,1,0,0:0:0:0:
224,160,13009,1,8,0:0:0:0:
224,160,13322,1,0,0:0:0:0:
224,160,13634,1,0,0:0:0:0:
224,160,13790,1,0,0:0:0:0:
224,160,14103,1,0,0:0:0:0:
224,160,14259,1,0,0:0:0:0:
224,160,14337,1,0,0:0:0:0:
224,160,14415,1,8,0:0:0:0:
224,160,14493,1,8,0:0:0:0:
224,160,14572,1,8,0:0:0:0:
224,160,14884,1,0,0:0:0:0:
224,160,15040,1,0,0:0:0:0:
256,160,15197,1,8,0:0:0:0:
224,160,15509,1,0,0:0:0:0:
256,160,15822,1,8,0:0:0:0:
256,160,16134,1,0,0:0:0:0:
256,160,16447,1,8,0:0:0:0:
256,160,16603,1,0,0:0:0:0:
256,160,16759,1,0,0:0:0:0:
256,160,17072,1,8,0:0:0:0:
160,128,17384,1,0,0:0:0:0:
160,128,17540,1,0,0:0:0:0:
192,128,17853,1,0,0:0:0:0:
192,128,18009,1,0,0:0:0:0:
192,128,18087,1,0,0:0:0:0:
192,128,18165,1,8,0:0:0:0:
192,96,18322,1,8,0:0:0:0:
192,128,18634,1,0,0:0:0:0:
192,128,18790,1,0,0:0:0:0:
192,128,18947,1,8,0:0:0:0:
192,128,19259,1,0,0:0:0:0:
192,128,19572,1,8,0:0:0:0:
192,128,19884,1,0,0:0:0:0:
192,128,20197,1,0,0:0:0:0:
192,128,20353,1,0,0:0:0:0:
192,128,20509,1,0,0:0:0:0:
192,128,20665,1,0,0:0:0:0:
192,128,20822,1,8,0:0:0:0:
192,128,21134,1,0,0:0:0:0:
192,128,21290,1,0,0:0:0:0:
192,128,21447,1,8,0:0:0:0:
192,128,21759,1,0,0:0:0:0:
192,128,22072,5,0,0:0:0:0:
192,96,22384,1,0,0:0:0:0:
192,96,22540,1,0,0:0:0:0:
192,96,22697,1,8,0:0:0:0:
224,96,22853,1,0,0:0:0:0:
192,96,23009,1,8,0:0:0:0:
192,96,23322,1,0,0:0:0:0:
224,96,23634,1,8,0:0:0:0:
224,96,23790,1,0,0:0:0:0:
224,96,24103,1,0,0:0:0:0:
224,96,24259,1,8,0:0:0:0:
224,96,24572,1,0,0:0:0:0:
224,96,24884,1,0,0:0:0:0:
224,96,25040,1,0,0:0:0:0:
224,96,25197,1,8,0:0:0:0:
224,96,25353,1,8,0:0:0:0:
224,96,25509,1,0,0:0:0:0:
224,96,25822,1,8,0:0:0:0:
224,96,26134,1,8,0:0:0:0:
224,96,26290,1,0,0:0:0:0:
160,96,26447,1,0,0:0:0:0:
224,96,26603,1,0,0:0:0:0:
224,96,26759,1,8,0:0:0:0:
224,96,27072,1,0,0:0:0:0:
224,96,27384,1,8,0:0:0:0:
224,96,27697,1,0,0:0:0:0:
224,96,28009,1,8,0:0:0:0:
224,96,28322,1,0,0:0:0:0:
224,96,28478,1,8,0:0:0:0:
224,96,28634,1,0,0:0:0:0:
224,96,28790,1,8,0:0:0:0:
224,96,28947,1,0,0:0:0:0:
224,96,29103,1,8,0:0:0:0:
224,96,29259,1,0,0:0:0:0:
224,96,29415,1,8,0:0:0:0:
224,96,29572,1,0,0:0:0:0:
224,96,29650,1,0,0:0:0:0:
224,96,29728,1,8,0:0:0:0:
224,96,29806,1,0,0:0:0:0:
224,96,29884,1,8,0:0:0:0:
224,96,29962,1,8,0:0:0:0:
224,96,30040,1,0,0:0:0:0:
224,96,30118,1,8,0:0:0:0:
224,96,30197,1,0,0:0:0:0:
224,96,30275,1,0,0:0:0:0:
224,96,30353,1,8,0:0:0:0:
224,96,30431,1,0,0:0:0:0:
224,96,30509,1,8,0:0:0:0:
224,128,30587,1,8,0:0:0:0:
224,128,30665,1,0,0:0:0:0:
224,128,30743,1,8,0:0:0:0:
224,128,30822,1,0,0:0:0:0:
224,64,31290,1,0,0:0:0:0:
192,128,31447,1,8,0:0:0:0:
160,128,31603,1,0,0:0:0:0:
192,128,31759,1,8,0:0:0:0:
160,128,31837,1,8,0:0:0:0:
160,128,31915,1,0,0:0:0:0:
192,128,32072,5,4,0:0:0:0:
224,96,32228,1,0,0:0:0:0:
224,64,32384,1,8,0:0:0:0:
288,96,32462,1,8,0:0:0:0:
224,96,32540,1,0,0:0:0:0:
224,64,32697,1,0,0:0:0:0:
224,96,32853,1,0,0:0:0:0:
288,96,32931,1,0,0:0:0:0:
224,64,33009,1,8,0:0:0:0:
224,96,33165,1,0,0:0:0:0:
224,64,33322,1,0,0:0:0:0:
224,96,33478,1,0,0:0:0:0:
224,64,33634,1,8,0:0:0:0:
192,128,33712,1,8,0:0:0:0:
224,96,33790,1,0,0:0:0:0:
224,64,33947,1,0,0:0:0:0:
224,96,34103,1,0,0:0:0:0:
160,160,34181,1,0,0:0:0:0:
224,64,34259,1,8,0:0:0:0:
192,128,34337,1,8,0:0:0:0:
224,96,34415,1,0,0:0:0:0:
224,64,34572,1,0,0:0:0:0:
224,96,34728,1,0,0:0:0:0:
224,64,34884,1,8,0:0:0:0:
160,160,34962,1,8,0:0:0:0:
224,96,35040,1,0,0:0:0:0:
224,64,35197,1,0,0:0:0:0:
192,64,35275,1,0,0:0:0:0:
224,96,35353,1,0,0:0:0:0:
224,64,35509,1,8,0:0:0:0:
224,96,35665,1,0,0:0:0:0:
160,160,35743,1,0,0:0:0:0:
224,64,35822,1,8,0:0:0:0:
224,64,35900,1,8,0:0:0:0:
224,96,35978,1,0,0:0:0:0:
160,192,36056,1,0,0:0:0:0:
192,64,36134,1,8,0:0:0:0:
192,64,36290,1,0,0:0:0:0:
192,64,36447,1,8,0:0:0:0:
192,64,36759,1,8,0:0:0:0:
192,64,37072,1,4,0:0:0:0:
224,64,37228,1,0,0:0:0:0:
192,96,37306,1,0,0:0:0:0:
192,64,37384,1,8,0:0:0:0:
224,64,37540,1,0,0:0:0:0:
192,64,37697,1,0,0:0:0:0:
224,64,37853,1,0,0:0:0:0:
192,96,37931,1,0,0:0:0:0:
192,64,38009,1,8,0:0:0:0:
192,96,38087,1,8,0:0:0:0:
224,64,38165,1,0,0:0:0:0:
192,64,38322,1,0,0:0:0:0:
224,64,38478,1,0,0:0:0:0:
192,96,38556,1,0,0:0:0:0:
192,64,38634,1,8,0:0:0:0:
224,64,38790,1,0,0:0:0:0:
192,64,38947,1,0,0:0:0:0:
192,32,39025,1,8,0:0:0:0:
224,64,39103,1,0,0:0:0:0:
192,128,39181,1,0,0:0:0:0:
192,64,39259,1,8,0:0:0:0:
192,128,39337,1,8,0:0:0:0:
224,64,39415,1,0,0:0:0:0:
192,64,39572,1,0,0:0:0:0:
64,224,39806,1,0,0:0:0:0:
192,64,39884,1,8,0:0:0:0:
224,64,40040,1,0,0:0:0:0:
192,128,40118,1,0,0:0:0:0:
192,64,40197,1,0,0:0:0:0:
224,64,40353,1,0,0:0:0:0:
192,64,40509,1,8,0:0:0:0:
192,128,40587,1,8,0:0:0:0:
224,64,40665,1,0,0:0:0:0:
192,64,40822,1,8,0:0:0:0:
224,64,40978,1,0,0:0:0:0:
192,128,41056,1,0,0:0:0:0:
192,64,41134,1,8,0:0:0:0:
224,64,41290,1,0,0:0:0:0:
224,32,41368,1,0,0:0:0:0:
192,64,41447,1,8,0:0:0:0:
224,128,41525,1,8,0:0:0:0:
224,64,41603,1,0,0:0:0:0:
192,64,41759,1,8,0:0:0:0:
192,64,42072,5,4,0:0:0:0:
192,160,42228,1,0,0:0:0:0:
128,256,42384,1,8,0:0:0:0:
352,64,42462,1,8,0:0:0:0:
192,160,42540,1,0,0:0:0:0:
192,160,42697,1,0,0:0:0:0:
192,160,42853,1,0,0:0:0:0:
128,256,43009,1,8,0:0:0:0:
192,128,43087,1,8,0:0:0:0:
192,160,43165,1,0,0:0:0:0:
192,128,43243,1,0,0:0:0:0:
192,160,43322,1,0,0:0:0:0:
192,160,43478,1,0,0:0:0:0:
128,256,43634,1,8,0:0:0:0:
192,32,43712,1,8,0:0:0:0:
192,160,43790,1,0,0:0:0:0:
192,160,43947,1,0,0:0:0:0:
192,160,44103,1,0,0:0:0:0:
352,64,44181,1,0,0:0:0:0:
160,256,44259,1,8,0:0:0:0:
192,160,44415,1,8,0:0:0:0:
192,160,44572,1,0,0:0:0:0:
192,160,44728,1,0,0:0:0:0:
224,64,44806,1,0,0:0:0:0:
160,256,44884,1,8,0:0:0:0:
224,64,44962,1,8,0:0:0:0:
192,160,45040,1,0,0:0:0:0:
192,160,45197,1,0,0:0:0:0:
192,160,45353,1,0,0:0:0:0:
192,128,45431,1,0,0:0:0:0:
160,256,45509,1,8,0:0:0:0:
192,160,45665,1,8,0:0:0:0:
192,160,45822,1,0,0:0:0:0:
192,64,45900,1,0,0:0:0:0:
192,160,45978,1,0,0:0:0:0:
192,64,46056,1,0,0:0:0:0:
160,256,46134,1,8,0:0:0:0:
192,160,46290,1,8,0:0:0:0:
192,160,46447,1,0,0:0:0:0:
160,256,46759,1,8,0:0:0:0:
192,128,47072,1,4,0:0:0:0:
192,128,47228,1,0,0:0:0:0:
160,224,47384,1,8,0:0:0:0:
192,64,47462,1,8,0:0:0:0:
192,128,47540,1,0,0:0:0:0:
192,128,47697,1,0,0:0:0:0:
192,128,47853,1,0,0:0:0:0:
192,96,47931,1,0,0:0:0:0:
160,224,48009,1,8,0:0:0:0:
192,128,48165,1,0,0:0:0:0:
192,128,48322,1,0,0:0:0:0:
192,128,48478,1,0,0:0:0:0:
192,96,48556,1,0,0:0:0:0:
160,224,48634,1,8,0:0:0:0:
192,96,48712,1,8,0:0:0:0:
192,128,48790,1,0,0:0:0:0:
192,128,48947,1,0,0:0:0:0:
192,128,49103,1,0,0:0:0:0:
192,96,49181,1,0,0:0:0:0:
160,224,49259,1,8,0:0:0:0:
192,128,49415,1,0,0:0:0:0:
192,128,49572,1,0,0:0:0:0:
224,128,49650,1,8,0:0:0:0:
192,128,49728,1,0,0:0:0:0:
224,128,49806,1,0,0:0:0:0:
160,224,49884,1,8,0:0:0:0:
224,128,49962,1,8,0:0:0:0:
192,128,50040,1,0,0:0:0:0:
224,128,50118,1,8,0:0:0:0:
192,128,50197,1,0,0:0:0:0:
224,128,50275,1,0,0:0:0:0:
192,128,50353,1,8,0:0:0:0:
224,128,50431,1,0,0:0:0:0:
160,224,50509,1,8,0:0:0:0:
224,128,50665,1,8,0:0:0:0:
224,128,50822,1,0,0:0:0:0:
224,96,50900,1,8,0:0:0:0:
224,96,50978,1,0,0:0:0:0:
224,96,51056,1,0,0:0:0:0:
160,224,51134,1,8,0:0:0:0:
224,96,51290,1,8,0:0:0:0:
192,64,51447,1,0,0:0:0:0:
192,64,51525,1,0,0:0:0:0:
192,64,51603,1,0,0:0:0:0:
192,64,51681,1,0,0:0:0:0:
192,64,51759,1,8,0:0:0:0:
160,224,52072,5,4,0:0:0:0:
224,160,52228,1,0,0:0:0:0:
256,192,52384,1,8,0:0:0:0:
224,160,52540,1,0,0:0:0:0:
192,32,52618,1,0,0:0:0:0:
256,192,52697,1,8,0:0:0:0:
192,32,52775,1,8,0:0:0:0:
224,160,52853,1,0,0:0:0:0:
256,192,53009,1,8,0:0:0:0:
224,160,53165,1,0,0:0:0:0:
224,64,53243,1,0,0:0:0:0:
256,192,53322,1,8,0:0:0:0:
224,160,53478,1,0,0:0:0:0:
256,192,53634,1,8,0:0:0:0:
224,160,53790,1,0,0:0:0:0:
128,160,53868,1,0,0:0:0:0:
256,192,53947,1,8,0:0:0:0:
224,32,54025,1,8,0:0:0:0:
224,160,54103,1,0,0:0:0:0:
256,192,54259,1,8,0:0:0:0:
224,160,54415,1,0,0:0:0:0:
192,64,54493,1,0,0:0:0:0:
256,192,54572,1,0,0:0:0:0:
224,160,54728,1,0,0:0:0:0:
256,192,54884,1,8,0:0:0:0:
224,160,55040,1,0,0:0:0:0:
256,192,55197,1,0,0:0:0:0:
224,96,55275,1,0,0:0:0:0:
224,160,55353,1,0,0:0:0:0:
128,96,55431,1,0,0:0:0:0:
256,192,55509,1,8,0:0:0:0:
224,160,55665,1,0,0:0:0:0:
192,64,55743,1,0,0:0:0:0:
256,192,55822,1,8,0:0:0:0:
224,160,55978,1,0,0:0:0:0:
256,192,56134,1,8,0:0:0:0:
224,160,56290,1,0,0:0:0:0:
192,96,56368,1,0,0:0:0:0:
256,192,56447,1,8,0:0:0:0:
192,64,56525,1,8,0:0:0:0:
224,160,56603,1,0,0:0:0:0:
256,192,56759,1,8,0:0:0:0:
224,160,56915,1,8,0:0:0:0:
256,192,57072,1,4,0:0:0:0:
256,192,57384,1,8,0:0:0:0:
224,160,57540,1,8,0:0:0:0:
160,96,57618,1,8,0:0:0:0:
256,192,57697,1,0,0:0:0:0:
224,160,57853,1,0,0:0:0:0:
256,192,58009,1,8,0:0:0:0:
224,160,58165,1,0,0:0:0:0:
224,64,58243,1,0,0:0:0:0:
256,192,58322,1,0,0:0:0:0:
224,160,58478,1,0,0:0:0:0:
256,96,58556,1,0,0:0:0:0:
256,192,58634,1,8,0:0:0:0:
224,160,58790,1,0,0:0:0:0:
256,192,58947,1,0,0:0:0:0:
192,32,59025,1,0,0:0:0:0:
224,160,59103,1,0,0:0:0:0:
256,192,59259,1,8,0:0:0:0:
224,160,59415,1,0,0:0:0:0:
256,192,59572,1,8,0:0:0:0:
224,64,59650,1,8,0:0:0:0:
224,160,59728,1,0,0:0:0:0:
192,64,59806,1,0,0:0:0:0:
256,192,59884,1,8,0:0:0:0:
192,64,59962,1,0,0:0:0:0:
224,160,60040,1,0,0:0:0:0:
192,64,60118,1,0,0:0:0:0:
256,192,60197,1,8,0:0:0:0:
192,64,60275,1,8,0:0:0:0:
224,160,60353,1,0,0:0:0:0:
192,64,60431,1,0,0:0:0:0:
256,192,60509,1,8,0:0:0:0:
224,160,60665,1,0,0:0:0:0:
192,32,60743,1,0,0:0:0:0:
256,192,60822,1,8,0:0:0:0:
192,64,60900,1,8,0:0:0:0:
224,160,60978,1,0,0:0:0:0:
256,64,61056,1,0,0:0:0:0:
256,192,61134,1,8,0:0:0:0:
160,64,61212,1,8,0:0:0:0:
224,160,61290,1,0,0:0:0:0:
224,64,61368,1,0,0:0:0:0:
256,192,61447,1,8,0:0:0:0:
224,64,61525,1,8,0:0:0:0:
224,160,61603,1,8,0:0:0:0:
192,64,61681,1,0,0:0:0:0:
256,192,61759,1,8,0:0:0:0:
256,192,62072,5,4,0:0:0:0:
192,128,62228,1,0,0:0:0:0:
256,128,62306,1,0,0:0:0:0:
192,96,62384,1,8,0:0:0:0:
192,128,62540,1,0,0:0:0:0:
192,96,62697,1,8,0:0:0:0:
192,64,62775,1,8,0:0:0:0:
192,128,62853,1,0,0:0:0:0:
192,128,63009,1,8,0:0:0:0:
192,96,63165,1,0,0:0:0:0:
192,128,63322,1,8,0:0:0:0:
192,96,63478,1,0,0:0:0:0:
192,32,63556,1,0,0:0:0:0:
192,128,63634,1,8,0:0:0:0:
192,96,63790,1,0,0:0:0:0:
160,96,63868,1,0,0:0:0:0:
192,96,63947,1,8,0:0:0:0:
160,96,64025,1,8,0:0:0:0:
192,96,64103,1,0,0:0:0:0:
192,96,64259,1,8,0:0:0:0:
192,96,64415,1,0,0:0:0:0:
192,96,64572,1,8,0:0:0:0:
192,96,64728,1,0,0:0:0:0:
224,64,64806,1,0,0:0:0:0:
192,96,64884,1,8,0:0:0:0:
192,96,65040,1,0,0:0:0:0:
224,64,65118,1,0,0:0:0:0:
192,96,65197,1,8,0:0:0:0:
224,64,65275,1,0,0:0:0:0:
192,96,65353,1,8,0:0:0:0:
224,64,65431,1,8,0:0:0:0:
192,96,65509,1,0,0:0:0:0:
192,96,65665,1,0,0:0:0:0:
192,96,65822,1,8,0:0:0:0:
192,96,65978,1,0,0:0:0:0:
192,32,66056,1,0,0:0:0:0:
192,96,66134,1,8,0:0:0:0:
192,96,66290,1,0,0:0:0:0:
224,32,66368,1,0,0:0:0:0:
192,96,66447,1,0,0:0:0:0:
192,96,66603,1,8,0:0:0:0:
192,32,66681,1,0,0:0:0:0:
192,96,66759,1,8,0:0:0:0:
192,96,66915,1,8,0:0:0:0:
192,96,67072,1,4,0:0:0:0:
192,96,67228,1,0,0:0:0:0:
192,64,67306,1,0,0:0:0:0:
192,96,67384,1,8,0:0:0:0:
192,96,67540,1,0,0:0:0:0:
192,96,67697,1,0,0:0:0:0:
192,64,67775,1,0,0:0:0:0:
192,96,67853,1,0,0:0:0:0:
192,64,67931,1,0,0:0:0:0:
192,96,68009,1,8,0:0:0:0:
192,96,68165,1,0,0:0:0:0:
192,96,68322,1,0,0:0:0:0:
192,96,68478,1,0,0:0:0:0:
192,32,68556,1,0,0:0:0:0:
192,96,68634,1,8,0:0:0:0:
192,96,68790,1,0,0:0:0:0:
192,96,68947,1,0,0:0:0:0:
224,32,69025,1,0,0:0:0:0:
192,96,69103,1,0,0:0:0:0:
192,96,69259,1,8,0:0:0:0:
224,64,69337,1,8,0:0:0:0:
192,96,69415,1,0,0:0:0:0:
192,96,69572,1,0,0:0:0:0:
224,64,69650,1,0,0:0:0:0:
192,96,69728,1,8,0:0:0:0:
224,96,69806,1,0,0:0:0:0:
192,96,69884,1,8,0:0:0:0:
224,96,69962,1,8,0:0:0:0:
192,96,70040,1,0,0:0:0:0:
224,96,70118,1,0,0:0:0:0:
192,96,70197,1,8,0:0:0:0:
224,96,70275,1,0,0:0:0:0:
192,96,70353,1,8,0:0:0:0:
224,96,70431,1,0,0:0:0:0:
192,96,70509,1,8,0:0:0:0:
224,64,70587,1,8,0:0:0:0:
192,96,70665,1,0,0:0:0:0:
224,64,70743,1,0,0:0:0:0:
192,96,70822,1,8,0:0:0:0:
192,96,70978,1,0,0:0:0:0:
224,32,71056,1,0,0:0:0:0:
192,96,71134,1,8,0:0:0:0:
192,96,71290,1,0,0:0:0:0:
224,64,71368,1,0,0:0:0:0:
192,96,71447,1,8,0:0:0:0:
224,64,71525,1,0,0:0:0:0:
192,96,71603,1,8,0:0:0:0:
224,64,71681,1,8,0:0:0:0:
192,96,71759,1,0,0:0:0:0:
192,96,72072,5,4,0:0:0:0:
320,128,72228,1,0,0:0:0:0:
384,128,72306,1,0,0:0:0:0:
320,128,72384,1,8,0:0:0:0:
320,128,72540,1,0,0:0:0:0:
288,96,72618,1,0,0:0:0:0:
320,128,72697,1,0,0:0:0:0:
320,128,72853,1,0,0:0:0:0:
224,96,72931,1,0,0:0:0:0:
288,128,73009,1,8,0:0:0:0:
288,128,73165,1,0,0:0:0:0:
224,64,73243,1,0,0:0:0:0:
288,128,73322,1,0,0:0:0:0:
224,64,73400,1,0,0:0:0:0:
288,128,73478,1,0,0:0:0:0:
224,64,73556,1,0,0:0:0:0:
224,64,73634,1,8,0:0:0:0:
288,128,73790,1,0,0:0:0:0:
224,32,73868,1,0,0:0:0:0:
288,128,73947,1,0,0:0:0:0:
288,128,74103,1,0,0:0:0:0:
288,128,74259,1,8,0:0:0:0:
288,128,74415,1,0,0:0:0:0:
224,64,74493,1,0,0:0:0:0:
288,128,74572,1,0,0:0:0:0:
288,128,74728,1,0,0:0:0:0:
192,96,74806,1,0,0:0:0:0:
288,128,74884,1,8,0:0:0:0:
288,128,75040,1,0,0:0:0:0:
224,128,75118,1,0,0:0:0:0:
288,128,75197,1,0,0:0:0:0:
192,128,75275,1,0,0:0:0:0:
288,128,75353,1,0,0:0:0:0:
192,96,75431,1,0,0:0:0:0:
288,128,75509,1,8,0:0:0:0:
288,128,75665,1,0,0:0:0:0:
224,64,75743,1,0,0:0:0:0:
288,128,75822,1,8,0:0:0:0:
192,64,75900,1,8,0:0:0:0:
288,128,75978,1,8,0:0:0:0:
224,64,76056,1,0,0:0:0:0:
288,128,76134,1,8,0:0:0:0:
224,64,76212,1,8,0:0:0:0:
288,128,76290,1,8,0:0:0:0:
224,64,76368,1,0,0:0:0:0:
288,128,76447,1,8,0:0:0:0:
288,128,76603,1,0,0:0:0:0:
288,128,76759,1,8,0:0:0:0:
224,32,76837,1,8,0:0:0:0:
288,128,76915,1,0,0:0:0:0:
192,32,76993,1,8,0:0:0:0:
288,128,77072,1,0,0:0:0:0:
288,128,77228,1,0,0:0:0:0:
288,64,77306,1,0,0:0:0:0:
288,128,77384,1,8,0:0:0:0:
288,128,77540,1,0,0:0:0:0:
288,64,77618,1,0,0:0:0:0:
288,128,77697,1,0,0:0:0:0:
288,128,77853,1,0,0:0:0:0:
192,32,77931,1,0,0:0:0:0:
288,128,78009,1,8,0:0:0:0:
288,128,78165,1,8,0:0:0:0:
288,128,78322,1,0,0:0:0:0:
288,128,78478,1,0,0:0:0:0:
192,64,78556,1,0,0:0:0:0:
288,128,78634,1,8,0:0:0:0:
288,128,78790,1,0,0:0:0:0:
224,32,78868,1,0,0:0:0:0:
288,128,78947,1,0,0:0:0:0:
288,128,79103,1,0,0:0:0:0:
224,32,79181,1,0,0:0:0:0:
288,128,79259,1,8,0:0:0:0:
288,128,79415,1,0,0:0:0:0:
288,128,79572,1,0,0:0:0:0:
320,128,79676,1,0,0:0:0:0:
256,96,79780,1,0,0:0:0:0:
256,96,79884,1,8,0:0:0:0:
224,32,80197,1,0,0:0:0:0:
224,96,80301,1,0,0:0:0:0:
224,96,80405,1,0,0:0:0:0:
224,96,80509,1,8,0:0:0:0:
352,64,80665,1,0,0:0:0:0:
288,128,80822,1,8,0:0:0:0:
256,96,80900,1,8,0:0:0:0:
288,128,80978,1,0,0:0:0:0:
256,96,81056,1,0,0:0:0:0:
288,128,81134,1,8,0:0:0:0:
256,64,81212,1,0,0:0:0:0:
288,128,81290,1,0,0:0:0:0:
256,64,81368,1,0,0:0:0:0:
288,128,81447,1,8,0:0:0:0:
288,128,81603,1,0,0:0:0:0:
288,128,81759,1,8,0:0:0:0:
192,32,81837,1,8,0:0:0:0:
288,128,81915,1,0,0:0:0:0:
288,128,82072,5,4,0:0:0:0:
160,160,82540,1,0,0:0:0:0:
192,32,82853,1,0,0:0:0:0:
192,192,83322,1,8,0:0:0:0:
192,32,83790,1,8,0:0:0:0:
160,160,84103,1,8,0:0:0:0:
192,192,84572,1,0,0:0:0:0:
192,64,85040,1,0,0:0:0:0:
160,96,85353,1,0,0:0:0:0:
192,192,85822,1,8,0:0:0:0:
192,32,86290,1,8,0:0:0:0:
224,96,86603,1,8,0:0:0:0:
192,192,87072,1,0,0:0:0:0:
224,64,87384,1,0,0:0:0:0:
224,64,87540,1,0,0:0:0:0:
224,64,87853,1,0,0:0:0:0:
224,64,88009,1,8,0:0:0:0:
192,192,88322,1,0,0:0:0:0:
224,64,88634,1,8,0:0:0:0:
224,64,88947,1,0,0:0:0:0:
224,64,89103,1,0,0:0:0:0:
224,64,89259,1,8,0:0:0:0:
192,192,89572,1,0,0:0:0:0:
224,64,89884,1,0,0:0:0:0:
224,64,90040,1,0,0:0:0:0:
224,64,90353,1,0,0:0:0:0:
224,64,90509,1,8,0:0:0:0:
192,192,90822,1,0,0:0:0:0:
256,64,90978,1,0,0:0:0:0:
256,64,91134,1,8,0:0:0:0:
256,64,91212,1,8,0:0:0:0:
256,64,91290,1,0,0:0:0:0:
256,64,91368,1,0,0:0:0:0:
256,64,91447,1,0,0:0:0:0:
256,64,91603,1,0,0:0:0:0:
256,64,91759,1,0,0:0:0:0:
224,64,91837,1,0,0:0:0:0:
192,64,91915,1,8,0:0:0:0:
224,64,92072,5,4,0:0:0:0:
288,160,92228,1,0,0:0:0:0:
288,160,92384,1,8,0:0:0:0:
256,160,92853,1,0,0:0:0:0:
256,160,93009,1,8,0:0:0:0:
256,160,93322,1,0,0:0:0:0:
256,160,93478,1,0,0:0:0:0:
256,160,93634,1,8,0:0:0:0:
256,160,93790,1,0,0:0:0:0:
256,160,94103,1,0,0:0:0:0:
256,160,94259,1,8,0:0:0:0:
256,160,94572,1,0,0:0:0:0:
256,160,94728,1,0,0:0:0:0:
256,160,94884,1,8,0:0:0:0:
192,160,95197,1,8,0:0:0:0:
256,160,95353,1,0,0:0:0:0:
256,160,95509,1,8,0:0:0:0:
256,160,95822,1,0,0:0:0:0:
256,160,95978,1,0,0:0:0:0:
256,160,96134,1,8,0:0:0:0:
256,160,96290,1,0,0:0:0:0:
256,160,96447,1,0,0:0:0:0:
256,64,96525,1,0,0:0:0:0:
256,160,96603,1,0,0:0:0:0:
256,160,96759,1,8,0:0:0:0:
256,160,97072,1,0,0:0:0:0:
256,160,97228,1,0,0:0:0:0:
256,160,97384,1,8,0:0:0:0:
256,160,97853,1,0,0:0:0:0:
256,160,98009,1,8,0:0:0:0:
256,160,98322,1,0,0:0:0:0:
256,160,98478,1,0,0:0:0:0:
256,160,98634,1,8,0:0:0:0:
256,160,98790,1,0,0:0:0:0:
256,160,99103,1,0,0:0:0:0:
256,160,99259,1,8,0:0:0:0:
256,160,99572,1,0,0:0:0:0:
256,160,99728,1,0,0:0:0:0:
256,160,99884,1,8,0:0:0:0:
256,160,100353,1,0,0:0:0:0:
256,160,100509,1,8,0:0:0:0:
256,160,100822,1,0,0:0:0:0:
256,160,100978,1,0,0:0:0:0:
256,160,101134,1,8,0:0:0:0:
256,160,101290,1,0,0:0:0:0:
256,160,101603,1,0,0:0:0:0:
256,160,101759,1,8,0:0:0:0:
256,160,102072,5,4,0:0:0:0:
192,64,102540,1,4,0:0:0:0:
192,64,102853,1,4,0:0:0:0:
192,64,103165,1,4,0:0:0:0:
192,96,103947,1,8,0:0:0:0:
224,96,104572,1,12,0:0:0:0:
224,96,105040,1,12,0:0:0:0:
224,96,105353,1,4,0:0:0:0:
224,96,105509,1,4,0:0:0:0:
224,96,105665,1,12,0:0:0:0:
224,128,106447,1,8,0:0:0:0:
192,96,107072,1,4,0:0:0:0:
192,96,107540,1,4,0:0:0:0:
192,96,107853,1,4,0:0:0:0:
192,96,108165,1,4,0:0:0:0:
192,96,108947,1,8,0:0:0:0:
224,128,109572,1,12,0:0:0:0:
192,64,110040,1,12,0:0:0:0:
192,64,110353,1,4,0:0:0:0:
192,64,110509,1,4,0:0:0:0:
192,64,110665,1,12,0:0:0:0:
224,64,111447,1,8,0:0:0:0:
256,160,112072,1,4,0:0:0:0:
192,64,112540,1,4,0:0:0:0:
192,64,112853,1,4,0:0:0:0:
192,64,113165,1,4,0:0:0:0:
192,96,113947,1,8,0:0:0:0:
224,96,114259,1,0,0:0:0:0:
224,96,114415,1,0,0:0:0:0:
224,96,114572,1,12,0:0:0:0:
224,96,115040,1,12,0:0:0:0:
224,96,115353,1,12,0:0:0:0:
224,96,115509,1,4,0:0:0:0:
224,96,115665,1,12,0:0:0:0:
224,128,116447,1,8,0:0:0:0:
192,128,116759,1,0,0:0:0:0:
192,96,117072,1,4,0:0:0:0:
192,96,117540,1,4,0:0:0:0:
192,96,117853,1,4,0:0:0:0:
192,96,118165,1,4,0:0:0:0:
192,96,118947,1,8,0:0:0:0:
192,128,119259,1,0,0:0:0:0:
192,128,119415,1,0,0:0:0:0:
224,128,119572,1,12,0:0:0:0:
192,64,120040,1,12,0:0:0:0:
192,64,120353,1,4,0:0:0:0:
192,64,120509,1,4,0:0:0:0:
192,64,120665,1,12,0:0:0:0:
224,64,121447,1,8,0:0:0:0:
288,64,122072,5,4,0:0:0:0:
320,160,122384,1,8,0:0:0:0:
192,96,122697,1,0,0:0:0:0:
192,96,122853,1,0,0:0:0:0:
320,160,123009,1,8,0:0:0:0:
192,96,123322,1,0,0:0:0:0:
320,160,123634,1,8,0:0:0:0:
192,96,124103,1,0,0:0:0:0:
320,160,124259,1,8,0:0:0:0:
192,96,124572,1,0,0:0:0:0:
320,160,124884,1,8,0:0:0:0:
192,96,125197,1,0,0:0:0:0:
192,96,125353,1,0,0:0:0:0:
320,160,125509,1,8,0:0:0:0:
192,96,125822,1,0,0:0:0:0:
320,160,126134,1,8,0:0:0:0:
192,96,126368,1,0,0:0:0:0:
192,96,126603,1,0,0:0:0:0:
320,160,126759,1,8,0:0:0:0:
192,96,127072,1,0,0:0:0:0:
320,160,127384,1,8,0:0:0:0:
192,96,127697,1,0,0:0:0:0:
192,96,127853,1,0,0:0:0:0:
320,160,128009,1,8,0:0:0:0:
192,96,128322,1,0,0:0:0:0:
320,160,128634,1,8,0:0:0:0:
192,96,129103,1,0,0:0:0:0:
320,160,129259,1,8,0:0:0:0:
192,96,129572,1,0,0:0:0:0:
320,160,129884,1,8,0:0:0:0:
192,96,130197,1,0,0:0:0:0:
192,96,130353,1,0,0:0:0:0:
320,160,130509,1,8,0:0:0:0:
192,96,130822,1,0,0:0:0:0:
192,96,130978,1,0,0:0:0:0:
320,160,131134,1,8,0:0:0:0:
192,96,131368,1,0,0:0:0:0:
192,96,131603,1,0,0:0:0:0:
320,160,131759,1,8,0:0:0:0:
192,96,132072,1,4,0:0:0:0:
320,160,132384,1,8,0:0:0:0:
160,192,132540,1,8,0:0:0:0:
192,96,132697,1,0,0:0:0:0:
192,96,132853,1,0,0:0:0:0:
320,160,133009,1,8,0:0:0:0:
192,96,133322,1,0,0:0:0:0:
224,64,133478,1,0,0:0:0:0:
320,160,133634,1,8,0:0:0:0:
192,96,133947,1,0,0:0:0:0:
192,96,134103,1,0,0:0:0:0:
320,160,134259,1,8,0:0:0:0:
160,128,134415,1,0,0:0:0:0:
160,128,134493,1,0,0:0:0:0:
192,96,134572,1,0,0:0:0:0:
320,160,134884,1,8,0:0:0:0:
192,96,135040,1,8,0:0:0:0:
224,64,135197,1,0,0:0:0:0:
224,64,135353,1,0,0:0:0:0:
320,160,135509,1,8,0:0:0:0:
224,96,135822,1,0,0:0:0:0:
224,96,135978,1,0,0:0:0:0:
320,160,136134,1,8,0:0:0:0:
224,96,136368,1,0,0:0:0:0:
192,64,136603,1,0,0:0:0:0:
320,160,136759,1,8,0:0:0:0:
192,64,137072,1,0,0:0:0:0:
192,64,137228,1,0,0:0:0:0:
320,160,137384,1,8,0:0:0:0:
192,64,137697,1,0,0:0:0:0:
224,64,137853,1,0,0:0:0:0:
320,160,138009,1,8,0:0:0:0:
192,32,138322,1,0,0:0:0:0:
224,96,138478,1,0,0:0:0:0:
160,128,138556,1,0,0:0:0:0:
320,160,138634,1,8,0:0:0:0:
192,64,138790,1,8,0:0:0:0:
192,64,138947,1,0,0:0:0:0:
192,64,139103,1,0,0:0:0:0:
320,160,139259,1,8,0:0:0:0:
192,128,139572,1,0,0:0:0:0:
192,128,139728,1,0,0:0:0:0:
320,160,139884,1,8,0:0:0:0:
192,128,140040,1,8,0:0:0:0:
192,64,140197,1,0,0:0:0:0:
192,128,140353,1,0,0:0:0:0:
320,160,140509,1,8,0:0:0:0:
224,64,140665,1,8,0:0:0:0:
224,64,140822,1,0,0:0:0:0:
224,96,140900,1,0,0:0:0:0:
224,96,140978,1,0,0:0:0:0:
224,64,141056,1,0,0:0:0:0:
224,96,141134,1,8,0:0:0:0:
224,64,141212,1,8,0:0:0:0:
224,64,141290,1,8,0:0:0:0:
224,64,141368,1,8,0:0:0:0:
192,64,141447,1,0,0:0:0:0:
224,32,141759,1,12,0:0:0:0:
320,128,142072,5,4,0:0:0:0:
224,96,142384,1,0,0:0:0:0:
192,160,142540,1,0,0:0:0:0:
256,128,142697,1,8,0:0:0:0:
192,160,142853,1,0,0:0:0:0:
256,128,143009,1,8,0:0:0:0:
192,160,143165,1,8,0:0:0:0:
352,160,143243,1,8,0:0:0:0:
192,160,143322,1,0,0:0:0:0:
192,160,143478,1,0,0:0:0:0:
192,160,143634,1,8,0:0:0:0:
192,160,143790,1,0,0:0:0:0:
192,64,143868,1,0,0:0:0:0:
224,96,143947,1,8,0:0:0:0:
192,64,144025,1,8,0:0:0:0:
192,160,144103,1,0,0:0:0:0:
224,128,144181,1,0,0:0:0:0:
192,160,144259,1,8,0:0:0:0:
192,160,144415,1,8,0:0:0:0:
224,32,144493,1,8,0:0:0:0:
192,160,144572,1,0,0:0:0:0:
192,160,144728,1,0,0:0:0:0:
224,32,144806,1,8,0:0:0:0:
192,160,144884,1,0,0:0:0:0:
224,32,144962,1,0,0:0:0:0:
192,160,145040,1,0,0:0:0:0:
224,32,145118,1,0,0:0:0:0:
224,96,145197,1,8,0:0:0:0:
192,160,145353,1,0,0:0:0:0:
192,160,145509,1,8,0:0:0:0:
192,160,145665,1,8,0:0:0:0:
192,160,145822,1,0,0:0:0:0:
192,64,145900,1,0,0:0:0:0:
192,160,145978,1,8,0:0:0:0:
192,64,146056,1,0,0:0:0:0:
192,160,146134,1,8,0:0:0:0:
192,160,146290,1,0,0:0:0:0:
224,96,146447,1,8,0:0:0:0:
192,160,146603,1,0,0:0:0:0:
256,32,146681,1,0,0:0:0:0:
192,160,146759,1,8,0:0:0:0:
192,160,147072,1,4,0:0:0:0:
192,160,147384,1,0,0:0:0:0:
192,160,147540,1,0,0:0:0:0:
192,64,147618,1,0,0:0:0:0:
224,96,147697,1,8,0:0:0:0:
192,160,147853,1,0,0:0:0:0:
192,160,148009,1,0,0:0:0:0:
192,64,148087,1,0,0:0:0:0:
192,160,148165,1,8,0:0:0:0:
192,64,148243,1,8,0:0:0:0:
192,160,148322,1,0,0:0:0:0:
192,160,148478,1,0,0:0:0:0:
192,160,148634,1,0,0:0:0:0:
192,160,148790,1,0,0:0:0:0:
224,32,148868,1,0,0:0:0:0:
224,96,148947,1,8,0:0:0:0:
192,160,149103,1,0,0:0:0:0:
224,32,149181,1,0,0:0:0:0:
192,160,149259,1,8,0:0:0:0:
160,64,149337,1,0,0:0:0:0:
192,160,149415,1,8,0:0:0:0:
224,32,149493,1,8,0:0:0:0:
192,160,149572,1,0,0:0:0:0:
192,160,149728,1,0,0:0:0:0:
160,64,149806,1,0,0:0:0:0:
192,160,149884,1,0,0:0:0:0:
256,32,149962,1,0,0:0:0:0:
192,160,150040,1,0,0:0:0:0:
256,32,150118,1,0,0:0:0:0:
224,96,150197,1,8,0:0:0:0:
192,160,150353,1,0,0:0:0:0:
192,160,150509,1,8,0:0:0:0:
192,160,150665,1,8,0:0:0:0:
192,160,150822,1,0,0:0:0:0:
224,64,150900,1,8,0:0:0:0:
192,160,150978,1,0,0:0:0:0:
224,64,151056,1,0,0:0:0:0:
192,160,151134,1,8,0:0:0:0:
224,64,151212,1,8,0:0:0:0:
192,160,151290,1,0,0:0:0:0:
224,64,151368,1,0,0:0:0:0:
224,96,151447,1,8,0:0:0:0:
256,128,151525,1,0,0:0:0:0:
192,160,151603,1,0,0:0:0:0:
320,96,151681,1,0,0:0:0:0:
192,160,151759,1,8,0:0:0:0:
192,160,152072,1,4,0:0:0:0:
192,160,152384,1,0,0:0:0:0:
192,160,152540,1,0,0:0:0:0:
224,96,152697,5,12,0:0:0:0:
256,192,152853,12,0,154103,0:0:0:0:
320,128,154572,5,4,0:0:0:0:
224,96,154884,1,0,0:0:0:0:
192,160,155040,1,0,0:0:0:0:
256,128,155197,1,8,0:0:0:0:
192,96,155275,1,8,0:0:0:0:
192,160,155353,1,0,0:0:0:0:
256,128,155509,1,8,0:0:0:0:
192,160,155665,1,8,0:0:0:0:
192,160,155822,1,0,0:0:0:0:
192,160,155978,1,0,0:0:0:0:
224,64,156056,1,0,0:0:0:0:
192,160,156134,1,8,0:0:0:0:
256,32,156212,1,8,0:0:0:0:
192,160,156290,1,0,0:0:0:0:
160,96,156368,1,0,0:0:0:0:
224,96,156447,1,8,0:0:0:0:
192,160,156603,1,0,0:0:0:0:
224,128,156681,1,0,0:0:0:0:
192,160,156759,1,8,0:0:0:0:
192,160,156915,1,8,0:0:0:0:
256,32,156993,1,8,0:0:0:0:
192,160,157072,1,0,0:0:0:0:
256,32,157150,1,0,0:0:0:0:
192,160,157228,1,0,0:0:0:0:
224,32,157306,1,0,0:0:0:0:
192,160,157384,1,0,0:0:0:0:
224,32,157462,1,0,0:0:0:0:
192,160,157540,1,0,0:0:0:0:
224,32,157618,1,0,0:0:0:0:
224,96,157697,1,8,0:0:0:0:
192,160,157853,1,0,0:0:0:0:
192,160,158009,1,8,0:0:0:0:
192,160,158165,1,8,0:0:0:0:
192,160,158322,1,0,0:0:0:0:
192,64,158400,1,0,0:0:0:0:
192,160,158478,1,8,0:0:0:0:
160,96,158556,1,0,0:0:0:0:
192,160,158634,1,8,0:0:0:0:
192,160,158790,1,0,0:0:0:0:
224,96,158947,1,8,0:0:0:0:
192,160,159103,1,0,0:0:0:0:
256,32,159181,1,0,0:0:0:0:
192,160,159259,1,8,0:0:0:0:
192,160,159572,1,4,0:0:0:0:
192,160,159884,1,0,0:0:0:0:
192,160,160040,1,0,0:0:0:0:
224,96,160197,1,8,0:0:0:0:
256,64,160275,1,8,0:0:0:0:
192,160,160353,1,0,0:0:0:0:
192,32,160431,1,0,0:0:0:0:
192,160,160509,1,8,0:0:0:0:
192,160,160665,1,8,0:0:0:0:
192,160,160822,1,0,0:0:0:0:
192,160,160978,1,0,0:0:0:0:
224,64,161056,1,8,0:0:0:0:
192,160,161134,1,0,0:0:0:0:
192,160,161290,1,0,0:0:0:0:
224,96,161447,1,8,0:0:0:0:
192,64,161525,1,0,0:0:0:0:
192,160,161603,1,0,0:0:0:0:
224,32,161681,1,8,0:0:0:0:
192,160,161759,1,0,0:0:0:0:
192,160,161915,1,8,0:0:0:0:
224,32,161993,1,8,0:0:0:0:
192,160,162072,1,0,0:0:0:0:
288,64,162150,1,0,0:0:0:0:
192,160,162228,1,0,0:0:0:0:
288,64,162306,1,0,0:0:0:0:
192,160,162384,1,0,0:0:0:0:
256,32,162462,1,0,0:0:0:0:
192,160,162540,1,0,0:0:0:0:
256,32,162618,1,0,0:0:0:0:
224,96,162697,1,8,0:0:0:0:
192,160,162853,1,0,0:0:0:0:
192,160,163009,1,8,0:0:0:0:
192,160,163165,1,8,0:0:0:0:
192,160,163322,1,0,0:0:0:0:
192,160,163478,1,8,0:0:0:0:
288,32,163556,1,0,0:0:0:0:
192,160,163634,1,8,0:0:0:0:
224,64,163712,1,8,0:0:0:0:
192,160,163790,1,0,0:0:0:0:
224,96,163947,1,8,0:0:0:0:
192,160,164103,1,0,0:0:0:0:
192,160,164259,1,8,0:0:0:0:
320,160,164572,5,4,0:0:0:0:
288,288,164728,1,0,0:0:0:0:
288,288,164806,1,0,0:0:0:0:
288,160,164884,1,8,0:0:0:0:
256,96,165040,1,0,0:0:0:0:
256,96,165197,1,0,0:0:0:0:
256,96,165353,1,0,0:0:0:0:
192,96,165431,1,0,0:0:0:0:
288,160,165509,1,8,0:0:0:0:
224,128,165665,1,0,0:0:0:0:
224,128,165822,1,0,0:0:0:0:
224,64,165900,1,0,0:0:0:0:
224,128,165978,1,0,0:0:0:0:
224,64,166056,1,0,0:0:0:0:
256,128,166134,1,8,0:0:0:0:
192,128,166290,1,0,0:0:0:0:
192,128,166447,1,0,0:0:0:0:
192,128,166603,1,0,0:0:0:0:
192,96,166681,1,0,0:0:0:0:
256,128,166759,1,8,0:0:0:0:
192,128,166915,1,8,0:0:0:0:
192,96,166993,1,8,0:0:0:0:
192,128,167072,1,0,0:0:0:0:
192,32,167150,1,0,0:0:0:0:
192,128,167228,1,0,0:0:0:0:
192,32,167306,1,0,0:0:0:0:
256,128,167384,1,8,0:0:0:0:
224,128,167540,1,8,0:0:0:0:
192,32,167618,1,8,0:0:0:0:
224,128,167697,1,0,0:0:0:0:
224,128,167853,1,0,0:0:0:0:
256,128,168009,1,8,0:0:0:0:
224,128,168165,1,0,0:0:0:0:
224,128,168322,1,0,0:0:0:0:
192,64,168400,1,0,0:0:0:0:
224,128,168478,1,8,0:0:0:0:
192,32,168556,1,0,0:0:0:0:
256,128,168634,1,8,0:0:0:0:
224,128,168790,1,8,0:0:0:0:
224,128,168947,1,0,0:0:0:0:
224,128,169103,1,0,0:0:0:0:
256,128,169259,1,8,0:0:0:0:
224,128,169572,1,4,0:0:0:0:
288,256,169728,1,0,0:0:0:0:
192,96,169806,1,0,0:0:0:0:
256,128,169884,1,8,0:0:0:0:
224,160,169962,1,8,0:0:0:0:
192,96,170040,1,0,0:0:0:0:
192,96,170197,1,0,0:0:0:0:
192,96,170353,1,0,0:0:0:0:
192,96,170431,1,0,0:0:0:0:
256,128,170509,1,8,0:0:0:0:
192,96,170665,1,0,0:0:0:0:
192,96,170822,1,0,0:0:0:0:
192,96,170900,1,0,0:0:0:0:
192,96,170978,1,0,0:0:0:0:
192,96,171056,1,0,0:0:0:0:
256,128,171134,1,8,0:0:0:0:
192,96,171290,1,0,0:0:0:0:
192,96,171447,1,0,0:0:0:0:
192,96,171525,1,8,0:0:0:0:
192,96,171603,1,0,0:0:0:0:
192,96,171681,1,0,0:0:0:0:
256,128,171759,1,8,0:0:0:0:
192,96,171915,1,0,0:0:0:0:
192,96,171993,1,0,0:0:0:0:
192,96,172072,1,8,0:0:0:0:
192,32,172150,1,8,0:0:0:0:
192,96,172228,1,0,0:0:0:0:
192,32,172306,1,0,0:0:0:0:
256,128,172384,1,8,0:0:0:0:
192,32,172462,1,0,0:0:0:0:
192,96,172540,1,8,0:0:0:0:
224,64,172618,1,0,0:0:0:0:
192,96,172697,1,8,0:0:0:0:
224,64,172775,1,8,0:0:0:0:
192,96,172853,1,0,0:0:0:0:
192,32,172931,1,0,0:0:0:0:
192,96,173009,1,8,0:0:0:0:
256,64,173087,1,8,0:0:0:0:
192,96,173165,1,0,0:0:0:0:
256,64,173243,1,0,0:0:0:0:
192,96,173322,1,8,0:0:0:0:
224,64,173478,1,0,0:0:0:0:
224,64,173556,1,0,0:0:0:0:
192,96,173634,1,8,0:0:0:0:
224,32,173790,1,0,0:0:0:0:
224,32,173868,1,0,0:0:0:0:
320,160,174572,5,4,0:0:0:0:
288,160,174884,1,8,0:0:0:0:
256,96,175040,1,0,0:0:0:0:
256,96,175197,1,0,0:0:0:0:
256,96,175353,1,0,0:0:0:0:
288,32,175431,1,0,0:0:0:0:
288,160,175509,1,8,0:0:0:0:
224,128,175665,1,0,0:0:0:0:
224,64,175743,1,0,0:0:0:0:
224,128,175822,1,0,0:0:0:0:
224,128,175978,1,0,0:0:0:0:
256,128,176134,1,8,0:0:0:0:
192,128,176290,1,0,0:0:0:0:
192,128,176447,1,0,0:0:0:0:
288,64,176525,1,8,0:0:0:0:
192,128,176603,1,0,0:0:0:0:
192,96,176681,1,0,0:0:0:0:
256,128,176759,1,8,0:0:0:0:
192,128,176915,1,8,0:0:0:0:
192,96,176993,1,8,0:0:0:0:
192,128,177072,1,0,0:0:0:0:
192,32,177150,1,0,0:0:0:0:
192,128,177228,1,0,0:0:0:0:
192,32,177306,1,0,0:0:0:0:
256,128,177384,1,8,0:0:0:0:
224,128,177540,1,8,0:0:0:0:
192,32,177618,1,8,0:0:0:0:
224,128,177697,1,0,0:0:0:0:
224,128,177853,1,0,0:0:0:0:
256,128,178009,1,8,0:0:0:0:
224,128,178165,1,0,0:0:0:0:
224,96,178243,1,0,0:0:0:0:
224,128,178322,1,0,0:0:0:0:
192,64,178400,1,0,0:0:0:0:
224,128,178478,1,8,0:0:0:0:
256,128,178634,1,8,0:0:0:0:
224,128,178790,1,8,0:0:0:0:
224,64,178868,1,8,0:0:0:0:
224,128,178947,1,0,0:0:0:0:
224,128,179103,1,0,0:0:0:0:
256,128,179259,1,8,0:0:0:0:
224,64,179415,1,8,0:0:0:0:
224,128,179572,1,4,0:0:0:0:
256,128,179884,1,8,0:0:0:0:
192,96,180040,1,0,0:0:0:0:
192,96,180197,1,0,0:0:0:0:
192,64,180275,1,0,0:0:0:0:
192,96,180353,1,0,0:0:0:0:
192,96,180431,1,0,0:0:0:0:
256,128,180509,1,8,0:0:0:0:
192,96,180665,1,0,0:0:0:0:
192,64,180743,1,0,0:0:0:0:
192,96,180822,1,8,0:0:0:0:
192,96,180978,1,0,0:0:0:0:
256,128,181134,1,8,0:0:0:0:
192,96,181290,1,0,0:0:0:0:
192,96,181447,1,0,0:0:0:0:
192,96,181525,1,0,0:0:0:0:
192,96,181603,1,0,0:0:0:0:
192,96,181681,1,0,0:0:0:0:
256,128,181759,1,8,0:0:0:0:
192,96,181915,1,8,0:0:0:0:
192,96,181993,1,8,0:0:0:0:
192,96,182072,1,0,0:0:0:0:
192,32,182150,1,0,0:0:0:0:
192,96,182228,1,0,0:0:0:0:
192,32,182306,1,0,0:0:0:0:
256,128,182384,1,8,0:0:0:0:
192,32,182462,1,0,0:0:0:0:
192,96,182540,1,8,0:0:0:0:
224,64,182618,1,8,0:0:0:0:
192,96,182697,1,0,0:0:0:0:
224,64,182775,1,0,0:0:0:0:
192,96,182853,1,0,0:0:0:0:
192,32,182931,1,0,0:0:0:0:
192,96,183009,1,8,0:0:0:0:
256,64,183087,1,0,0:0:0:0:
192,96,183165,1,8,0:0:0:0:
256,64,183243,1,8,0:0:0:0:
192,96,183322,1,0,0:0:0:0:
224,64,183478,1,0,0:0:0:0:
224,64,183556,1,8,0:0:0:0:
192,96,183634,1,0,0:0:0:0:
224,32,183790,1,0,0:0:0:0:
224,32,183868,1,8,0:0:0:0:
288,64,183947,1,0,0:0:0:0:
288,64,184025,1,0,0:0:0:0:
288,64,184103,1,8,0:0:0:0:
288,64,184181,1,8,0:0:0:0:
288,32,184259,1,0,0:0:0:0:
256,32,184415,1,8,0:0:0:0:
256,64,184572,5,4,0:0:0:0:
192,192,184884,1,0,0:0:0:0:
224,160,185040,1,8,0:0:0:0:
192,192,185197,1,0,0:0:0:0:
224,160,185353,1,8,0:0:0:0:
192,64,185431,1,8,0:0:0:0:
192,192,185509,1,0,0:0:0:0:
224,96,185665,1,8,0:0:0:0:
192,192,185822,1,0,0:0:0:0:
224,96,185978,1,0,0:0:0:0:
224,96,186056,1,0,0:0:0:0:
224,160,186134,1,8,0:0:0:0:
192,32,186212,1,0,0:0:0:0:
224,32,186290,1,8,0:0:0:0:
224,32,186368,1,8,0:0:0:0:
224,160,186447,1,0,0:0:0:0:
224,64,186603,1,0,0:0:0:0:
192,32,186681,1,0,0:0:0:0:
224,192,186759,1,8,0:0:0:0:
192,32,186915,1,8,0:0:0:0:
192,32,186993,1,8,0:0:0:0:
224,192,187072,1,0,0:0:0:0:
224,64,187150,1,0,0:0:0:0:
224,64,187228,1,0,0:0:0:0:
224,64,187306,1,0,0:0:0:0:
224,160,187384,1,8,0:0:0:0:
192,96,187540,1,8,0:0:0:0:
160,64,187618,1,8,0:0:0:0:
224,160,187697,1,0,0:0:0:0:
160,64,187853,1,8,0:0:0:0:
224,192,188009,1,0,0:0:0:0:
256,64,188165,1,8,0:0:0:0:
256,64,188243,1,8,0:0:0:0:
224,192,188322,1,0,0:0:0:0:
256,64,188478,1,0,0:0:0:0:
256,64,188556,1,0,0:0:0:0:
224,192,188634,1,8,0:0:0:0:
224,32,188790,1,0,0:0:0:0:
224,32,188868,1,8,0:0:0:0:
224,192,188947,1,0,0:0:0:0:
224,32,189025,1,0,0:0:0:0:
224,32,189103,1,8,0:0:0:0:
224,192,189259,1,8,0:0:0:0:
192,32,189415,1,8,0:0:0:0:
224,192,189572,1,0,0:0:0:0:
224,192,189728,1,0,0:0:0:0:
224,192,189884,1,8,0:0:0:0:
224,96,190197,1,0,0:0:0:0:
224,64,190353,1,0,0:0:0:0:
224,64,190431,1,0,0:0:0:0:
224,96,190509,1,8,0:0:0:0:
224,96,190665,1,8,0:0:0:0:
224,96,190822,1,0,0:0:0:0:
224,96,190978,1,0,0:0:0:0:
224,96,191134,1,8,0:0:0:0:
224,96,191447,1,0,0:0:0:0:
224,96,191603,1,0,0:0:0:0:
224,96,191681,1,0,0:0:0:0:
224,96,191759,1,8,0:0:0:0:
224,96,191915,1,8,0:0:0:0:
192,64,191993,1,8,0:0:0:0:
224,96,192072,1,0,0:0:0:0:
192,64,192150,1,0,0:0:0:0:
224,96,192228,1,0,0:0:0:0:
192,64,192306,1,0,0:0:0:0:
224,96,192384,1,8,0:0:0:0:
192,64,192462,1,0,0:0:0:0:
224,96,192540,1,0,0:0:0:0:
192,64,192618,1,0,0:0:0:0:
224,96,192697,1,0,0:0:0:0:
192,64,192775,1,0,0:0:0:0:
224,96,192853,1,0,0:0:0:0:
192,64,192931,1,0,0:0:0:0:
224,96,193009,1,8,0:0:0:0:
192,64,193087,1,0,0:0:0:0:
224,96,193165,1,8,0:0:0:0:
192,64,193243,1,8,0:0:0:0:
224,96,193322,1,0,0:0:0:0:
192,32,193478,1,0,0:0:0:0:
192,32,193556,1,0,0:0:0:0:
192,32,193634,1,8,0:0:0:0:
192,32,193790,1,0,0:0:0:0:
192,32,193868,1,0,0:0:0:0:
224,64,194259,1,8,0:0:0:0:
160,224,194572,5,4,0:0:0:0:
224,160,194728,1,0,0:0:0:0:
256,192,194884,1,8,0:0:0:0:
224,160,195040,1,0,0:0:0:0:
192,32,195118,1,0,0:0:0:0:
256,192,195197,1,0,0:0:0:0:
224,160,195353,1,0,0:0:0:0:
256,192,195509,1,8,0:0:0:0:
224,160,195665,1,8,0:0:0:0:
224,64,195743,1,8,0:0:0:0:
256,192,195822,1,0,0:0:0:0:
224,160,195978,1,0,0:0:0:0:
256,192,196134,1,8,0:0:0:0:
224,160,196290,1,0,0:0:0:0:
256,192,196447,1,0,0:0:0:0:
224,32,196525,1,0,0:0:0:0:
224,160,196603,1,0,0:0:0:0:
192,64,196681,1,0,0:0:0:0:
256,192,196759,1,8,0:0:0:0:
224,160,196915,1,8,0:0:0:0:
192,64,196993,1,8,0:0:0:0:
256,192,197072,1,0,0:0:0:0:
224,160,197228,1,0,0:0:0:0:
192,32,197306,1,0,0:0:0:0:
256,192,197384,1,8,0:0:0:0:
224,160,197540,1,0,0:0:0:0:
256,192,197697,1,0,0:0:0:0:
224,96,197775,1,0,0:0:0:0:
224,160,197853,1,0,0:0:0:0:
192,64,197931,1,0,0:0:0:0:
256,192,198009,1,8,0:0:0:0:
224,160,198165,1,0,0:0:0:0:
256,192,198322,1,0,0:0:0:0:
224,160,198478,1,8,0:0:0:0:
192,32,198556,1,0,0:0:0:0:
256,192,198634,1,8,0:0:0:0:
224,160,198790,1,8,0:0:0:0:
192,32,198868,1,0,0:0:0:0:
256,192,198947,1,8,0:0:0:0:
192,64,199025,1,8,0:0:0:0:
224,160,199103,1,0,0:0:0:0:
192,0,199181,1,0,0:0:0:0:
256,192,199259,1,8,0:0:0:0:
224,160,199415,1,8,0:0:0:0:
256,192,199572,1,0,0:0:0:0:
192,32,199728,1,0,0:0:0:0:
256,192,199884,1,8,0:0:0:0:
224,160,200040,1,0,0:0:0:0:
192,64,200197,1,0,0:0:0:0:
192,64,200275,1,8,0:0:0:0:
224,160,200353,1,0,0:0:0:0:
192,32,200431,1,0,0:0:0:0:
256,192,200509,1,8,0:0:0:0:
224,160,200665,1,0,0:0:0:0:
256,192,200822,1,0,0:0:0:0:
224,160,200978,1,0,0:0:0:0:
256,96,201056,1,0,0:0:0:0:
256,192,201134,1,8,0:0:0:0:
192,32,201290,1,0,0:0:0:0:
192,32,201368,1,0,0:0:0:0:
256,192,201447,1,0,0:0:0:0:
192,32,201525,1,8,0:0:0:0:
224,160,201603,1,0,0:0:0:0:
256,192,201759,1,8,0:0:0:0:
224,160,201915,1,0,0:0:0:0:
256,192,202072,1,8,0:0:0:0:
224,64,202150,1,8,0:0:0:0:
224,160,202228,1,0,0:0:0:0:
192,64,202306,1,0,0:0:0:0:
256,192,202384,1,8,0:0:0:0:
192,64,202462,1,0,0:0:0:0:
224,160,202540,1,0,0:0:0:0:
192,64,202618,1,0,0:0:0:0:
256,192,202697,1,8,0:0:0:0:
192,64,202775,1,0,0:0:0:0:
224,160,202853,1,8,0:0:0:0:
192,64,202931,1,0,0:0:0:0:
256,192,203009,1,8,0:0:0:0:
192,96,203087,1,0,0:0:0:0:
192,96,203165,1,8,0:0:0:0:
192,96,203243,1,0,0:0:0:0:
224,64,203322,1,8,0:0:0:0:
256,64,203478,1,0,0:0:0:0:
256,64,203556,1,0,0:0:0:0:
256,64,203634,1,8,0:0:0:0:
256,64,203790,1,0,0:0:0:0:
256,64,203947,1,8,0:0:0:0:
192,64,204259,1,8,0:0:0:0:
224,224,204572,1,4,0:0:0:0:
288,192,204728,1,0,0:0:0:0:
256,128,204884,1,8,0:0:0:0:
288,192,205040,1,0,0:0:0:0:
288,192,205118,1,0,0:0:0:0:
224,128,205197,1,0,0:0:0:0:
288,192,205353,1,0,0:0:0:0:
256,96,205431,1,0,0:0:0:0:
256,128,205509,1,8,0:0:0:0:
288,192,205665,1,0,0:0:0:0:
224,128,205822,1,0,0:0:0:0:
256,128,206134,1,8,0:0:0:0:
288,192,206290,1,0,0:0:0:0:
224,128,206447,1,0,0:0:0:0:
192,64,206525,1,0,0:0:0:0:
224,128,206603,1,0,0:0:0:0:
256,128,206759,1,8,0:0:0:0:
192,64,206915,1,8,0:0:0:0:
192,64,206993,1,8,0:0:0:0:
224,128,207072,1,0,0:0:0:0:
256,128,207384,1,8,0:0:0:0:
192,96,207540,1,0,0:0:0:0:
192,96,207618,1,0,0:0:0:0:
224,128,207697,1,0,0:0:0:0:
192,96,207853,1,0,0:0:0:0:
256,128,208009,1,8,0:0:0:0:
192,96,208087,1,8,0:0:0:0:
192,96,208165,1,0,0:0:0:0:
192,96,208243,1,8,0:0:0:0:
224,128,208322,1,0,0:0:0:0:
256,128,208634,1,8,0:0:0:0:
224,64,208790,1,0,0:0:0:0:
224,64,208868,1,0,0:0:0:0:
224,128,208947,1,0,0:0:0:0:
224,128,209103,1,0,0:0:0:0:
192,64,209259,1,8,0:0:0:0:
224,128,209572,1,4,0:0:0:0:
224,96,209884,1,8,0:0:0:0:
192,64,210040,1,0,0:0:0:0:
224,32,210118,1,0,0:0:0:0:
224,128,210197,1,0,0:0:0:0:
224,32,210353,1,0,0:0:0:0:
224,96,210509,1,8,0:0:0:0:
224,64,210665,1,0,0:0:0:0:
224,128,210822,1,0,0:0:0:0:
224,64,210900,1,0,0:0:0:0:
224,64,210978,1,0,0:0:0:0:
192,64,211056,1,0,0:0:0:0:
224,96,211134,1,8,0:0:0:0:
160,32,211290,1,0,0:0:0:0:
224,128,211447,1,8,0:0:0:0:
160,32,211525,1,0,0:0:0:0:
160,64,211603,1,8,0:0:0:0:
224,96,211759,1,8,0:0:0:0:
192,64,211915,1,0,0:0:0:0:
224,128,212072,1,8,0:0:0:0:
224,32,212150,1,8,0:0:0:0:
224,128,212228,1,0,0:0:0:0:
224,32,212306,1,0,0:0:0:0:
224,96,212384,1,8,0:0:0:0:
192,64,212462,1,0,0:0:0:0:
224,128,212540,1,0,0:0:0:0:
192,64,212618,1,0,0:0:0:0:
224,128,212697,1,8,0:0:0:0:
192,64,212775,1,0,0:0:0:0:
224,128,212853,1,8,0:0:0:0:
192,64,212931,1,0,0:0:0:0:
224,96,213009,1,8,0:0:0:0:
256,32,213087,1,8,0:0:0:0:
224,128,213165,1,0,0:0:0:0:
256,32,213243,1,0,0:0:0:0:
224,128,213322,1,8,0:0:0:0:
224,128,213478,1,0,0:0:0:0:
224,64,213556,1,0,0:0:0:0:
224,96,213634,1,8,0:0:0:0:
224,64,213790,1,0,0:0:0:0:
224,32,213868,1,0,0:0:0:0:
224,64,213947,1,8,0:0:0:0:
192,0,214025,1,8,0:0:0:0:
224,64,214103,1,0,0:0:0:0:
224,64,214181,1,0,0:0:0:0:
224,64,214259,1,8,0:0:0:0:
224,64,214337,1,0,0:0:0:0:
224,64,214415,1,8,0:0:0:0:
224,64,214572,1,4,0:0:0:0:
224,96,215040,1,0,0:0:0:0:
256,64,215197,1,8,0:0:0:0:
224,96,215822,1,0,0:0:0:0:
224,96,216290,1,0,0:0:0:0:
224,64,216447,1,8,0:0:0:0:
224,96,216759,1,0,0:0:0:0:
224,64,216915,1,8,0:0:0:0:
224,96,217072,1,0,0:0:0:0:
224,96,217540,1,0,0:0:0:0:
224,64,217697,1,8,0:0:0:0:
224,96,218322,1,0,0:0:0:0:
224,96,218790,1,0,0:0:0:0:
224,64,218947,1,8,0:0:0:0:
224,96,219259,1,0,0:0:0:0:
224,64,219572,1,4,0:0:0:0:
192,96,219728,1,0,0:0:0:0:
288,224,219806,1,0,0:0:0:0:
224,64,219884,1,8,0:0:0:0:
224,64,220040,1,0,0:0:0:0:
224,64,220197,1,0,0:0:0:0:
224,96,220275,1,8,0:0:0:0:
224,64,220353,1,0,0:0:0:0:
224,64,220509,1,8,0:0:0:0:
288,224,220587,1,8,0:0:0:0:
224,64,220665,1,8,0:0:0:0:
288,224,220743,1,8,0:0:0:0:
224,64,220822,1,0,0:0:0:0:
224,64,220978,1,0,0:0:0:0:
224,64,221056,1,0,0:0:0:0:
224,64,221134,1,8,0:0:0:0:
224,64,221290,1,0,0:0:0:0:
224,64,221368,1,0,0:0:0:0:
224,64,221447,1,0,0:0:0:0:
224,64,221603,1,0,0:0:0:0:
224,64,221759,1,8,0:0:0:0:
224,64,221915,1,0,0:0:0:0:
224,96,222072,1,0,0:0:0:0:
224,96,222176,1,0,0:0:0:0:
224,96,222280,1,0,0:0:0:0:
224,96,222384,1,8,0:0:0:0:
224,64,222697,1,0,0:0:0:0:
224,64,222801,1,0,0:0:0:0:
224,64,223009,1,8,0:0:0:0:
224,64,223165,1,8,0:0:0:0:
224,64,223322,1,0,0:0:0:0:
320,96,223634,1,8,0:0:0:0:
192,96,223790,1,0,0:0:0:0:
224,64,223947,1,8,0:0:0:0:
448,64,224025,1,0,0:0:0:0:
416,96,224103,1,8,0:0:0:0:
416,96,224181,1,0,0:0:0:0:
416,96,224259,1,8,0:0:0:0:
416,96,224337,1,8,0:0:0:0:
416,96,224415,1,0,0:0:0:0:
416,96,224572,1,4,0:0:0:0:
192,64,224884,1,8,0:0:0:0:
224,32,225040,1,0,0:0:0:0:
224,64,225353,1,0,0:0:0:0:
224,64,225509,1,8,0:0:0:0:
224,64,225822,1,0,0:0:0:0:
224,64,226134,1,8,0:0:0:0:
224,64,226290,1,0,0:0:0:0:
224,64,226603,1,0,0:0:0:0:
224,64,226759,1,8,0:0:0:0:
224,64,226915,1,8,0:0:0:0:
224,64,227072,1,0,0:0:0:0:
224,64,227384,1,8,0:0:0:0:
224,64,227540,1,0,0:0:0:0:
224,64,227853,1,0,0:0:0:0:
224,64,228009,1,8,0:0:0:0:
224,64,228322,1,8,0:0:0:0:
224,64,228478,1,8,0:0:0:0:
224,64,228634,1,8,0:0:0:0:
224,64,228790,1,8,0:0:0:0:
160,32,228947,1,8,0:0:0:0:
160,64,229103,1,8,0:0:0:0:
224,64,229259,1,8,0:0:0:0:
160,64,229415,1,8,0:0:0:0:
224,64,229572,1,0,0:0:0:0:
224,64,229884,1,8,0:0:0:0:
256,32,230197,1,0,0:0:0:0:
224,64,230509,1,8,0:0:0:0:
256,32,230822,1,0,0:0:0:0:
224,64,231134,1,8,0:0:0:0:
256,32,231447,1,0,0:0:0:0:
224,64,231759,1,8,0:0:0:0:
256,96,232072,1,8,0:0:0:0:
192,96,232228,1,8,0:0:0:0:
192,96,232384,1,8,0:0:0:0:
224,32,232540,1,8,0:0:0:0:
224,64,232697,1,8,0:0:0:0:
192,96,232853,1,8,0:0:0:0:
224,64,233009,1,8,0:0:0:0:
224,96,233165,1,8,0:0:0:0:
224,96,233322,1,0,0:0:0:0:
288,96,233400,1,8,0:0:0:0:
288,96,233478,1,0,0:0:0:0:
288,96,233556,1,0,0:0:0:0:
288,96,233634,1,8,0:0:0:0:
160,96,233712,1,8,0:0:0:0:
288,96,233790,1,0,0:0:0:0:
256,96,233868,1,8,0:0:0:0:
192,96,233947,1,0,0:0:0:0:
288,64,234025,1,8,0:0:0:0:
288,64,234103,1,8,0:0:0:0:
288,64,234181,1,8,0:0:0:0:
288,64,234259,1,0,0:0:0:0:
288,64,234337,1,0,0:0:0:0:
288,64,234415,1,8,0:0:0:0:
288,64,234572,1,4,0:0:0:0:
224,160,234728,1,0,0:0:0:0:
192,128,234806,1,0,0:0:0:0:
192,64,234884,1,8,0:0:0:0:
224,160,235040,1,8,0:0:0:0:
224,128,235118,1,8,0:0:0:0:
224,160,235197,1,0,0:0:0:0:
224,128,235353,1,0,0:0:0:0:
192,64,235509,1,8,0:0:0:0:
224,128,235665,1,0,0:0:0:0:
192,64,235743,1,0,0:0:0:0:
224,160,235822,1,0,0:0:0:0:
224,128,235978,1,0,0:0:0:0:
192,64,236134,1,8,0:0:0:0:
224,128,236290,1,0,0:0:0:0:
192,64,236368,1,0,0:0:0:0:
224,160,236447,1,8,0:0:0:0:
224,128,236603,1,0,0:0:0:0:
192,64,236759,1,8,0:0:0:0:
192,32,236837,1,8,0:0:0:0:
224,128,236915,1,0,0:0:0:0:
192,64,236993,1,0,0:0:0:0:
224,160,237072,1,8,0:0:0:0:
224,128,237228,1,0,0:0:0:0:
192,64,237384,1,8,0:0:0:0:
224,128,237540,1,0,0:0:0:0:
192,128,237618,1,0,0:0:0:0:
224,160,237697,1,8,0:0:0:0:
224,128,237853,1,0,0:0:0:0:
192,64,238009,1,8,0:0:0:0:
224,128,238165,1,0,0:0:0:0:
192,32,238243,1,8,0:0:0:0:
224,128,238322,1,0,0:0:0:0:
224,128,238478,1,0,0:0:0:0:
192,64,238634,1,8,0:0:0:0:
224,128,238790,1,0,0:0:0:0:
224,64,238868,1,0,0:0:0:0:
224,160,238947,1,8,0:0:0:0:
192,0,239025,1,8,0:0:0:0:
224,128,239103,1,0,0:0:0:0:
192,32,239181,1,0,0:0:0:0:
192,64,239259,1,8,0:0:0:0:
256,32,239337,1,0,0:0:0:0:
224,128,239415,1,8,0:0:0:0:
224,160,239572,1,4,0:0:0:0:
224,128,239728,1,8,0:0:0:0:
192,64,239884,1,0,0:0:0:0:
224,128,240040,1,0,0:0:0:0:
192,96,240118,1,0,0:0:0:0:
224,160,240197,1,0,0:0:0:0:
224,128,240353,1,0,0:0:0:0:
192,64,240509,1,8,0:0:0:0:
224,128,240665,1,8,0:0:0:0:
192,64,240743,1,8,0:0:0:0:
224,160,240822,1,0,0:0:0:0:
224,128,240978,1,0,0:0:0:0:
224,96,241056,1,0,0:0:0:0:
192,64,241134,1,8,0:0:0:0:
224,96,241212,1,0,0:0:0:0:
224,128,241290,1,8,0:0:0:0:
224,96,241368,1,8,0:0:0:0:
224,160,241447,1,0,0:0:0:0:
224,128,241603,1,0,0:0:0:0:
192,64,241759,1,8,0:0:0:0:
224,128,241915,1,8,0:0:0:0:
224,64,241993,1,8,0:0:0:0:
224,160,242072,1,0,0:0:0:0:
192,32,242280,1,0,0:0:0:0:
192,64,242384,1,8,0:0:0:0:
224,160,242697,1,0,0:0:0:0:
224,96,242801,1,0,0:0:0:0:
224,64,242905,1,0,0:0:0:0:
192,64,243009,1,8,0:0:0:0:
224,160,243322,1,0,0:0:0:0:
256,64,243478,1,0,0:0:0:0:
256,64,243634,1,8,0:0:0:0:
256,64,243790,1,0,0:0:0:0:
192,96,243868,1,8,0:0:0:0:
256,64,243947,1,0,0:0:0:0:
192,96,244025,1,0,0:0:0:0:
224,64,244103,1,8,0:0:0:0:
192,96,244181,1,0,0:0:0:0:
224,96,244259,1,8,0:0:0:0:
224,160,244572,1,4,0:0:0:0:
192,128,244728,1,0,0:0:0:0:
224,32,244806,1,0,0:0:0:0:
192,64,244884,1,8,0:0:0:0:
192,128,245040,1,0,0:0:0:0:
224,64,245118,1,0,0:0:0:0:
224,64,245197,1,0,0:0:0:0:
192,128,245353,1,0,0:0:0:0:
256,32,245431,1,0,0:0:0:0:
192,64,245509,1,8,0:0:0:0:
224,64,245587,1,0,0:0:0:0:
192,128,245665,1,8,0:0:0:0:
224,64,245743,1,8,0:0:0:0:
256,96,245822,1,0,0:0:0:0:
192,128,245978,1,0,0:0:0:0:
192,64,246134,1,8,0:0:0:0:
192,128,246290,1,0,0:0:0:0:
192,32,246368,1,0,0:0:0:0:
256,96,246447,1,8,0:0:0:0:
192,128,246603,1,8,0:0:0:0:
192,32,246681,1,0,0:0:0:0:
192,64,246759,1,8,0:0:0:0:
256,64,246837,1,8,0:0:0:0:
192,128,246915,1,0,0:0:0:0:
224,64,246993,1,0,0:0:0:0:
256,96,247072,1,8,0:0:0:0:
192,128,247228,1,0,0:0:0:0:
192,64,247384,1,8,0:0:0:0:
192,128,247540,1,0,0:0:0:0:
256,64,247618,1,0,0:0:0:0:
256,96,247697,1,8,0:0:0:0:
192,128,247853,1,0,0:0:0:0:
192,64,248009,1,8,0:0:0:0:
256,64,248087,1,8,0:0:0:0:
192,128,248165,1,0,0:0:0:0:
256,64,248243,1,0,0:0:0:0:
256,96,248322,1,8,0:0:0:0:
192,128,248478,1,0,0:0:0:0:
192,64,248634,1,8,0:0:0:0:
192,128,248790,1,8,0:0:0:0:
192,32,248868,1,8,0:0:0:0:
256,96,248947,1,0,0:0:0:0:
192,128,249103,1,0,0:0:0:0:
192,64,249259,1,8,0:0:0:0:
192,32,249337,1,8,0:0:0:0:
192,128,249415,1,8,0:0:0:0:
256,96,249572,1,4,0:0:0:0:
192,128,249728,1,0,0:0:0:0:
320,32,249806,1,0,0:0:0:0:
192,64,249884,1,8,0:0:0:0:
192,128,250040,1,0,0:0:0:0:
256,96,250197,1,0,0:0:0:0:
224,64,250275,1,0,0:0:0:0:
192,128,250353,1,0,0:0:0:0:
192,64,250509,1,8,0:0:0:0:
192,128,250665,1,0,0:0:0:0:
256,96,250822,1,4,0:0:0:0:
192,128,250978,1,0,0:0:0:0:
256,64,251056,1,0,0:0:0:0:
192,64,251134,1,8,0:0:0:0:
192,128,251290,1,0,0:0:0:0:
224,96,251368,1,8,0:0:0:0:
256,96,251447,1,0,0:0:0:0:
256,64,251525,1,0,0:0:0:0:
192,128,251603,1,0,0:0:0:0:
224,96,251681,1,0,0:0:0:0:
192,64,251759,1,8,0:0:0:0:
192,128,251915,1,8,0:0:0:0:
256,96,252072,1,0,0:0:0:0:
256,64,252150,1,8,0:0:0:0:
192,128,252228,1,0,0:0:0:0:
256,64,252306,1,0,0:0:0:0:
192,64,252384,1,8,0:0:0:0:
288,96,252462,1,0,0:0:0:0:
192,128,252540,1,8,0:0:0:0:
288,96,252618,1,8,0:0:0:0:
256,96,252697,1,0,0:0:0:0:
288,96,252775,1,0,0:0:0:0:
192,128,252853,1,8,0:0:0:0:
288,96,252931,1,0,0:0:0:0:
192,64,253009,1,8,0:0:0:0:
288,96,253087,1,8,0:0:0:0:
192,128,253165,1,0,0:0:0:0:
288,96,253243,1,8,0:0:0:0:
256,96,253322,1,0,0:0:0:0:
224,96,253634,1,8,0:0:0:0:
224,96,253790,1,0,0:0:0:0:
224,96,254103,1,0,0:0:0:0:
224,96,254259,1,8,0:0:0:0:
224,96,254572,1,4,0:0:0:0:
192,128,255509,1,0,0:0:0:0:
256,128,255822,1,8,0:0:0:0:
192,96,256759,1,8,0:0:0:0:
256,128,257072,1,0,0:0:0:0:
192,64,258009,1,0,0:0:0:0:
256,128,258322,1,8,0:0:0:0:
288,128,258947,1,0,0:0:0:0:
224,64,259103,1,0,0:0:0:0:
224,64,259259,1,8,0:0:0:0:
256,128,259572,1,0,0:0:0:0:
288,128,260509,1,0,0:0:0:0:
256,128,260822,1,8,0:0:0:0:
288,128,261759,1,8,0:0:0:0:
256,128,262072,1,0,0:0:0:0:
288,128,263009,1,0,0:0:0:0:
256,128,263322,1,8,0:0:0:0:
256,160,263478,1,0,0:0:0:0:
256,160,263634,1,8,0:0:0:0:
256,160,263790,1,0,0:0:0:0:
256,160,263947,1,0,0:0:0:0:
256,160,264103,1,0,0:0:0:0:
256,160,264259,1,8,0:0:0:0:
256,160,264415,1,0,0:0:0:0:
