osu file format v14

[General]
AudioFilename: audio.mp3
AudioLeadIn: 0
PreviewTime: 141603
Countdown: 0
SampleSet: Normal
StackLeniency: 0.2
Mode: 1
LetterboxInBreaks: 0
WidescreenStoryboard: 0

[Editor]
Bookmarks: 22072,32072,52072,72072,82072,92072,102072,122072,142072,154572,164572,174572,184572,194572,204572,214572,219572,234572,254572
DistanceSpacing: 0.7
BeatDivisor: 4
GridSize: 32
TimelineZoom: 4.299999

[Metadata]
Title:Night sky (Extended Mix)
TitleUnicode:Night sky (Extended Mix)
Artist:USAO
ArtistUnicode:USAO
Creator:Jaye
Version:Beyond Astronomical Twilight
Source:beatmania IIDX 22 PENDUAL
Tags:bemani Pumpcore Hardtek Electronic
BeatmapID:1135874
BeatmapSetID:536313

[Difficulty]
HPDrainRate:5
CircleSize:2
OverallDifficulty:6.7
ApproachRate:10
SliderMultiplier:1.4
SliderTickRate:1

[Events]
//Background and Video events
0,0,"starry-night-sky-free-wallpaper-1366x768.jpg",0,-70
//Break Periods
//Storyboard Layer 0 (Background)
//Storyboard Layer 1 (Fail)
//Storyboard Layer 2 (Pass)
//Storyboard Layer 3 (Foreground)
//Storyboard Sound Samples

[TimingPoints]
2072,312.5,4,1,0,15,1,0
2072,-166.666666666667,4,1,0,15,0,0
3322,-166.666666666667,4,1,0,20,0,0
4572,-166.666666666667,4,1,0,25,0,0
5822,-166.666666666667,4,1,0,30,0,0
7072,-166.666666666667,4,1,0,35,0,0
8322,-166.666666666667,4,1,0,40,0,0
9572,-166.666666666667,4,1,0,50,0,0
11993,-125,4,1,0,50,0,0
12072,-125,4,1,0,65,0,0
12384,-125,4,1,0,50,0,0
18322,-125,4,1,0,55,0,0
18556,-128.205128205128,4,1,0,55,0,0
18712,-129.87012987013,4,1,0,55,0,0
18868,-131.578947368421,4,1,0,55,0,0
19025,-133.333333333333,4,1,0,55,0,0
19181,-135.135135135135,4,1,0,55,0,0
19337,-136.986301369863,4,1,0,55,0,0
19493,-138.888888888889,4,1,0,55,0,0
19806,-142.857142857143,4,1,0,55,0,0
19962,-144.927536231884,4,1,0,55,0,0
20275,-149.253731343284,4,1,0,55,0,0
20431,-151.515151515152,4,1,0,55,0,0
20587,-153.846153846154,4,1,0,55,0,0
20743,-156.25,4,1,0,55,0,0
22384,-156.25,4,1,0,65,0,0
24845,-153.846153846154,4,1,0,65,0,0
25001,-151.515151515152,4,1,0,65,0,0
25314,-149.253731343284,4,1,0,65,0,0
25470,-147.058823529412,4,1,0,65,0,0
25626,-144.927536231884,4,1,0,65,0,0
25743,-142.857142857143,4,1,0,65,0,0
27072,-142.857142857143,4,1,0,66,0,0
27345,-138.888888888889,4,1,0,66,0,0
27384,-138.888888888889,4,1,0,67,0,0
27501,-136.986301369863,4,1,0,67,0,0
27657,-135.135135135135,4,1,0,67,0,0
27697,-135.135135135135,4,1,0,68,0,0
27814,-133.333333333333,4,1,0,68,0,0
27970,-131.578947368421,4,1,0,68,0,0
28009,-131.578947368421,4,1,0,69,0,0
28126,-129.87012987013,4,1,0,69,0,0
28282,-128.205128205128,4,1,0,69,0,0
28322,-128.205128205128,4,1,0,70,0,0
28439,-126.582278481013,4,1,0,70,0,0
28595,-125,4,1,0,70,0,0
28634,-125,4,1,0,71,0,0
28751,-123.456790123457,4,1,0,71,0,0
28907,-121.951219512195,4,1,0,71,0,0
28947,-121.951219512195,4,1,0,72,0,0
29064,-120.481927710843,4,1,0,72,0,0
29220,-119.047619047619,4,1,0,72,0,0
29259,-119.047619047619,4,1,0,73,0,0
29376,-117.647058823529,4,1,0,73,0,0
29532,-116.279069767442,4,1,0,73,0,0
29572,-116.279069767442,4,1,0,74,0,0
29689,-114.942528735632,4,1,0,74,0,0
29845,-113.636363636364,4,1,0,74,0,0
29884,-113.636363636364,4,1,0,76,0,0
30001,-112.359550561798,4,1,0,76,0,0
30157,-111.111111111111,4,1,0,76,0,0
30197,-111.111111111111,4,1,0,78,0,0
30314,-109.89010989011,4,1,0,78,0,0
30470,-108.695652173913,4,1,0,78,0,0
30509,-108.695652173913,4,1,0,80,0,0
30626,-107.52688172043,4,1,0,80,0,0
30782,-106.382978723404,4,1,0,80,0,0
30939,-105.263157894737,4,1,0,80,0,0
31095,-104.166666666667,4,1,0,80,0,0
31251,-103.092783505155,4,1,0,80,0,0
31407,-102.040816326531,4,1,0,80,0,0
31564,-101.010101010101,4,1,0,80,0,0
31720,-100,4,1,0,80,0,0
32072,-100,4,1,0,95,0,0
32384,-100,4,1,0,80,0,0
82384,-100,4,1,0,75,0,0
82540,-100,4,1,0,70,0,0
82853,-100,4,1,0,65,0,0
83009,-100,4,1,0,60,0,0
83322,-100,4,1,0,55,0,0
83478,-100,4,1,0,50,0,0
84572,-100,4,1,0,55,0,0
85822,-100,4,1,0,60,0,0
86603,-100,4,1,0,63,0,0
87228,-100,4,1,0,67,0,0
87853,-100,4,1,0,68,0,0
88478,-100,4,1,0,69,0,0
89572,-100,4,1,0,70,0,0
92072,-100,4,1,0,75,0,0
97072,-100,4,1,0,78,0,0
98165,-100,4,1,0,80,0,0
99259,-100,4,1,0,82,0,0
100197,-100,4,1,0,84,0,0
101134,-100,4,1,0,86,0,0
102072,-100,4,1,0,90,0,0
122384,-100,4,1,0,80,0,0
140822,-98.0392156862745,4,1,0,80,0,0
140900,-96.1538461538461,4,1,0,80,0,0
140978,-94.3396226415094,4,1,0,80,0,0
141056,-92.5925925925926,4,1,0,80,0,0
141134,-90.9090909090909,4,1,0,80,0,0
141212,-89.2857142857143,4,1,0,80,0,0
141290,-87.719298245614,4,1,0,80,0,0
141368,-86.2068965517241,4,1,0,80,0,0
141447,-84.7457627118644,4,1,0,80,0,0
141681,-55.5555555555556,4,1,0,80,0,0
142072,-86.9565217391304,4,1,0,100,0,1
142228,-86.9565217391304,4,1,0,80,0,1
146681,-55.5555555555556,4,1,0,80,0,1
147072,-86.9565217391304,4,1,0,100,0,1
147228,-86.9565217391304,4,1,0,80,0,1
152072,-91.743119266055,4,1,0,80,0,0
152228,-92.5925925925926,4,1,0,80,0,0
152384,-93.4579439252336,4,1,0,80,0,0
152697,-94.3396226415094,4,1,0,80,0,0
153322,-96.1538461538461,4,1,0,80,0,0
153634,-98.0392156862745,4,1,0,80,0,0
154572,-100,4,1,0,100,0,0
154728,-100,4,1,0,85,0,0
159181,-55.5555555555556,4,1,0,85,0,0
159572,-100,4,1,0,100,0,0
159728,-100,4,1,0,85,0,0
163947,-99.009900990099,4,1,0,85,0,0
164025,-98.0392156862745,4,1,0,85,0,0
164103,-97.0873786407767,4,1,0,85,0,0
164181,-96.1538461538461,4,1,0,85,0,0
164259,-95.2380952380952,4,1,0,85,0,0
164337,-94.3396226415094,4,1,0,85,0,0
164415,-93.4579439252336,4,1,0,85,0,0
164493,-91.743119266055,4,1,0,85,0,1
164650,-86.9565217391304,4,1,0,85,0,1
173947,-88.4955752212389,4,1,0,85,0,1
174103,-91.743119266055,4,1,0,85,0,1
174259,-95.2380952380952,4,1,0,85,0,0
174572,-86.9565217391304,4,1,0,85,0,1
184572,-86.9565217391304,4,1,0,85,0,0
184884,-100,4,1,0,85,0,0
203478,-98.0392156862745,4,1,0,85,0,0
203556,-96.1538461538461,4,1,0,85,0,0
203634,-94.3396226415094,4,1,0,85,0,0
203712,-92.5925925925926,4,1,0,85,0,0
203790,-90.9090909090909,4,1,0,85,0,0
203868,-89.2857142857143,4,1,0,85,0,0
203947,-87.719298245614,4,1,0,85,0,0
204025,-86.2068965517241,4,1,0,85,0,0
204103,-84.7457627118644,4,1,0,85,0,0
204259,-55.5555555555556,4,1,0,85,0,0
204572,-86.9565217391304,4,1,0,85,0,1
204728,-86.9565217391304,4,1,0,85,0,1
214103,-88.4955752212389,4,1,0,85,0,1
214181,-90.0900900900901,4,1,0,85,0,1
214259,-91.743119266055,4,1,0,85,0,1
214337,-93.4579439252336,4,1,0,85,0,1
214415,-95.2380952380952,4,1,0,85,0,1
214493,-97.0873786407767,4,1,0,85,0,1
214572,-100,4,1,0,85,0,0
219259,-95.2380952380952,4,1,0,85,0,0
219415,-90.9090909090909,4,1,0,85,0,0
219493,-89.2857142857143,4,1,0,85,0,0
219572,-86.9565217391304,4,1,0,85,0,1
233322,-86.2068965517241,4,1,0,85,0,1
233400,-85.4700854700855,4,1,0,85,0,1
233478,-84.7457627118644,4,1,0,85,0,1
233556,-84.0336134453781,4,1,0,85,0,1
233634,-83.3333333333333,4,1,0,85,0,1
233712,-82.6446280991736,4,1,0,85,0,1
233790,-81.9672131147541,4,1,0,85,0,1
233868,-81.3008130081301,4,1,0,85,0,1
233947,-80.6451612903226,4,1,0,85,0,1
234025,-80,4,1,0,85,0,1
234103,-79.3650793650794,4,1,0,85,0,1
234181,-78.7401574803149,4,1,0,85,0,1
234259,-78.125,4,1,0,85,0,1
234337,-77.5193798449612,4,1,0,85,0,1
234415,-76.9230769230769,4,1,0,85,0,1
234493,-76.3358778625954,4,1,0,85,0,1
234572,-75.7575757575758,4,1,0,85,0,1
234884,-86.9565217391304,4,1,0,85,0,1
254572,-100,4,1,0,85,0,0
254884,-100,4,1,0,80,0,0
255040,-100,4,1,0,75,0,0
255353,-100,4,1,0,70,0,0

[HitObjects]
256,192,2072,5,0,0:0:0:0:
256,192,2540,1,0,0:0:0:0:
256,192,2853,1,8,0:0:0:0:
256,192,3322,1,8,0:0:0:0:
256,192,3790,1,0,0:0:0:0:
256,192,4415,1,8,0:0:0:0:
256,192,4572,1,0,0:0:0:0:
256,192,5040,1,0,0:0:0:0:
256,192,5353,1,8,0:0:0:0:
256,192,5822,1,0,0:0:0:0:
256,192,6134,1,0,0:0:0:0:
256,192,6290,1,8,0:0:0:0:
256,192,7072,1,0,0:0:0:0:
256,192,7384,1,8,0:0:0:0:
256,192,7540,1,0,0:0:0:0:
256,192,8009,1,8,0:0:0:0:
256,192,8322,1,8,0:0:0:0:
256,192,8634,1,8,0:0:0:0:
256,192,8790,1,0,0:0:0:0:
256,192,9103,1,0,0:0:0:0:
256,192,9259,1,8,0:0:0:0:
256,192,9572,1,8,0:0:0:0:
256,192,10040,1,0,0:0:0:0:
256,192,10353,1,8,0:0:0:0:
256,192,10822,1,8,0:0:0:0:
256,192,11134,1,8,0:0:0:0:
256,192,11290,1,0,0:0:0:0:
256,192,11603,1,8,0:0:0:0:
256,192,12072,1,8,0:0:0:0:
256,192,12384,1,8,0:0:0:0:
256,192,12540,1,0,0:0:0:0:
256,192,12697,1,0,0:0:0:0:
256,192,12853,1,0,0:0:0:0:
256,192,13009,1,8,0:0:0:0:
256,192,13322,1,0,0:0:0:0:
256,192,13478,1,8,0:0:0:0:
256,192,13634,1,0,0:0:0:0:
256,192,13790,1,8,0:0:0:0:
256,192,13947,1,0,0:0:0:0:
256,192,14103,1,8,0:0:0:0:
256,192,14259,1,0,0:0:0:0:
256,192,14337,1,8,0:0:0:0:
256,192,14415,1,8,0:0:0:0:
256,192,14493,1,8,0:0:0:0:
256,192,14572,1,8,0:0:0:0:
256,192,14884,1,8,0:0:0:0:
256,192,15040,1,0,0:0:0:0:
256,192,15197,1,8,0:0:0:0:
256,192,15509,1,8,0:0:0:0:
256,192,15665,1,0,0:0:0:0:
256,192,15822,1,8,0:0:0:0:
256,192,15978,1,0,0:0:0:0:
256,192,16134,1,8,0:0:0:0:
256,192,16290,1,0,0:0:0:0:
256,192,16447,1,8,0:0:0:0:
256,192,16759,1,8,0:0:0:0:
256,192,16915,1,0,0:0:0:0:
256,192,17072,1,0,0:0:0:0:
256,192,17384,1,8,0:0:0:0:
256,192,17540,1,0,0:0:0:0:
256,192,17853,1,0,0:0:0:0:
256,192,18009,1,0,0:0:0:0:
256,192,18087,1,8,0:0:0:0:
256,192,18165,1,8,0:0:0:0:
256,192,18322,1,8,0:0:0:0:
256,192,18634,1,8,0:0:0:0:
256,192,18790,1,0,0:0:0:0:
256,192,18947,1,8,0:0:0:0:
256,192,19103,1,0,0:0:0:0:
256,192,19259,1,8,0:0:0:0:
256,192,19415,1,0,0:0:0:0:
256,192,19572,1,0,0:0:0:0:
256,192,19884,1,8,0:0:0:0:
256,192,20040,1,0,0:0:0:0:
256,192,20353,1,0,0:0:0:0:
256,192,20509,1,8,0:0:0:0:
256,192,20665,1,0,0:0:0:0:
256,192,20822,1,8,0:0:0:0:
256,192,20978,1,0,0:0:0:0:
256,192,21134,1,8,0:0:0:0:
256,192,21290,1,0,0:0:0:0:
256,192,21603,1,0,0:0:0:0:
256,192,21759,1,8,0:0:0:0:
256,192,21915,1,0,0:0:0:0:
256,192,22072,1,8,0:0:0:0:
256,192,22384,1,0,0:0:0:0:
256,192,22540,1,8,0:0:0:0:
256,192,22697,1,8,0:0:0:0:
256,192,22853,1,0,0:0:0:0:
256,192,23009,1,0,0:0:0:0:
256,192,23165,1,8,0:0:0:0:
256,192,23478,1,0,0:0:0:0:
256,192,23790,1,0,0:0:0:0:
256,192,24103,1,8,0:0:0:0:
256,192,24415,1,0,0:0:0:0:
256,192,24728,1,8,0:0:0:0:
256,192,24806,1,0,0:0:0:0:
256,192,24884,1,8,0:0:0:0:
256,192,25040,1,8,0:0:0:0:
256,192,25353,1,8,0:0:0:0:
256,192,25431,1,0,0:0:0:0:
256,192,25509,1,8,0:0:0:0:
256,192,25665,1,8,0:0:0:0:
256,192,25822,1,0,0:0:0:0:
256,192,25978,1,8,0:0:0:0:
256,192,26134,1,8,0:0:0:0:
256,192,26290,1,0,0:0:0:0:
256,192,26603,1,8,0:0:0:0:
256,192,26759,1,0,0:0:0:0:
256,192,27072,1,0,0:0:0:0:
256,192,27384,1,0,0:0:0:0:
256,192,27540,1,8,0:0:0:0:
256,192,27697,1,0,0:0:0:0:
256,192,27853,1,0,0:0:0:0:
256,192,27931,1,0,0:0:0:0:
256,192,28009,1,0,0:0:0:0:
256,192,28165,1,8,0:0:0:0:
256,192,28322,1,0,0:0:0:0:
256,192,28478,1,8,0:0:0:0:
256,192,28634,1,0,0:0:0:0:
256,192,28790,1,8,0:0:0:0:
256,192,28868,1,8,0:0:0:0:
256,192,28947,1,0,0:0:0:0:
256,192,29103,1,8,0:0:0:0:
256,192,29181,1,8,0:0:0:0:
256,192,29259,1,0,0:0:0:0:
256,192,29415,1,8,0:0:0:0:
256,192,29572,1,0,0:0:0:0:
256,192,29650,1,0,0:0:0:0:
256,192,29728,1,8,0:0:0:0:
256,192,29806,1,8,0:0:0:0:
256,192,29884,1,0,0:0:0:0:
256,192,29962,1,0,0:0:0:0:
256,192,30040,1,8,0:0:0:0:
256,192,30118,1,8,0:0:0:0:
256,192,30197,1,0,0:0:0:0:
256,192,30275,1,8,0:0:0:0:
256,192,30353,1,0,0:0:0:0:
256,192,30431,1,0,0:0:0:0:
256,192,30509,1,8,0:0:0:0:
256,192,30587,1,8,0:0:0:0:
256,192,30665,1,0,0:0:0:0:
256,192,30743,1,0,0:0:0:0:
256,192,30822,1,8,0:0:0:0:
256,192,30978,1,0,0:0:0:0:
256,192,31056,1,0,0:0:0:0:
256,192,31134,1,0,0:0:0:0:
256,192,31212,1,0,0:0:0:0:
256,192,31290,1,8,0:0:0:0:
256,192,31368,1,8,0:0:0:0:
256,192,31447,1,0,0:0:0:0:
256,192,31525,1,8,0:0:0:0:
256,192,31603,1,8,0:0:0:0:
256,192,31759,1,0,0:0:0:0:
256,192,32072,1,4,0:0:0:0:
256,192,32228,1,0,0:0:0:0:
256,192,32306,1,0,0:0:0:0:
256,192,32384,1,8,0:0:0:0:
256,192,32540,1,0,0:0:0:0:
256,192,32697,1,0,0:0:0:0:
256,192,32853,1,8,0:0:0:0:
256,192,32931,1,0,0:0:0:0:
256,192,33009,1,8,0:0:0:0:
256,192,33165,1,8,0:0:0:0:
256,192,33322,1,0,0:0:0:0:
256,192,33400,1,0,0:0:0:0:
256,192,33478,1,8,0:0:0:0:
256,192,33556,1,0,0:0:0:0:
256,192,33634,1,8,0:0:0:0:
256,192,33790,1,0,0:0:0:0:
256,192,33946,1,0,0:0:0:0:
256,192,34103,1,8,0:0:0:0:
256,192,34181,1,8,0:0:0:0:
256,192,34259,1,8,0:0:0:0:
256,192,34415,1,8,0:0:0:0:
256,192,34572,1,0,0:0:0:0:
256,192,34728,1,0,0:0:0:0:
256,192,34884,1,8,0:0:0:0:
256,192,34962,1,0,0:0:0:0:
256,192,35040,1,0,0:0:0:0:
256,192,35197,1,0,0:0:0:0:
256,192,35275,1,0,0:0:0:0:
256,192,35353,1,8,0:0:0:0:
256,192,35431,1,8,0:0:0:0:
256,192,35509,1,8,0:0:0:0:
256,192,35587,1,0,0:0:0:0:
256,192,35665,1,8,0:0:0:0:
256,192,35821,1,0,0:0:0:0:
256,192,35900,1,0,0:0:0:0:
256,192,35978,1,8,0:0:0:0:
256,192,36056,1,8,0:0:0:0:
256,192,36134,1,0,0:0:0:0:
256,192,36212,1,0,0:0:0:0:
256,192,36290,1,8,0:0:0:0:
256,192,36368,1,0,0:0:0:0:
256,192,36447,1,8,0:0:0:0:
256,192,36759,1,12,0:0:0:0:
256,192,37072,1,4,0:0:0:0:
256,192,37228,1,0,0:0:0:0:
256,192,37384,1,8,0:0:0:0:
256,192,37462,1,8,0:0:0:0:
256,192,37540,1,0,0:0:0:0:
256,192,37697,1,0,0:0:0:0:
256,192,37853,1,8,0:0:0:0:
256,192,37931,1,0,0:0:0:0:
256,192,38009,1,8,0:0:0:0:
256,192,38087,1,0,0:0:0:0:
256,192,38165,1,0,0:0:0:0:
256,192,38321,1,0,0:0:0:0:
256,192,38478,1,0,0:0:0:0:
256,192,38634,1,8,0:0:0:0:
256,192,38712,1,0,0:0:0:0:
256,192,38790,1,8,0:0:0:0:
256,192,38868,1,8,0:0:0:0:
256,192,38947,1,0,0:0:0:0:
256,192,39103,1,8,0:0:0:0:
256,192,39259,1,8,0:0:0:0:
256,192,39337,1,8,0:0:0:0:
256,192,39415,1,0,0:0:0:0:
256,192,39572,1,0,0:0:0:0:
256,192,39884,1,8,0:0:0:0:
256,192,40040,1,0,0:0:0:0:
256,192,40196,1,8,0:0:0:0:
256,192,40509,1,8,0:0:0:0:
256,192,40665,1,8,0:0:0:0:
256,192,40822,1,0,0:0:0:0:
256,192,40978,1,8,0:0:0:0:
256,192,41056,1,8,0:0:0:0:
256,192,41134,1,0,0:0:0:0:
256,192,41290,1,8,0:0:0:0:
256,192,41447,1,0,0:0:0:0:
256,192,41759,1,8,0:0:0:0:
256,192,41915,1,0,0:0:0:0:
256,192,42072,1,4,0:0:0:0:
256,192,42228,1,0,0:0:0:0:
256,192,42384,1,8,0:0:0:0:
256,192,42462,1,0,0:0:0:0:
256,192,42540,1,8,0:0:0:0:
256,192,42697,1,0,0:0:0:0:
256,192,42853,1,8,0:0:0:0:
256,192,42931,1,0,0:0:0:0:
256,192,43009,1,8,0:0:0:0:
256,192,43087,1,8,0:0:0:0:
256,192,43165,1,0,0:0:0:0:
256,192,43322,1,0,0:0:0:0:
256,192,43478,1,0,0:0:0:0:
256,192,43556,1,8,0:0:0:0:
256,192,43634,1,8,0:0:0:0:
256,192,43790,1,0,0:0:0:0:
256,192,43946,1,0,0:0:0:0:
256,192,44103,1,8,0:0:0:0:
256,192,44259,1,0,0:0:0:0:
256,192,44415,1,8,0:0:0:0:
256,192,44572,1,0,0:0:0:0:
256,192,44884,1,0,0:0:0:0:
256,192,45040,1,8,0:0:0:0:
256,192,45197,1,0,0:0:0:0:
256,192,45509,1,0,0:0:0:0:
256,192,45665,1,8,0:0:0:0:
256,192,45743,1,8,0:0:0:0:
256,192,45822,1,0,0:0:0:0:
256,192,45978,1,8,0:0:0:0:
256,192,46134,1,0,0:0:0:0:
256,192,46447,1,0,0:0:0:0:
256,192,46603,1,8,0:0:0:0:
256,192,46759,1,4,0:0:0:0:
256,192,47072,1,4,0:0:0:0:
256,192,47228,1,0,0:0:0:0:
256,192,47384,1,8,0:0:0:0:
256,192,47462,1,0,0:0:0:0:
256,192,47540,1,8,0:0:0:0:
256,192,47618,1,8,0:0:0:0:
256,192,47697,1,0,0:0:0:0:
256,192,47853,1,0,0:0:0:0:
256,192,48009,1,8,0:0:0:0:
256,192,48165,1,8,0:0:0:0:
256,192,48243,1,8,0:0:0:0:
256,192,48321,1,0,0:0:0:0:
256,192,48478,1,0,0:0:0:0:
256,192,48634,1,8,0:0:0:0:
256,192,48712,1,0,0:0:0:0:
256,192,48790,1,8,0:0:0:0:
256,192,48868,1,0,0:0:0:0:
256,192,48947,1,0,0:0:0:0:
256,192,49103,1,0,0:0:0:0:
256,192,49259,1,8,0:0:0:0:
256,192,49415,1,8,0:0:0:0:
256,192,49493,1,8,0:0:0:0:
256,192,49572,1,0,0:0:0:0:
256,192,49650,1,0,0:0:0:0:
256,192,49728,1,0,0:0:0:0:
256,192,49806,1,0,0:0:0:0:
256,192,49884,1,8,0:0:0:0:
256,192,49962,1,0,0:0:0:0:
256,192,50040,1,8,0:0:0:0:
256,192,50118,1,0,0:0:0:0:
256,192,50197,1,8,0:0:0:0:
256,192,50275,1,0,0:0:0:0:
256,192,50353,1,0,0:0:0:0:
256,192,50431,1,0,0:0:0:0:
256,192,50509,1,8,0:0:0:0:
256,192,50587,1,0,0:0:0:0:
256,192,50665,1,8,0:0:0:0:
256,192,50743,1,8,0:0:0:0:
256,192,50822,1,0,0:0:0:0:
256,192,50874,1,0,0:0:0:0:
256,192,50926,1,0,0:0:0:0:
256,192,50978,1,8,0:0:0:0:
256,192,51056,1,0,0:0:0:0:
256,192,51134,1,8,0:0:0:0:
256,192,51186,1,8,0:0:0:0:
256,192,51238,1,8,0:0:0:0:
256,192,51290,1,0,0:0:0:0:
256,192,51368,1,0,0:0:0:0:
256,192,51447,1,8,0:0:0:0:
256,192,51499,1,8,0:0:0:0:
256,192,51551,1,8,0:0:0:0:
256,192,51603,1,8,0:0:0:0:
256,192,51655,1,8,0:0:0:0:
256,192,51707,1,8,0:0:0:0:
256,192,51759,1,0,0:0:0:0:
256,192,52072,1,4,0:0:0:0:
256,192,52228,1,0,0:0:0:0:
256,192,52384,1,8,0:0:0:0:
256,192,52462,1,8,0:0:0:0:
256,192,52540,1,0,0:0:0:0:
256,192,52697,1,8,0:0:0:0:
256,192,52775,1,8,0:0:0:0:
256,192,52853,1,8,0:0:0:0:
256,192,52931,1,0,0:0:0:0:
256,192,53009,1,0,0:0:0:0:
256,192,53165,1,8,0:0:0:0:
256,192,53322,1,0,0:0:0:0:
256,192,53478,1,8,0:0:0:0:
256,192,53556,1,8,0:0:0:0:
256,192,53634,1,0,0:0:0:0:
256,192,53790,1,8,0:0:0:0:
256,192,53947,1,8,0:0:0:0:
256,192,54103,1,0,0:0:0:0:
256,192,54259,1,0,0:0:0:0:
256,192,54337,1,0,0:0:0:0:
256,192,54415,1,8,0:0:0:0:
256,192,54572,1,0,0:0:0:0:
256,192,54728,1,0,0:0:0:0:
256,192,54806,1,0,0:0:0:0:
256,192,54884,1,8,0:0:0:0:
256,192,54962,1,8,0:0:0:0:
256,192,55040,1,0,0:0:0:0:
256,192,55197,1,8,0:0:0:0:
256,192,55353,1,8,0:0:0:0:
256,192,55431,1,0,0:0:0:0:
256,192,55509,1,0,0:0:0:0:
256,192,55587,1,0,0:0:0:0:
256,192,55665,1,8,0:0:0:0:
256,192,55822,1,0,0:0:0:0:
256,192,55978,1,8,0:0:0:0:
256,192,56056,1,8,0:0:0:0:
256,192,56134,1,0,0:0:0:0:
256,192,56290,1,8,0:0:0:0:
256,192,56447,1,8,0:0:0:0:
256,192,56603,1,0,0:0:0:0:
256,192,56681,1,0,0:0:0:0:
256,192,56759,1,8,0:0:0:0:
256,192,57072,1,0,0:0:0:0:
256,192,57228,1,8,0:0:0:0:
256,192,57384,1,8,0:0:0:0:
256,192,57462,1,8,0:0:0:0:
256,192,57540,1,0,0:0:0:0:
256,192,57618,1,0,0:0:0:0:
256,192,57696,1,8,0:0:0:0:
256,192,57853,1,0,0:0:0:0:
256,192,58009,1,8,0:0:0:0:
256,192,58087,1,8,0:0:0:0:
256,192,58165,1,0,0:0:0:0:
256,192,58321,1,8,0:0:0:0:
256,192,58478,1,8,0:0:0:0:
256,192,58634,1,0,0:0:0:0:
256,192,58790,1,0,0:0:0:0:
256,192,58868,1,0,0:0:0:0:
256,192,58946,1,8,0:0:0:0:
256,192,59103,1,0,0:0:0:0:
256,192,59259,1,0,0:0:0:0:
256,192,59415,1,8,0:0:0:0:
256,192,59572,1,0,0:0:0:0:
256,192,59650,1,0,0:0:0:0:
256,192,59728,1,0,0:0:0:0:
256,192,59806,1,0,0:0:0:0:
256,192,59884,1,8,0:0:0:0:
256,192,59962,1,0,0:0:0:0:
256,192,60040,1,0,0:0:0:0:
256,192,60118,1,0,0:0:0:0:
256,192,60197,1,8,0:0:0:0:
256,192,60275,1,8,0:0:0:0:
256,192,60353,1,0,0:0:0:0:
256,192,60431,1,0,0:0:0:0:
256,192,60509,1,8,0:0:0:0:
256,192,60587,1,8,0:0:0:0:
256,192,60665,1,0,0:0:0:0:
256,192,60743,1,0,0:0:0:0:
256,192,60822,1,8,0:0:0:0:
256,192,60874,1,8,0:0:0:0:
256,192,60926,1,8,0:0:0:0:
256,192,60978,1,0,0:0:0:0:
256,192,61056,1,0,0:0:0:0:
256,192,61134,1,8,0:0:0:0:
256,192,61186,1,8,0:0:0:0:
256,192,61238,1,8,0:0:0:0:
256,192,61290,1,0,0:0:0:0:
256,192,61368,1,0,0:0:0:0:
256,192,61447,1,8,0:0:0:0:
256,192,61499,1,8,0:0:0:0:
256,192,61551,1,8,0:0:0:0:
256,192,61603,1,8,0:0:0:0:
256,192,61655,1,8,0:0:0:0:
256,192,61707,1,8,0:0:0:0:
256,192,61759,1,0,0:0:0:0:
256,192,62072,1,8,0:0:0:0:
256,192,62228,1,0,0:0:0:0:
256,192,62384,1,8,0:0:0:0:
256,192,62462,1,8,0:0:0:0:
256,192,62540,1,0,0:0:0:0:
256,192,62697,1,8,0:0:0:0:
256,192,62853,1,8,0:0:0:0:
256,192,62931,1,0,0:0:0:0:
256,192,63009,1,0,0:0:0:0:
256,192,63165,1,8,0:0:0:0:
256,192,63322,1,0,0:0:0:0:
256,192,63478,1,8,0:0:0:0:
256,192,63634,1,0,0:0:0:0:
256,192,63712,1,0,0:0:0:0:
256,192,63790,1,8,0:0:0:0:
256,192,63947,1,8,0:0:0:0:
256,192,64103,1,0,0:0:0:0:
256,192,64181,1,8,0:0:0:0:
256,192,64259,1,0,0:0:0:0:
256,192,64337,1,0,0:0:0:0:
256,192,64415,1,8,0:0:0:0:
256,192,64572,1,0,0:0:0:0:
256,192,64728,1,0,0:0:0:0:
256,192,64884,1,8,0:0:0:0:
256,192,64962,1,8,0:0:0:0:
256,192,65040,1,0,0:0:0:0:
256,192,65197,1,8,0:0:0:0:
256,192,65353,1,8,0:0:0:0:
256,192,65431,1,0,0:0:0:0:
256,192,65509,1,0,0:0:0:0:
256,192,65665,1,8,0:0:0:0:
256,192,65822,1,0,0:0:0:0:
256,192,65978,1,8,0:0:0:0:
256,192,66056,1,8,0:0:0:0:
256,192,66134,1,0,0:0:0:0:
256,192,66290,1,8,0:0:0:0:
256,192,66368,1,8,0:0:0:0:
256,192,66447,1,0,0:0:0:0:
256,192,66603,1,8,0:0:0:0:
256,192,66681,1,0,0:0:0:0:
256,192,66759,1,0,0:0:0:0:
256,192,66915,1,8,0:0:0:0:
256,192,67072,1,0,0:0:0:0:
256,192,67228,1,8,0:0:0:0:
256,192,67384,1,8,0:0:0:0:
256,192,67462,1,8,0:0:0:0:
256,192,67540,1,0,0:0:0:0:
256,192,67618,1,0,0:0:0:0:
256,192,67696,1,8,0:0:0:0:
256,192,67853,1,0,0:0:0:0:
256,192,68009,1,8,0:0:0:0:
256,192,68087,1,0,0:0:0:0:
256,192,68165,1,8,0:0:0:0:
256,192,68243,1,8,0:0:0:0:
256,192,68321,1,0,0:0:0:0:
256,192,68478,1,8,0:0:0:0:
256,192,68634,1,0,0:0:0:0:
256,192,68712,1,8,0:0:0:0:
256,192,68790,1,8,0:0:0:0:
256,192,68868,1,0,0:0:0:0:
256,192,68946,1,8,0:0:0:0:
256,192,69103,1,0,0:0:0:0:
256,192,69259,1,0,0:0:0:0:
256,192,69415,1,8,0:0:0:0:
256,192,69572,1,8,0:0:0:0:
256,192,69650,1,0,0:0:0:0:
256,192,69728,1,0,0:0:0:0:
256,192,69806,1,0,0:0:0:0:
256,192,69884,1,8,0:0:0:0:
256,192,69962,1,0,0:0:0:0:
256,192,70040,1,0,0:0:0:0:
256,192,70118,1,0,0:0:0:0:
256,192,70197,1,8,0:0:0:0:
256,192,70275,1,8,0:0:0:0:
256,192,70353,1,0,0:0:0:0:
256,192,70431,1,0,0:0:0:0:
256,192,70509,1,8,0:0:0:0:
256,192,70587,1,0,0:0:0:0:
256,192,70665,1,8,0:0:0:0:
256,192,70743,1,8,0:0:0:0:
256,192,70822,1,0,0:0:0:0:
256,192,70874,1,0,0:0:0:0:
256,192,70926,1,0,0:0:0:0:
256,192,70978,1,8,0:0:0:0:
256,192,71056,1,8,0:0:0:0:
256,192,71134,1,0,0:0:0:0:
256,192,71186,1,0,0:0:0:0:
256,192,71238,1,0,0:0:0:0:
256,192,71290,1,8,0:0:0:0:
256,192,71368,1,0,0:0:0:0:
256,192,71447,1,8,0:0:0:0:
256,192,71499,1,8,0:0:0:0:
256,192,71551,1,8,0:0:0:0:
256,192,71603,1,8,0:0:0:0:
256,192,71655,1,8,0:0:0:0:
256,192,71707,1,8,0:0:0:0:
256,192,71759,1,0,0:0:0:0:
256,192,72072,1,0,0:0:0:0:
256,192,72228,1,8,0:0:0:0:
256,192,72306,1,8,0:0:0:0:
256,192,72384,1,8,0:0:0:0:
256,192,72540,1,8,0:0:0:0:
256,192,72618,1,8,0:0:0:0:
256,192,72696,1,0,0:0:0:0:
256,192,72852,1,8,0:0:0:0:
256,192,72930,1,8,0:0:0:0:
256,192,73009,1,8,0:0:0:0:
256,192,73087,1,0,0:0:0:0:
256,192,73165,1,8,0:0:0:0:
256,192,73243,1,8,0:0:0:0:
256,192,73321,1,0,0:0:0:0:
256,192,73478,1,8,0:0:0:0:
256,192,73556,1,8,0:0:0:0:
256,192,73634,1,8,0:0:0:0:
256,192,73790,1,8,0:0:0:0:
256,192,73868,1,8,0:0:0:0:
256,192,73947,1,0,0:0:0:0:
256,192,74103,1,0,0:0:0:0:
256,192,74259,1,8,0:0:0:0:
256,192,74337,1,8,0:0:0:0:
256,192,74415,1,8,0:0:0:0:
256,192,74493,1,8,0:0:0:0:
256,192,74572,1,0,0:0:0:0:
256,192,74728,1,8,0:0:0:0:
256,192,74806,1,8,0:0:0:0:
256,192,74884,1,8,0:0:0:0:
256,192,75040,1,8,0:0:0:0:
256,192,75118,1,8,0:0:0:0:
256,192,75197,1,0,0:0:0:0:
256,192,75353,1,8,0:0:0:0:
256,192,75431,1,8,0:0:0:0:
256,192,75509,1,8,0:0:0:0:
256,192,75587,1,0,0:0:0:0:
256,192,75665,1,8,0:0:0:0:
256,192,75743,1,8,0:0:0:0:
256,192,75822,1,0,0:0:0:0:
256,192,75900,1,0,0:0:0:0:
256,192,75978,1,0,0:0:0:0:
256,192,76056,1,8,0:0:0:0:
256,192,76134,1,0,0:0:0:0:
256,192,76212,1,0,0:0:0:0:
256,192,76290,1,0,0:0:0:0:
256,192,76368,1,8,0:0:0:0:
256,192,76447,1,0,0:0:0:0:
256,192,76603,1,8,0:0:0:0:
256,192,76681,1,8,0:0:0:0:
256,192,76759,1,0,0:0:0:0:
256,192,76837,1,0,0:0:0:0:
256,192,76915,1,0,0:0:0:0:
256,192,76993,1,0,0:0:0:0:
256,192,77072,1,8,0:0:0:0:
256,192,77228,1,8,0:0:0:0:
256,192,77306,1,8,0:0:0:0:
256,192,77384,1,8,0:0:0:0:
256,192,77540,1,8,0:0:0:0:
256,192,77618,1,8,0:0:0:0:
256,192,77696,1,0,0:0:0:0:
256,192,77852,1,8,0:0:0:0:
256,192,77930,1,8,0:0:0:0:
256,192,78009,1,8,0:0:0:0:
256,192,78087,1,0,0:0:0:0:
256,192,78165,1,8,0:0:0:0:
256,192,78243,1,8,0:0:0:0:
256,192,78321,1,0,0:0:0:0:
256,192,78478,1,8,0:0:0:0:
256,192,78556,1,8,0:0:0:0:
256,192,78634,1,8,0:0:0:0:
256,192,78790,1,8,0:0:0:0:
256,192,78868,1,8,0:0:0:0:
256,192,78947,1,0,0:0:0:0:
256,192,79103,1,8,0:0:0:0:
256,192,79181,1,0,0:0:0:0:
256,192,79259,1,8,0:0:0:0:
256,192,79337,1,8,0:0:0:0:
256,192,79415,1,0,0:0:0:0:
256,192,79493,1,8,0:0:0:0:
256,192,79572,1,0,0:0:0:0:
256,192,79676,1,0,0:0:0:0:
256,192,79780,1,0,0:0:0:0:
256,192,79884,1,8,0:0:0:0:
256,192,80092,1,8,0:0:0:0:
256,192,80197,1,0,0:0:0:0:
256,192,80301,1,0,0:0:0:0:
256,192,80405,1,0,0:0:0:0:
256,192,80509,1,8,0:0:0:0:
256,192,80665,1,0,0:0:0:0:
256,192,80822,1,0,0:0:0:0:
256,192,80874,1,8,0:0:0:0:
256,192,80926,1,8,0:0:0:0:
256,192,80978,1,0,0:0:0:0:
256,192,81056,1,0,0:0:0:0:
256,192,81134,1,8,0:0:0:0:
256,192,81186,1,8,0:0:0:0:
256,192,81238,1,8,0:0:0:0:
256,192,81290,1,0,0:0:0:0:
256,192,81368,1,0,0:0:0:0:
256,192,81447,1,8,0:0:0:0:
256,192,81499,1,8,0:0:0:0:
256,192,81551,1,8,0:0:0:0:
256,192,81603,1,8,0:0:0:0:
256,192,81655,1,8,0:0:0:0:
256,192,81707,1,8,0:0:0:0:
256,192,81759,1,0,0:0:0:0:
256,192,81915,1,0,0:0:0:0:
256,192,82072,1,4,0:0:0:0:
256,192,82384,1,8,0:0:0:0:
256,192,82540,1,0,0:0:0:0:
256,192,82853,1,0,0:0:0:0:
256,192,83009,1,8,0:0:0:0:
256,192,83322,1,0,0:0:0:0:
256,192,83478,1,0,0:0:0:0:
256,192,83634,1,8,0:0:0:0:
256,192,83790,1,0,0:0:0:0:
256,192,84103,1,0,0:0:0:0:
256,192,84259,1,8,0:0:0:0:
256,192,84415,1,0,0:0:0:0:
256,192,84572,1,0,0:0:0:0:
256,192,84728,1,0,0:0:0:0:
256,192,84884,1,8,0:0:0:0:
256,192,85040,1,0,0:0:0:0:
256,192,85353,1,0,0:0:0:0:
256,192,85509,1,8,0:0:0:0:
256,192,85822,1,0,0:0:0:0:
256,192,85978,1,0,0:0:0:0:
256,192,86134,1,8,0:0:0:0:
256,192,86290,1,0,0:0:0:0:
256,192,86603,1,0,0:0:0:0:
256,192,86759,1,8,0:0:0:0:
256,192,86915,1,0,0:0:0:0:
256,192,87228,1,0,0:0:0:0:
256,192,87384,1,8,0:0:0:0:
256,192,87540,1,0,0:0:0:0:
256,192,87853,1,0,0:0:0:0:
256,192,88009,1,8,0:0:0:0:
256,192,88165,1,0,0:0:0:0:
256,192,88478,1,0,0:0:0:0:
256,192,88634,1,8,0:0:0:0:
256,192,88790,1,8,0:0:0:0:
256,192,88947,1,8,0:0:0:0:
256,192,89103,1,0,0:0:0:0:
256,192,89259,1,8,0:0:0:0:
256,192,89572,1,8,0:0:0:0:
256,192,89728,1,0,0:0:0:0:
256,192,89884,1,8,0:0:0:0:
256,192,89962,1,8,0:0:0:0:
256,192,90040,1,0,0:0:0:0:
256,192,90197,1,0,0:0:0:0:
256,192,90353,1,0,0:0:0:0:
256,192,90509,1,0,0:0:0:0:
256,192,90587,1,8,0:0:0:0:
256,192,90665,1,0,0:0:0:0:
256,192,90822,1,8,0:0:0:0:
256,192,90978,1,0,0:0:0:0:
256,192,91134,1,0,0:0:0:0:
256,192,91212,1,0,0:0:0:0:
256,192,91290,1,8,0:0:0:0:
256,192,91447,1,0,0:0:0:0:
256,192,91603,1,0,0:0:0:0:
256,192,91759,1,0,0:0:0:0:
256,192,91837,1,8,0:0:0:0:
256,192,91915,1,8,0:0:0:0:
256,192,92072,1,12,0:0:0:0:
256,192,92228,1,0,0:0:0:0:
256,192,92384,1,0,0:0:0:0:
256,192,92462,1,8,0:0:0:0:
256,192,92540,1,8,0:0:0:0:
256,192,92697,1,8,0:0:0:0:
256,192,92853,1,8,0:0:0:0:
256,192,93009,1,0,0:0:0:0:
256,192,93087,1,0,0:0:0:0:
256,192,93165,1,8,0:0:0:0:
256,192,93243,1,8,0:0:0:0:
256,192,93322,1,8,0:0:0:0:
256,192,93478,1,0,0:0:0:0:
256,192,93634,1,0,0:0:0:0:
256,192,93790,1,0,0:0:0:0:
256,192,93868,1,8,0:0:0:0:
256,192,93947,1,0,0:0:0:0:
256,192,94103,1,0,0:0:0:0:
256,192,94259,1,0,0:0:0:0:
256,192,94337,1,0,0:0:0:0:
256,192,94415,1,8,0:0:0:0:
256,192,94493,1,0,0:0:0:0:
256,192,94572,1,8,0:0:0:0:
256,192,94728,1,0,0:0:0:0:
256,192,94884,1,8,0:0:0:0:
256,192,94962,1,0,0:0:0:0:
256,192,95040,1,8,0:0:0:0:
256,192,95118,1,8,0:0:0:0:
256,192,95197,1,0,0:0:0:0:
256,192,95353,1,0,0:0:0:0:
256,192,95509,1,0,0:0:0:0:
256,192,95587,1,0,0:0:0:0:
256,192,95665,1,0,0:0:0:0:
256,192,95743,1,8,0:0:0:0:
256,192,95822,1,8,0:0:0:0:
256,192,95978,1,0,0:0:0:0:
256,192,96056,1,0,0:0:0:0:
256,192,96134,1,8,0:0:0:0:
256,192,96186,1,8,0:0:0:0:
256,192,96238,1,8,0:0:0:0:
256,192,96290,1,0,0:0:0:0:
256,192,96447,1,8,0:0:0:0:
256,192,96499,1,8,0:0:0:0:
256,192,96551,1,8,0:0:0:0:
256,192,96603,1,8,0:0:0:0:
256,192,96655,1,8,0:0:0:0:
256,192,96707,1,8,0:0:0:0:
256,192,96759,1,0,0:0:0:0:
256,192,96915,1,0,0:0:0:0:
256,192,96993,1,8,0:0:0:0:
256,192,97072,1,8,0:0:0:0:
256,192,97228,1,0,0:0:0:0:
256,192,97384,1,8,0:0:0:0:
256,192,97462,1,8,0:0:0:0:
256,192,97540,1,8,0:0:0:0:
256,192,97618,1,0,0:0:0:0:
256,192,97697,1,8,0:0:0:0:
256,192,97853,1,0,0:0:0:0:
256,192,98009,1,8,0:0:0:0:
256,192,98087,1,8,0:0:0:0:
256,192,98165,1,0,0:0:0:0:
256,192,98243,1,0,0:0:0:0:
256,192,98322,1,8,0:0:0:0:
256,192,98478,1,0,0:0:0:0:
256,192,98634,1,0,0:0:0:0:
256,192,98712,1,0,0:0:0:0:
256,192,98790,1,8,0:0:0:0:
256,192,98868,1,8,0:0:0:0:
256,192,98947,1,0,0:0:0:0:
256,192,99103,1,0,0:0:0:0:
256,192,99259,1,0,0:0:0:0:
256,192,99337,1,8,0:0:0:0:
256,192,99415,1,8,0:0:0:0:
256,192,99493,1,8,0:0:0:0:
256,192,99572,1,0,0:0:0:0:
256,192,99728,1,0,0:0:0:0:
256,192,99884,1,0,0:0:0:0:
256,192,99962,1,8,0:0:0:0:
256,192,100040,1,8,0:0:0:0:
256,192,100118,1,0,0:0:0:0:
256,192,100197,1,0,0:0:0:0:
256,192,100353,1,0,0:0:0:0:
256,192,100509,1,0,0:0:0:0:
256,192,100587,1,8,0:0:0:0:
256,192,100665,1,0,0:0:0:0:
256,192,100743,1,8,0:0:0:0:
256,192,100822,1,8,0:0:0:0:
256,192,100978,1,0,0:0:0:0:
256,192,101134,1,0,0:0:0:0:
256,192,101212,1,0,0:0:0:0:
256,192,101290,1,8,0:0:0:0:
256,192,101368,1,0,0:0:0:0:
256,192,101447,1,0,0:0:0:0:
256,192,101759,1,8,0:0:0:0:
256,192,102072,1,4,0:0:0:0:
256,192,102228,1,0,0:0:0:0:
256,192,102306,1,0,0:0:0:0:
256,192,102384,1,8,0:0:0:0:
256,192,102540,1,4,0:0:0:0:
256,192,102853,1,4,0:0:0:0:
256,192,103165,1,12,0:0:0:0:
256,192,103478,1,0,0:0:0:0:
256,192,103556,1,0,0:0:0:0:
256,192,103634,1,8,0:0:0:0:
256,192,103790,1,0,0:0:0:0:
256,192,103947,1,12,0:0:0:0:
256,192,104259,1,0,0:0:0:0:
256,192,104572,1,4,0:0:0:0:
256,192,104728,1,8,0:0:0:0:
256,192,104806,1,0,0:0:0:0:
256,192,104884,1,0,0:0:0:0:
256,192,105040,1,4,0:0:0:0:
256,192,105353,1,4,0:0:0:0:
256,192,105509,1,0,0:0:0:0:
256,192,105665,1,8,0:0:0:0:
256,192,105822,1,0,0:0:0:0:
256,192,105978,1,8,0:0:0:0:
256,192,106134,1,8,0:0:0:0:
256,192,106290,1,0,0:0:0:0:
256,192,106447,1,12,0:0:0:0:
256,192,106603,1,8,0:0:0:0:
256,192,106681,1,8,0:0:0:0:
256,192,106759,1,0,0:0:0:0:
256,192,107072,1,4,0:0:0:0:
256,192,107228,1,0,0:0:0:0:
256,192,107306,1,0,0:0:0:0:
256,192,107384,1,8,0:0:0:0:
256,192,107540,1,4,0:0:0:0:
256,192,107853,1,4,0:0:0:0:
256,192,108165,1,12,0:0:0:0:
256,192,108478,1,0,0:0:0:0:
256,192,108790,1,0,0:0:0:0:
256,192,108947,1,12,0:0:0:0:
256,192,109259,1,0,0:0:0:0:
256,192,109415,1,0,0:0:0:0:
256,192,109493,1,8,0:0:0:0:
256,192,109572,1,4,0:0:0:0:
256,192,109728,1,8,0:0:0:0:
256,192,109806,1,0,0:0:0:0:
256,192,109884,1,0,0:0:0:0:
256,192,110040,1,4,0:0:0:0:
256,192,110353,1,4,0:0:0:0:
256,192,110509,1,0,0:0:0:0:
256,192,110665,1,4,0:0:0:0:
256,192,110822,1,8,0:0:0:0:
256,192,111134,1,8,0:0:0:0:
256,192,111290,1,0,0:0:0:0:
256,192,111447,1,12,0:0:0:0:
256,192,111603,1,0,0:0:0:0:
256,192,111759,1,8,0:0:0:0:
256,192,111837,1,8,0:0:0:0:
256,192,111915,1,0,0:0:0:0:
256,192,112072,1,4,0:0:0:0:
256,192,112228,1,0,0:0:0:0:
256,192,112306,1,0,0:0:0:0:
256,192,112384,1,8,0:0:0:0:
256,192,112540,1,4,0:0:0:0:
256,192,112853,1,4,0:0:0:0:
256,192,113165,1,12,0:0:0:0:
256,192,113478,1,0,0:0:0:0:
256,192,113556,1,0,0:0:0:0:
256,192,113634,1,8,0:0:0:0:
256,192,113790,1,0,0:0:0:0:
256,192,113947,1,12,0:0:0:0:
256,192,114259,1,0,0:0:0:0:
256,192,114415,1,0,0:0:0:0:
256,192,114493,1,8,0:0:0:0:
256,192,114572,1,4,0:0:0:0:
256,192,114728,1,8,0:0:0:0:
256,192,114806,1,0,0:0:0:0:
256,192,114884,1,0,0:0:0:0:
256,192,115040,1,4,0:0:0:0:
256,192,115353,1,4,0:0:0:0:
256,192,115509,1,0,0:0:0:0:
256,192,115665,1,8,0:0:0:0:
256,192,115822,1,0,0:0:0:0:
256,192,115978,1,8,0:0:0:0:
256,192,116134,1,8,0:0:0:0:
256,192,116290,1,0,0:0:0:0:
256,192,116447,1,12,0:0:0:0:
256,192,116603,1,8,0:0:0:0:
256,192,116681,1,8,0:0:0:0:
256,192,116759,1,0,0:0:0:0:
256,192,117072,1,4,0:0:0:0:
256,192,117228,1,0,0:0:0:0:
256,192,117306,1,0,0:0:0:0:
256,192,117384,1,8,0:0:0:0:
256,192,117540,1,4,0:0:0:0:
256,192,117853,1,4,0:0:0:0:
256,192,118165,1,12,0:0:0:0:
256,192,118478,1,0,0:0:0:0:
256,192,118790,1,0,0:0:0:0:
256,192,118947,1,12,0:0:0:0:
256,192,119259,1,0,0:0:0:0:
256,192,119415,1,0,0:0:0:0:
256,192,119493,1,8,0:0:0:0:
256,192,119572,1,4,0:0:0:0:
256,192,119728,1,8,0:0:0:0:
256,192,119806,1,0,0:0:0:0:
256,192,119884,1,0,0:0:0:0:
256,192,120040,1,4,0:0:0:0:
256,192,120353,1,4,0:0:0:0:
256,192,120509,1,0,0:0:0:0:
256,192,120665,1,4,0:0:0:0:
256,192,120822,1,8,0:0:0:0:
256,192,121134,1,8,0:0:0:0:
256,192,121290,1,0,0:0:0:0:
256,192,121447,1,12,0:0:0:0:
256,192,121603,1,0,0:0:0:0:
256,192,121759,1,8,0:0:0:0:
256,192,121837,1,8,0:0:0:0:
256,192,121915,1,0,0:0:0:0:
256,192,122072,1,4,0:0:0:0:
256,192,122384,1,8,0:0:0:0:
256,192,122462,1,8,0:0:0:0:
256,192,122540,1,0,0:0:0:0:
256,192,122618,1,0,0:0:0:0:
256,192,122697,1,8,0:0:0:0:
256,192,122853,1,8,0:0:0:0:
256,192,123009,1,0,0:0:0:0:
256,192,123165,1,8,0:0:0:0:
256,192,123322,1,0,0:0:0:0:
256,192,123400,1,0,0:0:0:0:
256,192,123478,1,8,0:0:0:0:
256,192,123634,1,0,0:0:0:0:
256,192,123790,1,8,0:0:0:0:
256,192,123947,1,8,0:0:0:0:
256,192,124103,1,0,0:0:0:0:
256,192,124259,1,8,0:0:0:0:
256,192,124337,1,8,0:0:0:0:
256,192,124415,1,0,0:0:0:0:
256,192,124572,1,8,0:0:0:0:
256,192,124650,1,8,0:0:0:0:
256,192,124728,1,0,0:0:0:0:
256,192,124806,1,0,0:0:0:0:
256,192,124884,1,8,0:0:0:0:
256,192,125040,1,0,0:0:0:0:
256,192,125197,1,8,0:0:0:0:
256,192,125353,1,0,0:0:0:0:
256,192,125431,1,0,0:0:0:0:
256,192,125509,1,8,0:0:0:0:
256,192,125665,1,0,0:0:0:0:
256,192,125822,1,8,0:0:0:0:
256,192,125978,1,0,0:0:0:0:
256,192,126056,1,0,0:0:0:0:
256,192,126134,1,8,0:0:0:0:
256,192,126212,1,0,0:0:0:0:
256,192,126368,1,0,0:0:0:0:
256,192,126447,1,8,0:0:0:0:
256,192,126603,1,0,0:0:0:0:
256,192,126759,1,8,0:0:0:0:
256,192,126915,1,8,0:0:0:0:
256,192,126993,1,8,0:0:0:0:
256,192,127072,1,0,0:0:0:0:
256,192,127384,1,8,0:0:0:0:
256,192,127540,1,0,0:0:0:0:
256,192,127618,1,0,0:0:0:0:
256,192,127697,1,8,0:0:0:0:
256,192,127853,1,8,0:0:0:0:
256,192,128009,1,0,0:0:0:0:
256,192,128165,1,8,0:0:0:0:
256,192,128243,1,8,0:0:0:0:
256,192,128322,1,0,0:0:0:0:
256,192,128478,1,8,0:0:0:0:
256,192,128634,1,0,0:0:0:0:
256,192,128790,1,8,0:0:0:0:
256,192,128947,1,8,0:0:0:0:
256,192,129025,1,8,0:0:0:0:
256,192,129103,1,0,0:0:0:0:
256,192,129181,1,0,0:0:0:0:
256,192,129259,1,8,0:0:0:0:
256,192,129415,1,0,0:0:0:0:
256,192,129572,1,8,0:0:0:0:
256,192,129728,1,0,0:0:0:0:
256,192,129806,1,0,0:0:0:0:
256,192,129884,1,8,0:0:0:0:
256,192,130040,1,0,0:0:0:0:
256,192,130197,1,8,0:0:0:0:
256,192,130275,1,8,0:0:0:0:
256,192,130353,1,0,0:0:0:0:
256,192,130431,1,0,0:0:0:0:
256,192,130509,1,8,0:0:0:0:
256,192,130665,1,0,0:0:0:0:
256,192,130822,1,8,0:0:0:0:
256,192,130900,1,0,0:0:0:0:
256,192,130978,1,0,0:0:0:0:
256,192,131056,1,0,0:0:0:0:
256,192,131134,1,8,0:0:0:0:
256,192,131212,1,0,0:0:0:0:
256,192,131368,1,0,0:0:0:0:
256,192,131447,1,8,0:0:0:0:
256,192,131603,1,0,0:0:0:0:
256,192,131759,1,8,0:0:0:0:
256,192,131915,1,8,0:0:0:0:
256,192,131993,1,8,0:0:0:0:
256,192,132072,1,0,0:0:0:0:
256,192,132384,1,0,0:0:0:0:
256,192,132540,1,8,0:0:0:0:
256,192,132697,1,0,0:0:0:0:
256,192,132853,1,0,0:0:0:0:
256,192,133009,1,8,0:0:0:0:
256,192,133322,1,0,0:0:0:0:
256,192,133634,1,8,0:0:0:0:
256,192,133790,1,0,0:0:0:0:
256,192,134103,1,0,0:0:0:0:
256,192,134259,1,8,0:0:0:0:
256,192,134415,1,8,0:0:0:0:
256,192,134572,1,0,0:0:0:0:
256,192,134884,1,8,0:0:0:0:
256,192,135197,1,0,0:0:0:0:
256,192,135353,1,0,0:0:0:0:
256,192,135509,1,8,0:0:0:0:
256,192,135822,1,0,0:0:0:0:
256,192,135978,1,8,0:0:0:0:
256,192,136134,1,8,0:0:0:0:
256,192,136290,1,8,0:0:0:0:
256,192,136368,1,8,0:0:0:0:
256,192,136447,1,0,0:0:0:0:
256,192,136603,1,8,0:0:0:0:
256,192,136759,1,0,0:0:0:0:
256,192,136915,1,0,0:0:0:0:
256,192,137072,1,8,0:0:0:0:
256,192,137384,1,8,0:0:0:0:
256,192,137697,1,8,0:0:0:0:
256,192,137853,1,0,0:0:0:0:
256,192,138009,1,8,0:0:0:0:
256,192,138322,1,8,0:0:0:0:
256,192,138634,1,8,0:0:0:0:
256,192,138947,1,8,0:0:0:0:
256,192,139103,1,0,0:0:0:0:
256,192,139259,1,8,0:0:0:0:
256,192,139572,1,8,0:0:0:0:
256,192,139728,1,8,0:0:0:0:
256,192,139884,1,8,0:0:0:0:
256,192,139962,1,0,0:0:0:0:
256,192,140040,1,8,0:0:0:0:
256,192,140197,1,8,0:0:0:0:
256,192,140353,1,8,0:0:0:0:
256,192,140509,1,8,0:0:0:0:
256,192,140587,1,0,0:0:0:0:
256,192,140665,1,8,0:0:0:0:
256,192,140822,1,0,0:0:0:0:
256,192,140900,1,0,0:0:0:0:
256,192,140978,1,0,0:0:0:0:
256,192,141056,1,0,0:0:0:0:
256,192,141134,1,0,0:0:0:0:
256,192,141212,1,0,0:0:0:0:
256,192,141290,1,0,0:0:0:0:
256,192,141368,1,0,0:0:0:0:
256,192,141447,1,8,0:0:0:0:
256,192,141759,1,4,0:0:0:0:
256,192,142072,1,4,0:0:0:0:
256,192,142228,1,0,0:0:0:0:
256,192,142384,1,8,0:0:0:0:
256,192,142462,1,8,0:0:0:0:
256,192,142540,1,0,0:0:0:0:
256,192,142618,1,8,0:0:0:0:
256,192,142697,1,0,0:0:0:0:
256,192,142775,1,0,0:0:0:0:
256,192,142853,1,8,0:0:0:0:
256,192,142931,1,8,0:0:0:0:
256,192,143009,1,0,0:0:0:0:
256,192,143165,1,8,0:0:0:0:
256,192,143322,1,8,0:0:0:0:
256,192,143400,1,8,0:0:0:0:
256,192,143478,1,0,0:0:0:0:
256,192,143556,1,0,0:0:0:0:
256,192,143634,1,8,0:0:0:0:
256,192,143790,1,0,0:0:0:0:
256,192,143842,1,0,0:0:0:0:
256,192,143894,1,0,0:0:0:0:
256,192,143947,1,8,0:0:0:0:
256,192,144103,1,0,0:0:0:0:
256,192,144181,1,0,0:0:0:0:
256,192,144259,1,8,0:0:0:0:
256,192,144337,1,8,0:0:0:0:
256,192,144415,1,8,0:0:0:0:
256,192,144572,1,0,0:0:0:0:
256,192,144728,1,0,0:0:0:0:
256,192,144806,1,0,0:0:0:0:
256,192,144884,1,8,0:0:0:0:
256,192,144962,1,8,0:0:0:0:
256,192,145040,1,0,0:0:0:0:
256,192,145197,1,8,0:0:0:0:
256,192,145353,1,8,0:0:0:0:
256,192,145509,1,0,0:0:0:0:
256,192,145587,1,0,0:0:0:0:
256,192,145665,1,8,0:0:0:0:
256,192,145822,1,0,0:0:0:0:
256,192,145978,1,8,0:0:0:0:
256,192,146030,1,8,0:0:0:0:
256,192,146082,1,8,0:0:0:0:
256,192,146134,1,0,0:0:0:0:
256,192,146290,1,8,0:0:0:0:
256,192,146447,1,0,0:0:0:0:
256,192,146759,1,12,0:0:0:0:
256,192,147072,1,4,0:0:0:0:
256,192,147228,1,0,0:0:0:0:
256,192,147384,1,8,0:0:0:0:
256,192,147462,1,8,0:0:0:0:
256,192,147540,1,0,0:0:0:0:
256,192,147618,1,8,0:0:0:0:
256,192,147697,1,0,0:0:0:0:
256,192,147775,1,0,0:0:0:0:
256,192,147853,1,8,0:0:0:0:
256,192,147931,1,8,0:0:0:0:
256,192,148009,1,0,0:0:0:0:
256,192,148087,1,8,0:0:0:0:
256,192,148165,1,0,0:0:0:0:
256,192,148243,1,0,0:0:0:0:
256,192,148322,1,8,0:0:0:0:
256,192,148478,1,8,0:0:0:0:
256,192,148556,1,8,0:0:0:0:
256,192,148634,1,0,0:0:0:0:
256,192,148790,1,0,0:0:0:0:
256,192,148842,1,0,0:0:0:0:
256,192,148894,1,0,0:0:0:0:
256,192,148947,1,8,0:0:0:0:
256,192,149103,1,0,0:0:0:0:
256,192,149259,1,8,0:0:0:0:
256,192,149337,1,8,0:0:0:0:
256,192,149415,1,8,0:0:0:0:
256,192,149493,1,0,0:0:0:0:
256,192,149572,1,0,0:0:0:0:
256,192,149728,1,0,0:0:0:0:
256,192,149884,1,0,0:0:0:0:
256,192,149962,1,8,0:0:0:0:
256,192,150040,1,8,0:0:0:0:
256,192,150118,1,0,0:0:0:0:
256,192,150197,1,8,0:0:0:0:
256,192,150353,1,0,0:0:0:0:
256,192,150509,1,0,0:0:0:0:
256,192,150587,1,0,0:0:0:0:
256,192,150665,1,8,0:0:0:0:
256,192,150822,1,0,0:0:0:0:
256,192,150900,1,0,0:0:0:0:
256,192,150978,1,8,0:0:0:0:
256,192,151030,1,8,0:0:0:0:
256,192,151082,1,8,0:0:0:0:
256,192,151134,1,0,0:0:0:0:
256,192,151212,1,8,0:0:0:0:
256,192,151290,1,0,0:0:0:0:
256,192,151368,1,0,0:0:0:0:
256,192,151447,1,8,0:0:0:0:
256,192,151525,1,8,0:0:0:0:
256,192,151603,1,8,0:0:0:0:
256,192,151681,1,8,0:0:0:0:
256,192,151759,1,0,0:0:0:0:
256,192,152072,1,4,0:0:0:0:
256,192,152228,1,8,0:0:0:0:
256,192,152384,1,8,0:0:0:0:
256,192,152436,1,0,0:0:0:0:
256,192,152488,1,0,0:0:0:0:
256,192,152540,1,0,0:0:0:0:
128,192,152697,2,0,L|352:192,1,222.600000339661
256,192,153322,1,0,0:0:0:0:
256,192,153634,12,0,154415,0:0:0:0:
256,192,154572,5,12,0:0:0:0:
256,192,154728,1,0,0:0:0:0:
256,192,154884,1,8,0:0:0:0:
256,192,154962,1,8,0:0:0:0:
256,192,155040,1,0,0:0:0:0:
256,192,155118,1,8,0:0:0:0:
256,192,155197,1,0,0:0:0:0:
256,192,155275,1,0,0:0:0:0:
256,192,155353,1,8,0:0:0:0:
256,192,155431,1,8,0:0:0:0:
256,192,155509,1,0,0:0:0:0:
256,192,155548,1,0,0:0:0:0:
256,192,155665,1,0,0:0:0:0:
256,192,155704,1,0,0:0:0:0:
256,192,155822,1,8,0:0:0:0:
256,192,155900,1,8,0:0:0:0:
256,192,155978,1,0,0:0:0:0:
256,192,156056,1,0,0:0:0:0:
256,192,156134,1,8,0:0:0:0:
256,192,156212,1,8,0:0:0:0:
256,192,156290,1,0,0:0:0:0:
256,192,156342,1,0,0:0:0:0:
256,192,156394,1,0,0:0:0:0:
256,192,156447,1,8,0:0:0:0:
256,192,156603,1,0,0:0:0:0:
256,192,156681,1,0,0:0:0:0:
256,192,156759,1,8,0:0:0:0:
256,192,156837,1,8,0:0:0:0:
256,192,156915,1,8,0:0:0:0:
256,192,156993,1,8,0:0:0:0:
256,192,157072,1,0,0:0:0:0:
256,192,157228,1,0,0:0:0:0:
256,192,157306,1,0,0:0:0:0:
256,192,157384,1,8,0:0:0:0:
256,192,157462,1,8,0:0:0:0:
256,192,157540,1,0,0:0:0:0:
256,192,157618,1,0,0:0:0:0:
256,192,157697,1,8,0:0:0:0:
256,192,157853,1,8,0:0:0:0:
256,192,157931,1,0,0:0:0:0:
256,192,158009,1,0,0:0:0:0:
256,192,158087,1,0,0:0:0:0:
256,192,158165,1,8,0:0:0:0:
256,192,158322,1,0,0:0:0:0:
256,192,158400,1,0,0:0:0:0:
256,192,158478,1,8,0:0:0:0:
256,192,158530,1,8,0:0:0:0:
256,192,158582,1,8,0:0:0:0:
256,192,158634,1,0,0:0:0:0:
256,192,158790,1,8,0:0:0:0:
256,192,158947,1,0,0:0:0:0:
256,192,159259,1,12,0:0:0:0:
256,192,159572,1,4,0:0:0:0:
256,192,159728,1,0,0:0:0:0:
256,192,159884,1,8,0:0:0:0:
256,192,159962,1,8,0:0:0:0:
256,192,160040,1,0,0:0:0:0:
256,192,160118,1,8,0:0:0:0:
256,192,160197,1,0,0:0:0:0:
256,192,160275,1,0,0:0:0:0:
256,192,160353,1,8,0:0:0:0:
256,192,160431,1,8,0:0:0:0:
256,192,160509,1,0,0:0:0:0:
256,192,160548,1,0,0:0:0:0:
256,192,160665,1,0,0:0:0:0:
256,192,160704,1,0,0:0:0:0:
256,192,160822,1,8,0:0:0:0:
256,192,160900,1,0,0:0:0:0:
256,192,160978,1,8,0:0:0:0:
256,192,161056,1,8,0:0:0:0:
256,192,161134,1,0,0:0:0:0:
256,192,161212,1,8,0:0:0:0:
256,192,161290,1,0,0:0:0:0:
256,192,161342,1,0,0:0:0:0:
256,192,161394,1,0,0:0:0:0:
256,192,161447,1,8,0:0:0:0:
256,192,161603,1,0,0:0:0:0:
256,192,161759,1,8,0:0:0:0:
256,192,161837,1,8,0:0:0:0:
256,192,161915,1,8,0:0:0:0:
256,192,161993,1,0,0:0:0:0:
256,192,162072,1,0,0:0:0:0:
256,192,162228,1,0,0:0:0:0:
256,192,162306,1,0,0:0:0:0:
256,192,162384,1,0,0:0:0:0:
256,192,162462,1,0,0:0:0:0:
256,192,162540,1,8,0:0:0:0:
256,192,162618,1,0,0:0:0:0:
256,192,162697,1,8,0:0:0:0:
256,192,162775,1,8,0:0:0:0:
256,192,162853,1,0,0:0:0:0:
256,192,163009,1,0,0:0:0:0:
256,192,163087,1,0,0:0:0:0:
256,192,163165,1,8,0:0:0:0:
256,192,163322,1,8,0:0:0:0:
256,192,163400,1,0,0:0:0:0:
256,192,163478,1,8,0:0:0:0:
256,192,163530,1,8,0:0:0:0:
256,192,163582,1,8,0:0:0:0:
256,192,163634,1,0,0:0:0:0:
256,192,163712,1,0,0:0:0:0:
256,192,163790,1,8,0:0:0:0:
256,192,163868,1,0,0:0:0:0:
256,192,163947,1,8,0:0:0:0:
256,192,164025,1,0,0:0:0:0:
256,192,164103,1,0,0:0:0:0:
256,192,164181,1,8,0:0:0:0:
256,192,164259,1,8,0:0:0:0:
256,192,164337,1,8,0:0:0:0:
256,192,164415,1,0,0:0:0:0:
256,192,164467,1,8,0:0:0:0:
256,192,164519,1,8,0:0:0:0:
256,192,164572,1,0,0:0:0:0:
256,192,164728,1,0,0:0:0:0:
256,192,164806,1,8,0:0:0:0:
256,192,164884,1,0,0:0:0:0:
256,192,164936,1,0,0:0:0:0:
256,192,164988,1,0,0:0:0:0:
256,192,165040,1,0,0:0:0:0:
256,192,165092,1,0,0:0:0:0:
256,192,165144,1,0,0:0:0:0:
256,192,165197,1,8,0:0:0:0:
256,192,165249,1,8,0:0:0:0:
256,192,165301,1,8,0:0:0:0:
256,192,165353,1,0,0:0:0:0:
256,192,165431,1,0,0:0:0:0:
256,192,165509,1,8,0:0:0:0:
256,192,165665,1,0,0:0:0:0:
256,192,165743,1,0,0:0:0:0:
256,192,165822,1,8,0:0:0:0:
256,192,165900,1,8,0:0:0:0:
256,192,165978,1,8,0:0:0:0:
256,192,166056,1,0,0:0:0:0:
256,192,166134,1,8,0:0:0:0:
256,192,166290,1,0,0:0:0:0:
256,192,166368,1,8,0:0:0:0:
256,192,166447,1,8,0:0:0:0:
256,192,166603,1,0,0:0:0:0:
256,192,166759,1,8,0:0:0:0:
256,192,166837,1,8,0:0:0:0:
256,192,166915,1,8,0:0:0:0:
256,192,166993,1,8,0:0:0:0:
256,192,167072,1,0,0:0:0:0:
256,192,167228,1,0,0:0:0:0:
256,192,167384,1,8,0:0:0:0:
256,192,167462,1,0,0:0:0:0:
256,192,167540,1,0,0:0:0:0:
256,192,167618,1,0,0:0:0:0:
256,192,167697,1,8,0:0:0:0:
256,192,167774,1,0,0:0:0:0:
256,192,167853,1,8,0:0:0:0:
256,192,168009,1,0,0:0:0:0:
256,192,168165,1,8,0:0:0:0:
256,192,168322,1,0,0:0:0:0:
256,192,168478,1,8,0:0:0:0:
256,192,168530,1,8,0:0:0:0:
256,192,168582,1,8,0:0:0:0:
256,192,168634,1,0,0:0:0:0:
256,192,168712,1,0,0:0:0:0:
256,192,168790,1,8,0:0:0:0:
256,192,168946,1,0,0:0:0:0:
256,192,169024,1,8,0:0:0:0:
256,192,169103,1,0,0:0:0:0:
256,192,169181,1,8,0:0:0:0:
256,192,169259,1,8,0:0:0:0:
256,192,169337,1,0,0:0:0:0:
256,192,169415,1,8,0:0:0:0:
256,192,169493,1,8,0:0:0:0:
256,192,169571,1,0,0:0:0:0:
256,192,169728,1,0,0:0:0:0:
256,192,169806,1,8,0:0:0:0:
256,192,169884,1,0,0:0:0:0:
256,192,169936,1,0,0:0:0:0:
256,192,169988,1,0,0:0:0:0:
256,192,170040,1,0,0:0:0:0:
256,192,170092,1,0,0:0:0:0:
256,192,170144,1,0,0:0:0:0:
256,192,170197,1,8,0:0:0:0:
256,192,170249,1,8,0:0:0:0:
256,192,170301,1,8,0:0:0:0:
256,192,170353,1,0,0:0:0:0:
256,192,170431,1,0,0:0:0:0:
256,192,170509,1,8,0:0:0:0:
256,192,170587,1,0,0:0:0:0:
256,192,170665,1,8,0:0:0:0:
256,192,170744,1,8,0:0:0:0:
256,192,170822,1,0,0:0:0:0:
256,192,170978,1,8,0:0:0:0:
256,192,171056,1,8,0:0:0:0:
256,192,171134,1,0,0:0:0:0:
256,192,171212,1,8,0:0:0:0:
256,192,171290,1,0,0:0:0:0:
256,192,171342,1,0,0:0:0:0:
256,192,171394,1,0,0:0:0:0:
256,192,171447,1,8,0:0:0:0:
256,192,171603,1,0,0:0:0:0:
256,192,171759,1,8,0:0:0:0:
256,192,171837,1,8,0:0:0:0:
256,192,171915,1,0,0:0:0:0:
256,192,171993,1,0,0:0:0:0:
256,192,172072,1,8,0:0:0:0:
256,192,172151,1,0,0:0:0:0:
256,192,172229,1,8,0:0:0:0:
256,192,172307,1,8,0:0:0:0:
256,192,172385,1,8,0:0:0:0:
256,192,172463,1,8,0:0:0:0:
256,192,172541,1,0,0:0:0:0:
256,192,172619,1,0,0:0:0:0:
256,192,172697,1,8,0:0:0:0:
256,192,172853,1,8,0:0:0:0:
256,192,172931,1,0,0:0:0:0:
256,192,173009,1,8,0:0:0:0:
256,192,173087,1,8,0:0:0:0:
256,192,173165,1,0,0:0:0:0:
256,192,173243,1,8,0:0:0:0:
256,192,173322,1,0,0:0:0:0:
256,192,173374,1,0,0:0:0:0:
256,192,173426,1,0,0:0:0:0:
256,192,173478,1,8,0:0:0:0:
256,192,173556,1,8,0:0:0:0:
256,192,173634,1,0,0:0:0:0:
256,192,173686,1,0,0:0:0:0:
256,192,173738,1,0,0:0:0:0:
256,192,173790,1,8,0:0:0:0:
256,192,173868,1,8,0:0:0:0:
256,192,173947,1,0,0:0:0:0:
256,192,174103,1,8,0:0:0:0:
256,192,174259,1,8,0:0:0:0:
256,192,174572,1,12,0:0:0:0:
256,192,174728,1,0,0:0:0:0:
256,192,174884,1,8,0:0:0:0:
256,192,174962,1,8,0:0:0:0:
256,192,175040,1,0,0:0:0:0:
256,192,175118,1,8,0:0:0:0:
256,192,175197,1,0,0:0:0:0:
256,192,175353,1,8,0:0:0:0:
256,192,175431,1,8,0:0:0:0:
256,192,175509,1,0,0:0:0:0:
256,192,175665,1,8,0:0:0:0:
256,192,175717,1,8,0:0:0:0:
256,192,175769,1,8,0:0:0:0:
256,192,175822,1,0,0:0:0:0:
256,192,175900,1,8,0:0:0:0:
256,192,175978,1,0,0:0:0:0:
256,192,176056,1,0,0:0:0:0:
256,192,176134,1,8,0:0:0:0:
256,192,176290,1,0,0:0:0:0:
256,192,176342,1,0,0:0:0:0:
256,192,176394,1,0,0:0:0:0:
256,192,176447,1,8,0:0:0:0:
256,192,176603,1,0,0:0:0:0:
256,192,176681,1,0,0:0:0:0:
256,192,176759,1,8,0:0:0:0:
256,192,176837,1,8,0:0:0:0:
256,192,176915,1,8,0:0:0:0:
256,192,176993,1,0,0:0:0:0:
256,192,177072,1,0,0:0:0:0:
256,192,177228,1,0,0:0:0:0:
256,192,177306,1,0,0:0:0:0:
256,192,177384,1,8,0:0:0:0:
256,192,177462,1,8,0:0:0:0:
256,192,177540,1,0,0:0:0:0:
256,192,177618,1,8,0:0:0:0:
256,192,177697,1,8,0:0:0:0:
256,192,177853,1,8,0:0:0:0:
256,192,178009,1,0,0:0:0:0:
256,192,178087,1,0,0:0:0:0:
256,192,178165,1,8,0:0:0:0:
256,192,178322,1,0,0:0:0:0:
256,192,178478,1,8,0:0:0:0:
256,192,178530,1,8,0:0:0:0:
256,192,178582,1,8,0:0:0:0:
256,192,178634,1,0,0:0:0:0:
256,192,178790,1,8,0:0:0:0:
256,192,178868,1,8,0:0:0:0:
256,192,178947,1,0,0:0:0:0:
256,192,179103,1,0,0:0:0:0:
256,192,179181,1,8,0:0:0:0:
256,192,179259,1,8,0:0:0:0:
256,192,179337,1,0,0:0:0:0:
256,192,179415,1,8,0:0:0:0:
256,192,179493,1,8,0:0:0:0:
256,192,179572,1,0,0:0:0:0:
256,192,179728,1,0,0:0:0:0:
256,192,179884,1,8,0:0:0:0:
256,192,179962,1,8,0:0:0:0:
256,192,180040,1,0,0:0:0:0:
256,192,180197,1,8,0:0:0:0:
256,192,180275,1,0,0:0:0:0:
256,192,180353,1,8,0:0:0:0:
256,192,180431,1,8,0:0:0:0:
256,192,180509,1,0,0:0:0:0:
256,192,180665,1,8,0:0:0:0:
256,192,180717,1,8,0:0:0:0:
256,192,180769,1,8,0:0:0:0:
256,192,180822,1,0,0:0:0:0:
256,192,180978,1,8,0:0:0:0:
256,192,181134,1,8,0:0:0:0:
256,192,181212,1,0,0:0:0:0:
256,192,181290,1,0,0:0:0:0:
256,192,181342,1,0,0:0:0:0:
256,192,181394,1,0,0:0:0:0:
256,192,181447,1,8,0:0:0:0:
256,192,181603,1,0,0:0:0:0:
256,192,181759,1,8,0:0:0:0:
256,192,181837,1,0,0:0:0:0:
256,192,181915,1,8,0:0:0:0:
256,192,181993,1,8,0:0:0:0:
256,192,182072,1,0,0:0:0:0:
256,192,182228,1,0,0:0:0:0:
256,192,182384,1,0,0:0:0:0:
256,192,182462,1,8,0:0:0:0:
256,192,182540,1,0,0:0:0:0:
256,192,182618,1,0,0:0:0:0:
256,192,182697,1,8,0:0:0:0:
256,192,182775,1,8,0:0:0:0:
256,192,182853,1,0,0:0:0:0:
256,192,182931,1,0,0:0:0:0:
256,192,183009,1,8,0:0:0:0:
256,192,183087,1,0,0:0:0:0:
256,192,183165,1,8,0:0:0:0:
256,192,183243,1,8,0:0:0:0:
256,192,183322,1,0,0:0:0:0:
256,192,183374,1,0,0:0:0:0:
256,192,183426,1,0,0:0:0:0:
256,192,183478,1,8,0:0:0:0:
256,192,183556,1,8,0:0:0:0:
256,192,183634,1,0,0:0:0:0:
256,192,183686,1,0,0:0:0:0:
256,192,183738,1,0,0:0:0:0:
256,192,183790,1,8,0:0:0:0:
256,192,183868,1,8,0:0:0:0:
256,192,183947,1,0,0:0:0:0:
256,192,183999,1,0,0:0:0:0:
256,192,184051,1,0,0:0:0:0:
256,192,184103,1,8,0:0:0:0:
256,192,184155,1,8,0:0:0:0:
256,192,184207,1,8,0:0:0:0:
256,192,184259,1,0,0:0:0:0:
256,192,184337,1,0,0:0:0:0:
256,192,184415,1,8,0:0:0:0:
256,192,184493,1,8,0:0:0:0:
256,192,184572,1,0,0:0:0:0:
256,192,184884,1,8,0:0:0:0:
256,192,185040,1,0,0:0:0:0:
256,192,185118,1,0,0:0:0:0:
256,192,185197,1,8,0:0:0:0:
256,192,185353,1,0,0:0:0:0:
256,192,185431,1,8,0:0:0:0:
256,192,185509,1,0,0:0:0:0:
256,192,185587,1,0,0:0:0:0:
256,192,185665,1,8,0:0:0:0:
256,192,185717,1,8,0:0:0:0:
256,192,185769,1,8,0:0:0:0:
256,192,185822,1,0,0:0:0:0:
256,192,185978,1,8,0:0:0:0:
256,192,186056,1,8,0:0:0:0:
256,192,186134,1,0,0:0:0:0:
256,192,186212,1,8,0:0:0:0:
256,192,186290,1,0,0:0:0:0:
256,192,186342,1,0,0:0:0:0:
256,192,186394,1,0,0:0:0:0:
256,192,186447,1,8,0:0:0:0:
256,192,186603,1,0,0:0:0:0:
256,192,186681,1,8,0:0:0:0:
256,192,186759,1,0,0:0:0:0:
256,192,186915,1,8,0:0:0:0:
256,192,186993,1,0,0:0:0:0:
256,192,187072,1,8,0:0:0:0:
256,192,187150,1,8,0:0:0:0:
256,192,187228,1,0,0:0:0:0:
256,192,187306,1,0,0:0:0:0:
256,192,187384,1,8,0:0:0:0:
256,192,187462,1,8,0:0:0:0:
256,192,187540,1,8,0:0:0:0:
256,192,187618,1,0,0:0:0:0:
256,192,187697,1,0,0:0:0:0:
256,192,187853,1,8,0:0:0:0:
256,192,187931,1,8,0:0:0:0:
256,192,188009,1,0,0:0:0:0:
256,192,188061,1,0,0:0:0:0:
256,192,188113,1,0,0:0:0:0:
256,192,188165,1,8,0:0:0:0:
256,192,188322,1,0,0:0:0:0:
256,192,188478,1,8,0:0:0:0:
256,192,188530,1,8,0:0:0:0:
256,192,188582,1,8,0:0:0:0:
256,192,188634,1,0,0:0:0:0:
256,192,188790,1,0,0:0:0:0:
256,192,188868,1,0,0:0:0:0:
256,192,188947,1,0,0:0:0:0:
256,192,189103,1,8,0:0:0:0:
256,192,189181,1,8,0:0:0:0:
256,192,189259,1,0,0:0:0:0:
256,192,189572,1,8,0:0:0:0:
256,192,189728,1,0,0:0:0:0:
256,192,189884,1,8,0:0:0:0:
256,192,190040,1,0,0:0:0:0:
256,192,190118,1,0,0:0:0:0:
256,192,190197,1,8,0:0:0:0:
256,192,190353,1,0,0:0:0:0:
256,192,190431,1,8,0:0:0:0:
256,192,190509,1,0,0:0:0:0:
256,192,190665,1,8,0:0:0:0:
256,192,190822,1,0,0:0:0:0:
256,192,190978,1,8,0:0:0:0:
256,192,191056,1,8,0:0:0:0:
256,192,191134,1,0,0:0:0:0:
256,192,191212,1,8,0:0:0:0:
256,192,191290,1,0,0:0:0:0:
256,192,191368,1,0,0:0:0:0:
256,192,191447,1,8,0:0:0:0:
256,192,191603,1,0,0:0:0:0:
256,192,191681,1,8,0:0:0:0:
256,192,191759,1,0,0:0:0:0:
256,192,191915,1,8,0:0:0:0:
256,192,191993,1,0,0:0:0:0:
256,192,192072,1,8,0:0:0:0:
256,192,192150,1,8,0:0:0:0:
256,192,192228,1,0,0:0:0:0:
256,192,192306,1,0,0:0:0:0:
256,192,192384,1,8,0:0:0:0:
256,192,192462,1,8,0:0:0:0:
256,192,192540,1,0,0:0:0:0:
256,192,192618,1,0,0:0:0:0:
256,192,192697,1,8,0:0:0:0:
256,192,192775,1,0,0:0:0:0:
256,192,192853,1,0,0:0:0:0:
256,192,192931,1,0,0:0:0:0:
256,192,193009,1,8,0:0:0:0:
256,192,193087,1,0,0:0:0:0:
256,192,193165,1,8,0:0:0:0:
256,192,193243,1,8,0:0:0:0:
256,192,193322,1,0,0:0:0:0:
256,192,193374,1,0,0:0:0:0:
256,192,193426,1,0,0:0:0:0:
256,192,193478,1,8,0:0:0:0:
256,192,193556,1,0,0:0:0:0:
256,192,193634,1,8,0:0:0:0:
256,192,193686,1,8,0:0:0:0:
256,192,193738,1,8,0:0:0:0:
256,192,193790,1,0,0:0:0:0:
256,192,193868,1,0,0:0:0:0:
256,192,193947,1,8,0:0:0:0:
256,192,193999,1,8,0:0:0:0:
256,192,194051,1,8,0:0:0:0:
256,192,194103,1,8,0:0:0:0:
256,192,194155,1,8,0:0:0:0:
256,192,194207,1,8,0:0:0:0:
256,192,194259,1,0,0:0:0:0:
256,192,194572,1,4,0:0:0:0:
256,192,194884,1,8,0:0:0:0:
256,192,195040,1,0,0:0:0:0:
256,192,195118,1,0,0:0:0:0:
256,192,195197,1,8,0:0:0:0:
256,192,195353,1,8,0:0:0:0:
256,192,195509,1,0,0:0:0:0:
256,192,195587,1,0,0:0:0:0:
256,192,195665,1,8,0:0:0:0:
256,192,195717,1,8,0:0:0:0:
256,192,195769,1,8,0:0:0:0:
256,192,195822,1,0,0:0:0:0:
256,192,195978,1,8,0:0:0:0:
256,192,196056,1,8,0:0:0:0:
256,192,196134,1,0,0:0:0:0:
256,192,196212,1,8,0:0:0:0:
256,192,196290,1,0,0:0:0:0:
256,192,196342,1,0,0:0:0:0:
256,192,196394,1,0,0:0:0:0:
256,192,196447,1,8,0:0:0:0:
256,192,196603,1,0,0:0:0:0:
256,192,196681,1,8,0:0:0:0:
256,192,196759,1,0,0:0:0:0:
256,192,196915,1,8,0:0:0:0:
256,192,196993,1,0,0:0:0:0:
256,192,197072,1,8,0:0:0:0:
256,192,197150,1,8,0:0:0:0:
256,192,197228,1,0,0:0:0:0:
256,192,197306,1,0,0:0:0:0:
256,192,197384,1,8,0:0:0:0:
256,192,197540,1,8,0:0:0:0:
256,192,197618,1,0,0:0:0:0:
256,192,197697,1,0,0:0:0:0:
256,192,197853,1,8,0:0:0:0:
256,192,197931,1,8,0:0:0:0:
256,192,198009,1,0,0:0:0:0:
256,192,198061,1,0,0:0:0:0:
256,192,198113,1,0,0:0:0:0:
256,192,198165,1,8,0:0:0:0:
256,192,198322,1,0,0:0:0:0:
256,192,198478,1,8,0:0:0:0:
256,192,198530,1,8,0:0:0:0:
256,192,198582,1,8,0:0:0:0:
256,192,198634,1,0,0:0:0:0:
256,192,198790,1,0,0:0:0:0:
256,192,198868,1,0,0:0:0:0:
256,192,198947,1,0,0:0:0:0:
256,192,199025,1,0,0:0:0:0:
256,192,199103,1,8,0:0:0:0:
256,192,199181,1,8,0:0:0:0:
256,192,199259,1,0,0:0:0:0:
256,192,199572,1,8,0:0:0:0:
256,192,199728,1,0,0:0:0:0:
256,192,199884,1,8,0:0:0:0:
256,192,200040,1,0,0:0:0:0:
256,192,200118,1,0,0:0:0:0:
256,192,200197,1,8,0:0:0:0:
256,192,200275,1,8,0:0:0:0:
256,192,200353,1,0,0:0:0:0:
256,192,200431,1,8,0:0:0:0:
256,192,200509,1,0,0:0:0:0:
256,192,200665,1,8,0:0:0:0:
256,192,200822,1,0,0:0:0:0:
256,192,200978,1,8,0:0:0:0:
256,192,201056,1,8,0:0:0:0:
256,192,201134,1,0,0:0:0:0:
256,192,201212,1,8,0:0:0:0:
256,192,201290,1,0,0:0:0:0:
256,192,201342,1,0,0:0:0:0:
256,192,201394,1,0,0:0:0:0:
256,192,201447,1,8,0:0:0:0:
256,192,201603,1,0,0:0:0:0:
256,192,201681,1,8,0:0:0:0:
256,192,201759,1,0,0:0:0:0:
256,192,201915,1,8,0:0:0:0:
256,192,201993,1,0,0:0:0:0:
256,192,202072,1,8,0:0:0:0:
256,192,202150,1,8,0:0:0:0:
256,192,202228,1,0,0:0:0:0:
256,192,202306,1,0,0:0:0:0:
256,192,202384,1,8,0:0:0:0:
256,192,202462,1,8,0:0:0:0:
256,192,202540,1,0,0:0:0:0:
256,192,202618,1,0,0:0:0:0:
256,192,202697,1,8,0:0:0:0:
256,192,202775,1,0,0:0:0:0:
256,192,202853,1,8,0:0:0:0:
256,192,202931,1,0,0:0:0:0:
256,192,203009,1,8,0:0:0:0:
256,192,203087,1,0,0:0:0:0:
256,192,203165,1,8,0:0:0:0:
256,192,203243,1,0,0:0:0:0:
256,192,203322,1,8,0:0:0:0:
256,192,203400,1,8,0:0:0:0:
256,192,203478,1,0,0:0:0:0:
256,192,203556,1,0,0:0:0:0:
256,192,203634,1,8,0:0:0:0:
256,192,203712,1,0,0:0:0:0:
256,192,203790,1,0,0:0:0:0:
256,192,203868,1,0,0:0:0:0:
256,192,203947,1,8,0:0:0:0:
256,192,204025,1,8,0:0:0:0:
256,192,204103,1,0,0:0:0:0:
256,192,204259,1,12,0:0:0:0:
256,192,204572,1,4,0:0:0:0:
256,192,204728,1,0,0:0:0:0:
256,192,204884,1,8,0:0:0:0:
256,192,205040,1,0,0:0:0:0:
256,192,205118,1,8,0:0:0:0:
256,192,205197,1,0,0:0:0:0:
256,192,205353,1,0,0:0:0:0:
256,192,205509,1,8,0:0:0:0:
256,192,205587,1,8,0:0:0:0:
256,192,205665,1,0,0:0:0:0:
256,192,205743,1,0,0:0:0:0:
256,192,205822,1,0,0:0:0:0:
256,192,205978,1,0,0:0:0:0:
256,192,206134,1,8,0:0:0:0:
256,192,206290,1,0,0:0:0:0:
256,192,206368,1,0,0:0:0:0:
256,192,206447,1,8,0:0:0:0:
256,192,206603,1,0,0:0:0:0:
256,192,206759,1,8,0:0:0:0:
256,192,206837,1,8,0:0:0:0:
256,192,206915,1,0,0:0:0:0:
256,192,206993,1,0,0:0:0:0:
256,192,207072,1,8,0:0:0:0:
256,192,207228,1,0,0:0:0:0:
256,192,207384,1,8,0:0:0:0:
256,192,207540,1,8,0:0:0:0:
256,192,207618,1,8,0:0:0:0:
256,192,207697,1,0,0:0:0:0:
256,192,207853,1,0,0:0:0:0:
256,192,208009,1,8,0:0:0:0:
256,192,208165,1,0,0:0:0:0:
256,192,208322,1,8,0:0:0:0:
256,192,208400,1,8,0:0:0:0:
256,192,208478,1,0,0:0:0:0:
256,192,208556,1,8,0:0:0:0:
256,192,208634,1,0,0:0:0:0:
256,192,208790,1,8,0:0:0:0:
256,192,208868,1,0,0:0:0:0:
256,192,208947,1,8,0:0:0:0:
256,192,209103,1,0,0:0:0:0:
256,192,209259,1,0,0:0:0:0:
256,192,209337,1,8,0:0:0:0:
256,192,209415,1,8,0:0:0:0:
256,192,209572,1,0,0:0:0:0:
256,192,209650,1,0,0:0:0:0:
256,192,209728,1,0,0:0:0:0:
256,192,209806,1,0,0:0:0:0:
256,192,209884,1,8,0:0:0:0:
256,192,210040,1,8,0:0:0:0:
256,192,210118,1,8,0:0:0:0:
256,192,210197,1,0,0:0:0:0:
256,192,210353,1,0,0:0:0:0:
256,192,210509,1,8,0:0:0:0:
256,192,210665,1,0,0:0:0:0:
256,192,210743,1,0,0:0:0:0:
256,192,210822,1,8,0:0:0:0:
256,192,210978,1,0,0:0:0:0:
256,192,211056,1,8,0:0:0:0:
256,192,211134,1,8,0:0:0:0:
256,192,211212,1,0,0:0:0:0:
256,192,211290,1,0,0:0:0:0:
256,192,211447,1,0,0:0:0:0:
256,192,211603,1,0,0:0:0:0:
256,192,211759,1,8,0:0:0:0:
256,192,211915,1,0,0:0:0:0:
256,192,212072,1,0,0:0:0:0:
256,192,212150,1,0,0:0:0:0:
256,192,212228,1,0,0:0:0:0:
256,192,212306,1,0,0:0:0:0:
256,192,212384,1,8,0:0:0:0:
256,192,212462,1,8,0:0:0:0:
256,192,212540,1,8,0:0:0:0:
256,192,212618,1,8,0:0:0:0:
256,192,212697,1,0,0:0:0:0:
256,192,212775,1,0,0:0:0:0:
256,192,212853,1,8,0:0:0:0:
256,192,212931,1,8,0:0:0:0:
256,192,213009,1,0,0:0:0:0:
256,192,213087,1,0,0:0:0:0:
256,192,213165,1,8,0:0:0:0:
256,192,213243,1,8,0:0:0:0:
256,192,213322,1,0,0:0:0:0:
256,192,213374,1,0,0:0:0:0:
256,192,213426,1,0,0:0:0:0:
256,192,213478,1,8,0:0:0:0:
256,192,213556,1,8,0:0:0:0:
256,192,213634,1,0,0:0:0:0:
256,192,213686,1,0,0:0:0:0:
256,192,213738,1,0,0:0:0:0:
256,192,213790,1,8,0:0:0:0:
256,192,213868,1,8,0:0:0:0:
256,192,213947,1,0,0:0:0:0:
256,192,214025,1,0,0:0:0:0:
256,192,214103,1,8,0:0:0:0:
256,192,214181,1,0,0:0:0:0:
256,192,214259,1,8,0:0:0:0:
256,192,214337,1,8,0:0:0:0:
256,192,214415,1,8,0:0:0:0:
256,192,214493,1,0,0:0:0:0:
256,192,214572,1,8,0:0:0:0:
256,192,214728,1,0,0:0:0:0:
256,192,215040,1,0,0:0:0:0:
256,192,215197,1,8,0:0:0:0:
256,192,215822,1,0,0:0:0:0:
256,192,215978,1,0,0:0:0:0:
256,192,216290,1,0,0:0:0:0:
256,192,216447,1,8,0:0:0:0:
256,192,216759,1,8,0:0:0:0:
256,192,216837,1,0,0:0:0:0:
256,192,216915,1,0,0:0:0:0:
256,192,216993,1,8,0:0:0:0:
256,192,217072,1,8,0:0:0:0:
256,192,217228,1,0,0:0:0:0:
256,192,217540,1,0,0:0:0:0:
256,192,217697,1,8,0:0:0:0:
256,192,218322,1,0,0:0:0:0:
256,192,218478,1,0,0:0:0:0:
256,192,218790,1,0,0:0:0:0:
256,192,218947,1,8,0:0:0:0:
256,192,219259,1,0,0:0:0:0:
256,192,219415,1,8,0:0:0:0:
256,192,219493,1,8,0:0:0:0:
256,192,219572,1,0,0:0:0:0:
256,192,219650,1,8,0:0:0:0:
256,192,219728,1,0,0:0:0:0:
256,192,219780,1,0,0:0:0:0:
256,192,219832,1,0,0:0:0:0:
256,192,219884,1,8,0:0:0:0:
256,192,220040,1,0,0:0:0:0:
256,192,220197,1,8,0:0:0:0:
256,192,220353,1,0,0:0:0:0:
256,192,220509,1,0,0:0:0:0:
256,192,220587,1,0,0:0:0:0:
256,192,220665,1,8,0:0:0:0:
256,192,220743,1,8,0:0:0:0:
256,192,220822,1,8,0:0:0:0:
256,192,220978,1,0,0:0:0:0:
256,192,221134,1,8,0:0:0:0:
256,192,221212,1,0,0:0:0:0:
256,192,221290,1,8,0:0:0:0:
256,192,221342,1,8,0:0:0:0:
256,192,221394,1,8,0:0:0:0:
256,192,221447,1,0,0:0:0:0:
256,192,221603,1,0,0:0:0:0:
256,192,221759,1,0,0:0:0:0:
256,192,221837,1,8,0:0:0:0:
256,192,221915,1,8,0:0:0:0:
256,192,221993,1,8,0:0:0:0:
256,192,222072,1,0,0:0:0:0:
256,192,222176,1,0,0:0:0:0:
256,192,222280,1,0,0:0:0:0:
256,192,222384,1,8,0:0:0:0:
256,192,222592,1,8,0:0:0:0:
256,192,222697,1,0,0:0:0:0:
256,192,222801,1,0,0:0:0:0:
256,192,222905,1,0,0:0:0:0:
256,192,223009,1,8,0:0:0:0:
256,192,223165,1,8,0:0:0:0:
256,192,223322,1,0,0:0:0:0:
256,192,223400,1,0,0:0:0:0:
256,192,223478,1,8,0:0:0:0:
256,192,223530,1,8,0:0:0:0:
256,192,223582,1,8,0:0:0:0:
256,192,223634,1,0,0:0:0:0:
256,192,223686,1,0,0:0:0:0:
256,192,223738,1,0,0:0:0:0:
256,192,223790,1,8,0:0:0:0:
256,192,223868,1,0,0:0:0:0:
256,192,223947,1,8,0:0:0:0:
256,192,224025,1,8,0:0:0:0:
256,192,224103,1,0,0:0:0:0:
256,192,224259,1,12,0:0:0:0:
256,192,224572,1,0,0:0:0:0:
256,192,224728,1,0,0:0:0:0:
256,192,224806,1,0,0:0:0:0:
256,192,224884,1,8,0:0:0:0:
256,192,225040,1,8,0:0:0:0:
256,192,225118,1,8,0:0:0:0:
256,192,225197,1,0,0:0:0:0:
256,192,225275,1,8,0:0:0:0:
256,192,225353,1,0,0:0:0:0:
256,192,225509,1,8,0:0:0:0:
256,192,225665,1,8,0:0:0:0:
256,192,225743,1,0,0:0:0:0:
256,192,225822,1,8,0:0:0:0:
256,192,225978,1,0,0:0:0:0:
256,192,226134,1,8,0:0:0:0:
256,192,226212,1,0,0:0:0:0:
256,192,226290,1,8,0:0:0:0:
256,192,226368,1,0,0:0:0:0:
256,192,226447,1,0,0:0:0:0:
256,192,226603,1,0,0:0:0:0:
256,192,226681,1,0,0:0:0:0:
256,192,226759,1,8,0:0:0:0:
256,192,226915,1,0,0:0:0:0:
256,192,227072,1,8,0:0:0:0:
256,192,227150,1,8,0:0:0:0:
256,192,227228,1,0,0:0:0:0:
256,192,227306,1,0,0:0:0:0:
256,192,227384,1,8,0:0:0:0:
256,192,227462,1,0,0:0:0:0:
256,192,227540,1,8,0:0:0:0:
256,192,227618,1,8,0:0:0:0:
256,192,227697,1,0,0:0:0:0:
256,192,227853,1,0,0:0:0:0:
256,192,227931,1,0,0:0:0:0:
256,192,228009,1,8,0:0:0:0:
256,192,228165,1,0,0:0:0:0:
256,192,228322,1,8,0:0:0:0:
256,192,228478,1,8,0:0:0:0:
256,192,228634,1,8,0:0:0:0:
256,192,228712,1,0,0:0:0:0:
256,192,228790,1,8,0:0:0:0:
256,192,228947,1,8,0:0:0:0:
256,192,229103,1,8,0:0:0:0:
256,192,229181,1,8,0:0:0:0:
256,192,229259,1,0,0:0:0:0:
256,192,229415,1,8,0:0:0:0:
256,192,229572,1,8,0:0:0:0:
256,192,229728,1,0,0:0:0:0:
256,192,229884,1,8,0:0:0:0:
256,192,229962,1,8,0:0:0:0:
256,192,230040,1,0,0:0:0:0:
256,192,230118,1,0,0:0:0:0:
256,192,230197,1,8,0:0:0:0:
256,192,230353,1,0,0:0:0:0:
256,192,230431,1,0,0:0:0:0:
256,192,230509,1,8,0:0:0:0:
256,192,230665,1,0,0:0:0:0:
256,192,230822,1,8,0:0:0:0:
256,192,230978,1,0,0:0:0:0:
256,192,231134,1,8,0:0:0:0:
256,192,231212,1,8,0:0:0:0:
256,192,231290,1,8,0:0:0:0:
256,192,231368,1,0,0:0:0:0:
256,192,231447,1,8,0:0:0:0:
256,192,231603,1,0,0:0:0:0:
256,192,231681,1,8,0:0:0:0:
256,192,231759,1,8,0:0:0:0:
256,192,231915,1,0,0:0:0:0:
256,192,232072,1,8,0:0:0:0:
256,192,232150,1,0,0:0:0:0:
256,192,232228,1,0,0:0:0:0:
256,192,232306,1,0,0:0:0:0:
256,192,232384,1,8,0:0:0:0:
256,192,232462,1,0,0:0:0:0:
256,192,232540,1,0,0:0:0:0:
256,192,232618,1,0,0:0:0:0:
256,192,232697,1,8,0:0:0:0:
256,192,232775,1,0,0:0:0:0:
256,192,232853,1,8,0:0:0:0:
256,192,232931,1,0,0:0:0:0:
256,192,233009,1,8,0:0:0:0:
256,192,233087,1,0,0:0:0:0:
256,192,233165,1,8,0:0:0:0:
256,192,233243,1,0,0:0:0:0:
256,192,233322,1,8,0:0:0:0:
256,192,233400,1,0,0:0:0:0:
256,192,233478,1,8,0:0:0:0:
256,192,233556,1,8,0:0:0:0:
256,192,233634,1,8,0:0:0:0:
256,192,233712,1,0,0:0:0:0:
256,192,233790,1,8,0:0:0:0:
256,192,233869,1,8,0:0:0:0:
256,192,233947,1,8,0:0:0:0:
256,192,234025,1,0,0:0:0:0:
256,192,234103,1,8,0:0:0:0:
256,192,234181,1,8,0:0:0:0:
256,192,234259,1,8,0:0:0:0:
256,192,234337,1,0,0:0:0:0:
256,192,234415,1,0,0:0:0:0:
256,192,234494,1,8,0:0:0:0:
256,192,234572,1,8,0:0:0:0:
256,192,234884,1,8,0:0:0:0:
256,192,235040,1,8,0:0:0:0:
256,192,235118,1,8,0:0:0:0:
256,192,235197,1,0,0:0:0:0:
256,192,235353,1,8,0:0:0:0:
256,192,235509,1,8,0:0:0:0:
256,192,235587,1,0,0:0:0:0:
256,192,235665,1,8,0:0:0:0:
256,192,235743,1,8,0:0:0:0:
256,192,235822,1,0,0:0:0:0:
256,192,235978,1,8,0:0:0:0:
256,192,236056,1,0,0:0:0:0:
256,192,236134,1,8,0:0:0:0:
256,192,236290,1,0,0:0:0:0:
256,192,236447,1,0,0:0:0:0:
256,192,236603,1,0,0:0:0:0:
256,192,236681,1,0,0:0:0:0:
256,192,236759,1,8,0:0:0:0:
256,192,236837,1,0,0:0:0:0:
256,192,236915,1,8,0:0:0:0:
256,192,237072,1,0,0:0:0:0:
256,192,237150,1,8,0:0:0:0:
256,192,237228,1,8,0:0:0:0:
256,192,237306,1,0,0:0:0:0:
256,192,237384,1,8,0:0:0:0:
256,192,237540,1,8,0:0:0:0:
256,192,237618,1,0,0:0:0:0:
256,192,237697,1,8,0:0:0:0:
256,192,237853,1,0,0:0:0:0:
256,192,238009,1,8,0:0:0:0:
256,192,238165,1,0,0:0:0:0:
256,192,238322,1,8,0:0:0:0:
256,192,238400,1,8,0:0:0:0:
256,192,238478,1,0,0:0:0:0:
256,192,238556,1,0,0:0:0:0:
256,192,238634,1,8,0:0:0:0:
256,192,238790,1,8,0:0:0:0:
256,192,238868,1,8,0:0:0:0:
256,192,238947,1,0,0:0:0:0:
256,192,239025,1,0,0:0:0:0:
256,192,239103,1,8,0:0:0:0:
256,192,239181,1,0,0:0:0:0:
256,192,239259,1,8,0:0:0:0:
256,192,239415,1,0,0:0:0:0:
256,192,239572,1,8,0:0:0:0:
256,192,239650,1,8,0:0:0:0:
256,192,239728,1,0,0:0:0:0:
256,192,239780,1,0,0:0:0:0:
256,192,239832,1,0,0:0:0:0:
256,192,239884,1,8,0:0:0:0:
256,192,240040,1,0,0:0:0:0:
256,192,240118,1,0,0:0:0:0:
256,192,240197,1,8,0:0:0:0:
256,192,240353,1,0,0:0:0:0:
256,192,240509,1,8,0:0:0:0:
256,192,240587,1,0,0:0:0:0:
256,192,240665,1,0,0:0:0:0:
256,192,240743,1,8,0:0:0:0:
256,192,240822,1,8,0:0:0:0:
256,192,240978,1,8,0:0:0:0:
256,192,241056,1,0,0:0:0:0:
256,192,241134,1,8,0:0:0:0:
256,192,241212,1,8,0:0:0:0:
256,192,241290,1,0,0:0:0:0:
256,192,241447,1,8,0:0:0:0:
256,192,241525,1,8,0:0:0:0:
256,192,241603,1,0,0:0:0:0:
256,192,241681,1,8,0:0:0:0:
256,192,241759,1,8,0:0:0:0:
256,192,241915,1,0,0:0:0:0:
256,192,241993,1,0,0:0:0:0:
256,192,242072,1,8,0:0:0:0:
256,192,242176,1,0,0:0:0:0:
256,192,242280,1,0,0:0:0:0:
256,192,242384,1,8,0:0:0:0:
256,192,242592,1,0,0:0:0:0:
256,192,242697,1,8,0:0:0:0:
256,192,242801,1,0,0:0:0:0:
256,192,242905,1,0,0:0:0:0:
256,192,243009,1,8,0:0:0:0:
256,192,243165,1,0,0:0:0:0:
256,192,243322,1,8,0:0:0:0:
256,192,243400,1,0,0:0:0:0:
256,192,243478,1,8,0:0:0:0:
256,192,243530,1,8,0:0:0:0:
256,192,243582,1,8,0:0:0:0:
256,192,243634,1,0,0:0:0:0:
256,192,243686,1,0,0:0:0:0:
256,192,243738,1,0,0:0:0:0:
256,192,243790,1,8,0:0:0:0:
256,192,243868,1,8,0:0:0:0:
256,192,243947,1,8,0:0:0:0:
256,192,244025,1,0,0:0:0:0:
256,192,244103,1,8,0:0:0:0:
256,192,244259,1,12,0:0:0:0:
256,192,244572,1,4,0:0:0:0:
256,192,244728,1,0,0:0:0:0:
256,192,244884,1,8,0:0:0:0:
256,192,245040,1,0,0:0:0:0:
256,192,245118,1,8,0:0:0:0:
256,192,245197,1,0,0:0:0:0:
256,192,245353,1,0,0:0:0:0:
256,192,245509,1,8,0:0:0:0:
256,192,245587,1,8,0:0:0:0:
256,192,245665,1,0,0:0:0:0:
256,192,245743,1,8,0:0:0:0:
256,192,245822,1,0,0:0:0:0:
256,192,245978,1,0,0:0:0:0:
256,192,246134,1,8,0:0:0:0:
256,192,246290,1,0,0:0:0:0:
256,192,246368,1,0,0:0:0:0:
256,192,246447,1,0,0:0:0:0:
256,192,246603,1,0,0:0:0:0:
256,192,246759,1,8,0:0:0:0:
256,192,246837,1,8,0:0:0:0:
256,192,246915,1,0,0:0:0:0:
256,192,246993,1,0,0:0:0:0:
256,192,247072,1,8,0:0:0:0:
256,192,247228,1,0,0:0:0:0:
256,192,247384,1,8,0:0:0:0:
256,192,247540,1,0,0:0:0:0:
256,192,247618,1,8,0:0:0:0:
256,192,247697,1,8,0:0:0:0:
256,192,247853,1,0,0:0:0:0:
256,192,248009,1,8,0:0:0:0:
256,192,248165,1,0,0:0:0:0:
256,192,248322,1,8,0:0:0:0:
256,192,248400,1,8,0:0:0:0:
256,192,248478,1,0,0:0:0:0:
256,192,248556,1,8,0:0:0:0:
256,192,248634,1,8,0:0:0:0:
256,192,248790,1,8,0:0:0:0:
256,192,248868,1,8,0:0:0:0:
256,192,248947,1,0,0:0:0:0:
256,192,249103,1,0,0:0:0:0:
256,192,249259,1,8,0:0:0:0:
256,192,249337,1,0,0:0:0:0:
256,192,249415,1,8,0:0:0:0:
256,192,249572,1,0,0:0:0:0:
256,192,249650,1,0,0:0:0:0:
256,192,249728,1,0,0:0:0:0:
256,192,249806,1,0,0:0:0:0:
256,192,249884,1,8,0:0:0:0:
256,192,250040,1,8,0:0:0:0:
256,192,250118,1,8,0:0:0:0:
256,192,250197,1,0,0:0:0:0:
256,192,250353,1,0,0:0:0:0:
256,192,250509,1,8,0:0:0:0:
256,192,250587,1,0,0:0:0:0:
256,192,250665,1,0,0:0:0:0:
256,192,250743,1,8,0:0:0:0:
256,192,250822,1,8,0:0:0:0:
256,192,250978,1,8,0:0:0:0:
256,192,251056,1,8,0:0:0:0:
256,192,251134,1,0,0:0:0:0:
256,192,251212,1,8,0:0:0:0:
256,192,251290,1,0,0:0:0:0:
256,192,251447,1,0,0:0:0:0:
256,192,251603,1,0,0:0:0:0:
256,192,251681,1,0,0:0:0:0:
256,192,251759,1,8,0:0:0:0:
256,192,251915,1,0,0:0:0:0:
256,192,252072,1,0,0:0:0:0:
256,192,252150,1,0,0:0:0:0:
256,192,252228,1,0,0:0:0:0:
256,192,252306,1,0,0:0:0:0:
256,192,252384,1,8,0:0:0:0:
256,192,252462,1,0,0:0:0:0:
256,192,252540,1,8,0:0:0:0:
256,192,252618,1,8,0:0:0:0:
256,192,252697,1,0,0:0:0:0:
256,192,252775,1,0,0:0:0:0:
256,192,252853,1,8,0:0:0:0:
256,192,252931,1,8,0:0:0:0:
256,192,253009,1,8,0:0:0:0:
256,192,253087,1,0,0:0:0:0:
256,192,253165,1,8,0:0:0:0:
256,192,253243,1,8,0:0:0:0:
256,192,253322,1,0,0:0:0:0:
256,192,253400,1,0,0:0:0:0:
256,192,253478,1,8,0:0:0:0:
256,192,253530,1,8,0:0:0:0:
256,192,253582,1,8,0:0:0:0:
256,192,253634,1,0,0:0:0:0:
256,192,253686,1,0,0:0:0:0:
256,192,253738,1,0,0:0:0:0:
256,192,253790,1,8,0:0:0:0:
256,192,253868,1,8,0:0:0:0:
256,192,253947,1,8,0:0:0:0:
256,192,254025,1,0,0:0:0:0:
256,192,254103,1,8,0:0:0:0:
256,192,254181,1,8,0:0:0:0:
256,192,254259,1,0,0:0:0:0:
256,192,254572,1,4,0:0:0:0:
256,192,254884,1,8,0:0:0:0:
256,192,255040,1,0,0:0:0:0:
256,192,255353,1,0,0:0:0:0:
256,192,255509,1,8,0:0:0:0:
256,192,255822,1,0,0:0:0:0:
256,192,255978,1,0,0:0:0:0:
256,192,256134,1,8,0:0:0:0:
256,192,256290,1,0,0:0:0:0:
256,192,256603,1,0,0:0:0:0:
256,192,256759,1,8,0:0:0:0:
256,192,257072,1,8,0:0:0:0:
256,192,257228,1,0,0:0:0:0:
256,192,257384,1,8,0:0:0:0:
256,192,257540,1,0,0:0:0:0:
256,192,257853,1,0,0:0:0:0:
256,192,258009,1,0,0:0:0:0:
256,192,258165,1,8,0:0:0:0:
256,192,258478,1,0,0:0:0:0:
256,192,258634,1,8,0:0:0:0:
256,192,258790,1,0,0:0:0:0:
256,192,259103,1,0,0:0:0:0:
256,192,259259,1,8,0:0:0:0:
256,192,259415,1,0,0:0:0:0:
256,192,259493,1,8,0:0:0:0:
256,192,259572,1,8,0:0:0:0:
256,192,259884,1,8,0:0:0:0:
256,192,260040,1,0,0:0:0:0:
256,192,260118,1,8,0:0:0:0:
256,192,260197,1,0,0:0:0:0:
256,192,260353,1,0,0:0:0:0:
256,192,260509,1,8,0:0:0:0:
256,192,260822,1,0,0:0:0:0:
256,192,260978,1,0,0:0:0:0:
256,192,261134,1,8,0:0:0:0:
256,192,261290,1,8,0:0:0:0:
256,192,261603,1,8,0:0:0:0:
256,192,261759,1,8,0:0:0:0:
256,192,262072,1,8,0:0:0:0:
256,192,262228,1,0,0:0:0:0:
256,192,262384,1,0,0:0:0:0:
256,192,262540,1,8,0:0:0:0:
256,192,262853,1,0,0:0:0:0:
256,192,263165,1,0,0:0:0:0:
256,192,263322,1,8,0:0:0:0:
256,192,263478,1,0,0:0:0:0:
256,192,263634,1,8,0:0:0:0:
256,192,263790,1,8,0:0:0:0:
256,192,263947,1,0,0:0:0:0:
256,192,264103,1,0,0:0:0:0:
256,192,264259,1,8,0:0:0:0:
256,192,264415,1,0,0:0:0:0:
