osu file format v14

[General]
AudioFilename: audio.mp3
AudioLeadIn: 0
PreviewTime: 141603
Countdown: 0
SampleSet: Normal
StackLeniency: 0.2
Mode: 1
LetterboxInBreaks: 0
WidescreenStoryboard: 0

[Editor]
Bookmarks: 22073,32073,52073,72073,82073,92073,102073,122073,142073,154573,164573,174573,184573,194573,204573,214573,219573,234573,254573
DistanceSpacing: 0.7
BeatDivisor: 4
GridSize: 32
TimelineZoom: 4.099999

[Metadata]
Title:Night sky (Extended Mix)
TitleUnicode:Night sky (Extended Mix)
Artist:USAO
ArtistUnicode:USAO
Creator:Jaye
Version:Muzukashii
Source:beatmania IIDX 22 PENDUAL
Tags:bemani Pumpcore Hardtek Electronic
BeatmapID:1136923
BeatmapSetID:536313

[Difficulty]
HPDrainRate:5
CircleSize:2
OverallDifficulty:5
ApproachRate:10
SliderMultiplier:1.4
SliderTickRate:1

[Events]
//Background and Video events
0,0,"starry-night-sky-free-wallpaper-1366x768.jpg",0,-70
//Break Periods
//Storyboard Layer 0 (Background)
//Storyboard Layer 1 (Fail)
//Storyboard Layer 2 (Pass)
//Storyboard Layer 3 (Foreground)
//Storyboard Sound Samples

[TimingPoints]
2072,312.5,4,1,0,15,1,0
3322,-100,4,1,0,20,0,0
4572,-100,4,1,0,25,0,0
5822,-100,4,1,0,30,0,0
7072,-100,4,1,0,35,0,0
8322,-100,4,1,0,40,0,0
9572,-100,4,1,0,50,0,0
12072,-100,4,1,0,65,0,0
12384,-100,4,1,0,50,0,0
18322,-100,4,1,0,55,0,0
22384,-100,4,1,0,65,0,0
27072,-100,4,1,0,66,0,0
27384,-100,4,1,0,67,0,0
27697,-100,4,1,0,68,0,0
28009,-100,4,1,0,69,0,0
28322,-100,4,1,0,70,0,0
28634,-100,4,1,0,71,0,0
28947,-100,4,1,0,72,0,0
29259,-100,4,1,0,73,0,0
29572,-100,4,1,0,74,0,0
29884,-100,4,1,0,76,0,0
30197,-100,4,1,0,78,0,0
30509,-100,4,1,0,80,0,0
32072,-100,4,1,0,95,0,0
32384,-100,4,1,0,80,0,0
82384,-100,4,1,0,75,0,0
82540,-100,4,1,0,70,0,0
82853,-100,4,1,0,65,0,0
83009,-100,4,1,0,60,0,0
83322,-100,4,1,0,55,0,0
83478,-100,4,1,0,50,0,0
84572,-100,4,1,0,55,0,0
85822,-100,4,1,0,60,0,0
86603,-100,4,1,0,63,0,0
87228,-100,4,1,0,67,0,0
87853,-100,4,1,0,68,0,0
88478,-100,4,1,0,69,0,0
89572,-100,4,1,0,70,0,0
92072,-100,4,1,0,75,0,0
97072,-100,4,1,0,78,0,0
98165,-100,4,1,0,80,0,0
99259,-100,4,1,0,82,0,0
100197,-100,4,1,0,84,0,0
101134,-100,4,1,0,86,0,0
102072,-100,4,1,0,90,0,0
122384,-100,4,1,0,80,0,0
142072,-100,4,1,0,100,0,1
142228,-100,4,1,0,80,0,1
147072,-100,4,1,0,100,0,1
147228,-100,4,1,0,80,0,1
152072,-100,4,1,0,80,0,0
152228,-100,4,1,0,80,0,0
154572,-100,4,1,0,100,0,0
154728,-100,4,1,0,85,0,0
159572,-100,4,1,0,100,0,0
159728,-100,4,1,0,85,0,0
164572,-100,4,1,0,85,0,1
174259,-100,4,1,0,85,0,0
174572,-100,4,1,0,85,0,1
184572,-100,4,1,0,85,0,0
204572,-100,4,1,0,85,0,1
204728,-100,4,1,0,85,0,1
214572,-100,4,1,0,85,0,0
219572,-100,4,1,0,85,0,1
254572,-100,4,1,0,85,0,0
254884,-100,4,1,0,80,0,0
255040,-100,4,1,0,75,0,0
255353,-100,4,1,0,70,0,0

[HitObjects]
256,192,2072,5,0,0:0:0:0:
256,192,2540,1,0,0:0:0:0:
256,192,2853,1,8,0:0:0:0:
256,192,3322,1,8,0:0:0:0:
256,192,3790,1,0,0:0:0:0:
256,192,4572,1,0,0:0:0:0:
256,192,5040,1,0,0:0:0:0:
256,192,5353,1,8,0:0:0:0:
256,192,5822,1,0,0:0:0:0:
256,192,6290,1,8,0:0:0:0:
256,192,7072,1,0,0:0:0:0:
256,192,7384,1,8,0:0:0:0:
256,192,7540,1,0,0:0:0:0:
256,192,8009,1,8,0:0:0:0:
256,192,8634,1,8,0:0:0:0:
256,192,8790,1,0,0:0:0:0:
256,192,9259,1,8,0:0:0:0:
256,192,9572,1,0,0:0:0:0:
256,192,10040,1,0,0:0:0:0:
256,192,10353,1,8,0:0:0:0:
256,192,10822,1,8,0:0:0:0:
256,192,11134,1,8,0:0:0:0:
256,192,11290,1,0,0:0:0:0:
256,192,11603,1,8,0:0:0:0:
256,192,12072,1,8,0:0:0:0:
256,192,12384,1,8,0:0:0:0:
256,192,12540,1,0,0:0:0:0:
256,192,12853,1,0,0:0:0:0:
256,192,13009,1,8,0:0:0:0:
256,192,13322,1,0,0:0:0:0:
256,192,13634,1,8,0:0:0:0:
256,192,13790,1,8,0:0:0:0:
256,192,14103,1,8,0:0:0:0:
256,192,14259,1,0,0:0:0:0:
256,192,14415,1,8,0:0:0:0:
256,192,14493,1,8,0:0:0:0:
256,192,14572,1,8,0:0:0:0:
256,192,15197,1,8,0:0:0:0:
256,192,15822,1,8,0:0:0:0:
256,192,16447,1,0,0:0:0:0:
256,192,17072,1,0,0:0:0:0:
256,192,17384,1,8,0:0:0:0:
256,192,17540,1,0,0:0:0:0:
256,192,17853,1,0,0:0:0:0:
256,192,18009,1,8,0:0:0:0:
256,192,18087,1,8,0:0:0:0:
256,192,18165,1,8,0:0:0:0:
256,192,18322,1,8,0:0:0:0:
256,192,18947,1,0,0:0:0:0:
256,192,19572,1,0,0:0:0:0:
256,192,19884,1,8,0:0:0:0:
256,192,20040,1,0,0:0:0:0:
256,192,20353,1,0,0:0:0:0:
256,192,20509,1,8,0:0:0:0:
256,192,20822,1,8,0:0:0:0:
256,192,21134,1,8,0:0:0:0:
256,192,21290,1,0,0:0:0:0:
256,192,21603,1,0,0:0:0:0:
256,192,21759,1,8,0:0:0:0:
256,192,21915,1,0,0:0:0:0:
256,192,22072,1,8,0:0:0:0:
256,192,22384,1,8,0:0:0:0:
256,192,22540,1,0,0:0:0:0:
256,192,22697,1,8,0:0:0:0:
256,192,23009,1,0,0:0:0:0:
256,192,23165,1,8,0:0:0:0:
256,192,23478,1,0,0:0:0:0:
256,192,23790,1,0,0:0:0:0:
256,192,24103,1,8,0:0:0:0:
256,192,24415,1,0,0:0:0:0:
256,192,24728,1,0,0:0:0:0:
256,192,24806,1,0,0:0:0:0:
256,192,24884,1,0,0:0:0:0:
256,192,25040,1,8,0:0:0:0:
256,192,25353,1,0,0:0:0:0:
256,192,25431,1,0,0:0:0:0:
256,192,25509,1,0,0:0:0:0:
256,192,25665,1,8,0:0:0:0:
256,192,25822,1,0,0:0:0:0:
256,192,26134,1,8,0:0:0:0:
256,192,26290,1,0,0:0:0:0:
256,192,26603,1,8,0:0:0:0:
256,192,26759,1,0,0:0:0:0:
256,192,27072,1,0,0:0:0:0:
256,192,27384,1,0,0:0:0:0:
256,192,27540,1,8,0:0:0:0:
256,192,27697,1,0,0:0:0:0:
256,192,27853,1,0,0:0:0:0:
256,192,27931,1,0,0:0:0:0:
256,192,28009,1,0,0:0:0:0:
256,192,28165,1,8,0:0:0:0:
256,192,28478,1,0,0:0:0:0:
256,192,28790,1,0,0:0:0:0:
256,192,29103,1,8,0:0:0:0:
256,192,29415,1,8,0:0:0:0:
256,192,29572,1,0,0:0:0:0:
256,192,29728,1,0,0:0:0:0:
256,192,29884,1,0,0:0:0:0:
256,192,30040,1,8,0:0:0:0:
256,192,30197,1,0,0:0:0:0:
256,192,30353,1,0,0:0:0:0:
256,192,30509,1,8,0:0:0:0:
256,192,30822,1,8,0:0:0:0:
256,192,30978,1,0,0:0:0:0:
256,192,31056,1,0,0:0:0:0:
256,192,31134,1,0,0:0:0:0:
256,192,31290,1,8,0:0:0:0:
256,192,31603,1,8,0:0:0:0:
256,192,31759,1,0,0:0:0:0:
256,192,32072,1,4,0:0:0:0:
256,192,32228,1,0,0:0:0:0:
256,192,32384,1,8,0:0:0:0:
256,192,32697,1,0,0:0:0:0:
256,192,33009,1,8,0:0:0:0:
256,192,33322,1,0,0:0:0:0:
256,192,33478,1,0,0:0:0:0:
256,192,33634,1,8,0:0:0:0:
256,192,33946,1,0,0:0:0:0:
256,192,34259,1,8,0:0:0:0:
256,192,34572,1,0,0:0:0:0:
256,192,34728,1,8,0:0:0:0:
256,192,34884,1,0,0:0:0:0:
256,192,35197,1,0,0:0:0:0:
256,192,35509,1,8,0:0:0:0:
256,192,35821,1,0,0:0:0:0:
256,192,35978,1,0,0:0:0:0:
256,192,36134,1,0,0:0:0:0:
256,192,36759,1,8,0:0:0:0:
256,192,37072,1,4,0:0:0:0:
256,192,37228,1,0,0:0:0:0:
256,192,37384,1,8,0:0:0:0:
256,192,37697,1,0,0:0:0:0:
256,192,38009,1,0,0:0:0:0:
256,192,38321,1,0,0:0:0:0:
256,192,38478,1,8,0:0:0:0:
256,192,38634,1,0,0:0:0:0:
256,192,38947,1,0,0:0:0:0:
256,192,39259,1,8,0:0:0:0:
256,192,39884,1,0,0:0:0:0:
256,192,40040,1,8,0:0:0:0:
256,192,40196,1,0,0:0:0:0:
256,192,40509,1,0,0:0:0:0:
256,192,40665,1,8,0:0:0:0:
256,192,40978,1,8,0:0:0:0:
256,192,41290,1,0,0:0:0:0:
256,192,41447,1,8,0:0:0:0:
256,192,42072,1,4,0:0:0:0:
256,192,42228,1,0,0:0:0:0:
256,192,42306,1,0,0:0:0:0:
256,192,42384,1,0,0:0:0:0:
256,192,42697,1,0,0:0:0:0:
256,192,43009,1,8,0:0:0:0:
256,192,43322,1,0,0:0:0:0:
256,192,43478,1,8,0:0:0:0:
256,192,43556,1,8,0:0:0:0:
256,192,43634,1,8,0:0:0:0:
256,192,43946,1,0,0:0:0:0:
256,192,44103,1,8,0:0:0:0:
256,192,44415,1,8,0:0:0:0:
256,192,44572,1,0,0:0:0:0:
256,192,44884,1,0,0:0:0:0:
256,192,45040,1,8,0:0:0:0:
256,192,45197,1,0,0:0:0:0:
256,192,45509,1,0,0:0:0:0:
256,192,45665,1,8,0:0:0:0:
256,192,45978,1,8,0:0:0:0:
256,192,46134,1,0,0:0:0:0:
256,192,46447,1,0,0:0:0:0:
256,192,46603,1,8,0:0:0:0:
256,192,46915,1,12,0:0:0:0:
256,192,47072,1,4,0:0:0:0:
256,192,47228,1,8,0:0:0:0:
256,192,47306,1,8,0:0:0:0:
256,192,47384,1,8,0:0:0:0:
256,192,47697,1,0,0:0:0:0:
256,192,48009,1,0,0:0:0:0:
256,192,48321,1,8,0:0:0:0:
256,192,48478,1,0,0:0:0:0:
256,192,48556,1,0,0:0:0:0:
256,192,48634,1,0,0:0:0:0:
256,192,48947,1,0,0:0:0:0:
256,192,49259,1,8,0:0:0:0:
256,192,49415,1,8,0:0:0:0:
256,192,49493,1,8,0:0:0:0:
256,192,49572,1,8,0:0:0:0:
256,192,49884,1,0,0:0:0:0:
256,192,50040,1,8,0:0:0:0:
256,192,50197,1,8,0:0:0:0:
256,192,50509,1,8,0:0:0:0:
256,192,50665,1,8,0:0:0:0:
256,192,50822,1,0,0:0:0:0:
256,192,50978,1,0,0:0:0:0:
256,192,51134,1,8,0:0:0:0:
256,192,51290,1,0,0:0:0:0:
256,192,51447,1,8,0:0:0:0:
256,192,51525,1,8,0:0:0:0:
256,192,51603,1,8,0:0:0:0:
256,192,51759,1,0,0:0:0:0:
256,192,52072,1,4,0:0:0:0:
256,192,52384,1,8,0:0:0:0:
256,192,52540,1,0,0:0:0:0:
256,192,52697,1,8,0:0:0:0:
256,192,52853,1,0,0:0:0:0:
256,192,53009,1,0,0:0:0:0:
256,192,53165,1,8,0:0:0:0:
256,192,53478,1,8,0:0:0:0:
256,192,53790,1,8,0:0:0:0:
256,192,54103,1,8,0:0:0:0:
256,192,54259,1,0,0:0:0:0:
256,192,54415,1,0,0:0:0:0:
256,192,54728,1,8,0:0:0:0:
256,192,55197,1,8,0:0:0:0:
256,192,55509,1,0,0:0:0:0:
256,192,55822,1,0,0:0:0:0:
256,192,55978,1,8,0:0:0:0:
256,192,56134,1,0,0:0:0:0:
256,192,56290,1,8,0:0:0:0:
256,192,56603,1,8,0:0:0:0:
256,192,56759,1,0,0:0:0:0:
256,192,57384,1,8,0:0:0:0:
256,192,57540,1,0,0:0:0:0:
256,192,57696,1,8,0:0:0:0:
256,192,57853,1,0,0:0:0:0:
256,192,58009,1,8,0:0:0:0:
256,192,58165,1,0,0:0:0:0:
256,192,58478,1,8,0:0:0:0:
256,192,58634,1,0,0:0:0:0:
256,192,58790,1,0,0:0:0:0:
256,192,59103,1,0,0:0:0:0:
256,192,59415,1,8,0:0:0:0:
256,192,59572,1,0,0:0:0:0:
256,192,59728,1,0,0:0:0:0:
256,192,59884,1,8,0:0:0:0:
256,192,60197,1,0,0:0:0:0:
256,192,60353,1,8,0:0:0:0:
256,192,60509,1,8,0:0:0:0:
256,192,60822,1,8,0:0:0:0:
256,192,60900,1,8,0:0:0:0:
256,192,60978,1,8,0:0:0:0:
256,192,61134,1,8,0:0:0:0:
256,192,61290,1,0,0:0:0:0:
256,192,61447,1,8,0:0:0:0:
256,192,61525,1,8,0:0:0:0:
256,192,61603,1,8,0:0:0:0:
256,192,61759,1,0,0:0:0:0:
256,192,62072,1,8,0:0:0:0:
256,192,62228,1,0,0:0:0:0:
256,192,62384,1,8,0:0:0:0:
256,192,62540,1,8,0:0:0:0:
256,192,62853,1,8,0:0:0:0:
256,192,63009,1,0,0:0:0:0:
256,192,63322,1,0,0:0:0:0:
256,192,63478,1,8,0:0:0:0:
256,192,63634,1,0,0:0:0:0:
256,192,63790,1,0,0:0:0:0:
256,192,64103,1,8,0:0:0:0:
256,192,64259,1,0,0:0:0:0:
256,192,64572,1,0,0:0:0:0:
256,192,64728,1,0,0:0:0:0:
256,192,64884,1,8,0:0:0:0:
256,192,65197,1,8,0:0:0:0:
256,192,65353,1,0,0:0:0:0:
256,192,65509,1,0,0:0:0:0:
256,192,65665,1,8,0:0:0:0:
256,192,65822,1,0,0:0:0:0:
256,192,66134,1,0,0:0:0:0:
256,192,66447,1,8,0:0:0:0:
256,192,66759,1,0,0:0:0:0:
256,192,67072,1,0,0:0:0:0:
256,192,67228,1,8,0:0:0:0:
256,192,67384,1,8,0:0:0:0:
256,192,67540,1,8,0:0:0:0:
256,192,67853,1,0,0:0:0:0:
256,192,68009,1,8,0:0:0:0:
256,192,68087,1,8,0:0:0:0:
256,192,68165,1,8,0:0:0:0:
256,192,68321,1,0,0:0:0:0:
256,192,68478,1,8,0:0:0:0:
256,192,68634,1,8,0:0:0:0:
256,192,68790,1,8,0:0:0:0:
256,192,69103,1,0,0:0:0:0:
256,192,69259,1,0,0:0:0:0:
256,192,69415,1,8,0:0:0:0:
256,192,69572,1,8,0:0:0:0:
256,192,69728,1,0,0:0:0:0:
256,192,69806,1,0,0:0:0:0:
256,192,69884,1,0,0:0:0:0:
256,192,70197,1,8,0:0:0:0:
256,192,70353,1,0,0:0:0:0:
256,192,70431,1,0,0:0:0:0:
256,192,70509,1,0,0:0:0:0:
256,192,70822,1,0,0:0:0:0:
256,192,70900,1,0,0:0:0:0:
256,192,70978,1,0,0:0:0:0:
256,192,71134,1,0,0:0:0:0:
256,192,71290,1,0,0:0:0:0:
256,192,71447,1,8,0:0:0:0:
256,192,71525,1,8,0:0:0:0:
256,192,71603,1,8,0:0:0:0:
256,192,71759,1,0,0:0:0:0:
256,192,72072,1,0,0:0:0:0:
256,192,72228,1,8,0:0:0:0:
256,192,72384,1,8,0:0:0:0:
256,192,72540,1,8,0:0:0:0:
256,192,72696,1,0,0:0:0:0:
256,192,73321,1,0,0:0:0:0:
256,192,73478,1,8,0:0:0:0:
256,192,73556,1,8,0:0:0:0:
256,192,73634,1,8,0:0:0:0:
256,192,73790,1,8,0:0:0:0:
256,192,73947,1,0,0:0:0:0:
256,192,74103,1,0,0:0:0:0:
256,192,74259,1,8,0:0:0:0:
256,192,74572,1,0,0:0:0:0:
256,192,74728,1,8,0:0:0:0:
256,192,74806,1,8,0:0:0:0:
256,192,74884,1,8,0:0:0:0:
256,192,75040,1,8,0:0:0:0:
256,192,75197,1,0,0:0:0:0:
256,192,75822,1,0,0:0:0:0:
256,192,75978,1,0,0:0:0:0:
256,192,76056,1,0,0:0:0:0:
256,192,76134,1,0,0:0:0:0:
256,192,76290,1,0,0:0:0:0:
256,192,76368,1,0,0:0:0:0:
256,192,76447,1,0,0:0:0:0:
256,192,76603,1,8,0:0:0:0:
256,192,76759,1,0,0:0:0:0:
256,192,77072,1,0,0:0:0:0:
256,192,77228,1,8,0:0:0:0:
256,192,77384,1,8,0:0:0:0:
256,192,77540,1,8,0:0:0:0:
256,192,77696,1,0,0:0:0:0:
256,192,78321,1,0,0:0:0:0:
256,192,78478,1,8,0:0:0:0:
256,192,78556,1,8,0:0:0:0:
256,192,78634,1,8,0:0:0:0:
256,192,78790,1,8,0:0:0:0:
256,192,78947,1,0,0:0:0:0:
256,192,79103,1,8,0:0:0:0:
256,192,79259,1,8,0:0:0:0:
256,192,79572,1,0,0:0:0:0:
256,192,79780,1,0,0:0:0:0:
256,192,79884,1,8,0:0:0:0:
256,192,80197,1,0,0:0:0:0:
256,192,80405,1,0,0:0:0:0:
256,192,80509,1,8,0:0:0:0:
256,192,80822,1,8,0:0:0:0:
256,192,81134,1,8,0:0:0:0:
256,192,81290,1,0,0:0:0:0:
256,192,81447,1,8,0:0:0:0:
256,192,81603,1,8,0:0:0:0:
256,192,81681,1,8,0:0:0:0:
256,192,81759,1,8,0:0:0:0:
256,192,82072,1,0,0:0:0:0:
256,192,82384,1,8,0:0:0:0:
256,192,82540,1,0,0:0:0:0:
256,192,83009,1,8,0:0:0:0:
256,192,83322,1,0,0:0:0:0:
256,192,83478,1,0,0:0:0:0:
256,192,83634,1,8,0:0:0:0:
256,192,83790,1,0,0:0:0:0:
256,192,84259,1,8,0:0:0:0:
256,192,84572,1,0,0:0:0:0:
256,192,84728,1,0,0:0:0:0:
256,192,84884,1,8,0:0:0:0:
256,192,85040,1,0,0:0:0:0:
256,192,85509,1,8,0:0:0:0:
256,192,85822,1,0,0:0:0:0:
256,192,85978,1,0,0:0:0:0:
256,192,86134,1,8,0:0:0:0:
256,192,86290,1,0,0:0:0:0:
256,192,86759,1,8,0:0:0:0:
256,192,87072,1,8,0:0:0:0:
256,192,87384,1,8,0:0:0:0:
256,192,87540,1,0,0:0:0:0:
256,192,88009,1,8,0:0:0:0:
256,192,88322,1,0,0:0:0:0:
256,192,88634,1,8,0:0:0:0:
256,192,88790,1,8,0:0:0:0:
256,192,89259,1,8,0:0:0:0:
256,192,89572,1,8,0:0:0:0:
256,192,89884,1,8,0:0:0:0:
256,192,90040,1,0,0:0:0:0:
256,192,90509,1,0,0:0:0:0:
256,192,90665,1,0,0:0:0:0:
256,192,90822,1,8,0:0:0:0:
256,192,91134,1,0,0:0:0:0:
256,192,91290,1,8,0:0:0:0:
256,192,91447,1,0,0:0:0:0:
256,192,92072,1,8,0:0:0:0:
256,192,92228,1,0,0:0:0:0:
256,192,92384,1,8,0:0:0:0:
256,192,92462,1,8,0:0:0:0:
256,192,92540,1,8,0:0:0:0:
256,192,92697,1,8,0:0:0:0:
256,192,93009,1,8,0:0:0:0:
256,192,93322,1,0,0:0:0:0:
256,192,93634,1,0,0:0:0:0:
256,192,93790,1,0,0:0:0:0:
256,192,94259,1,0,0:0:0:0:
256,192,94415,1,8,0:0:0:0:
256,192,94572,1,8,0:0:0:0:
256,192,94884,1,8,0:0:0:0:
256,192,95197,1,8,0:0:0:0:
256,192,95509,1,0,0:0:0:0:
256,192,95665,1,8,0:0:0:0:
256,192,95822,1,8,0:0:0:0:
256,192,96134,1,8,0:0:0:0:
256,192,96290,1,0,0:0:0:0:
256,192,96447,1,8,0:0:0:0:
256,192,96525,1,8,0:0:0:0:
256,192,96603,1,8,0:0:0:0:
256,192,96759,1,0,0:0:0:0:
256,192,97072,1,8,0:0:0:0:
256,192,97384,1,8,0:0:0:0:
256,192,97540,1,8,0:0:0:0:
256,192,97853,1,8,0:0:0:0:
256,192,98009,1,8,0:0:0:0:
256,192,98087,1,8,0:0:0:0:
256,192,98165,1,8,0:0:0:0:
256,192,98322,1,0,0:0:0:0:
256,192,98634,1,0,0:0:0:0:
256,192,98790,1,0,0:0:0:0:
256,192,99103,1,0,0:0:0:0:
256,192,99259,1,8,0:0:0:0:
256,192,99337,1,8,0:0:0:0:
256,192,99415,1,8,0:0:0:0:
256,192,99572,1,0,0:0:0:0:
256,192,99884,1,8,0:0:0:0:
256,192,100040,1,8,0:0:0:0:
256,192,100353,1,0,0:0:0:0:
256,192,100509,1,0,0:0:0:0:
256,192,100587,1,0,0:0:0:0:
256,192,100665,1,0,0:0:0:0:
256,192,100822,1,8,0:0:0:0:
256,192,101134,1,0,0:0:0:0:
256,192,101290,1,8,0:0:0:0:
256,192,101603,1,0,0:0:0:0:
256,192,101759,1,8,0:0:0:0:
256,192,102072,1,4,0:0:0:0:
256,192,102540,1,4,0:0:0:0:
256,192,102853,1,4,0:0:0:0:
256,192,103165,1,12,0:0:0:0:
256,192,103790,1,0,0:0:0:0:
256,192,103947,1,8,0:0:0:0:
256,192,104572,1,4,0:0:0:0:
256,192,105040,1,4,0:0:0:0:
256,192,105353,1,4,0:0:0:0:
256,192,105509,1,0,0:0:0:0:
256,192,105665,1,8,0:0:0:0:
256,192,106447,1,0,0:0:0:0:
256,192,106603,1,8,0:0:0:0:
256,192,106759,1,0,0:0:0:0:
256,192,107072,1,4,0:0:0:0:
256,192,107540,1,4,0:0:0:0:
256,192,107853,1,4,0:0:0:0:
256,192,108165,1,12,0:0:0:0:
256,192,108790,1,0,0:0:0:0:
256,192,108947,1,8,0:0:0:0:
256,192,109415,1,0,0:0:0:0:
256,192,109572,1,4,0:0:0:0:
256,192,110040,1,4,0:0:0:0:
256,192,110353,1,4,0:0:0:0:
256,192,110665,1,4,0:0:0:0:
256,192,110822,1,8,0:0:0:0:
256,192,111134,1,8,0:0:0:0:
256,192,111290,1,0,0:0:0:0:
256,192,111603,1,0,0:0:0:0:
256,192,111759,1,8,0:0:0:0:
256,192,112072,1,4,0:0:0:0:
256,192,112540,1,4,0:0:0:0:
256,192,112853,1,4,0:0:0:0:
256,192,113165,1,12,0:0:0:0:
256,192,113790,1,0,0:0:0:0:
256,192,113947,1,8,0:0:0:0:
256,192,114415,1,0,0:0:0:0:
256,192,114572,1,4,0:0:0:0:
256,192,115040,1,4,0:0:0:0:
256,192,115353,1,4,0:0:0:0:
256,192,115509,1,0,0:0:0:0:
256,192,115665,1,8,0:0:0:0:
256,192,116447,1,0,0:0:0:0:
256,192,116603,1,8,0:0:0:0:
256,192,116759,1,0,0:0:0:0:
256,192,117072,1,4,0:0:0:0:
256,192,117540,1,4,0:0:0:0:
256,192,117853,1,4,0:0:0:0:
256,192,118165,1,12,0:0:0:0:
256,192,118947,1,8,0:0:0:0:
256,192,119415,1,0,0:0:0:0:
256,192,119572,1,4,0:0:0:0:
256,192,120040,1,4,0:0:0:0:
256,192,120353,1,4,0:0:0:0:
256,192,120665,1,4,0:0:0:0:
256,192,120822,1,8,0:0:0:0:
256,192,121134,1,8,0:0:0:0:
256,192,121290,1,0,0:0:0:0:
256,192,121603,1,0,0:0:0:0:
256,192,121759,1,8,0:0:0:0:
256,192,122072,1,4,0:0:0:0:
256,192,122384,1,8,0:0:0:0:
256,192,122540,1,0,0:0:0:0:
256,192,122618,1,0,0:0:0:0:
256,192,122697,1,8,0:0:0:0:
256,192,123009,1,0,0:0:0:0:
256,192,123165,1,8,0:0:0:0:
256,192,123478,1,0,0:0:0:0:
256,192,123790,1,8,0:0:0:0:
256,192,124259,1,8,0:0:0:0:
256,192,124572,1,8,0:0:0:0:
256,192,124884,1,8,0:0:0:0:
256,192,125197,1,8,0:0:0:0:
256,192,125353,1,0,0:0:0:0:
256,192,125509,1,8,0:0:0:0:
256,192,125822,1,8,0:0:0:0:
256,192,126134,1,8,0:0:0:0:
256,192,126290,1,0,0:0:0:0:
256,192,126368,1,0,0:0:0:0:
256,192,126603,1,0,0:0:0:0:
256,192,126759,1,8,0:0:0:0:
256,192,127384,1,8,0:0:0:0:
256,192,127540,1,0,0:0:0:0:
256,192,127618,1,0,0:0:0:0:
256,192,127697,1,8,0:0:0:0:
256,192,128009,1,0,0:0:0:0:
256,192,128165,1,8,0:0:0:0:
256,192,128478,1,8,0:0:0:0:
256,192,128634,1,0,0:0:0:0:
256,192,128790,1,8,0:0:0:0:
256,192,129259,1,8,0:0:0:0:
256,192,129572,1,8,0:0:0:0:
256,192,129884,1,8,0:0:0:0:
256,192,130197,1,8,0:0:0:0:
256,192,130353,1,0,0:0:0:0:
256,192,130509,1,8,0:0:0:0:
256,192,130822,1,8,0:0:0:0:
256,192,131134,1,8,0:0:0:0:
256,192,131290,1,0,0:0:0:0:
256,192,131368,1,0,0:0:0:0:
256,192,131603,1,0,0:0:0:0:
256,192,131759,1,8,0:0:0:0:
256,192,131915,1,8,0:0:0:0:
256,192,132072,1,0,0:0:0:0:
256,192,132384,1,0,0:0:0:0:
256,192,132540,1,8,0:0:0:0:
256,192,132853,1,0,0:0:0:0:
256,192,133009,1,8,0:0:0:0:
256,192,133322,1,0,0:0:0:0:
256,192,133634,1,0,0:0:0:0:
256,192,133790,1,8,0:0:0:0:
256,192,134415,1,8,0:0:0:0:
256,192,134572,1,0,0:0:0:0:
256,192,134884,1,8,0:0:0:0:
256,192,135197,1,0,0:0:0:0:
256,192,135353,1,0,0:0:0:0:
256,192,135509,1,8,0:0:0:0:
256,192,135822,1,0,0:0:0:0:
256,192,136134,1,8,0:0:0:0:
256,192,136368,1,0,0:0:0:0:
256,192,136447,1,0,0:0:0:0:
256,192,136603,1,0,0:0:0:0:
256,192,136759,1,8,0:0:0:0:
256,192,137072,1,8,0:0:0:0:
256,192,137384,1,8,0:0:0:0:
256,192,137697,1,8,0:0:0:0:
256,192,138322,1,8,0:0:0:0:
256,192,138634,1,8,0:0:0:0:
256,192,138947,1,8,0:0:0:0:
256,192,139572,1,8,0:0:0:0:
256,192,139728,1,8,0:0:0:0:
256,192,139884,1,8,0:0:0:0:
256,192,140197,1,8,0:0:0:0:
256,192,140353,1,8,0:0:0:0:
256,192,140509,1,8,0:0:0:0:
256,192,140822,1,0,0:0:0:0:
256,192,140978,1,0,0:0:0:0:
256,192,141134,1,0,0:0:0:0:
256,192,141212,1,0,0:0:0:0:
256,192,141290,1,0,0:0:0:0:
256,192,141447,1,8,0:0:0:0:
256,192,141759,1,0,0:0:0:0:
256,192,142072,1,4,0:0:0:0:
256,192,142228,1,0,0:0:0:0:
256,192,142384,1,8,0:0:0:0:
256,192,142540,1,8,0:0:0:0:
256,192,142697,1,0,0:0:0:0:
256,192,142853,1,8,0:0:0:0:
256,192,142931,1,8,0:0:0:0:
256,192,143009,1,8,0:0:0:0:
256,192,143165,1,0,0:0:0:0:
256,192,143478,1,8,0:0:0:0:
256,192,143634,1,0,0:0:0:0:
256,192,143790,1,0,0:0:0:0:
256,192,143947,1,8,0:0:0:0:
256,192,144572,1,0,0:0:0:0:
256,192,144884,1,0,0:0:0:0:
256,192,145040,1,0,0:0:0:0:
256,192,145197,1,8,0:0:0:0:
256,192,145353,1,8,0:0:0:0:
256,192,145509,1,0,0:0:0:0:
256,192,145665,1,0,0:0:0:0:
256,192,145822,1,0,0:0:0:0:
256,192,145978,1,8,0:0:0:0:
256,192,146056,1,8,0:0:0:0:
256,192,146134,1,8,0:0:0:0:
256,192,146290,1,8,0:0:0:0:
256,192,146447,1,0,0:0:0:0:
256,192,146759,1,8,0:0:0:0:
256,192,147072,1,0,0:0:0:0:
256,192,147228,1,0,0:0:0:0:
256,192,147384,1,8,0:0:0:0:
256,192,147540,1,8,0:0:0:0:
256,192,147697,1,0,0:0:0:0:
256,192,147853,1,8,0:0:0:0:
256,192,147931,1,8,0:0:0:0:
256,192,148009,1,8,0:0:0:0:
256,192,148165,1,0,0:0:0:0:
256,192,148478,1,8,0:0:0:0:
256,192,148634,1,8,0:0:0:0:
256,192,148790,1,0,0:0:0:0:
256,192,148947,1,0,0:0:0:0:
256,192,149572,1,0,0:0:0:0:
256,192,149884,1,0,0:0:0:0:
256,192,150040,1,8,0:0:0:0:
256,192,150197,1,8,0:0:0:0:
256,192,150353,1,0,0:0:0:0:
256,192,150509,1,0,0:0:0:0:
256,192,150587,1,0,0:0:0:0:
256,192,150665,1,0,0:0:0:0:
256,192,150822,1,0,0:0:0:0:
256,192,150978,1,8,0:0:0:0:
256,192,151134,1,8,0:0:0:0:
256,192,151290,1,0,0:0:0:0:
256,192,151447,1,8,0:0:0:0:
256,192,151603,1,8,0:0:0:0:
256,192,151759,1,0,0:0:0:0:
256,192,152072,1,0,0:0:0:0:
256,192,152228,1,8,0:0:0:0:
256,192,152384,1,0,0:0:0:0:
256,192,152462,1,0,0:0:0:0:
256,192,152540,1,0,0:0:0:0:
256,96,152697,2,0,L|256:320,1,210
256,192,153322,1,0,0:0:0:0:
256,192,153634,12,0,154415,0:0:0:0:
256,192,154572,5,8,0:0:0:0:
256,192,154728,1,0,0:0:0:0:
256,192,154884,1,8,0:0:0:0:
256,192,155197,1,0,0:0:0:0:
256,192,155353,1,8,0:0:0:0:
256,192,155431,1,8,0:0:0:0:
256,192,155509,1,8,0:0:0:0:
256,192,155665,1,0,0:0:0:0:
256,192,155822,1,8,0:0:0:0:
256,192,155978,1,0,0:0:0:0:
256,192,156134,1,0,0:0:0:0:
256,192,156447,1,8,0:0:0:0:
256,192,156759,1,8,0:0:0:0:
256,192,157072,1,0,0:0:0:0:
256,192,157697,1,0,0:0:0:0:
256,192,157853,1,8,0:0:0:0:
256,192,158009,1,0,0:0:0:0:
256,192,158165,1,8,0:0:0:0:
256,192,158322,1,0,0:0:0:0:
256,192,158478,1,8,0:0:0:0:
256,192,158556,1,8,0:0:0:0:
256,192,158634,1,8,0:0:0:0:
256,192,158790,1,8,0:0:0:0:
256,192,158947,1,0,0:0:0:0:
256,192,159259,1,8,0:0:0:0:
256,192,159572,1,0,0:0:0:0:
256,192,159728,1,0,0:0:0:0:
256,192,159884,1,8,0:0:0:0:
256,192,160197,1,0,0:0:0:0:
256,192,160353,1,8,0:0:0:0:
256,192,160431,1,8,0:0:0:0:
256,192,160509,1,8,0:0:0:0:
256,192,160665,1,0,0:0:0:0:
256,192,160822,1,0,0:0:0:0:
256,192,160978,1,8,0:0:0:0:
256,192,161134,1,0,0:0:0:0:
256,192,161447,1,0,0:0:0:0:
256,192,161759,1,8,0:0:0:0:
256,192,161915,1,8,0:0:0:0:
256,192,162072,1,0,0:0:0:0:
256,192,162697,1,8,0:0:0:0:
256,192,162853,1,0,0:0:0:0:
256,192,163009,1,0,0:0:0:0:
256,192,163165,1,8,0:0:0:0:
256,192,163322,1,8,0:0:0:0:
256,192,163478,1,8,0:0:0:0:
256,192,163556,1,8,0:0:0:0:
256,192,163634,1,8,0:0:0:0:
256,192,163790,1,0,0:0:0:0:
256,192,163947,1,0,0:0:0:0:
256,192,164103,1,8,0:0:0:0:
256,192,164259,1,8,0:0:0:0:
256,192,164572,1,8,0:0:0:0:
256,192,164728,1,0,0:0:0:0:
256,192,164884,1,8,0:0:0:0:
256,192,165040,1,0,0:0:0:0:
256,192,165118,1,0,0:0:0:0:
256,192,165197,1,0,0:0:0:0:
256,192,165353,1,0,0:0:0:0:
256,192,165509,1,8,0:0:0:0:
256,192,165822,1,8,0:0:0:0:
256,192,165978,1,0,0:0:0:0:
256,192,166134,1,8,0:0:0:0:
256,192,166290,1,0,0:0:0:0:
256,192,166447,1,0,0:0:0:0:
256,192,166759,1,8,0:0:0:0:
256,192,167384,1,8,0:0:0:0:
256,192,167540,1,0,0:0:0:0:
256,192,167697,1,0,0:0:0:0:
256,192,167853,1,8,0:0:0:0:
256,192,168009,1,0,0:0:0:0:
256,192,168165,1,8,0:0:0:0:
256,192,168478,1,8,0:0:0:0:
256,192,168790,1,0,0:0:0:0:
256,192,168946,1,8,0:0:0:0:
256,192,169259,1,8,0:0:0:0:
256,192,169571,1,8,0:0:0:0:
256,192,169728,1,0,0:0:0:0:
256,192,169884,1,0,0:0:0:0:
256,192,170040,1,8,0:0:0:0:
256,192,170118,1,8,0:0:0:0:
256,192,170197,1,8,0:0:0:0:
256,192,170353,1,0,0:0:0:0:
256,192,170509,1,8,0:0:0:0:
256,192,170822,1,8,0:0:0:0:
256,192,170978,1,8,0:0:0:0:
256,192,171134,1,8,0:0:0:0:
256,192,171290,1,0,0:0:0:0:
256,192,171447,1,8,0:0:0:0:
256,192,171603,1,0,0:0:0:0:
256,192,171759,1,8,0:0:0:0:
256,192,172384,1,8,0:0:0:0:
256,192,172540,1,8,0:0:0:0:
256,192,172697,1,8,0:0:0:0:
256,192,173009,1,8,0:0:0:0:
256,192,173165,1,0,0:0:0:0:
256,192,173322,1,8,0:0:0:0:
256,192,173478,1,0,0:0:0:0:
256,192,173556,1,0,0:0:0:0:
256,192,173634,1,0,0:0:0:0:
256,192,173790,1,0,0:0:0:0:
256,192,173947,1,8,0:0:0:0:
256,192,174572,1,12,0:0:0:0:
256,192,174728,1,0,0:0:0:0:
256,192,174884,1,8,0:0:0:0:
256,192,175040,1,0,0:0:0:0:
256,192,175353,1,8,0:0:0:0:
256,192,175509,1,0,0:0:0:0:
256,192,175665,1,8,0:0:0:0:
256,192,175978,1,0,0:0:0:0:
256,192,176134,1,0,0:0:0:0:
256,192,176290,1,0,0:0:0:0:
256,192,176447,1,8,0:0:0:0:
256,192,176603,1,0,0:0:0:0:
256,192,176759,1,8,0:0:0:0:
256,192,177384,1,8,0:0:0:0:
256,192,177540,1,0,0:0:0:0:
256,192,177697,1,8,0:0:0:0:
256,192,177853,1,0,0:0:0:0:
256,192,178009,1,8,0:0:0:0:
256,192,178165,1,8,0:0:0:0:
256,192,178478,1,8,0:0:0:0:
256,192,178790,1,8,0:0:0:0:
256,192,178947,1,8,0:0:0:0:
256,192,179259,1,8,0:0:0:0:
256,192,179415,1,8,0:0:0:0:
256,192,179572,1,0,0:0:0:0:
256,192,179884,1,8,0:0:0:0:
256,192,180040,1,0,0:0:0:0:
256,192,180197,1,8,0:0:0:0:
256,192,180509,1,0,0:0:0:0:
256,192,180822,1,0,0:0:0:0:
256,192,180978,1,8,0:0:0:0:
256,192,181134,1,8,0:0:0:0:
256,192,181447,1,8,0:0:0:0:
256,192,181759,1,8,0:0:0:0:
256,192,182072,1,0,0:0:0:0:
256,192,182228,1,0,0:0:0:0:
256,192,182384,1,8,0:0:0:0:
256,192,182540,1,0,0:0:0:0:
256,192,182697,1,8,0:0:0:0:
256,192,182853,1,8,0:0:0:0:
256,192,183009,1,0,0:0:0:0:
256,192,183322,1,0,0:0:0:0:
256,192,183478,1,8,0:0:0:0:
256,192,183634,1,0,0:0:0:0:
256,192,183790,1,8,0:0:0:0:
256,192,183947,1,8,0:0:0:0:
256,192,184103,1,8,0:0:0:0:
256,192,184259,1,0,0:0:0:0:
256,192,184415,1,8,0:0:0:0:
256,192,184493,1,8,0:0:0:0:
256,192,184572,1,0,0:0:0:0:
256,192,184884,1,8,0:0:0:0:
256,192,185040,1,0,0:0:0:0:
256,192,185118,1,0,0:0:0:0:
256,192,185197,1,0,0:0:0:0:
256,192,185353,1,0,0:0:0:0:
256,192,185509,1,0,0:0:0:0:
256,192,185665,1,8,0:0:0:0:
256,192,185978,1,8,0:0:0:0:
256,192,186134,1,0,0:0:0:0:
256,192,186290,1,8,0:0:0:0:
256,192,186603,1,0,0:0:0:0:
256,192,186759,1,0,0:0:0:0:
256,192,186915,1,0,0:0:0:0:
256,192,187072,1,8,0:0:0:0:
256,192,187384,1,8,0:0:0:0:
256,192,187540,1,0,0:0:0:0:
256,192,187697,1,0,0:0:0:0:
256,192,187853,1,8,0:0:0:0:
256,192,188009,1,0,0:0:0:0:
256,192,188322,1,0,0:0:0:0:
256,192,188478,1,8,0:0:0:0:
256,192,188556,1,8,0:0:0:0:
256,192,188634,1,8,0:0:0:0:
256,192,188790,1,0,0:0:0:0:
256,192,189103,1,8,0:0:0:0:
256,192,189259,1,0,0:0:0:0:
256,192,189884,1,8,0:0:0:0:
256,192,190040,1,0,0:0:0:0:
256,192,190118,1,0,0:0:0:0:
256,192,190197,1,0,0:0:0:0:
256,192,190353,1,0,0:0:0:0:
256,192,190509,1,0,0:0:0:0:
256,192,190665,1,8,0:0:0:0:
256,192,190978,1,8,0:0:0:0:
256,192,191134,1,0,0:0:0:0:
256,192,191290,1,8,0:0:0:0:
256,192,191603,1,8,0:0:0:0:
256,192,191759,1,0,0:0:0:0:
256,192,191915,1,0,0:0:0:0:
256,192,192072,1,8,0:0:0:0:
256,192,192384,1,0,0:0:0:0:
256,192,192697,1,8,0:0:0:0:
256,192,192853,1,0,0:0:0:0:
256,192,192931,1,0,0:0:0:0:
256,192,193009,1,0,0:0:0:0:
256,192,193322,1,0,0:0:0:0:
256,192,193478,1,8,0:0:0:0:
256,192,193634,1,0,0:0:0:0:
256,192,193790,1,0,0:0:0:0:
256,192,193947,1,8,0:0:0:0:
256,192,194025,1,8,0:0:0:0:
256,192,194103,1,8,0:0:0:0:
256,192,194259,1,8,0:0:0:0:
256,192,194572,1,0,0:0:0:0:
256,192,194884,1,8,0:0:0:0:
256,192,195040,1,0,0:0:0:0:
256,192,195197,1,8,0:0:0:0:
256,192,195353,1,8,0:0:0:0:
256,192,195509,1,0,0:0:0:0:
256,192,195665,1,8,0:0:0:0:
256,192,195978,1,8,0:0:0:0:
256,192,196134,1,0,0:0:0:0:
256,192,196290,1,0,0:0:0:0:
256,192,196603,1,8,0:0:0:0:
256,192,196759,1,0,0:0:0:0:
256,192,196915,1,0,0:0:0:0:
256,192,197072,1,8,0:0:0:0:
256,192,197384,1,0,0:0:0:0:
256,192,197540,1,8,0:0:0:0:
256,192,197853,1,8,0:0:0:0:
256,192,198009,1,0,0:0:0:0:
256,192,198322,1,0,0:0:0:0:
256,192,198478,1,8,0:0:0:0:
256,192,198556,1,8,0:0:0:0:
256,192,198634,1,8,0:0:0:0:
256,192,198790,1,0,0:0:0:0:
256,192,199103,1,8,0:0:0:0:
256,192,199259,1,0,0:0:0:0:
256,192,199884,1,8,0:0:0:0:
256,192,200040,1,0,0:0:0:0:
256,192,200197,1,8,0:0:0:0:
256,192,200353,1,0,0:0:0:0:
256,192,200509,1,0,0:0:0:0:
256,192,200665,1,8,0:0:0:0:
256,192,200978,1,8,0:0:0:0:
256,192,201134,1,0,0:0:0:0:
256,192,201290,1,0,0:0:0:0:
256,192,201603,1,8,0:0:0:0:
256,192,201759,1,0,0:0:0:0:
256,192,201915,1,0,0:0:0:0:
256,192,202072,1,8,0:0:0:0:
256,192,202228,1,8,0:0:0:0:
256,192,202384,1,8,0:0:0:0:
256,192,202697,1,0,0:0:0:0:
256,192,202853,1,8,0:0:0:0:
256,192,203009,1,8,0:0:0:0:
256,192,203322,1,8,0:0:0:0:
256,192,203478,1,0,0:0:0:0:
256,192,203634,1,0,0:0:0:0:
256,192,203790,1,8,0:0:0:0:
256,192,203947,1,8,0:0:0:0:
256,192,204025,1,8,0:0:0:0:
256,192,204103,1,8,0:0:0:0:
256,192,204259,1,8,0:0:0:0:
256,192,204572,1,4,0:0:0:0:
256,192,204728,1,0,0:0:0:0:
256,192,204884,1,8,0:0:0:0:
256,192,205040,1,0,0:0:0:0:
256,192,205353,1,0,0:0:0:0:
256,192,205509,1,8,0:0:0:0:
256,192,205822,1,0,0:0:0:0:
256,192,205978,1,0,0:0:0:0:
256,192,206134,1,8,0:0:0:0:
256,192,206290,1,0,0:0:0:0:
256,192,206603,1,0,0:0:0:0:
256,192,206759,1,8,0:0:0:0:
256,192,207072,1,8,0:0:0:0:
256,192,207228,1,0,0:0:0:0:
256,192,207384,1,0,0:0:0:0:
256,192,207540,1,8,0:0:0:0:
256,192,207853,1,0,0:0:0:0:
256,192,208165,1,8,0:0:0:0:
256,192,208322,1,8,0:0:0:0:
256,192,208478,1,0,0:0:0:0:
256,192,208634,1,0,0:0:0:0:
256,192,208790,1,8,0:0:0:0:
256,192,208868,1,8,0:0:0:0:
256,192,208947,1,8,0:0:0:0:
256,192,209103,1,0,0:0:0:0:
256,192,209259,1,8,0:0:0:0:
256,192,209572,1,0,0:0:0:0:
256,192,209728,1,0,0:0:0:0:
256,192,209884,1,8,0:0:0:0:
256,192,210040,1,0,0:0:0:0:
256,192,210353,1,8,0:0:0:0:
256,192,210509,1,0,0:0:0:0:
256,192,210822,1,0,0:0:0:0:
256,192,210978,1,8,0:0:0:0:
256,192,211134,1,0,0:0:0:0:
256,192,211290,1,0,0:0:0:0:
256,192,211603,1,0,0:0:0:0:
256,192,211759,1,8,0:0:0:0:
256,192,212072,1,0,0:0:0:0:
256,192,212228,1,0,0:0:0:0:
256,192,212384,1,8,0:0:0:0:
256,192,212540,1,8,0:0:0:0:
256,192,212697,1,0,0:0:0:0:
256,192,212853,1,8,0:0:0:0:
256,192,213009,1,8,0:0:0:0:
256,192,213165,1,8,0:0:0:0:
256,192,213322,1,0,0:0:0:0:
256,192,213400,1,0,0:0:0:0:
256,192,213478,1,0,0:0:0:0:
256,192,213634,1,8,0:0:0:0:
256,192,213712,1,8,0:0:0:0:
256,192,213790,1,8,0:0:0:0:
256,192,213947,1,0,0:0:0:0:
256,192,214103,1,0,0:0:0:0:
256,192,214259,1,8,0:0:0:0:
256,192,214415,1,8,0:0:0:0:
256,192,214572,1,8,0:0:0:0:
256,192,215040,1,0,0:0:0:0:
256,192,215197,1,8,0:0:0:0:
256,192,215822,1,0,0:0:0:0:
256,192,216290,1,0,0:0:0:0:
256,192,216447,1,8,0:0:0:0:
256,192,216759,1,0,0:0:0:0:
256,192,216915,1,8,0:0:0:0:
256,192,216993,1,8,0:0:0:0:
256,192,217072,1,8,0:0:0:0:
256,192,217540,1,0,0:0:0:0:
256,192,217697,1,8,0:0:0:0:
256,192,218322,1,0,0:0:0:0:
256,192,218790,1,0,0:0:0:0:
256,192,218947,1,8,0:0:0:0:
256,192,219259,1,0,0:0:0:0:
256,192,219572,1,8,0:0:0:0:
256,192,219728,1,0,0:0:0:0:
256,192,219806,1,0,0:0:0:0:
256,192,219884,1,0,0:0:0:0:
256,192,220040,1,0,0:0:0:0:
256,192,220353,1,0,0:0:0:0:
256,192,220509,1,0,0:0:0:0:
256,192,220665,1,8,0:0:0:0:
256,192,220743,1,8,0:0:0:0:
256,192,220822,1,8,0:0:0:0:
256,192,221134,1,8,0:0:0:0:
256,192,221290,1,0,0:0:0:0:
256,192,221368,1,0,0:0:0:0:
256,192,221447,1,0,0:0:0:0:
256,192,221759,1,8,0:0:0:0:
256,192,222072,1,0,0:0:0:0:
256,192,222384,1,8,0:0:0:0:
256,192,222697,1,8,0:0:0:0:
256,192,222853,1,0,0:0:0:0:
256,192,223009,1,8,0:0:0:0:
256,192,223322,1,0,0:0:0:0:
256,192,223478,1,8,0:0:0:0:
256,192,223634,1,8,0:0:0:0:
256,192,223790,1,0,0:0:0:0:
256,192,223947,1,8,0:0:0:0:
256,192,224025,1,8,0:0:0:0:
256,192,224103,1,8,0:0:0:0:
256,192,224259,1,8,0:0:0:0:
256,192,224572,1,0,0:0:0:0:
256,192,224728,1,0,0:0:0:0:
256,192,224884,1,0,0:0:0:0:
256,192,225040,1,8,0:0:0:0:
256,192,225353,1,0,0:0:0:0:
256,192,225509,1,8,0:0:0:0:
256,192,225822,1,8,0:0:0:0:
256,192,225978,1,0,0:0:0:0:
256,192,226134,1,8,0:0:0:0:
256,192,226290,1,8,0:0:0:0:
256,192,226603,1,0,0:0:0:0:
256,192,226759,1,8,0:0:0:0:
256,192,226915,1,0,0:0:0:0:
256,192,227072,1,8,0:0:0:0:
256,192,227228,1,0,0:0:0:0:
256,192,227306,1,0,0:0:0:0:
256,192,227384,1,0,0:0:0:0:
256,192,227540,1,8,0:0:0:0:
256,192,227853,1,0,0:0:0:0:
256,192,228009,1,8,0:0:0:0:
256,192,228322,1,8,0:0:0:0:
256,192,228478,1,8,0:0:0:0:
256,192,228634,1,8,0:0:0:0:
256,192,228790,1,8,0:0:0:0:
256,192,228947,1,8,0:0:0:0:
256,192,229103,1,8,0:0:0:0:
256,192,229181,1,8,0:0:0:0:
256,192,229259,1,8,0:0:0:0:
256,192,229415,1,8,0:0:0:0:
256,192,229572,1,8,0:0:0:0:
256,192,229884,1,8,0:0:0:0:
256,192,230040,1,0,0:0:0:0:
256,192,230197,1,8,0:0:0:0:
256,192,230509,1,8,0:0:0:0:
256,192,230665,1,0,0:0:0:0:
256,192,230822,1,8,0:0:0:0:
256,192,231134,1,8,0:0:0:0:
256,192,231447,1,8,0:0:0:0:
256,192,231603,1,0,0:0:0:0:
256,192,231759,1,8,0:0:0:0:
256,192,231915,1,0,0:0:0:0:
256,192,232072,1,8,0:0:0:0:
256,192,232228,1,0,0:0:0:0:
256,192,232384,1,0,0:0:0:0:
256,192,232697,1,8,0:0:0:0:
256,192,232853,1,8,0:0:0:0:
256,192,233009,1,0,0:0:0:0:
256,192,233165,1,8,0:0:0:0:
256,192,233322,1,0,0:0:0:0:
256,192,233478,1,8,0:0:0:0:
256,192,233556,1,8,0:0:0:0:
256,192,233634,1,8,0:0:0:0:
256,192,233790,1,0,0:0:0:0:
256,192,233947,1,8,0:0:0:0:
256,192,234103,1,8,0:0:0:0:
256,192,234181,1,8,0:0:0:0:
256,192,234259,1,8,0:0:0:0:
256,192,234415,1,0,0:0:0:0:
256,192,234572,1,8,0:0:0:0:
256,192,234884,1,8,0:0:0:0:
256,192,235040,1,8,0:0:0:0:
256,192,235118,1,8,0:0:0:0:
256,192,235197,1,8,0:0:0:0:
256,192,235353,1,0,0:0:0:0:
256,192,235509,1,8,0:0:0:0:
256,192,235822,1,0,0:0:0:0:
256,192,235978,1,8,0:0:0:0:
256,192,236134,1,0,0:0:0:0:
256,192,236290,1,0,0:0:0:0:
256,192,236603,1,0,0:0:0:0:
256,192,236759,1,0,0:0:0:0:
256,192,236915,1,8,0:0:0:0:
256,192,236993,1,8,0:0:0:0:
256,192,237072,1,8,0:0:0:0:
256,192,237384,1,0,0:0:0:0:
256,192,237540,1,8,0:0:0:0:
256,192,237697,1,8,0:0:0:0:
256,192,238009,1,8,0:0:0:0:
256,192,238165,1,0,0:0:0:0:
256,192,238322,1,8,0:0:0:0:
256,192,238478,1,8,0:0:0:0:
256,192,238634,1,0,0:0:0:0:
256,192,238790,1,8,0:0:0:0:
256,192,239103,1,0,0:0:0:0:
256,192,239259,1,0,0:0:0:0:
256,192,239415,1,8,0:0:0:0:
256,192,239572,1,0,0:0:0:0:
256,192,239884,1,0,0:0:0:0:
256,192,240040,1,0,0:0:0:0:
256,192,240353,1,0,0:0:0:0:
256,192,240509,1,8,0:0:0:0:
256,192,240665,1,8,0:0:0:0:
256,192,240743,1,8,0:0:0:0:
256,192,240822,1,8,0:0:0:0:
256,192,241134,1,0,0:0:0:0:
256,192,241290,1,8,0:0:0:0:
256,192,241447,1,0,0:0:0:0:
256,192,241603,1,8,0:0:0:0:
256,192,241759,1,8,0:0:0:0:
256,192,242072,1,8,0:0:0:0:
256,192,242384,1,0,0:0:0:0:
256,192,242697,1,8,0:0:0:0:
256,192,242853,1,8,0:0:0:0:
256,192,243009,1,0,0:0:0:0:
256,192,243322,1,8,0:0:0:0:
256,192,243478,1,0,0:0:0:0:
256,192,243634,1,0,0:0:0:0:
256,192,243790,1,8,0:0:0:0:
256,192,243947,1,8,0:0:0:0:
256,192,244025,1,8,0:0:0:0:
256,192,244103,1,8,0:0:0:0:
256,192,244259,1,8,0:0:0:0:
256,192,244572,1,4,0:0:0:0:
256,192,244728,1,0,0:0:0:0:
256,192,244884,1,8,0:0:0:0:
256,192,245040,1,0,0:0:0:0:
256,192,245353,1,0,0:0:0:0:
256,192,245509,1,8,0:0:0:0:
256,192,245665,1,8,0:0:0:0:
256,192,245978,1,0,0:0:0:0:
256,192,246134,1,8,0:0:0:0:
256,192,246290,1,0,0:0:0:0:
256,192,246603,1,0,0:0:0:0:
256,192,246759,1,8,0:0:0:0:
256,192,246915,1,0,0:0:0:0:
256,192,247072,1,8,0:0:0:0:
256,192,247384,1,0,0:0:0:0:
256,192,247540,1,8,0:0:0:0:
256,192,247618,1,8,0:0:0:0:
256,192,247697,1,8,0:0:0:0:
256,192,248009,1,0,0:0:0:0:
256,192,248165,1,8,0:0:0:0:
256,192,248322,1,8,0:0:0:0:
256,192,248634,1,0,0:0:0:0:
256,192,248790,1,0,0:0:0:0:
256,192,249103,1,8,0:0:0:0:
256,192,249259,1,0,0:0:0:0:
256,192,249572,1,0,0:0:0:0:
256,192,249884,1,8,0:0:0:0:
256,192,250040,1,8,0:0:0:0:
256,192,250353,1,8,0:0:0:0:
256,192,250509,1,0,0:0:0:0:
256,192,250665,1,8,0:0:0:0:
256,192,250822,1,8,0:0:0:0:
256,192,251134,1,0,0:0:0:0:
256,192,251290,1,0,0:0:0:0:
256,192,251603,1,0,0:0:0:0:
256,192,251759,1,8,0:0:0:0:
256,192,251915,1,0,0:0:0:0:
256,192,252072,1,0,0:0:0:0:
256,192,252228,1,0,0:0:0:0:
256,192,252306,1,0,0:0:0:0:
256,192,252384,1,0,0:0:0:0:
256,192,252540,1,8,0:0:0:0:
256,192,252853,1,8,0:0:0:0:
256,192,252931,1,8,0:0:0:0:
256,192,253009,1,8,0:0:0:0:
256,192,253165,1,8,0:0:0:0:
256,192,253322,1,0,0:0:0:0:
256,192,253478,1,8,0:0:0:0:
256,192,253556,1,8,0:0:0:0:
256,192,253634,1,8,0:0:0:0:
256,192,253790,1,0,0:0:0:0:
256,192,254103,1,8,0:0:0:0:
256,192,254259,1,0,0:0:0:0:
256,192,254572,1,0,0:0:0:0:
256,192,255509,1,8,0:0:0:0:
256,192,255822,1,0,0:0:0:0:
256,192,256134,1,8,0:0:0:0:
256,192,256290,1,0,0:0:0:0:
256,192,256759,1,8,0:0:0:0:
256,192,257072,1,8,0:0:0:0:
256,192,257384,1,8,0:0:0:0:
256,192,257540,1,0,0:0:0:0:
256,192,258009,1,8,0:0:0:0:
256,192,258322,1,0,0:0:0:0:
256,192,258634,1,8,0:0:0:0:
256,192,258790,1,0,0:0:0:0:
256,192,259103,1,0,0:0:0:0:
256,192,259259,1,8,0:0:0:0:
256,192,259572,1,8,0:0:0:0:
256,192,259884,1,8,0:0:0:0:
256,192,260040,1,0,0:0:0:0:
256,192,260509,1,8,0:0:0:0:
256,192,260822,1,0,0:0:0:0:
256,192,261134,1,8,0:0:0:0:
256,192,261290,1,8,0:0:0:0:
256,192,261759,1,8,0:0:0:0:
256,192,262072,1,8,0:0:0:0:
256,192,262384,1,0,0:0:0:0:
256,192,262540,1,8,0:0:0:0:
256,192,262853,1,0,0:0:0:0:
256,192,263165,1,0,0:0:0:0:
256,192,263322,1,8,0:0:0:0:
256,192,263478,1,0,0:0:0:0:
256,192,263634,1,8,0:0:0:0:
256,192,263947,1,0,0:0:0:0:
256,192,264259,1,8,0:0:0:0:
256,192,264415,1,0,0:0:0:0:
