osu file format v14

[General]
AudioFilename: audio.mp3
AudioLeadIn: 0
PreviewTime: 141603
Countdown: 0
SampleSet: Normal
StackLeniency: 0.2
Mode: 1
LetterboxInBreaks: 0
WidescreenStoryboard: 1

[Editor]
Bookmarks: 22073,32073,52073,72073,82073,92073,102073,122073,142073,154573,164573,174573,184573,194573,204573,214573,219573,234573,254573
DistanceSpacing: 0.7
BeatDivisor: 1
GridSize: 32
TimelineZoom: 4

[Metadata]
Title:Night sky (Extended Mix)
TitleUnicode:Night sky (Extended Mix)
Artist:USAO
ArtistUnicode:USAO
Creator:Jaye
Version:Kantan
Source:beatmania IIDX 22 PENDUAL
Tags:bemani Pumpcore Hardtek Electronic
BeatmapID:1137589
BeatmapSetID:536313

[Difficulty]
HPDrainRate:8
CircleSize:2
OverallDifficulty:3
ApproachRate:10
SliderMultiplier:1.4
SliderTickRate:1

[Events]
//Background and Video events
0,0,"starry-night-sky-free-wallpaper-1366x768.jpg",0,-70
//Break Periods
//Storyboard Layer 0 (Background)
//Storyboard Layer 1 (Fail)
//Storyboard Layer 2 (Pass)
//Storyboard Layer 3 (Foreground)
//Storyboard Sound Samples

[TimingPoints]
2072,312.5,4,1,0,15,1,0
3322,-100,4,1,0,20,0,0
4572,-100,4,1,0,25,0,0
5822,-100,4,1,0,30,0,0
7072,-100,4,1,0,35,0,0
8322,-100,4,1,0,40,0,0
9572,-100,4,1,0,50,0,0
12072,-100,4,1,0,65,0,0
12384,-100,4,1,0,50,0,0
18322,-100,4,1,0,55,0,0
22384,-100,4,1,0,65,0,0
27072,-100,4,1,0,66,0,0
27384,-100,4,1,0,67,0,0
27697,-100,4,1,0,68,0,0
28009,-100,4,1,0,69,0,0
28322,-100,4,1,0,70,0,0
28634,-100,4,1,0,71,0,0
28947,-100,4,1,0,72,0,0
29259,-100,4,1,0,73,0,0
29572,-100,4,1,0,74,0,0
29884,-100,4,1,0,76,0,0
30197,-100,4,1,0,78,0,0
30509,-100,4,1,0,80,0,0
32072,-100,4,1,0,95,0,0
32384,-100,4,1,0,80,0,0
82384,-100,4,1,0,75,0,0
82540,-100,4,1,0,70,0,0
82853,-100,4,1,0,65,0,0
83009,-100,4,1,0,60,0,0
83322,-100,4,1,0,55,0,0
83478,-100,4,1,0,50,0,0
84572,-100,4,1,0,55,0,0
85822,-100,4,1,0,60,0,0
86603,-100,4,1,0,63,0,0
87228,-100,4,1,0,67,0,0
87853,-100,4,1,0,68,0,0
88478,-100,4,1,0,69,0,0
89572,-100,4,1,0,70,0,0
92072,-100,4,1,0,75,0,0
97072,-100,4,1,0,78,0,0
98165,-100,4,1,0,80,0,0
99259,-100,4,1,0,82,0,0
100197,-100,4,1,0,84,0,0
101134,-100,4,1,0,86,0,0
102072,-100,4,1,0,90,0,0
122384,-100,4,1,0,80,0,0
142072,-100,4,1,0,100,0,1
142228,-100,4,1,0,80,0,1
147072,-100,4,1,0,100,0,1
147228,-100,4,1,0,80,0,1
152072,-100,4,1,0,80,0,0
152228,-100,4,1,0,80,0,0
154572,-100,4,1,0,100,0,0
154728,-100,4,1,0,85,0,0
159572,-100,4,1,0,100,0,0
159728,-100,4,1,0,85,0,0
164572,-100,4,1,0,85,0,1
174259,-100,4,1,0,85,0,0
174572,-100,4,1,0,85,0,1
184572,-100,4,1,0,85,0,0
204572,-100,4,1,0,85,0,1
204728,-100,4,1,0,85,0,1
214572,-100,4,1,0,85,0,0
219572,-100,4,1,0,85,0,1
254572,-100,4,1,0,85,0,0
254884,-100,4,1,0,80,0,0
255040,-100,4,1,0,75,0,0
255353,-100,4,1,0,70,0,0

[HitObjects]
256,192,2072,5,0,0:0:0:0:
256,192,3322,1,8,0:0:0:0:
256,192,4572,1,0,0:0:0:0:
256,192,5822,1,0,0:0:0:0:
256,192,7072,1,0,0:0:0:0:
256,192,8322,1,8,0:0:0:0:
256,192,9572,1,8,0:0:0:0:
256,192,10822,1,8,0:0:0:0:
256,192,12072,1,0,0:0:0:0:
256,192,13009,1,8,0:0:0:0:
256,192,14259,1,0,0:0:0:0:
256,192,14572,1,8,0:0:0:0:
256,192,15197,1,8,0:0:0:0:
256,192,15822,1,8,0:0:0:0:
256,192,16447,1,0,0:0:0:0:
256,192,17072,1,0,0:0:0:0:
256,192,18009,1,0,0:0:0:0:
256,192,18322,1,8,0:0:0:0:
256,192,18946,1,8,0:0:0:0:
256,192,19572,1,0,0:0:0:0:
256,192,20822,1,0,0:0:0:0:
256,192,21447,1,8,0:0:0:0:
256,192,22384,1,8,0:0:0:0:
256,192,22697,1,8,0:0:0:0:
256,192,23322,1,8,0:0:0:0:
256,192,23947,1,0,0:0:0:0:
256,192,24572,1,0,0:0:0:0:
256,192,24884,1,8,0:0:0:0:
256,192,25822,1,0,0:0:0:0:
256,192,26447,1,0,0:0:0:0:
256,192,27072,1,8,0:0:0:0:
256,192,27384,1,0,0:0:0:0:
256,192,27697,1,0,0:0:0:0:
256,192,28322,1,8,0:0:0:0:
256,192,28947,1,0,0:0:0:0:
256,192,29572,1,8,0:0:0:0:
256,192,29884,1,0,0:0:0:0:
256,192,30822,1,0,0:0:0:0:
256,192,31447,1,8,0:0:0:0:
256,192,32072,1,4,0:0:0:0:
256,192,32384,1,8,0:0:0:0:
256,192,33322,1,0,0:0:0:0:
256,192,33946,1,0,0:0:0:0:
256,192,34572,1,0,0:0:0:0:
256,192,34884,1,8,0:0:0:0:
256,192,35821,1,8,0:0:0:0:
256,192,36447,1,8,0:0:0:0:
256,192,37072,1,4,0:0:0:0:
256,192,37384,1,8,0:0:0:0:
256,192,38321,1,0,0:0:0:0:
256,192,38947,1,0,0:0:0:0:
256,192,39572,1,0,0:0:0:0:
256,192,39884,1,0,0:0:0:0:
256,192,40196,1,0,0:0:0:0:
256,192,40665,1,8,0:0:0:0:
256,192,41290,1,0,0:0:0:0:
256,192,42072,1,4,0:0:0:0:
256,192,42384,1,8,0:0:0:0:
256,192,43322,1,0,0:0:0:0:
256,192,43946,1,0,0:0:0:0:
256,192,44572,1,0,0:0:0:0:
256,192,44884,1,8,0:0:0:0:
256,192,45821,1,0,0:0:0:0:
256,192,46446,1,8,0:0:0:0:
256,192,47072,1,4,0:0:0:0:
256,192,47384,1,8,0:0:0:0:
256,192,48321,1,8,0:0:0:0:
256,192,48947,1,0,0:0:0:0:
256,192,49572,1,0,0:0:0:0:
256,192,49884,1,8,0:0:0:0:
256,192,50197,1,0,0:0:0:0:
256,192,51134,1,8,0:0:0:0:
256,192,51447,1,0,0:0:0:0:
256,192,52072,1,4,0:0:0:0:
256,192,52384,1,8,0:0:0:0:
256,192,52697,1,8,0:0:0:0:
256,192,53322,1,8,0:0:0:0:
256,192,53947,1,8,0:0:0:0:
256,192,54572,1,0,0:0:0:0:
256,192,54884,1,0,0:0:0:0:
256,192,55822,1,0,0:0:0:0:
256,192,56447,1,8,0:0:0:0:
256,192,57072,1,8,0:0:0:0:
256,192,57384,1,0,0:0:0:0:
256,192,57696,1,8,0:0:0:0:
256,192,58322,1,0,0:0:0:0:
256,192,58947,1,0,0:0:0:0:
256,192,59572,1,8,0:0:0:0:
256,192,59884,1,0,0:0:0:0:
256,192,60822,1,8,0:0:0:0:
256,192,61447,1,0,0:0:0:0:
256,192,62072,1,8,0:0:0:0:
256,192,62697,1,8,0:0:0:0:
256,192,63322,1,0,0:0:0:0:
256,192,63947,1,0,0:0:0:0:
256,192,64572,1,0,0:0:0:0:
256,192,65197,1,8,0:0:0:0:
256,192,65822,1,8,0:0:0:0:
256,192,67072,1,0,0:0:0:0:
256,192,67384,1,8,0:0:0:0:
256,192,68009,1,8,0:0:0:0:
256,192,68321,1,0,0:0:0:0:
256,192,68634,1,8,0:0:0:0:
256,192,69259,1,8,0:0:0:0:
256,192,69572,1,0,0:0:0:0:
256,192,69884,1,8,0:0:0:0:
256,192,70509,1,0,0:0:0:0:
256,192,71134,1,0,0:0:0:0:
256,192,71447,1,8,0:0:0:0:
256,192,72072,1,0,0:0:0:0:
256,192,73008,1,8,0:0:0:0:
256,192,73321,1,0,0:0:0:0:
256,192,73947,1,0,0:0:0:0:
256,192,74259,1,8,0:0:0:0:
256,192,74572,1,0,0:0:0:0:
256,192,75508,1,0,0:0:0:0:
256,192,75821,1,8,0:0:0:0:
256,192,76447,1,8,0:0:0:0:
256,192,77072,1,0,0:0:0:0:
256,192,78008,1,8,0:0:0:0:
256,192,78321,1,0,0:0:0:0:
256,192,78947,1,0,0:0:0:0:
256,192,79572,1,0,0:0:0:0:
256,192,80197,1,8,0:0:0:0:
256,192,80822,1,8,0:0:0:0:
256,192,81133,1,0,0:0:0:0:
256,192,81447,1,8,0:0:0:0:
256,192,82072,1,0,0:0:0:0:
256,192,83322,1,8,0:0:0:0:
256,192,84572,1,0,0:0:0:0:
256,192,85822,1,8,0:0:0:0:
256,192,87072,1,0,0:0:0:0:
256,192,88322,1,8,0:0:0:0:
256,192,89572,1,0,0:0:0:0:
256,192,90822,1,8,0:0:0:0:
256,192,91447,1,8,0:0:0:0:
256,192,92072,1,0,0:0:0:0:
256,192,92697,1,8,0:0:0:0:
256,192,93009,1,8,0:0:0:0:
256,192,94572,1,0,0:0:0:0:
256,192,95197,1,8,0:0:0:0:
256,192,95822,1,8,0:0:0:0:
256,192,96446,1,0,0:0:0:0:
256,192,97072,1,0,0:0:0:0:
256,192,98009,1,8,0:0:0:0:
256,192,98322,1,0,0:0:0:0:
256,192,99572,1,0,0:0:0:0:
256,192,100509,1,0,0:0:0:0:
256,192,100822,1,8,0:0:0:0:
256,192,101759,1,8,0:0:0:0:
256,192,102072,1,4,0:0:0:0:
256,192,102697,1,4,0:0:0:0:
256,192,103322,1,12,0:0:0:0:
256,192,104572,1,4,0:0:0:0:
256,192,105197,1,4,0:0:0:0:
256,192,105822,1,8,0:0:0:0:
256,192,107072,1,4,0:0:0:0:
256,192,107697,1,4,0:0:0:0:
256,192,108322,1,12,0:0:0:0:
256,192,109572,1,4,0:0:0:0:
256,192,110197,1,4,0:0:0:0:
256,192,110822,1,8,0:0:0:0:
256,192,111447,1,0,0:0:0:0:
256,192,112072,1,4,0:0:0:0:
256,192,112697,1,4,0:0:0:0:
256,192,113322,1,12,0:0:0:0:
256,192,114572,1,4,0:0:0:0:
256,192,115197,1,4,0:0:0:0:
256,192,115822,1,8,0:0:0:0:
256,192,117072,1,4,0:0:0:0:
256,192,117697,1,4,0:0:0:0:
256,192,118322,1,12,0:0:0:0:
256,192,119572,1,4,0:0:0:0:
256,192,120197,1,4,0:0:0:0:
256,192,120822,1,8,0:0:0:0:
256,192,121447,1,0,0:0:0:0:
256,192,122072,1,4,0:0:0:0:
256,192,122697,1,8,0:0:0:0:
256,192,123322,1,0,0:0:0:0:
256,192,123634,1,8,0:0:0:0:
256,192,124259,1,8,0:0:0:0:
256,192,124572,1,8,0:0:0:0:
256,192,125197,1,0,0:0:0:0:
256,192,125822,1,0,0:0:0:0:
256,192,126134,1,8,0:0:0:0:
256,192,126759,1,8,0:0:0:0:
256,192,127384,1,0,0:0:0:0:
256,192,127696,1,0,0:0:0:0:
256,192,128322,1,0,0:0:0:0:
256,192,128634,1,8,0:0:0:0:
256,192,129259,1,8,0:0:0:0:
256,192,129572,1,8,0:0:0:0:
256,192,130197,1,0,0:0:0:0:
256,192,130822,1,8,0:0:0:0:
256,192,131134,1,8,0:0:0:0:
256,192,131759,1,8,0:0:0:0:
256,192,132072,1,0,0:0:0:0:
256,192,133009,1,8,0:0:0:0:
256,192,133322,1,0,0:0:0:0:
256,192,133947,1,8,0:0:0:0:
256,192,134259,1,0,0:0:0:0:
256,192,134572,1,0,0:0:0:0:
256,192,135509,1,8,0:0:0:0:
256,192,135822,1,0,0:0:0:0:
256,192,136447,1,8,0:0:0:0:
256,192,136758,1,8,0:0:0:0:
256,192,137072,1,8,0:0:0:0:
256,192,137697,1,8,0:0:0:0:
256,192,138322,1,8,0:0:0:0:
256,192,138947,1,8,0:0:0:0:
256,192,139572,1,8,0:0:0:0:
256,192,139884,1,8,0:0:0:0:
256,192,140197,1,8,0:0:0:0:
256,192,140822,1,0,0:0:0:0:
256,192,141134,1,0,0:0:0:0:
256,192,141447,1,8,0:0:0:0:
256,192,141759,1,0,0:0:0:0:
256,192,142072,1,4,0:0:0:0:
256,192,142697,1,0,0:0:0:0:
256,192,143634,1,0,0:0:0:0:
256,192,143947,1,8,0:0:0:0:
256,192,144572,1,0,0:0:0:0:
256,192,145197,1,8,0:0:0:0:
256,192,146134,1,8,0:0:0:0:
256,192,146447,1,0,0:0:0:0:
256,192,146759,1,8,0:0:0:0:
256,192,147072,1,0,0:0:0:0:
256,192,147697,1,0,0:0:0:0:
256,192,148634,1,8,0:0:0:0:
256,192,148947,1,0,0:0:0:0:
256,192,149572,1,0,0:0:0:0:
256,192,150197,1,8,0:0:0:0:
256,192,151134,1,8,0:0:0:0:
256,192,151447,1,8,0:0:0:0:
256,192,152072,1,0,0:0:0:0:
256,192,152697,1,8,0:0:0:0:
256,192,153634,12,0,154415,0:0:0:0:
256,192,154572,5,8,0:0:0:0:
256,192,154884,1,0,0:0:0:0:
256,192,155197,1,8,0:0:0:0:
256,192,155822,1,8,0:0:0:0:
256,192,156134,1,0,0:0:0:0:
256,192,157072,1,0,0:0:0:0:
256,192,157384,1,0,0:0:0:0:
256,192,157697,1,8,0:0:0:0:
256,192,158322,1,0,0:0:0:0:
256,192,158634,1,8,0:0:0:0:
256,192,159259,1,8,0:0:0:0:
256,192,159572,1,0,0:0:0:0:
256,192,159884,1,8,0:0:0:0:
256,192,160197,1,0,0:0:0:0:
256,192,160822,1,0,0:0:0:0:
256,192,161134,1,8,0:0:0:0:
256,192,162072,1,0,0:0:0:0:
256,192,162384,1,0,0:0:0:0:
256,192,162697,1,8,0:0:0:0:
256,192,163322,1,8,0:0:0:0:
256,192,163947,1,8,0:0:0:0:
256,192,164572,1,8,0:0:0:0:
256,192,164883,1,0,0:0:0:0:
256,192,165197,1,0,0:0:0:0:
256,192,165822,1,8,0:0:0:0:
256,192,166759,1,8,0:0:0:0:
256,192,167384,1,8,0:0:0:0:
256,192,167697,1,0,0:0:0:0:
256,192,168322,1,8,0:0:0:0:
256,192,168947,1,0,0:0:0:0:
256,192,169572,1,0,0:0:0:0:
256,192,169884,1,8,0:0:0:0:
256,192,170197,1,0,0:0:0:0:
256,192,170822,1,8,0:0:0:0:
256,192,171759,1,8,0:0:0:0:
256,192,172071,1,0,0:0:0:0:
256,192,172384,1,8,0:0:0:0:
256,192,172697,1,8,0:0:0:0:
256,192,173322,1,8,0:0:0:0:
256,192,174259,1,0,0:0:0:0:
256,192,174572,1,12,0:0:0:0:
256,192,175822,1,0,0:0:0:0:
256,192,176759,1,8,0:0:0:0:
256,192,177384,1,0,0:0:0:0:
256,192,177697,1,8,0:0:0:0:
256,192,178322,1,0,0:0:0:0:
256,192,178634,1,8,0:0:0:0:
256,192,179259,1,8,0:0:0:0:
256,192,179884,1,8,0:0:0:0:
256,192,180509,1,0,0:0:0:0:
256,192,181134,1,8,0:0:0:0:
256,192,181759,1,8,0:0:0:0:
256,192,182072,1,0,0:0:0:0:
256,192,182384,1,8,0:0:0:0:
256,192,182697,1,8,0:0:0:0:
256,192,183322,1,0,0:0:0:0:
256,192,183947,1,0,0:0:0:0:
256,192,184572,1,8,0:0:0:0:
256,192,184884,1,8,0:0:0:0:
256,192,185197,1,0,0:0:0:0:
256,192,185822,1,8,0:0:0:0:
256,192,187072,1,8,0:0:0:0:
256,192,187384,1,8,0:0:0:0:
256,192,187697,1,0,0:0:0:0:
256,192,188322,1,0,0:0:0:0:
256,192,189572,1,0,0:0:0:0:
256,192,189884,1,8,0:0:0:0:
256,192,190197,1,0,0:0:0:0:
256,192,190822,1,8,0:0:0:0:
256,192,192072,1,0,0:0:0:0:
256,192,192384,1,8,0:0:0:0:
256,192,193322,1,0,0:0:0:0:
256,192,193634,1,0,0:0:0:0:
256,192,194259,1,8,0:0:0:0:
256,192,194572,1,0,0:0:0:0:
256,192,194884,1,8,0:0:0:0:
256,192,195197,1,8,0:0:0:0:
256,192,195822,1,8,0:0:0:0:
256,192,197072,1,8,0:0:0:0:
256,192,197384,1,0,0:0:0:0:
256,192,197696,1,0,0:0:0:0:
256,192,198322,1,0,0:0:0:0:
256,192,199572,1,8,0:0:0:0:
256,192,199884,1,8,0:0:0:0:
256,192,200197,1,0,0:0:0:0:
256,192,200822,1,8,0:0:0:0:
256,192,202072,1,0,0:0:0:0:
256,192,202697,1,8,0:0:0:0:
256,192,203322,1,8,0:0:0:0:
256,192,203634,1,0,0:0:0:0:
256,192,204259,1,8,0:0:0:0:
256,192,204572,1,4,0:0:0:0:
256,192,204884,1,8,0:0:0:0:
256,192,205509,1,8,0:0:0:0:
256,192,206134,1,8,0:0:0:0:
256,192,206759,1,8,0:0:0:0:
256,192,207072,1,0,0:0:0:0:
256,192,207384,1,8,0:0:0:0:
256,192,208322,1,8,0:0:0:0:
256,192,209572,1,0,0:0:0:0:
256,192,209884,1,8,0:0:0:0:
256,192,210509,1,0,0:0:0:0:
256,192,211134,1,0,0:0:0:0:
256,192,211759,1,8,0:0:0:0:
256,192,212072,1,0,0:0:0:0:
256,192,212384,1,8,0:0:0:0:
256,192,213322,1,8,0:0:0:0:
256,192,213947,1,0,0:0:0:0:
256,192,214572,1,8,0:0:0:0:
256,192,215197,1,8,0:0:0:0:
256,192,215822,1,0,0:0:0:0:
256,192,216759,1,0,0:0:0:0:
256,192,217072,1,8,0:0:0:0:
256,192,217697,1,8,0:0:0:0:
256,192,218322,1,0,0:0:0:0:
256,192,218947,1,8,0:0:0:0:
256,192,219572,1,0,0:0:0:0:
256,192,220509,1,0,0:0:0:0:
256,192,220822,1,8,0:0:0:0:
256,192,221447,1,0,0:0:0:0:
256,192,222072,1,0,0:0:0:0:
256,192,223322,1,8,0:0:0:0:
256,192,223946,1,0,0:0:0:0:
256,192,224572,1,0,0:0:0:0:
256,192,225822,1,8,0:0:0:0:
256,192,227072,1,8,0:0:0:0:
256,192,228322,1,0,0:0:0:0:
256,192,228947,1,8,0:0:0:0:
256,192,229572,1,0,0:0:0:0:
256,192,229884,1,8,0:0:0:0:
256,192,230197,1,8,0:0:0:0:
256,192,230822,1,0,0:0:0:0:
256,192,231134,1,8,0:0:0:0:
256,192,231447,1,8,0:0:0:0:
256,192,232072,1,8,0:0:0:0:
256,192,232697,1,8,0:0:0:0:
256,192,233321,1,0,0:0:0:0:
256,192,233634,1,8,0:0:0:0:
256,192,233946,1,0,0:0:0:0:
256,192,234259,1,8,0:0:0:0:
256,192,234572,1,8,0:0:0:0:
256,192,235196,1,0,0:0:0:0:
256,192,235822,1,0,0:0:0:0:
256,192,236759,1,0,0:0:0:0:
256,192,237072,1,8,0:0:0:0:
256,192,237697,1,8,0:0:0:0:
256,192,238322,1,8,0:0:0:0:
256,192,238947,1,0,0:0:0:0:
256,192,239572,1,0,0:0:0:0:
256,192,240509,1,0,0:0:0:0:
256,192,240822,1,8,0:0:0:0:
256,192,241447,1,8,0:0:0:0:
256,192,242072,1,0,0:0:0:0:
256,192,242697,1,8,0:0:0:0:
256,192,243322,1,0,0:0:0:0:
256,192,243946,1,8,0:0:0:0:
256,192,244572,1,4,0:0:0:0:
256,192,245509,1,8,0:0:0:0:
256,192,246759,1,0,0:0:0:0:
256,192,247072,1,8,0:0:0:0:
256,192,247697,1,0,0:0:0:0:
256,192,248322,1,8,0:0:0:0:
256,192,248947,1,0,0:0:0:0:
256,192,249572,1,8,0:0:0:0:
256,192,250822,1,8,0:0:0:0:
256,192,251447,1,0,0:0:0:0:
256,192,252072,1,8,0:0:0:0:
256,192,252384,1,0,0:0:0:0:
256,192,253322,1,0,0:0:0:0:
256,192,253947,1,8,0:0:0:0:
256,192,254259,1,0,0:0:0:0:
256,192,254572,1,0,0:0:0:0:
256,192,255822,1,8,0:0:0:0:
256,192,256759,1,8,0:0:0:0:
256,192,257072,1,8,0:0:0:0:
256,192,258322,1,8,0:0:0:0:
256,192,259572,1,0,0:0:0:0:
256,192,260822,1,0,0:0:0:0:
256,192,262072,1,8,0:0:0:0:
256,192,262697,1,0,0:0:0:0:
256,192,263322,1,8,0:0:0:0:
256,192,264415,1,0,0:0:0:0:
