osu file format v14

[General]
AudioFilename: audio.mp3
AudioLeadIn: 0
PreviewTime: -1
Countdown: 1
SampleSet: Soft
StackLeniency: 0.7
Mode: 0
LetterboxInBreaks: 0
WidescreenStoryboard: 0

[Editor]
DistanceSpacing: 1.4
BeatDivisor: 4
GridSize: 4
TimelineZoom: 1

[Metadata]
Title:Night Sky
TitleUnicode:Night Sky
Artist:USAO
ArtistUnicode:USAO
Creator:TheShadowOfDark
Version:Shadow
Source:
Tags:
BeatmapID:1889349
BeatmapSetID:905217

[Difficulty]
HPDrainRate:6
CircleSize:4
OverallDifficulty:8.6
ApproachRate:9.4
SliderMultiplier:2.04
SliderTickRate:1

[Events]
//Background and Video events
0,0,"bg.jpg",0,0
//Break Periods
//Storyboard Layer 0 (Background)
//Storyboard Layer 1 (Fail)
//Storyboard Layer 2 (Pass)
//Storyboard Layer 3 (Foreground)
//Storyboard Sound Samples

[TimingPoints]
570,312.5,4,2,0,100,1,0
1663,-100,4,2,0,5,0,0
1820,-100,4,2,0,50,0,0
2913,-125,4,2,0,50,0,0
6820,-100,4,2,0,70,0,0
9163,-125,4,2,0,70,0,0
10570,-166.666666666667,4,2,0,70,0,0
11507,-285.714285714286,4,2,0,70,0,0
11741,-285.714285714286,4,2,0,5,0,0
11820,-100,4,2,0,80,0,0
15101,-125,4,2,0,100,0,0
15413,-100,4,2,0,100,0,0
18070,-90.9090909090908,4,2,0,100,0,0
19945,-111.111111111111,4,2,0,100,0,0
20570,-90.9090909090909,4,2,0,100,0,0
21507,-142.857142857143,4,2,0,100,0,0
21741,-166.666666666667,4,2,0,5,0,0
21820,-100,4,2,0,70,0,0
25570,-200,4,2,0,100,0,0
25882,-111.111111111111,4,2,0,100,0,0
26195,-76.9230769230769,4,2,0,100,0,0
26976,-100,4,2,0,70,0,0
29320,-83.3333333333333,4,2,0,100,0,0
29632,-142.857142857143,4,2,0,100,0,0
30570,-142.857142857143,4,2,0,90,0,0
30882,-100,4,2,0,80,0,0
31195,-100,4,2,0,70,0,0
31820,-100,4,2,0,30,0,0
40570,-166.666666666667,4,2,0,30,0,0
41820,-100,4,2,0,70,0,0
51195,-200,4,2,0,70,0,0
51429,-200,4,2,0,5,0,0
51507,-83.3333333333333,4,2,0,100,0,0
51741,-83.3333333333333,4,2,0,5,0,0
51820,-71.4285714285714,4,2,0,100,0,0
52054,-71.4285714285714,4,2,0,5,0,0
52132,-100,4,2,0,100,0,0
52445,-66.6666666666667,4,2,0,100,0,0
52601,-55.5555555555556,4,2,0,100,0,0
52757,-50,4,2,0,100,0,0
53070,-71.4285714285714,4,2,0,100,0,0
53382,-83.3333333333333,4,2,0,100,0,0
53695,-62.5,4,2,0,100,0,0
53929,-62.5,4,2,0,5,0,0
54007,-62.5,4,2,0,100,0,0
54320,-100,4,2,0,100,0,0
54866,-100,4,2,0,5,0,0
54945,-62.5,4,2,0,100,0,0
55101,-71.4285714285714,4,2,0,100,0,0
55570,-50,4,2,0,100,0,0
55882,-71.4285714285714,4,2,0,100,0,0
56195,-200,4,2,0,100,0,0
56429,-200,4,2,0,5,0,0
56507,-50,4,2,0,100,0,0
56585,-50,4,2,0,5,0,0
56820,-71.4285714285714,4,2,0,100,0,0
57054,-71.4285714285714,4,2,0,5,0,0
57132,-100,4,2,0,100,0,0
57445,-66.6666666666667,4,2,0,100,0,0
57601,-55.5555555555556,4,2,0,100,0,0
57757,-50,4,2,0,100,0,0
58070,-62.5,4,2,0,100,0,0
58382,-83.3333333333333,4,2,0,100,0,0
58695,-55.5555555555556,4,2,0,100,0,0
58929,-55.5555555555556,4,2,0,5,0,0
59007,-55.5555555555556,4,2,0,100,0,0
59320,-100,4,2,0,100,0,0
59866,-100,4,2,0,5,0,0
59945,-62.5,4,2,0,100,0,0
60101,-71.4285714285714,4,2,0,100,0,0
60570,-50,4,2,0,100,0,0
60882,-71.4285714285714,4,2,0,100,0,0
61195,-100,4,2,0,100,0,0
61429,-100,4,2,0,5,0,0
61507,-71.4285714285714,4,2,0,100,0,0
61741,-71.4285714285714,4,2,0,5,0,0
61820,-58.8235294117647,4,2,0,100,0,0
62445,-83.3333333333333,4,2,0,100,0,0
62913,-55.5555555555556,4,2,0,100,0,0
63538,-83.3333333333333,4,2,0,100,0,0
63695,-71.4285714285714,4,2,0,100,0,0
64320,-62.5,4,2,0,100,0,0
64554,-62.5,4,2,0,5,0,0
64632,-83.3333333333333,4,2,0,100,0,0
64945,-58.8235294117647,4,2,0,100,0,0
65179,-58.8235294117647,4,2,0,5,0,0
65257,-58.8235294117647,4,2,0,100,0,0
65413,-83.3333333333333,4,2,0,100,0,0
65570,-71.4285714285714,4,2,0,100,0,0
66351,-66.6666666666667,4,2,0,100,0,0
66820,-58.8235294117647,4,2,0,100,0,0
67445,-83.3333333333333,4,2,0,100,0,0
67913,-55.5555555555556,4,2,0,100,0,0
68538,-83.3333333333333,4,2,0,100,0,0
68695,-66.6666666666667,4,2,0,100,0,0
69007,-83.3333333333333,4,2,0,100,0,0
71820,-58.8235294117647,4,2,0,100,0,0
72445,-83.3333333333333,4,2,0,100,0,0
72913,-62.5,4,2,0,100,0,0
73538,-83.3333333333333,4,2,0,100,0,0
73695,-62.5,4,2,0,100,0,0
74007,-71.4285714285714,4,2,0,100,0,0
74320,-62.5,4,2,0,100,0,0
74554,-62.5,4,2,0,5,0,0
74632,-83.3333333333333,4,2,0,100,0,0
74945,-62.5,4,2,0,100,0,0
75570,-71.4285714285714,4,2,0,100,0,0
76038,-62.5,4,2,0,100,0,0
76820,-58.8235294117647,4,2,0,100,0,0
77445,-83.3333333333333,4,2,0,100,0,0
77601,-62.5,4,2,0,100,0,0
78226,-71.4285714285714,4,2,0,100,0,0
78538,-83.3333333333333,4,2,0,100,0,0
78695,-66.6666666666667,4,2,0,100,0,0
79007,-83.3333333333333,4,2,0,100,0,0
81195,-133.333333333333,4,2,0,100,0,0
81429,-133.333333333333,4,2,0,5,0,0
81507,-50,4,2,0,100,0,0
81741,-50,4,2,0,5,0,0
81820,-83.3333333333333,4,2,0,100,0,0
83695,-62.5,4,2,0,100,0,0
84320,-71.4285714285714,4,2,0,100,0,0
85570,-83.3333333333333,4,2,0,100,0,0
86507,-166.666666666667,4,2,0,100,0,0
86820,-66.6666666666667,4,2,0,100,0,0
88695,-58.8235294117647,4,2,0,100,0,0
90570,-83.3333333333333,4,2,0,100,0,0
91820,-55.5555555555556,4,2,0,100,0,0
94007,-83.3333333333333,4,2,0,100,0,0
94320,-55.5555555555556,4,2,0,100,0,0
96820,-50,4,2,0,100,0,0
97132,-71.4285714285714,4,2,0,100,0,0
97757,-62.5,4,2,0,100,0,0
98070,-50,4,2,0,100,0,0
98382,-62.5,4,2,0,100,0,0
98538,-50,4,2,0,100,0,0
99007,-62.5,4,2,0,100,0,0
99320,-83.3333333333333,4,2,0,100,0,0
99632,-166.666666666667,4,2,0,100,0,0
99945,-83.3333333333333,4,2,0,100,0,0
100257,-166.666666666667,4,2,0,100,0,0
100570,-250.000000000001,4,2,0,100,0,0
101507,-142.857142857143,4,2,0,100,0,0
101741,-142.857142857143,4,2,0,5,0,0
101820,-71.4285714285714,4,2,0,100,0,0
104163,-83.3333333333333,4,2,0,100,0,0
104320,-62.5,4,2,0,100,0,0
106820,-55.5555555555556,4,2,0,100,0,0
111820,-200,4,2,0,90,0,0
113070,-212.765957446809,4,2,0,80,0,0
114320,-232.558139534884,4,2,0,70,0,0
115570,-250,4,2,0,60,0,0
116820,-270.27027027027,4,2,0,50,0,0
118070,-303.030303030303,4,2,0,40,0,0
119320,-333.333333333333,4,2,0,30,0,0
120570,-333.333333333333,4,2,0,20,0,0

[Colours]
Combo1 : 164,209,255
Combo2 : 0,0,111
Combo3 : 128,128,192
Combo4 : 30,0,62
Combo5 : 100,100,255
Combo6 : 0,128,192

[HitObjects]
256,192,570,12,0,1663,0:0:0:0:
52,96,1820,5,0,0:0:0:0:
136,59,1976,1,0,0:0:0:0:
226,73,2132,1,0,0:0:0:0:
167,143,2288,1,0,0:0:0:0:
136,59,2445,1,0,0:0:0:0:
226,73,2601,1,0,0:0:0:0:
260,158,2757,1,0,0:0:0:0:
201,229,2913,6,0,P|144:233|106:214,1,81.6
260,158,3226,2,0,P|317:154|352:175,1,81.6
309,328,3538,2,0,P|285:274|290:246,1,81.6
430,108,3851,2,0,P|450:163|441:199,1,81.6
411,290,4163,1,0,0:0:0:0:
309,328,4320,6,0,L|208:316,1,81.6
195,195,4632,2,0,L|276:204,1,81.6
84,192,4945,2,0,B|80:144|130:97,2,81.6
139,140,5413,1,0,0:0:0:0:
226,187,5570,6,0,B|262:120|240:52|240:52|217:99,1,163.2
148,236,6038,2,0,P|204:278|295:251,1,163.2
139,140,6507,1,0,0:0:0:0:
139,140,6820,6,0,P|207:147|251:138,1,102
381,116,7132,2,0,P|441:108|501:122,1,102
313,206,7445,2,0,P|272:158|273:91,1,102
425,218,7757,1,0,0:0:0:0:
266,121,7913,6,0,P|272:72|304:24,1,102
296,264,8226,2,0,P|244:252|272:201,1,102
361,329,8538,2,0,P|296:360|232:336,1,102
432,153,8851,2,0,B|451:142|451:142|444:187|420:225,1,102
361,329,9163,1,0,0:0:0:0:
296,264,9320,5,0,0:0:0:0:
296,239,9398,1,0,0:0:0:0:
296,214,9476,1,0,0:0:0:0:
296,189,9554,1,0,0:0:0:0:
296,164,9632,1,0,0:0:0:0:
296,139,9710,1,0,0:0:0:0:
296,114,9788,1,0,0:0:0:0:
296,89,9866,1,0,0:0:0:0:
296,64,9945,5,0,0:0:0:0:
332,37,10023,1,0,0:0:0:0:
377,32,10101,1,0,0:0:0:0:
420,48,10179,1,0,0:0:0:0:
449,82,10257,1,0,0:0:0:0:
459,126,10335,1,0,0:0:0:0:
448,169,10413,1,0,0:0:0:0:
417,202,10491,1,0,0:0:0:0:
374,217,10570,6,0,B|260:244|316:196|180:224,1,183.599994396973
168,222,11116,1,0,0:0:0:0:
134,224,11195,1,0,0:0:0:0:
94,208,11273,1,0,0:0:0:0:
63,166,11351,1,0,0:0:0:0:
64,104,11429,1,0,0:0:0:0:
116,53,11507,6,0,B|121:79|121:79|114:106|114:106|117:121,1,53.5499983657837
116,53,11820,6,0,B|135:127|92:109|123:192,1,102
145,307,12132,2,0,P|90:324|21:277,1,102
229,229,12445,2,0,P|259:284|251:347,1,102
183,126,12757,1,0,0:0:0:0:
145,307,12913,1,0,0:0:0:0:
229,229,13070,6,0,P|286:218|351:237,1,102
145,307,13382,1,0,0:0:0:0:
154,179,13538,2,0,P|200:143|269:148,1,102
137,322,13851,1,0,0:0:0:0:
62,193,14007,2,0,P|79:126|108:101,1,102
281,57,14320,6,0,B|343:51|326:61|405:51,1,102
229,229,14632,1,0,0:0:0:0:
340,140,14788,2,0,B|402:134|385:144|464:134,1,102
338,331,15023,1,0,0:0:0:0:
325,309,15101,6,0,B|313:243|341:260|313:204,1,81.6
436,41,15413,6,0,P|454:102|429:152,1,102
325,309,15726,2,0,P|307:248|332:198,1,102
334,44,16038,2,0,P|352:105|327:155,1,102
223,312,16351,2,0,P|205:251|230:201,1,102
232,47,16663,1,0,0:0:0:0:
318,209,16820,6,0,L|217:216,1,102
130,53,17132,2,0,L|239:46,1,102
342,229,17445,2,0,L|215:237,1,102
106,33,17757,2,0,L|242:24,1,102
391,138,18070,6,0,L|364:247,1,112.200003424072
100,160,18382,2,0,L|129:52,1,112.200003424072
414,157,18695,2,0,L|387:266,1,112.200003424072
74,140,19007,2,0,L|106:33,1,112.200003424072
335,34,19320,5,0,0:0:0:0:
325,81,19398,1,0,0:0:0:0:
306,125,19476,1,0,0:0:0:0:
276,163,19554,1,0,0:0:0:0:
238,192,19632,1,0,0:0:0:0:
194,212,19710,1,0,0:0:0:0:
147,222,19788,1,0,0:0:0:0:
99,220,19866,1,0,0:0:0:0:
53,206,19945,6,0,L|36:145,1,45.8999985992432
160,123,20101,2,0,L|181:66,1,45.8999985992432
276,163,20257,2,0,L|336:149,1,45.8999985992432
323,285,20413,2,0,L|370:313,1,45.8999985992432
212,364,20570,6,0,L|201:318,4,28.0500008560181
227,244,20804,1,0,0:0:0:0:
232,220,20882,6,0,L|243:174,4,28.0500008560181
212,124,21117,1,0,0:0:0:0:
207,100,21195,6,0,L|196:54,7,28.0500008560181
195,51,21507,6,0,B|256:42|233:56|312:46,1,107.099996731567
474,33,21820,5,0,0:0:0:0:
433,336,21976,1,0,0:0:0:0:
428,311,22054,1,0,0:0:0:0:
424,288,22132,2,0,L|412:214,1,51
474,33,22288,1,0,0:0:0:0:
479,58,22366,1,0,0:0:0:0:
482,80,22444,6,0,L|490:130,1,51
306,310,22601,1,0,0:0:0:0:
301,285,22679,1,0,0:0:0:0:
298,263,22757,2,0,L|286:189,1,51
358,24,22913,1,0,0:0:0:0:
363,49,22991,1,0,0:0:0:0:
366,71,23069,6,0,L|374:121,1,51
190,301,23227,1,0,0:0:0:0:
185,276,23305,1,0,0:0:0:0:
182,254,23383,2,0,L|170:180,1,51
242,15,23539,1,0,0:0:0:0:
247,40,23617,1,0,0:0:0:0:
250,62,23695,6,0,L|258:112,1,51
85,228,23851,2,0,L|73:154,1,51
298,263,24007,2,0,L|306:313,1,51
181,158,24163,1,0,0:0:0:0:
179,150,24241,1,0,0:0:0:0:
177,142,24320,6,0,P|227:114|237:114,1,51
475,161,24476,1,0,0:0:0:0:
477,169,24554,1,0,0:0:0:0:
479,177,24633,2,0,P|429:205|419:205,1,51
278,78,24788,1,0,0:0:0:0:
301,50,24866,1,0,0:0:0:0:
335,38,24945,6,0,P|381:37|396:49,1,51
298,263,25101,1,0,0:0:0:0:
275,291,25179,1,0,0:0:0:0:
241,303,25257,2,0,P|195:304|180:292,1,51
33,139,25413,1,0,0:0:0:0:
56,111,25491,1,0,0:0:0:0:
81,87,25570,6,0,P|114:63|132:53,1,51
81,87,25882,6,0,P|145:48|177:40,1,91.7999971984864
81,87,26195,6,0,P|138:49|221:43,1,132.599993930054
260,59,26429,1,0,0:0:0:0:
266,77,26507,1,0,0:0:0:0:
272,95,26585,1,0,0:0:0:0:
278,113,26663,1,0,0:0:0:0:
284,131,26741,1,0,0:0:0:0:
290,150,26820,5,0,0:0:0:0:
194,322,26976,1,0,0:0:0:0:
183,305,27054,1,0,0:0:0:0:
176,286,27132,6,0,P|161:240|165:192,1,51
363,80,27288,1,0,0:0:0:0:
373,98,27366,1,0,0:0:0:0:
380,117,27444,2,0,P|395:163|391:211,1,51
194,322,27601,1,0,0:0:0:0:
165,333,27679,1,0,0:0:0:0:
127,338,27757,5,0,0:0:0:0:
84,309,27835,1,0,0:0:0:0:
65,261,27913,1,0,0:0:0:0:
74,211,27991,1,0,0:0:0:0:
112,176,28070,6,0,P|152:157|193:160,1,51
405,291,28226,1,0,0:0:0:0:
396,314,28304,1,0,0:0:0:0:
377,331,28382,5,0,0:0:0:0:
323,346,28460,1,0,0:0:0:0:
269,331,28538,1,0,0:0:0:0:
238,283,28616,1,0,0:0:0:0:
233,226,28695,6,0,P|250:173|269:152,1,51
367,47,28851,1,0,0:0:0:0:
377,29,28929,1,0,0:0:0:0:
387,11,29007,5,0,0:0:0:0:
373,70,29085,1,0,0:0:0:0:
320,101,29163,1,0,0:0:0:0:
260,115,29241,1,0,0:0:0:0:
201,95,29320,6,0,L|98:18,2,81.5999975097657
299,156,29632,6,0,L|408:132,1,95.1999970947267
68,224,29945,5,0,0:0:0:0:
142,166,30049,1,0,0:0:0:0:
48,130,30153,1,0,0:0:0:0:
68,224,30257,2,0,P|125:262|164:256,1,95.1999970947267
272,264,30570,6,0,L|330:255,3,35.6999989105225
149,344,30882,6,0,L|76:356,3,51
269,350,31195,5,0,0:0:0:0:
290,352,31273,1,0,0:0:0:0:
311,355,31351,1,0,0:0:0:0:
332,358,31429,1,0,0:0:0:0:
353,360,31507,1,0,0:0:0:0:
375,363,31585,1,0,0:0:0:0:
396,366,31663,1,0,0:0:0:0:
417,368,31741,1,0,0:0:0:0:
438,371,31820,5,0,0:0:0:0:
479,326,31976,1,0,0:0:0:0:
491,266,32132,1,0,0:0:0:0:
472,207,32288,1,0,0:0:0:0:
432,160,32445,1,0,0:0:0:0:
374,138,32601,1,0,0:0:0:0:
312,141,32757,1,0,0:0:0:0:
261,175,32913,1,0,0:0:0:0:
230,228,33070,5,0,0:0:0:0:
299,201,33226,1,0,0:0:0:0:
337,138,33382,1,0,0:0:0:0:
329,64,33538,1,0,0:0:0:0:
277,11,33695,1,0,0:0:0:0:
204,1,33851,1,0,0:0:0:0:
140,38,34007,1,0,0:0:0:0:
117,109,34163,1,0,0:0:0:0:
140,181,34320,5,0,0:0:0:0:
153,208,34476,1,0,0:0:0:0:
158,238,34632,1,0,0:0:0:0:
156,268,34788,1,0,0:0:0:0:
147,297,34945,1,0,0:0:0:0:
130,323,35101,1,0,0:0:0:0:
108,344,35257,1,0,0:0:0:0:
81,358,35413,1,0,0:0:0:0:
51,365,35570,5,0,0:0:0:0:
31,335,35726,1,0,0:0:0:0:
21,301,35882,1,0,0:0:0:0:
23,266,36038,1,0,0:0:0:0:
35,232,36195,5,0,0:0:0:0:
59,188,36351,1,0,0:0:0:0:
67,138,36507,1,0,0:0:0:0:
60,87,36663,1,0,0:0:0:0:
38,42,36820,5,0,0:0:0:0:
23,95,36976,1,0,0:0:0:0:
39,149,37132,1,0,0:0:0:0:
79,187,37288,1,0,0:0:0:0:
133,199,37445,1,0,0:0:0:0:
186,182,37601,1,0,0:0:0:0:
222,140,37757,5,0,0:0:0:0:
271,91,37913,1,0,0:0:0:0:
341,92,38070,5,0,0:0:0:0:
364,118,38226,1,0,0:0:0:0:
383,149,38382,1,0,0:0:0:0:
395,182,38538,1,0,0:0:0:0:
399,218,38695,1,0,0:0:0:0:
397,253,38851,1,0,0:0:0:0:
388,288,39007,1,0,0:0:0:0:
372,319,39163,1,0,0:0:0:0:
350,347,39320,5,0,0:0:0:0:
303,318,39476,1,0,0:0:0:0:
279,268,39632,1,0,0:0:0:0:
284,213,39788,1,0,0:0:0:0:
318,169,39945,1,0,0:0:0:0:
369,149,40101,1,0,0:0:0:0:
424,160,40257,1,0,0:0:0:0:
465,197,40413,1,0,0:0:0:0:
479,251,40570,6,0,P|479:293|474:324,1,61.1999981323243
379,251,40882,1,0,0:0:0:0:
481,190,41038,2,0,P|481:232|476:263,1,61.1999981323243
379,251,41351,1,0,0:0:0:0:
483,129,41507,2,0,P|483:171|478:202,1,61.1999981323243
425,333,41820,6,0,P|388:299|379:250,1,102
478,250,42132,1,0,0:0:0:0:
355,384,42288,2,0,B|321:352|317:330|317:330|297:374|231:376|183:364,1,204
94,341,42757,1,0,0:0:0:0:
312,229,42913,1,0,0:0:0:0:
194,366,43070,6,0,P|187:295|205:240,1,102
311,228,43382,1,0,0:0:0:0:
177,171,43538,2,0,B|148:114|254:88|252:218|178:233|192:301,1,204
195,366,44007,1,0,0:0:0:0:
74,209,44163,1,0,0:0:0:0:
273,135,44320,6,0,P|300:178|311:228,1,102
313,357,44632,1,0,0:0:0:0:
240,257,44788,2,0,B|282:253|312:228|312:228|307:249|307:249|416:238|441:263,1,204
508,260,45257,1,0,0:0:0:0:
313,357,45413,1,0,0:0:0:0:
273,135,45570,5,0,0:0:0:0:
410,249,45726,1,0,0:0:0:0:
240,256,45882,1,0,0:0:0:0:
380,120,46038,1,0,0:0:0:0:
313,357,46195,1,0,0:0:0:0:
200,94,46351,1,0,0:0:0:0:
410,249,46507,1,0,0:0:0:0:
176,328,46663,1,0,0:0:0:0:
267,37,46820,6,0,P|283:85|273:135,1,102
240,256,47132,1,0,0:0:0:0:
92,112,47288,2,0,B|48:88|48:88|152:100|92:72|208:96,1,204
380,120,47757,1,0,0:0:0:0:
267,37,47913,1,0,0:0:0:0:
240,256,48070,6,0,L|260:368,1,102
352,360,48382,1,0,0:0:0:0:
120,152,48538,2,0,L|156:356,1,204
257,356,49007,1,0,0:0:0:0:
24,304,49163,1,0,0:0:0:0:
240,116,49320,5,0,0:0:0:0:
155,352,49476,1,0,0:0:0:0:
120,152,49632,1,0,0:0:0:0:
271,275,49788,1,0,0:0:0:0:
24,304,49945,1,0,0:0:0:0:
240,116,50101,1,0,0:0:0:0:
160,372,50257,1,0,0:0:0:0:
37,142,50413,1,0,0:0:0:0:
312,267,50570,5,0,0:0:0:0:
307,268,50648,1,0,0:0:0:0:
302,269,50726,1,0,0:0:0:0:
297,270,50804,1,0,0:0:0:0:
292,271,50882,1,0,0:0:0:0:
287,272,50960,1,0,0:0:0:0:
282,273,51038,1,0,0:0:0:0:
277,274,51116,1,0,0:0:0:0:
271,275,51195,6,0,L|194:295,1,76.5
295,223,51507,6,0,B|330:247|370:242|370:242|269:274,1,183.599994396973
196,294,51820,6,0,B|157:133|157:133|217:171,1,214.199993463135
196,294,52132,6,0,L|137:307,1,51
282,112,52288,2,0,L|331:101,1,51
391,347,52445,6,0,L|379:239,1,76.5000029182435
198,158,52601,6,0,P|155:165|117:197,1,91.7999971984864
269,314,52757,6,0,B|391:348|391:348|382:270,1,204
338,78,52991,1,0,0:0:0:0:
282,112,53070,6,0,P|245:144|307:193,1,142.79999564209
512,104,53304,1,0,0:0:0:0:
512,89,53382,6,0,B|462:72|427:77,1,61.1999981323243
382,270,53538,2,0,B|432:287|467:282,1,61.1999981323243
338,78,53695,6,0,B|303:62|283:29|283:29|295:84|282:114|282:114|297:158|299:196,1,244.8
382,270,54007,1,0,0:0:0:0:
338,78,54163,1,0,0:0:0:0:
283,29,54241,1,0,0:0:0:0:
214,14,54320,6,0,B|87:9|87:9|2:102|2:102|130:110,1,357
222,89,54945,6,0,P|230:44|197:2,1,81.6
27,304,55101,6,0,L|124:323,1,71.399997821045
226,341,55257,2,0,L|194:247,1,71.399997821045
162,148,55413,2,0,L|96:222,1,71.399997821045
27,304,55570,6,0,L|240:343,1,204
347,206,55804,1,0,0:0:0:0:
408,127,55882,6,0,P|338:109|297:142,1,71.399997821045
286,285,56038,2,0,P|356:303|397:270,1,71.399997821045
423,210,56195,6,0,L|332:205,1,76.5
286,285,56507,6,0,P|354:306|416:244,1,102
380,296,56820,6,0,B|456:260|465:168|465:168|473:240,1,214.199993463135
384,346,57132,6,0,L|377:265,1,51
465,169,57288,2,0,L|470:220,1,51
384,346,57445,6,0,B|345:357|345:357|288:341,1,76.5000029182435
296,93,57601,6,0,P|309:128|274:166,1,91.7999971984864
76,85,57757,6,0,B|48:35|48:35|226:79,1,204
276,165,57991,1,0,0:0:0:0:
264,242,58070,6,0,B|228:199|257:127|257:127|282:179,1,163.2
339,319,58304,1,0,0:0:0:0:
310,347,58382,6,0,P|272:358|245:352,1,61.1999981323243
140,193,58538,2,0,P|178:182|205:188,1,61.1999981323243
78,329,58695,6,0,B|35:357|18:372|18:372|36:326|35:266|35:266|22:213|47:156,1,275.399991595459
76,85,59007,1,0,0:0:0:0:
276,165,59163,1,0,0:0:0:0:
264,242,59241,1,0,0:0:0:0:
253,320,59320,6,0,B|155:352|155:352|190:192|190:192|286:161,1,357
330,293,59945,6,0,L|222:330,1,81.6
264,70,60101,6,0,P|322:77|342:97,1,71.399997821045
198,221,60257,2,0,P|175:167|182:139,1,71.399997821045
363,201,60413,2,0,P|327:247|300:255,1,71.399997821045
264,70,60570,6,0,B|276:165|276:165|245:227|255:286,1,204
296,384,60804,1,0,0:0:0:0:
325,361,60882,6,0,P|335:327|330:293,1,71.399997821045
173,29,61038,2,0,P|162:62|168:97,1,71.399997821045
363,201,61195,6,0,P|419:162|367:113,1,153
391,271,61507,6,0,P|468:234|472:93,1,214.199993463135
206,178,61820,6,0,B|228:208|228:208|321:189|282:225|363:201,1,173.400003307343
485,115,62132,1,0,0:0:0:0:
264,70,62288,1,0,0:0:0:0:
362,262,62445,6,0,L|362:201,1,61.1999981323243
363,27,62601,1,0,0:0:0:0:
206,178,62757,1,0,0:0:0:0:
434,245,62913,6,0,B|474:256|474:256|496:124|480:105,2,183.599994396973
218,256,63382,1,0,0:0:0:0:
363,27,63538,6,0,L|363:101,1,61.1999981323243
362,262,63695,6,0,B|277:297|218:257|218:257|263:209,1,214.199993463135
404,140,64007,1,0,0:0:0:0:
230,334,64163,1,0,0:0:0:0:
218,256,64241,1,0,0:0:0:0:
206,178,64320,6,0,B|203:122|203:122|325:67|325:67|328:144,1,244.8
218,256,64632,6,0,P|166:268|139:257,1,61.1999981323243
55,106,64788,2,0,P|107:94|134:105,1,61.1999981323243
159,266,64945,6,0,B|116:261|85:278|85:278|117:73,1,260.100004961014
135,0,65257,1,0,0:0:0:0:
265,179,65413,6,0,P|235:184|206:178,1,61.1999981323243
307,73,65570,6,0,P|368:115|374:133,1,71.399997821045
217,302,65727,2,0,P|183:290|158:265,1,71.399997821045
113,96,65882,1,0,0:0:0:0:
362,262,66038,1,0,0:0:0:0:
158,265,66195,1,0,0:0:0:0:
307,73,66351,6,0,B|401:55|401:55|360:273,1,306.000011672974
116,202,66820,6,0,B|123:173|123:173|216:202|170:166|265:179,1,173.400003307343
452,164,67132,1,0,0:0:0:0:
217,302,67288,1,0,0:0:0:0:
307,73,67445,6,0,L|308:157,1,61.1999981323243
308,286,67601,1,0,0:0:0:0:
204,98,67757,1,0,0:0:0:0:
409,11,67913,6,0,B|476:76|476:76|452:163,2,183.599994396973
233,3,68382,1,0,0:0:0:0:
308,286,68538,6,0,L|308:224,1,61.1999981323243
204,98,68695,6,0,P|131:186|201:275,1,229.500008754731
308,286,69007,6,0,P|362:285|380:277,1,61.1999981323243
204,98,69163,2,0,P|150:99|132:107,1,61.1999981323243
308,286,69320,5,0,0:0:0:0:
348,286,69398,1,0,0:0:0:0:
388,275,69476,1,0,0:0:0:0:
422,255,69554,1,0,0:0:0:0:
465,195,69632,5,0,0:0:0:0:
475,155,69710,1,0,0:0:0:0:
474,114,69788,1,0,0:0:0:0:
462,76,69866,1,0,0:0:0:0:
397,38,69945,5,0,0:0:0:0:
357,27,70023,1,0,0:0:0:0:
316,25,70101,1,0,0:0:0:0:
277,33,70179,1,0,0:0:0:0:
215,72,70257,5,0,0:0:0:0:
176,85,70335,1,0,0:0:0:0:
135,86,70413,1,0,0:0:0:0:
98,74,70491,1,0,0:0:0:0:
28,48,70570,6,0,L|36:95,4,30.5999990661621
48,159,70804,1,0,0:0:0:0:
45,186,70882,2,0,L|41:224,4,30.5999990661621
40,307,71116,1,0,0:0:0:0:
79,293,71195,5,0,0:0:0:0:
129,290,71273,1,0,0:0:0:0:
189,296,71351,1,0,0:0:0:0:
258,312,71429,1,0,0:0:0:0:
344,324,71507,5,0,0:0:0:0:
431,295,71585,1,0,0:0:0:0:
484,208,71663,1,0,0:0:0:0:
451,100,71741,1,0,0:0:0:0:
336,54,71820,6,0,B|248:40|268:88|140:56,1,173.400003307343
28,48,72132,1,0,0:0:0:0:
312,172,72288,1,0,0:0:0:0:
162,0,72445,6,0,L|165:69,1,61.1999981323243
168,256,72601,1,0,0:0:0:0:
12,124,72757,1,0,0:0:0:0:
292,64,72913,6,0,B|335:55|335:55|311:132|312:172,2,163.2
112,156,73382,1,0,0:0:0:0:
287,323,73538,6,0,L|291:243,1,61.1999981323243
292,64,73695,6,0,B|276:20|276:20|208:12|266:1|151:1,1,163.2
12,124,73929,1,0,0:0:0:0:
15,169,74007,6,0,P|25:213|48:244,1,71.399997821045
316,128,74163,2,0,P|311:93|291:64,1,71.399997821045
168,256,74320,6,0,B|252:271|252:271|288:323|288:323|417:350,1,244.8
377,140,74632,6,0,L|316:128,1,61.1999981323243
321,330,74788,2,0,L|382:342,1,61.1999981323243
146,94,74945,6,0,B|168:256,2,163.2
370,40,75413,1,0,0:0:0:0:
305,244,75570,6,0,P|237:264|167:255,1,142.79999564209
146,94,75882,1,0,0:0:0:0:
370,40,76038,6,0,B|397:270|397:270|303:244,1,326.4
479,111,76507,1,0,0:0:0:0:
321,330,76663,1,0,0:0:0:0:
151,253,76820,6,0,B|142:206|142:206|148:209|148:209|140:157|177:186|145:92,1,173.400003307343
250,13,77132,1,0,0:0:0:0:
23,140,77288,1,0,0:0:0:0:
253,276,77445,6,0,P|241:221|222:201,1,61.1999981323243
145,93,77601,6,0,B|173:109|181:99|239:109|217:80|315:98,1,163.2
479,111,77913,6,0,L|445:217,1,81.6
389,384,78070,1,0,0:0:0:0:
395,103,78226,6,0,L|370:190,1,71.399997821045
321,330,78382,1,0,0:0:0:0:
305,96,78538,6,0,L|284:179,1,61.1999981323243
253,276,78695,2,0,P|238:201|294:155,1,153.000005836487
395,103,78929,1,0,0:0:0:0:
395,103,79007,6,0,L|468:94,1,61.1999981323243
321,330,79163,2,0,L|260:337,1,61.1999981323243
93,344,79320,5,0,0:0:0:0:
91,331,79398,1,0,0:0:0:0:
89,318,79476,1,0,0:0:0:0:
87,305,79554,1,0,0:0:0:0:
85,292,79632,1,0,0:0:0:0:
83,279,79710,1,0,0:0:0:0:
81,266,79788,1,0,0:0:0:0:
79,253,79866,1,0,0:0:0:0:
77,240,79945,5,0,0:0:0:0:
103,209,80023,1,0,0:0:0:0:
141,195,80101,1,0,0:0:0:0:
182,199,80179,1,0,0:0:0:0:
221,213,80257,1,0,0:0:0:0:
258,230,80335,1,0,0:0:0:0:
297,240,80413,1,0,0:0:0:0:
338,243,80491,1,0,0:0:0:0:
379,236,80570,6,0,L|423:226,4,30.5999990661621
430,157,80804,1,0,0:0:0:0:
441,139,80882,2,0,L|465:97,4,30.5999990661621
381,71,81195,6,0,B|311:56|329:71|264:61,1,114.750004377365
235,95,81507,6,0,P|351:148|269:64,1,306
235,95,81820,6,0,B|213:166|258:153|232:231,1,122.399996264649
472,333,82132,2,0,B|494:262|449:275|475:197,1,122.399996264649
481,76,82445,1,0,0:0:0:0:
317,286,82601,1,0,0:0:0:0:
235,95,82757,2,0,P|287:69|371:85,1,122.399996264649
317,286,83070,6,0,P|265:312|181:296,1,122.399996264649
45,271,83382,1,0,0:0:0:0:
235,95,83538,1,0,0:0:0:0:
202,306,83695,6,0,B|169:135,2,163.2
417,207,84163,1,0,0:0:0:0:
235,95,84320,6,0,B|170:88|141:142|141:142|175:147,1,142.79999564209
381,341,84632,2,0,P|408:292|416:205,1,142.79999564209
410,44,84945,1,0,0:0:0:0:
275,237,85101,1,0,0:0:0:0:
460,378,85257,2,0,P|494:308|497:231,1,142.79999564209
355,96,85570,6,0,B|295:80|335:112|215:92,1,122.399996264649
188,309,85882,2,0,P|252:281|276:229,1,122.399996264649
180,4,86195,1,0,0:0:0:0:
172,208,86351,1,0,0:0:0:0:
356,96,86507,6,0,L|425:87,1,61.1999981323243
274,236,86820,6,0,P|208:212|225:144,1,153.000005836487
367,0,87132,2,0,P|433:20|416:88,1,153.000005836487
274,236,87445,1,0,0:0:0:0:
180,4,87601,1,0,0:0:0:0:
356,96,87757,2,0,B|293:93|293:93|253:102|253:102|186:94,1,153.000005836487
36,308,88070,6,0,B|99:305|99:305|139:314|139:314|206:306,1,153.000005836487
30,137,88382,1,0,0:0:0:0:
92,384,88538,1,0,0:0:0:0:
274,236,88695,6,0,B|264:173|287:191|271:137|271:137|281:98|263:58,2,173.400003307343
306,379,89163,1,0,0:0:0:0:
456,224,89320,5,0,0:0:0:0:
418,206,89398,1,0,0:0:0:0:
379,191,89476,1,0,0:0:0:0:
339,180,89554,1,0,0:0:0:0:
298,173,89632,1,0,0:0:0:0:
256,168,89710,1,0,0:0:0:0:
215,167,89788,1,0,0:0:0:0:
173,170,89866,1,0,0:0:0:0:
132,176,89945,5,0,0:0:0:0:
75,157,90023,1,0,0:0:0:0:
58,98,90101,1,0,0:0:0:0:
90,47,90179,1,0,0:0:0:0:
147,44,90257,1,0,0:0:0:0:
186,91,90335,1,0,0:0:0:0:
177,154,90413,1,0,0:0:0:0:
153,213,90491,1,0,0:0:0:0:
141,276,90570,6,0,L|128:328,4,30.5999990661621
222,321,90804,1,0,0:0:0:0:
244,337,90882,2,0,L|281:359,4,30.5999990661621
347,336,91116,1,0,0:0:0:0:
377,331,91195,5,0,0:0:0:0:
415,317,91273,1,0,0:0:0:0:
457,289,91351,1,0,0:0:0:0:
491,238,91429,1,0,0:0:0:0:
508,168,91507,5,0,0:0:0:0:
488,88,91585,1,0,0:0:0:0:
426,20,91663,1,0,0:0:0:0:
328,0,91741,1,0,0:0:0:0:
222,41,91820,6,0,P|171:122|212:217,1,183.599994396973
347,336,92132,1,0,0:0:0:0:
279,132,92288,1,0,0:0:0:0:
97,276,92445,2,0,B|187:267|187:267|201:273|201:273|298:260,1,183.599994396973
146,169,92757,1,0,0:0:0:0:
212,381,92913,1,0,0:0:0:0:
384,208,93070,6,0,B|428:120|396:78|396:78|355:132,1,183.599994396973
347,336,93382,2,0,P|423:360|541:329,1,183.599994396973
279,132,93695,1,0,0:0:0:0:
212,381,93851,1,0,0:0:0:0:
384,208,94007,6,0,L|341:146,1,61.1999981323243
246,7,94163,2,0,L|201:65,1,61.1999981323243
26,199,94320,6,0,B|99:217|169:200|169:200|122:139,1,183.599994396973
37,63,94632,1,0,0:0:0:0:
99,326,94788,1,0,0:0:0:0:
279,132,94945,2,0,B|226:126|226:126|145:137|204:116|96:136,1,183.599994396973
352,363,95257,2,0,P|406:296|382:206,1,183.599994396973
246,7,95570,6,0,P|192:74|216:164,1,183.599994396973
352,363,95882,1,0,0:0:0:0:
295,100,96038,1,0,0:0:0:0:
99,326,96195,2,0,B|197:337|197:337|203:332|203:332|290:342,1,183.599994396973
442,118,96507,1,0,0:0:0:0:
186,169,96663,1,0,0:0:0:0:
352,363,96820,6,0,B|376:207|376:207|311:229,1,204
92,305,97054,1,0,0:0:0:0:
99,326,97132,6,0,L|196:345,1,71.399997821045
352,363,97288,1,0,0:0:0:0:
186,169,97445,1,0,0:0:0:0:
233,384,97601,1,0,0:0:0:0:
451,198,97757,6,0,P|449:141|434:102,1,81.6
176,88,97913,2,0,P|178:145|193:184,1,81.6
332,221,98070,6,0,P|390:192|314:194,1,204
342,334,98304,1,0,0:0:0:0:
352,363,98382,6,0,L|455:349,1,81.6
246,120,98538,6,0,P|226:190|240:227,1,102
352,363,98695,1,0,0:0:0:0:
359,109,98851,1,0,0:0:0:0:
117,240,99007,6,0,B|45:282|45:282|129:311|257:254,1,244.8
332,221,99320,6,0,P|384:209|435:214,2,81.5999975097657
203,274,99632,6,0,P|150:288|106:294,1,81.5999975097657
246,120,99945,6,0,P|252:68|269:44,2,81.5999975097657
307,300,100257,6,0,P|364:300|393:277,1,81.5999975097657
380,148,100570,6,0,P|348:147|340:227,1,122.4
375,235,101116,1,0,0:0:0:0:
420,224,101195,1,0,0:0:0:0:
459,188,101273,1,0,0:0:0:0:
462,127,101351,1,0,0:0:0:0:
417,81,101429,1,0,0:0:0:0:
338,72,101507,6,0,P|284:99|246:166,1,107.099996731567
420,224,101820,6,0,L|417:39,1,142.79999564209
512,172,102132,1,0,0:0:0:0:
307,300,102288,1,0,0:0:0:0:
277,68,102445,2,0,P|355:64|435:90,1,142.79999564209
337,191,102757,1,0,0:0:0:0:
181,148,102913,6,0,P|140:63|169:3,1,142.79999564209
216,248,103226,2,0,P|123:245|87:191,1,142.79999564209
307,300,103538,2,0,P|251:357|156:340,2,142.79999564209
277,68,104007,1,0,0:0:0:0:
160,274,104163,6,0,L|224:243,1,61.1999981323243
472,109,104320,6,0,P|458:45|342:61,1,163.2
181,148,104632,1,0,0:0:0:0:
412,282,104788,1,0,0:0:0:0:
277,68,104945,2,0,L|301:253,1,163.2
474,110,105257,1,0,0:0:0:0:
160,274,105413,1,0,0:0:0:0:
408,360,105570,6,0,P|455:292|405:284,1,163.2
217,348,105882,1,0,0:0:0:0:
277,68,106038,1,0,0:0:0:0:
485,205,106195,2,0,B|402:218|402:218|404:210|404:210|314:228,1,163.2
294,225,106429,1,0,0:0:0:0:
247,214,106507,1,0,0:0:0:0:
214,177,106585,1,0,0:0:0:0:
210,128,106663,1,0,0:0:0:0:
236,86,106741,1,0,0:0:0:0:
277,68,106820,6,0,P|357:85|338:217,1,183.599994396973
361,355,107132,1,0,0:0:0:0:
175,156,107288,1,0,0:0:0:0:
406,95,107445,2,0,B|404:199|398:224|398:224|370:159,1,183.599994396973
319,2,107757,1,0,0:0:0:0:
470,230,107913,6,0,P|402:299|333:261,1,183.599994396973
395,13,108226,2,0,P|484:53|460:157,1,183.599994396973
216,173,108538,2,0,B|188:75|188:75|193:79|193:79|170:4,2,183.599994396973
271,359,109007,1,0,0:0:0:0:
406,95,109163,1,0,0:0:0:0:
104,92,109320,5,0,0:0:0:0:
59,115,109398,1,0,0:0:0:0:
33,157,109476,1,0,0:0:0:0:
32,207,109554,1,0,0:0:0:0:
53,253,109632,1,0,0:0:0:0:
92,284,109710,1,0,0:0:0:0:
142,293,109788,1,0,0:0:0:0:
192,289,109866,1,0,0:0:0:0:
241,280,109945,5,0,0:0:0:0:
272,272,110023,1,0,0:0:0:0:
304,272,110101,1,0,0:0:0:0:
335,282,110179,1,0,0:0:0:0:
363,298,110257,1,0,0:0:0:0:
393,309,110335,1,0,0:0:0:0:
425,310,110413,1,0,0:0:0:0:
456,301,110491,1,0,0:0:0:0:
485,288,110570,5,0,0:0:0:0:
489,279,110648,1,0,0:0:0:0:
492,271,110726,1,0,0:0:0:0:
495,262,110804,1,0,0:0:0:0:
498,254,110882,1,0,0:0:0:0:
500,245,110960,1,0,0:0:0:0:
502,236,111038,1,0,0:0:0:0:
504,227,111116,1,0,0:0:0:0:
502,222,111195,5,0,0:0:0:0:
500,217,111273,1,0,0:0:0:0:
498,212,111351,1,0,0:0:0:0:
496,207,111429,1,0,0:0:0:0:
494,202,111507,1,0,0:0:0:0:
492,197,111585,1,0,0:0:0:0:
490,192,111663,1,0,0:0:0:0:
488,187,111741,1,0,0:0:0:0:
485,182,111820,6,0,B|462:121|364:21|509:15|557:92|481:141|378:91,1,306
218,28,113070,6,0,B|260:20|260:20|298:29|281:15|337:29|337:29|383:18|383:18|466:34,1,239.699996342468
454,32,114007,1,0,0:0:0:0:
410,237,114320,6,0,B|427:281|403:304|403:304|368:278|421:187|338:124,1,263.160004015503
143,49,115570,6,0,P|125:125|261:149,1,244.8
199,103,116820,6,0,B|135:180|142:253|142:253|191:212,1,226.44000552832
396,109,118070,6,0,B|346:106|299:87|299:87|188:104,1,201.959999383667
304,269,119320,6,0,P|343:222|256:211,1,183.599994396973
80,320,120570,5,0,0:0:0:0:
138,336,120726,1,0,0:0:0:0:
192,308,120882,1,0,0:0:0:0:
252,325,121038,1,0,0:0:0:0:
302,359,121195,1,0,0:0:0:0:
362,370,121352,1,0,0:0:0:0:
422,362,121508,1,0,0:0:0:0:
481,377,121664,5,0,0:0:0:0:
