osu file format v14

[General]
AudioFilename: audio.mp3
AudioLeadIn: 0
PreviewTime: -1
Countdown: 1
SampleSet: None
StackLeniency: 0.2
Mode: 0
LetterboxInBreaks: 0
WidescreenStoryboard: 1

[Editor]
DistanceSpacing: 0.1
BeatDivisor: 4
GridSize: 4
TimelineZoom: 2.4

[Metadata]
Title:Night Sky
TitleUnicode:Night Sky
Artist:USAO
ArtistUnicode:USAO
Creator:TheShadowOfDark
Version:Remap
Source:
Tags:
BeatmapID:2188229
BeatmapSetID:905217

[Difficulty]
HPDrainRate:6
CircleSize:4
OverallDifficulty:8.6
ApproachRate:9.4
SliderMultiplier:2.04
SliderTickRate:1

[Events]
//Background and Video events
0,0,"bg.jpg",0,0
//Break Periods
//Storyboard Layer 0 (Background)
//Storyboard Layer 1 (Fail)
//Storyboard Layer 2 (Pass)
//Storyboard Layer 3 (Foreground)
//Storyboard Layer 4 (Overlay)
//Storyboard Sound Samples

[TimingPoints]
570,312.5,4,2,0,100,1,0
1663,-100,4,2,0,5,0,0
1820,-100,4,2,0,50,0,0
2913,-125,4,2,0,50,0,0
6820,-100,4,2,0,70,0,0
10570,-166.666666666667,4,2,0,70,0,0
11507,-285.714285714286,4,2,0,70,0,0
11741,-285.714285714286,4,2,0,5,0,0
11820,-100,4,2,0,80,0,0
21507,-142.857142857143,4,2,0,100,0,0
21741,-166.666666666667,4,2,0,5,0,0
21820,-100,4,2,0,70,0,0
25570,-76.9230769230769,4,2,0,100,0,0
26976,-100,4,2,0,70,0,0
29320,-83.3333333333333,4,2,0,100,0,0
29632,-142.857142857143,4,2,0,100,0,0
31195,-100,4,2,0,100,0,0
31820,-100,4,2,0,30,0,0
40570,-166.666666666667,4,2,0,30,0,0
41820,-100,4,2,0,70,0,0
51195,-200,4,2,0,70,0,0
51429,-200,4,2,0,5,0,0
51507,-100,4,2,0,100,0,0
51741,-83.3333333333333,4,2,0,5,0,0
51820,-71.4285714285714,4,2,0,100,0,0
52054,-71.4285714285714,4,2,0,5,0,0
52132,-66.6666666666667,4,2,0,100,0,0
52601,-55.5555555555556,4,2,0,100,0,0
52757,-50,4,2,0,100,0,0
53226,-71.4285714285714,4,2,0,100,0,0
53695,-62.5,4,2,0,100,0,0
53929,-62.5,4,2,0,5,0,0
54007,-62.5,4,2,0,100,0,0
54320,-100,4,2,0,100,0,0
54866,-100,4,2,0,5,0,0
54945,-62.5,4,2,0,100,0,0
55570,-50,4,2,0,100,0,0
55882,-71.4285714285714,4,2,0,100,0,0
56195,-200,4,2,0,100,0,0
56429,-200,4,2,0,5,0,0
56507,-33.3333333333333,4,2,0,100,0,0
56585,-50,4,2,0,5,0,0
56820,-71.4285714285714,4,2,0,100,0,0
57054,-71.4285714285714,4,2,0,5,0,0
57132,-66.6666666666667,4,2,0,100,0,0
57757,-50,4,2,0,100,0,0
58070,-62.5,4,2,0,100,0,0
58226,-71.4285714285714,4,2,0,100,0,0
58695,-62.5,4,2,0,100,0,0
58929,-55.5555555555556,4,2,0,5,0,0
59007,-55.5555555555556,4,2,0,100,0,0
59320,-100,4,2,0,100,0,0
59866,-100,4,2,0,5,0,0
59945,-62.5,4,2,0,100,0,0
60570,-50,4,2,0,100,0,0
60882,-71.4285714285714,4,2,0,100,0,0
61195,-100,4,2,0,100,0,0
61429,-100,4,2,0,5,0,0
61507,-71.4285714285714,4,2,0,100,0,0
61741,-71.4285714285714,4,2,0,5,0,0
61820,-58.8235294117647,4,2,0,100,0,0
62445,-83.3333333333333,4,2,0,100,0,0
62913,-55.5555555555556,4,2,0,100,0,0
63538,-83.3333333333333,4,2,0,100,0,0
63695,-71.4285714285714,4,2,0,100,0,0
64320,-62.5,4,2,0,100,0,0
64554,-62.5,4,2,0,5,0,0
64632,-83.3333333333333,4,2,0,100,0,0
64945,-58.8235294117647,4,2,0,100,0,0
65179,-58.8235294117647,4,2,0,5,0,0
65257,-58.8235294117647,4,2,0,100,0,0
65413,-83.3333333333333,4,2,0,100,0,0
65570,-71.4285714285714,4,2,0,100,0,0
66351,-66.6666666666667,4,2,0,100,0,0
66820,-58.8235294117647,4,2,0,100,0,0
67445,-83.3333333333333,4,2,0,100,0,0
67913,-55.5555555555556,4,2,0,100,0,0
68538,-83.3333333333333,4,2,0,100,0,0
68695,-66.6666666666667,4,2,0,100,0,0
69007,-83.3333333333333,4,2,0,100,0,0
71820,-58.8235294117647,4,2,0,100,0,0
72445,-83.3333333333333,4,2,0,100,0,0
72913,-62.5,4,2,0,100,0,0
73538,-83.3333333333333,4,2,0,100,0,0
73695,-62.5,4,2,0,100,0,0
74007,-71.4285714285714,4,2,0,100,0,0
74320,-62.5,4,2,0,100,0,0
74554,-62.5,4,2,0,5,0,0
74632,-83.3333333333333,4,2,0,100,0,0
74945,-62.5,4,2,0,100,0,0
75570,-71.4285714285714,4,2,0,100,0,0
76038,-62.5,4,2,0,100,0,0
76820,-58.8235294117647,4,2,0,100,0,0
77445,-83.3333333333333,4,2,0,100,0,0
77601,-62.5,4,2,0,100,0,0
78226,-71.4285714285714,4,2,0,100,0,0
78538,-83.3333333333333,4,2,0,100,0,0
78695,-66.6666666666667,4,2,0,100,0,0
79007,-83.3333333333333,4,2,0,100,0,0
81195,-133.333333333333,4,2,0,100,0,0
81429,-133.333333333333,4,2,0,5,0,0
81507,-50,4,2,0,100,0,0
81741,-50,4,2,0,5,0,0
81820,-83.3333333333333,4,2,0,100,0,0
83695,-62.5,4,2,0,100,0,0
84320,-71.4285714285714,4,2,0,100,0,0
85570,-83.3333333333333,4,2,0,100,0,0
86507,-166.666666666667,4,2,0,100,0,0
86820,-66.6666666666667,4,2,0,100,0,0
88695,-58.8235294117647,4,2,0,100,0,0
90570,-83.3333333333333,4,2,0,100,0,0
91820,-55.5555555555556,4,2,0,100,0,0
94007,-83.3333333333333,4,2,0,100,0,0
94320,-55.5555555555556,4,2,0,100,0,0
96820,-50,4,2,0,100,0,0
97132,-71.4285714285714,4,2,0,100,0,0
97757,-62.5,4,2,0,100,0,0
98070,-50,4,2,0,100,0,0
98382,-62.5,4,2,0,100,0,0
98538,-50,4,2,0,100,0,0
99007,-62.5,4,2,0,100,0,0
99320,-83.3333333333333,4,2,0,100,0,0
99632,-166.666666666667,4,2,0,100,0,0
99945,-83.3333333333333,4,2,0,100,0,0
100257,-166.666666666667,4,2,0,100,0,0
100570,-250.000000000001,4,2,0,100,0,0
101507,-142.857142857143,4,2,0,100,0,0
101741,-142.857142857143,4,2,0,5,0,0
101820,-71.4285714285714,4,2,0,100,0,0
104163,-83.3333333333333,4,2,0,100,0,0
104320,-62.5,4,2,0,100,0,0
106820,-55.5555555555556,4,2,0,100,0,0
111820,-200,4,2,0,90,0,0
113070,-212.765957446809,4,2,0,80,0,0
114320,-232.558139534884,4,2,0,70,0,0
115570,-250,4,2,0,60,0,0
116820,-270.27027027027,4,2,0,50,0,0
118070,-303.030303030303,4,2,0,40,0,0
119320,-333.333333333333,4,2,0,30,0,0
120570,-333.333333333333,4,2,0,20,0,0

[Colours]
Combo1 : 164,209,255
Combo2 : 0,0,111
Combo3 : 128,128,192
Combo4 : 70,0,147
Combo5 : 100,100,255
Combo6 : 0,128,192

[HitObjects]
256,192,570,12,0,1663,0:0:0:0:
52,96,1820,5,0,0:0:0:0:
136,59,1976,1,0,0:0:0:0:
226,73,2132,1,0,0:0:0:0:
167,143,2288,1,0,0:0:0:0:
136,59,2445,1,0,0:0:0:0:
226,73,2601,1,0,0:0:0:0:
260,158,2757,1,0,0:0:0:0:
201,229,2913,6,0,P|144:233|106:214,1,81.6
260,158,3226,2,0,P|317:154|352:175,1,81.6
309,328,3538,2,0,P|285:274|290:246,1,81.6
430,108,3851,2,0,P|450:163|441:199,1,81.6
411,290,4163,1,0,0:0:0:0:
309,328,4320,6,0,L|208:316,1,81.6
195,195,4632,2,0,L|276:204,1,81.6
73,195,4945,2,0,B|69:147|119:100,2,81.6
132,299,5413,1,0,0:0:0:0:
275,203,5570,6,0,L|451:194,1,163.2
416,314,6038,2,0,L|253:322,1,163.2
132,299,6507,1,0,0:0:0:0:
132,299,6820,6,0,P|109:238|133:181,1,102
176,72,7132,1,0,0:0:0:0:
263,213,7288,1,0,0:0:0:0:
377,135,7445,2,0,P|394:76|381:24,1,102
274,83,7757,1,0,0:0:0:0:
385,244,7913,6,0,P|451:221|468:192,1,102
263,213,8226,2,0,P|267:290|297:323,1,102
274,83,8538,2,0,L|148:88,1,102
25,271,8851,2,0,L|126:266,1,102
263,213,9163,1,0,0:0:0:0:
68,74,9320,5,0,0:0:0:0:
70,86,9398,1,0,0:0:0:0:
72,98,9476,1,0,0:0:0:0:
74,110,9554,1,0,0:0:0:0:
76,122,9632,1,0,0:0:0:0:
78,134,9710,1,0,0:0:0:0:
80,145,9788,1,0,0:0:0:0:
82,156,9866,1,0,0:0:0:0:
84,168,9945,5,0,0:0:0:0:
117,190,10023,1,0,0:0:0:0:
157,197,10101,1,0,0:0:0:0:
197,190,10179,1,0,0:0:0:0:
236,178,10257,1,0,0:0:0:0:
276,169,10335,1,0,0:0:0:0:
316,169,10413,1,0,0:0:0:0:
354,183,10491,1,0,0:0:0:0:
386,209,10570,6,0,P|413:260|316:283,1,183.599994396973
300,266,11116,1,0,0:0:0:0:
282,233,11195,1,0,0:0:0:0:
280,190,11273,1,0,0:0:0:0:
298,144,11351,1,0,0:0:0:0:
342,111,11429,1,0,0:0:0:0:
402,107,11507,6,0,L|466:106,1,53.5499983657837
487,206,11820,6,0,L|385:208,1,102
170,111,12132,1,0,0:0:0:0:
205,337,12288,2,0,L|307:337,1,102
342,111,12601,1,0,0:0:0:0:
126,208,12757,2,0,L|25:206,1,102
236,40,13070,6,0,P|265:100|255:147,1,102
128,297,13382,1,0,0:0:0:0:
68,108,13538,2,0,L|169:110,1,102
384,297,13851,1,0,0:0:0:0:
444,108,14007,2,0,L|343:110,1,102
128,297,14320,6,0,L|229:295,1,102
447,213,14632,1,0,0:0:0:0:
227,52,14788,2,0,P|216:124|228:158,1,102
224,150,15023,1,0,0:0:0:0:
224,150,15101,1,0,0:0:0:0:
377,28,15257,1,0,0:0:0:0:
446,212,15413,6,0,P|453:262|440:311,1,102
350,321,15726,2,0,P|313:355|263:363,1,102
179,319,16038,2,0,P|128:325|80:311,1,102
78,210,16351,2,0,P|32:188|2:147,1,102
27,41,16663,1,0,0:0:0:0:
293,135,16820,6,0,L|311:273,1,102
78,210,17132,2,0,L|64:108,1,102
373,143,17445,2,0,L|391:281,1,102
158,218,17757,2,0,L|144:116,1,102
382,325,18070,6,0,L|281:343,1,102
297,115,18382,2,0,L|433:89,1,102
386,244,18695,2,0,L|285:262,1,102
300,34,19007,2,0,L|436:8,1,102
199,242,19320,5,0,0:0:0:0:
183,280,19398,1,0,0:0:0:0:
153,308,19476,1,0,0:0:0:0:
114,322,19554,1,0,0:0:0:0:
73,319,19632,1,0,0:0:0:0:
37,300,19710,1,0,0:0:0:0:
11,268,19788,1,0,0:0:0:0:
1,228,19866,1,0,0:0:0:0:
7,187,19945,6,0,L|12:128,1,51
90,23,20101,2,0,L|86:73,1,51
102,220,20257,2,0,L|106:160,1,51
185,56,20413,2,0,L|181:106,1,51
183,280,20570,6,0,L|180:315,4,25.5
273,296,20804,1,0,0:0:0:0:
273,296,20882,2,0,L|291:325,4,25.5
363,290,21116,1,0,0:0:0:0:
363,290,21195,2,0,L|386:307,6,25.5
405,371,21507,6,0,P|446:335|450:284,1,107.099996731567
366,140,21820,1,0,0:0:0:0:
191,215,21976,2,0,L|198:289,1,51
273,296,22132,6,0,L|263:194,1,102
263,194,22366,1,0,0:0:0:0:
263,194,22445,1,0,0:0:0:0:
109,134,22601,2,0,L|116:208,1,51
191,215,22757,6,0,L|181:113,1,102
181,113,22991,1,0,0:0:0:0:
181,113,23070,1,0,0:0:0:0:
27,53,23226,2,0,L|34:127,1,51
109,134,23382,6,0,L|99:32,1,102
99,32,23616,1,0,0:0:0:0:
99,32,23695,1,0,0:0:0:0:
179,339,23851,1,0,0:0:0:0:
425,96,24007,6,0,L|415:198,1,102
415,198,24241,1,0,0:0:0:0:
415,198,24320,1,0,0:0:0:0:
261,258,24476,2,0,L|268:184,1,51
343,177,24632,6,0,L|333:279,1,102
333,279,24866,1,0,0:0:0:0:
333,279,24945,1,0,0:0:0:0:
179,339,25101,2,0,L|186:265,1,51
261,258,25257,6,0,L|251:360,1,102
251,359,25491,1,0,0:0:0:0:
251,358,25570,6,0,B|105:375|105:375|18:279,2,265.199987860108
415,197,26351,1,0,0:0:0:0:
147,226,26507,1,0,0:0:0:0:
149,232,26585,1,0,0:0:0:0:
151,238,26663,1,0,0:0:0:0:
153,244,26741,1,0,0:0:0:0:
155,250,26820,1,0,0:0:0:0:
389,286,26976,2,0,L|439:295,1,51
464,374,27132,6,0,L|362:356,1,102
362,357,27366,1,0,0:0:0:0:
362,357,27445,1,0,0:0:0:0:
313,199,27601,2,0,L|386:211,1,51
389,286,27757,6,0,L|287:268,1,102
287,269,27991,1,0,0:0:0:0:
287,269,28070,1,0,0:0:0:0:
238,112,28226,2,0,L|311:124,1,51
313,199,28382,6,0,L|211:181,1,102
212,182,28616,1,0,0:0:0:0:
212,181,28695,1,0,0:0:0:0:
162,25,28851,2,0,L|235:37,1,51
237,111,29007,6,0,L|137:94,1,102
137,94,29241,1,0,0:0:0:0:
137,94,29320,6,0,P|91:50|94:1,2,81.5999975097657
238,112,29632,6,0,P|294:117|347:93,1,95.1999970947267
448,44,29945,5,0,0:0:0:0:
510,102,30049,1,0,0:0:0:0:
503,187,30153,1,0,0:0:0:0:
433,236,30257,6,0,P|411:294|437:352,1,107.099996731567
411,134,30570,5,0,0:0:0:0:
372,111,30648,1,0,0:0:0:0:
328,105,30726,1,0,0:0:0:0:
285,114,30804,1,0,0:0:0:0:
243,130,30882,1,0,0:0:0:0:
202,148,30960,1,0,0:0:0:0:
160,161,31038,1,0,0:0:0:0:
115,162,31116,1,0,0:0:0:0:
74,146,31195,6,0,P|36:108|28:85,3,51
57,20,31507,2,0,P|108:54|116:70,3,51
137,79,31820,5,0,0:0:0:0:
159,106,31976,1,0,0:0:0:0:
174,138,32132,1,0,0:0:0:0:
183,173,32288,1,0,0:0:0:0:
184,209,32445,1,0,0:0:0:0:
178,244,32601,1,0,0:0:0:0:
164,276,32757,1,0,0:0:0:0:
144,306,32913,1,0,0:0:0:0:
118,330,33070,5,0,0:0:0:0:
133,284,33226,1,0,0:0:0:0:
161,243,33382,1,0,0:0:0:0:
198,212,33538,1,0,0:0:0:0:
242,192,33695,1,0,0:0:0:0:
291,184,33851,1,0,0:0:0:0:
339,190,34007,1,0,0:0:0:0:
384,209,34163,1,0,0:0:0:0:
422,239,34320,5,0,0:0:0:0:
420,268,34476,1,0,0:0:0:0:
410,296,34632,1,0,0:0:0:0:
393,320,34788,1,0,0:0:0:0:
371,339,34945,1,0,0:0:0:0:
344,352,35101,1,0,0:0:0:0:
315,357,35257,1,0,0:0:0:0:
286,354,35413,1,0,0:0:0:0:
258,343,35570,5,0,0:0:0:0:
234,318,35726,1,0,0:0:0:0:
220,285,35882,1,0,0:0:0:0:
220,249,36038,1,0,0:0:0:0:
232,216,36195,5,0,0:0:0:0:
259,176,36351,1,0,0:0:0:0:
268,128,36507,1,0,0:0:0:0:
257,81,36663,1,0,0:0:0:0:
228,42,36820,5,0,0:0:0:0:
193,41,36976,1,0,0:0:0:0:
159,52,37132,1,0,0:0:0:0:
132,75,37288,1,0,0:0:0:0:
115,106,37445,1,0,0:0:0:0:
109,141,37601,1,0,0:0:0:0:
117,176,37757,5,0,0:0:0:0:
160,219,37913,1,0,0:0:0:0:
220,230,38070,5,0,0:0:0:0:
232,203,38226,1,0,0:0:0:0:
250,179,38382,1,0,0:0:0:0:
272,159,38538,1,0,0:0:0:0:
297,145,38695,1,0,0:0:0:0:
325,136,38851,1,0,0:0:0:0:
355,132,39007,1,0,0:0:0:0:
384,135,39163,1,0,0:0:0:0:
412,143,39320,5,0,0:0:0:0:
429,156,39476,1,0,0:0:0:0:
442,171,39632,1,0,0:0:0:0:
453,188,39788,1,0,0:0:0:0:
461,207,39945,1,0,0:0:0:0:
466,227,40101,1,0,0:0:0:0:
467,247,40257,1,0,0:0:0:0:
464,267,40413,1,0,0:0:0:0:
457,286,40570,6,0,L|365:294,1,61.1999981323243
316,298,40882,1,0,0:0:0:0:
283,224,41038,2,0,L|343:218,1,61.1999981323243
427,211,41351,1,0,0:0:0:0:
485,148,41507,2,0,P|492:110|474:69,1,61.1999981323243
292,124,41820,6,0,L|405:114,1,102
240,17,42132,1,0,0:0:0:0:
223,228,42288,2,0,L|430:209,1,204
292,124,42757,1,0,0:0:0:0:
345,351,42913,1,0,0:0:0:0:
495,266,43070,6,0,P|513:202|480:144,1,102
422,69,43382,1,0,0:0:0:0:
265,214,43538,2,0,B|239:263|345:289|343:159|290:122,1,204
148,38,44007,1,0,0:0:0:0:
148,264,44163,1,0,0:0:0:0:
290,122,44320,6,0,L|152:122,1,102
31,202,44632,1,0,0:0:0:0:
151,361,44788,2,0,B|192:362|222:332|222:332|217:353|217:353|275:339|320:354,1,204
443,384,45257,1,0,0:0:0:0:
392,179,45413,1,0,0:0:0:0:
319,353,45570,5,0,0:0:0:0:
512,210,45726,1,0,0:0:0:0:
290,136,45882,1,0,0:0:0:0:
488,300,46038,1,0,0:0:0:0:
432,69,46195,1,0,0:0:0:0:
301,248,46351,1,0,0:0:0:0:
214,22,46507,1,0,0:0:0:0:
392,179,46663,1,0,0:0:0:0:
76,130,46820,6,0,L|201:118,1,102
166,220,47132,1,0,0:0:0:0:
10,41,47288,2,0,L|239:18,1,204
392,179,47757,1,0,0:0:0:0:
177,120,47913,1,0,0:0:0:0:
415,84,48070,6,0,P|416:135|392:179,1,102
341,9,48382,1,0,0:0:0:0:
490,230,48538,2,0,B|433:281|433:281|278:267,1,204
177,120,49007,1,0,0:0:0:0:
277,358,49163,1,0,0:0:0:0:
391,179,49320,5,0,0:0:0:0:
166,220,49476,1,0,0:0:0:0:
341,9,49632,1,0,0:0:0:0:
307,269,49788,1,0,0:0:0:0:
213,21,49945,1,0,0:0:0:0:
466,89,50101,1,0,0:0:0:0:
151,116,50257,1,0,0:0:0:0:
341,9,50413,1,0,0:0:0:0:
307,269,50570,5,0,0:0:0:0:
306,264,50648,1,0,0:0:0:0:
305,259,50726,1,0,0:0:0:0:
304,254,50804,1,0,0:0:0:0:
303,249,50882,1,0,0:0:0:0:
302,244,50960,1,0,0:0:0:0:
301,239,51038,1,0,0:0:0:0:
300,234,51116,1,0,0:0:0:0:
298,228,51195,6,0,P|293:172|301:146,1,76.5
353,98,51507,6,0,P|362:163|297:152,1,153
255,31,51820,6,0,B|399:20|399:20|462:106,1,214.199993463135
445,210,52132,6,0,P|433:263|386:305,1,76.5000029182435
297,326,52288,2,0,P|212:352|192:338,1,76.5000029182435
136,154,52445,2,0,P|214:160|189:240,1,153.000005836487
96,329,52679,1,0,0:0:0:0:
90,336,52757,6,0,B|39:380|-79:281|66:175|124:291|124:291|156:359|229:357,1,408
445,210,53226,6,0,P|435:158|385:119,1,71.399997821045
354,21,53382,2,0,P|313:55|305:118,1,71.399997821045
236,194,53538,2,0,P|286:211|344:187,1,71.399997821045
186,15,53695,6,0,B|191:110|191:110|151:160|151:160|153:260,1,244.8
171,312,54007,2,0,L|167:206,1,81.6
14,39,54163,5,0,0:0:0:0:
2,78,54241,1,0,0:0:0:0:
10,155,54320,6,0,B|151:160|151:160|191:110|191:110|356:115,1,357
425,63,54945,6,0,L|437:188,1,81.6
313,304,55101,2,0,L|305:222,1,81.6
183,28,55257,2,0,L|190:109,1,81.6
72,345,55413,2,0,L|64:263,1,81.6
8,79,55570,6,0,B|21:39|21:39|187:27,1,204
318,18,55804,1,0,0:0:0:0:
334,22,55882,6,0,P|376:112|364:142,1,71.399997821045
234,244,56038,2,0,P|192:154|204:124,1,71.399997821045
438,255,56195,6,0,P|452:272|411:275,1,76.5
366,206,56507,6,0,B|342:159|366:137|366:137|383:167|332:202,1,153.000005836487
234,244,56820,6,0,B|73:237|73:237|34:163,1,214.199993463135
0,47,57132,6,0,P|53:35|79:42,1,76.5000029182435
198,100,57288,2,0,P|251:112|277:105,1,76.5000029182435
461,45,57445,2,0,P|390:5|352:67,1,153.000005836487
431,246,57679,1,0,0:0:0:0:
438,255,57757,6,0,B|486:316|541:294|569:217|537:188|483:174|445:200|445:200|366:271|296:249,1,408
26,249,58226,6,0,P|55:292|117:306,1,71.399997821045
185,384,58382,2,0,P|207:335|189:275,1,71.399997821045
223,177,58538,2,0,P|169:181|126:226,1,71.399997821045
361,341,58695,6,0,B|394:274|347:213|347:213|312:155|357:79,1,244.8
361,23,59007,2,0,P|367:84|344:133,1,91.7999971984864
155,189,59163,5,0,0:0:0:0:
115,162,59241,1,0,0:0:0:0:
74,96,59320,6,0,B|58:31|58:31|278:35|278:35|241:122,1,357
155,189,59945,6,0,L|160:81,1,81.6
361,23,60101,2,0,L|357:104,1,81.6
242,301,60257,2,0,L|247:193,1,81.6
485,112,60413,2,0,L|481:193,1,81.6
341,365,60570,6,0,L|111:355,1,204
69,212,60804,1,0,0:0:0:0:
88,196,60882,6,0,P|119:182|158:190,1,71.399997821045
339,257,61038,2,0,P|370:271|409:263,1,71.399997821045
274,48,61195,6,0,L|97:58,1,153
86,80,61507,6,0,L|320:65,1,214.199993463135
269,351,63382,1,0,0:0:0:0:
159,183,63538,6,0,L|159:121,1,61.1999981323243
286,0,63695,2,0,B|391:-23|429:77,1,142.79999564209
494,248,64007,1,0,0:0:0:0:
230,334,64163,1,0,0:0:0:0:
218,256,64241,1,0,0:0:0:0:
61,131,64320,6,0,B|58:75|58:75|180:20|180:20|183:97,1,244.8
218,256,64632,6,0,P|166:268|139:257,1,61.1999981323243
17,101,64788,2,0,P|69:89|96:100,1,61.1999981323243
107,352,64945,6,0,B|64:347|33:364|33:364|65:159,1,260.100004961014
86,1,65257,1,0,0:0:0:0:
265,179,65413,6,0,P|235:184|206:178,1,61.1999981323243
257,28,65570,6,0,P|318:70|324:88,1,71.399997821045
179,283,65727,2,0,P|145:271|120:246,1,71.399997821045
161,97,65882,1,0,0:0:0:0:
246,337,66038,1,0,0:0:0:0:
362,143,66195,1,0,0:0:0:0:
431,271,66351,6,0,B|495:368|495:368|503:140,1,306.000011672974
116,202,66820,6,0,B|123:173|123:173|216:202|170:166|265:179,1,173.400003307343
452,164,67132,1,0,0:0:0:0:
217,302,67288,1,0,0:0:0:0:
307,73,67445,6,0,L|308:157,1,61.1999981323243
308,286,67601,1,0,0:0:0:0:
204,98,67757,1,0,0:0:0:0:
409,11,67913,6,0,B|476:76|476:76|452:163,2,183.599994396973
233,3,68382,1,0,0:0:0:0:
308,286,68538,6,0,L|308:224,1,61.1999981323243
204,98,68695,6,0,P|131:186|201:275,1,229.500008754731
308,286,69007,6,0,P|362:285|380:277,1,61.1999981323243
204,98,69163,2,0,P|150:99|132:107,1,61.1999981323243
308,286,69320,5,0,0:0:0:0:
348,286,69398,1,0,0:0:0:0:
388,275,69476,1,0,0:0:0:0:
422,255,69554,1,0,0:0:0:0:
465,195,69632,5,0,0:0:0:0:
475,155,69710,1,0,0:0:0:0:
474,114,69788,1,0,0:0:0:0:
462,76,69866,1,0,0:0:0:0:
397,38,69945,5,0,0:0:0:0:
357,27,70023,1,0,0:0:0:0:
316,25,70101,1,0,0:0:0:0:
277,33,70179,1,0,0:0:0:0:
215,72,70257,5,0,0:0:0:0:
176,85,70335,1,0,0:0:0:0:
135,86,70413,1,0,0:0:0:0:
98,74,70491,1,0,0:0:0:0:
28,48,70570,6,0,L|36:95,4,30.5999990661621
48,159,70804,1,0,0:0:0:0:
45,186,70882,2,0,L|41:224,4,30.5999990661621
40,307,71116,1,0,0:0:0:0:
79,293,71195,5,0,0:0:0:0:
129,290,71273,1,0,0:0:0:0:
189,296,71351,1,0,0:0:0:0:
258,312,71429,1,0,0:0:0:0:
344,324,71507,5,0,0:0:0:0:
431,295,71585,1,0,0:0:0:0:
484,208,71663,1,0,0:0:0:0:
451,100,71741,1,0,0:0:0:0:
336,54,71820,6,0,B|248:40|268:88|140:56,1,173.400003307343
28,48,72132,1,0,0:0:0:0:
312,172,72288,1,0,0:0:0:0:
162,0,72445,6,0,L|165:69,1,61.1999981323243
168,256,72601,1,0,0:0:0:0:
12,124,72757,1,0,0:0:0:0:
292,64,72913,6,0,B|335:55|335:55|311:132|312:172,2,163.2
112,156,73382,1,0,0:0:0:0:
287,323,73538,6,0,L|291:243,1,61.1999981323243
292,64,73695,6,0,B|276:20|276:20|208:12|266:1|151:1,1,163.2
12,124,73929,1,0,0:0:0:0:
15,169,74007,6,0,P|25:213|48:244,1,71.399997821045
316,128,74163,2,0,P|311:93|291:64,1,71.399997821045
168,256,74320,6,0,B|252:271|252:271|288:323|288:323|417:350,1,244.8
377,140,74632,6,0,L|316:128,1,61.1999981323243
321,330,74788,2,0,L|382:342,1,61.1999981323243
146,94,74945,6,0,B|168:256,2,163.2
370,40,75413,1,0,0:0:0:0:
305,244,75570,6,0,P|237:264|167:255,1,142.79999564209
146,94,75882,1,0,0:0:0:0:
370,40,76038,6,0,B|397:270|397:270|303:244,1,326.4
479,111,76507,1,0,0:0:0:0:
321,330,76663,1,0,0:0:0:0:
151,253,76820,6,0,B|142:206|142:206|148:209|148:209|140:157|177:186|145:92,1,173.400003307343
250,13,77132,1,0,0:0:0:0:
23,140,77288,1,0,0:0:0:0:
253,276,77445,6,0,P|241:221|222:201,1,61.1999981323243
145,93,77601,6,0,B|173:109|181:99|239:109|217:80|315:98,1,163.2
479,111,77913,6,0,L|445:217,1,81.6
389,384,78070,1,0,0:0:0:0:
395,103,78226,6,0,L|370:190,1,71.399997821045
321,330,78382,1,0,0:0:0:0:
305,96,78538,6,0,L|284:179,1,61.1999981323243
253,276,78695,2,0,P|238:201|294:155,1,153.000005836487
395,103,78929,1,0,0:0:0:0:
395,103,79007,6,0,L|468:94,1,61.1999981323243
321,330,79163,2,0,L|260:337,1,61.1999981323243
93,344,79320,5,0,0:0:0:0:
91,331,79398,1,0,0:0:0:0:
89,318,79476,1,0,0:0:0:0:
87,305,79554,1,0,0:0:0:0:
85,292,79632,1,0,0:0:0:0:
83,279,79710,1,0,0:0:0:0:
81,266,79788,1,0,0:0:0:0:
79,253,79866,1,0,0:0:0:0:
77,240,79945,5,0,0:0:0:0:
103,209,80023,1,0,0:0:0:0:
141,195,80101,1,0,0:0:0:0:
182,199,80179,1,0,0:0:0:0:
221,213,80257,1,0,0:0:0:0:
258,230,80335,1,0,0:0:0:0:
297,240,80413,1,0,0:0:0:0:
338,243,80491,1,0,0:0:0:0:
379,236,80570,6,0,L|423:226,4,30.5999990661621
430,157,80804,1,0,0:0:0:0:
441,139,80882,2,0,L|465:97,4,30.5999990661621
381,71,81195,6,0,B|311:56|329:71|264:61,1,114.750004377365
235,95,81507,6,0,P|351:148|269:64,1,306
235,95,81820,6,0,B|213:166|258:153|232:231,1,122.399996264649
472,333,82132,2,0,B|494:262|449:275|475:197,1,122.399996264649
481,76,82445,1,0,0:0:0:0:
317,286,82601,1,0,0:0:0:0:
235,95,82757,2,0,P|287:69|371:85,1,122.399996264649
317,286,83070,6,0,P|265:312|181:296,1,122.399996264649
45,271,83382,1,0,0:0:0:0:
235,95,83538,1,0,0:0:0:0:
202,306,83695,6,0,B|169:135,2,163.2
417,207,84163,1,0,0:0:0:0:
235,95,84320,6,0,B|170:88|141:142|141:142|175:147,1,142.79999564209
381,341,84632,2,0,P|408:292|416:205,1,142.79999564209
410,44,84945,1,0,0:0:0:0:
275,237,85101,1,0,0:0:0:0:
460,378,85257,2,0,P|494:308|497:231,1,142.79999564209
355,96,85570,6,0,B|295:80|335:112|215:92,1,122.399996264649
188,309,85882,2,0,P|252:281|276:229,1,122.399996264649
180,4,86195,1,0,0:0:0:0:
172,208,86351,1,0,0:0:0:0:
356,96,86507,6,0,L|425:87,1,61.1999981323243
274,236,86820,6,0,P|208:212|225:144,1,153.000005836487
367,0,87132,2,0,P|433:20|416:88,1,153.000005836487
274,236,87445,1,0,0:0:0:0:
180,4,87601,1,0,0:0:0:0:
356,96,87757,2,0,B|293:93|293:93|253:102|253:102|186:94,1,153.000005836487
36,308,88070,6,0,B|99:305|99:305|139:314|139:314|206:306,1,153.000005836487
30,137,88382,1,0,0:0:0:0:
92,384,88538,1,0,0:0:0:0:
274,236,88695,6,0,B|264:173|287:191|271:137|271:137|281:98|263:58,2,173.400003307343
306,379,89163,1,0,0:0:0:0:
456,224,89320,5,0,0:0:0:0:
418,206,89398,1,0,0:0:0:0:
379,191,89476,1,0,0:0:0:0:
339,180,89554,1,0,0:0:0:0:
298,173,89632,1,0,0:0:0:0:
256,168,89710,1,0,0:0:0:0:
215,167,89788,1,0,0:0:0:0:
173,170,89866,1,0,0:0:0:0:
132,176,89945,5,0,0:0:0:0:
75,157,90023,1,0,0:0:0:0:
58,98,90101,1,0,0:0:0:0:
90,47,90179,1,0,0:0:0:0:
147,44,90257,1,0,0:0:0:0:
186,91,90335,1,0,0:0:0:0:
177,154,90413,1,0,0:0:0:0:
153,213,90491,1,0,0:0:0:0:
141,276,90570,6,0,L|128:328,4,30.5999990661621
222,321,90804,1,0,0:0:0:0:
244,337,90882,2,0,L|281:359,4,30.5999990661621
347,336,91116,1,0,0:0:0:0:
377,331,91195,5,0,0:0:0:0:
415,317,91273,1,0,0:0:0:0:
457,289,91351,1,0,0:0:0:0:
491,238,91429,1,0,0:0:0:0:
508,168,91507,5,0,0:0:0:0:
488,88,91585,1,0,0:0:0:0:
426,20,91663,1,0,0:0:0:0:
328,0,91741,1,0,0:0:0:0:
222,41,91820,6,0,P|171:122|212:217,1,183.599994396973
347,336,92132,1,0,0:0:0:0:
279,132,92288,1,0,0:0:0:0:
97,276,92445,2,0,B|187:267|187:267|201:273|201:273|298:260,1,183.599994396973
146,169,92757,1,0,0:0:0:0:
212,381,92913,1,0,0:0:0:0:
384,208,93070,6,0,B|428:120|396:78|396:78|355:132,1,183.599994396973
347,336,93382,2,0,P|423:360|541:329,1,183.599994396973
279,132,93695,1,0,0:0:0:0:
212,381,93851,1,0,0:0:0:0:
384,208,94007,6,0,L|341:146,1,61.1999981323243
246,7,94163,2,0,L|201:65,1,61.1999981323243
26,199,94320,6,0,B|99:217|169:200|169:200|122:139,1,183.599994396973
37,63,94632,1,0,0:0:0:0:
99,326,94788,1,0,0:0:0:0:
279,132,94945,2,0,B|226:126|226:126|145:137|204:116|96:136,1,183.599994396973
352,363,95257,2,0,P|406:296|382:206,1,183.599994396973
246,7,95570,6,0,P|192:74|216:164,1,183.599994396973
352,363,95882,1,0,0:0:0:0:
295,100,96038,1,0,0:0:0:0:
99,326,96195,2,0,B|197:337|197:337|203:332|203:332|290:342,1,183.599994396973
442,118,96507,1,0,0:0:0:0:
186,169,96663,1,0,0:0:0:0:
352,363,96820,6,0,B|376:207|376:207|311:229,1,204
92,305,97054,1,0,0:0:0:0:
99,326,97132,6,0,L|196:345,1,71.399997821045
352,363,97288,1,0,0:0:0:0:
186,169,97445,1,0,0:0:0:0:
233,384,97601,1,0,0:0:0:0:
451,198,97757,6,0,P|449:141|434:102,1,81.6
176,88,97913,2,0,P|178:145|193:184,1,81.6
332,221,98070,6,0,P|390:192|314:194,1,204
342,334,98304,1,0,0:0:0:0:
352,363,98382,6,0,L|455:349,1,81.6
246,120,98538,6,0,P|226:190|240:227,1,102
352,363,98695,1,0,0:0:0:0:
359,109,98851,1,0,0:0:0:0:
117,240,99007,6,0,B|45:282|45:282|129:311|257:254,1,244.8
332,221,99320,6,0,P|384:209|435:214,2,81.5999975097657
203,274,99632,6,0,P|150:288|106:294,1,81.5999975097657
246,120,99945,6,0,P|252:68|269:44,2,81.5999975097657
307,300,100257,6,0,P|364:300|393:277,1,81.5999975097657
380,148,100570,6,0,P|348:147|340:227,1,122.4
375,235,101116,1,0,0:0:0:0:
420,224,101195,1,0,0:0:0:0:
459,188,101273,1,0,0:0:0:0:
462,127,101351,1,0,0:0:0:0:
417,81,101429,1,0,0:0:0:0:
338,72,101507,6,0,P|284:99|246:166,1,107.099996731567
420,224,101820,6,0,L|417:39,1,142.79999564209
512,172,102132,1,0,0:0:0:0:
307,300,102288,1,0,0:0:0:0:
277,68,102445,2,0,P|355:64|435:90,1,142.79999564209
337,191,102757,1,0,0:0:0:0:
181,148,102913,6,0,P|140:63|169:3,1,142.79999564209
216,248,103226,2,0,P|123:245|87:191,1,142.79999564209
307,300,103538,2,0,P|251:357|156:340,2,142.79999564209
277,68,104007,1,0,0:0:0:0:
160,274,104163,6,0,L|224:243,1,61.1999981323243
472,109,104320,6,0,P|458:45|342:61,1,163.2
181,148,104632,1,0,0:0:0:0:
412,282,104788,1,0,0:0:0:0:
277,68,104945,2,0,L|301:253,1,163.2
474,110,105257,1,0,0:0:0:0:
160,274,105413,1,0,0:0:0:0:
408,360,105570,6,0,P|455:292|405:284,1,163.2
217,348,105882,1,0,0:0:0:0:
277,68,106038,1,0,0:0:0:0:
485,205,106195,2,0,B|402:218|402:218|404:210|404:210|314:228,1,163.2
294,225,106429,1,0,0:0:0:0:
247,214,106507,1,0,0:0:0:0:
214,177,106585,1,0,0:0:0:0:
210,128,106663,1,0,0:0:0:0:
236,86,106741,1,0,0:0:0:0:
277,68,106820,6,0,P|357:85|338:217,1,183.599994396973
361,355,107132,1,0,0:0:0:0:
175,156,107288,1,0,0:0:0:0:
406,95,107445,2,0,B|404:199|398:224|398:224|370:159,1,183.599994396973
319,2,107757,1,0,0:0:0:0:
470,230,107913,6,0,P|402:299|333:261,1,183.599994396973
395,13,108226,2,0,P|484:53|460:157,1,183.599994396973
216,173,108538,2,0,B|188:75|188:75|193:79|193:79|170:4,2,183.599994396973
271,359,109007,1,0,0:0:0:0:
406,95,109163,1,0,0:0:0:0:
104,92,109320,5,0,0:0:0:0:
59,115,109398,1,0,0:0:0:0:
33,157,109476,1,0,0:0:0:0:
32,207,109554,1,0,0:0:0:0:
53,253,109632,1,0,0:0:0:0:
92,284,109710,1,0,0:0:0:0:
142,293,109788,1,0,0:0:0:0:
192,289,109866,1,0,0:0:0:0:
241,280,109945,5,0,0:0:0:0:
272,272,110023,1,0,0:0:0:0:
304,272,110101,1,0,0:0:0:0:
335,282,110179,1,0,0:0:0:0:
363,298,110257,1,0,0:0:0:0:
393,309,110335,1,0,0:0:0:0:
425,310,110413,1,0,0:0:0:0:
456,301,110491,1,0,0:0:0:0:
485,288,110570,5,0,0:0:0:0:
489,279,110648,1,0,0:0:0:0:
492,271,110726,1,0,0:0:0:0:
495,262,110804,1,0,0:0:0:0:
498,254,110882,1,0,0:0:0:0:
500,245,110960,1,0,0:0:0:0:
502,236,111038,1,0,0:0:0:0:
504,227,111116,1,0,0:0:0:0:
502,222,111195,5,0,0:0:0:0:
500,217,111273,1,0,0:0:0:0:
498,212,111351,1,0,0:0:0:0:
496,207,111429,1,0,0:0:0:0:
494,202,111507,1,0,0:0:0:0:
492,197,111585,1,0,0:0:0:0:
490,192,111663,1,0,0:0:0:0:
488,187,111741,1,0,0:0:0:0:
485,182,111820,6,0,B|462:121|364:21|509:15|557:92|481:141|378:91,1,306
218,28,113070,6,0,B|260:20|260:20|298:29|281:15|337:29|337:29|383:18|383:18|466:34,1,239.699996342468
454,32,114007,1,0,0:0:0:0:
410,237,114320,6,0,B|427:281|403:304|403:304|368:278|421:187|338:124,1,263.160004015503
143,49,115570,6,0,P|125:125|261:149,1,244.8
199,103,116820,6,0,B|135:180|142:253|142:253|191:212,1,226.44000552832
304,269,119320,6,0,P|343:222|256:211,1,183.599994396973
80,320,120570,5,0,0:0:0:0:
138,336,120726,1,0,0:0:0:0:
192,308,120882,1,0,0:0:0:0:
252,325,121038,1,0,0:0:0:0:
302,359,121195,1,0,0:0:0:0:
362,370,121352,1,0,0:0:0:0:
422,362,121508,1,0,0:0:0:0:
481,377,121664,5,0,0:0:0:0:
