osu file format v14

[General]
AudioFilename: miracle_5ympho_x.mp3
AudioLeadIn: 0
PreviewTime: 9073
Countdown: 0
SampleSet: Normal
StackLeniency: 0.7
Mode: 0
LetterboxInBreaks: 0
WidescreenStoryboard: 1

[Editor]
Bookmarks: 9787,17073,20501,29644,38787,47930,55930,56430,61144,61644,63358,67930,72501,77073,79930,84501,87930,98215,102144,102787,111930,120787
DistanceSpacing: 1
BeatDivisor: 4
GridSize: 4
TimelineZoom: 0.8

[Metadata]
Title:Miracle 5ympho X
TitleUnicode:Miracle 5ympho X
Artist:USAO
ArtistUnicode:USAO
Creator:Mel
Version:Mirabelle
Source:beatmania IIDX 21 SPADA
Tags:frey sionkotori kokodoko ナウい 一年一片 frenchcore dubstep intensity fullerene kurokami gezo
BeatmapID:894011
BeatmapSetID:137394

[Difficulty]
HPDrainRate:5
CircleSize:4
OverallDifficulty:9
ApproachRate:9.7
SliderMultiplier:2.2
SliderTickRate:1

[Events]
//Background and Video events
0,0,"5ympho.png",0,0
//Break Periods
//Storyboard Layer 0 (Background)
//Storyboard Layer 1 (Fail)
//Storyboard Layer 2 (Pass)
//Storyboard Layer 3 (Foreground)
//Storyboard Sound Samples

[TimingPoints]
502,285.714285714286,4,1,0,60,1,0
502,-66.6666666666667,4,2,0,10,0,0
1073,285.714285714286,4,1,0,60,1,0
1073,-200,4,2,0,45,0,0
5644,-200,4,2,0,60,0,0
7073,-166.666666666667,4,2,0,60,0,0
7358,-166.666666666667,4,2,0,55,0,0
7930,-166.666666666667,4,2,0,65,0,0
8215,-142.857142857143,4,2,0,65,0,0
8501,-125,4,2,0,65,0,0
8787,-100,4,2,0,65,0,0
9644,-100,4,2,0,15,0,0
10215,-100,4,1,0,60,0,0
18287,-100,4,1,0,50,0,0
18358,-100,4,1,0,40,0,0
18430,-100,4,1,0,30,0,0
18501,-100,4,1,0,25,0,0
18573,-100,4,1,0,20,0,0
18644,-100,4,2,0,25,0,0
18715,-100,4,2,0,35,0,0
18787,-100,4,2,0,50,0,0
18930,-100,4,2,0,60,0,0
19358,-166.666666666667,4,2,0,60,0,0
19930,-125,4,2,0,60,0,0
20501,-142.857142857143,4,2,0,60,0,0
29644,-117.647058823529,4,1,0,40,0,0
38787,-100,4,1,0,60,0,0
46858,-100,4,2,0,60,0,0
47930,-76.9230769230769,4,2,0,95,0,0
48501,-50,4,2,0,95,0,0
48644,-66.6666666666667,4,2,0,95,0,0
48787,-76.9230769230769,4,2,0,95,0,0
49073,-100,4,2,0,95,0,0
50215,-76.9230769230769,4,2,0,95,0,0
50787,-50,4,2,0,95,0,0
50930,-66.6666666666667,4,2,0,95,0,0
51073,-76.9230769230769,4,2,0,95,0,0
51358,-100,4,2,0,95,0,0
52501,-76.9230769230769,4,2,0,95,0,0
53073,-50,4,2,0,95,0,0
53215,-66.6666666666667,4,2,0,95,0,0
53358,-76.9230769230769,4,2,0,95,0,0
53644,-100,4,2,0,95,0,0
54787,-76.9230769230769,4,2,0,95,0,0
55358,-50,4,2,0,95,0,0
55501,-66.6666666666667,4,2,0,95,0,0
55644,-76.9230769230769,4,2,0,95,0,0
55930,-133.333333333333,4,2,0,95,0,0
56001,-133.333333333333,4,2,0,75,0,0
61644,-100,4,1,0,60,0,0
78215,-100,4,1,0,50,0,0
78287,-100,4,1,0,40,0,0
78358,-100,4,1,0,30,0,0
78430,-100,4,1,0,20,0,0
78501,-100,4,2,0,30,0,0
78787,-100,4,1,0,60,0,0
79930,-100,4,1,0,60,0,1
97073,-100,4,1,0,60,0,0
97215,-100,4,2,0,60,0,0
98073,-200,4,2,0,40,0,0
101644,-200,4,2,0,65,0,0
102215,-200,4,2,0,15,0,0
102358,-200,4,2,0,50,0,0
102787,-100,4,1,0,60,0,0
110858,-100,4,1,0,50,0,0
110930,-100,4,1,0,40,0,0
111001,-100,4,1,0,30,0,0
111073,-100,4,1,0,25,0,0
111144,-100,4,1,0,20,0,0
111215,-100,4,2,0,25,0,0
111287,-100,4,2,0,35,0,0
111358,-100,4,2,0,50,0,0
111430,-100,4,2,0,60,0,0

[Colours]
Combo1 : 244,244,0
Combo2 : 244,11,81

[HitObjects]
216,124,502,6,0,L|196:120,31,20.6250007867813
244,132,1073,5,0,0:0:0:0:
436,80,1787,1,0,0:0:0:0:
432,95,1858,1,0,0:0:0:0:
429,111,1930,1,0,0:0:0:0:
400,224,2073,1,0,0:0:0:0:
300,272,2215,2,0,L|188:276,1,110,0|0,0:0|0:0,0:0:0:0:
88,248,2644,1,0,0:0:0:0:
88,248,2787,2,0,L|80:184,1,55,0|0,0:0|0:0,0:0:0:0:
180,272,3073,2,0,L|186:326,1,55,0|0,0:0|0:0,0:0:0:0:
68,236,3358,6,0,P|60:180|80:112,1,110,0|0,0:0|0:0,0:0:0:0:
144,60,3787,1,0,0:0:0:0:
144,60,3930,2,0,L|200:56,1,55,0|0,0:0|0:0,0:0:0:0:
288,104,4215,2,0,L|348:100,1,55,0|0,0:0|0:0,0:0:0:0:
436,76,4501,6,0,L|424:204,1,110,0|0,0:0|0:0,0:0:0:0:
368,260,4930,2,0,P|328:272|260:224,1,110,0|0,0:0|0:0,0:0:0:0:
220,164,5358,1,0,0:0:0:0:
220,164,5644,6,0,L|228:92,1,55
120,168,5930,2,0,L|112:240,1,55,0|0,0:0|0:0,0:0:0:0:
176,328,6215,2,0,P|208:336|240:328,1,55,0|0,0:0|0:0,0:0:0:0:
252,324,6430,1,0,0:0:0:0:
272,316,6501,2,0,P|304:308|340:316,1,55,0|0,0:0|0:0,0:0:0:0:
424,364,6787,5,0,0:0:0:0:
424,364,6930,1,0,0:0:0:0:
424,364,7073,2,0,L|420:288,1,65.9999979858399,0|0,0:0|0:0,0:0:0:0:
376,192,7358,2,0,L|384:104,1,65.9999979858399,0|0,0:0|0:0,0:0:0:0:
312,268,7644,2,0,P|276:280|232:272,1,65.9999979858399,0|0,0:0|0:0,0:0:0:0:
140,240,7930,5,0,0:0:0:0:
140,240,8073,1,0,0:0:0:0:
140,240,8215,2,0,L|128:148,1,76.9999976501466
288,136,8501,6,0,L|212:204,1,88,0|0,0:0|0:0,0:0:0:0:
104,64,8787,6,0,L|216:96,1,110
436,204,9073,6,0,B|352:188|352:188|376:228,1,110,0|0,0:0|0:0,0:0:0:0:
388,292,9287,2,0,B|352:300|332:292|300:264|300:264|268:280|268:280|228:248|176:260,1,220,0|0,0:0|0:0,0:0:0:0:
116,296,9644,1,0,0:0:0:0:
204,336,9787,1,0,0:0:0:0:
368,216,9930,1,0,0:0:0:0:
264,252,10073,1,0,0:0:0:0:
372,176,10215,6,0,L|380:112,1,55,0|0,0:0|2:0,0:0:0:0:
264,252,10358,2,0,L|256:312,1,55,0|0,0:0|2:0,0:0:0:0:
168,116,10501,2,0,P|116:92|52:116,1,110,0|0,0:0|0:0,0:0:0:0:
324,360,10787,1,0,0:0:0:0:
112,176,10930,1,0,0:0:0:0:
368,84,11073,1,0,0:0:0:0:
212,260,11215,1,0,0:0:0:0:
432,136,11358,6,0,P|448:80|424:16,1,110,0|0,0:0|0:0,0:0:0:0:
146,207,11644,2,0,P|130:263|154:327,1,110,0|0,0:0|0:0,0:0:0:0:
440,256,11930,1,0,0:0:0:0:
300,72,12073,1,0,0:0:0:0:
208,260,12215,1,0,0:0:0:0:
412,88,12358,1,0,0:0:0:0:
204,56,12501,6,0,L|144:64,1,55,0|0,0:0|2:0,0:0:0:0:
340,100,12644,2,0,L|394:92,1,55,0|0,0:0|2:0,0:0:0:0:
240,260,12787,2,0,P|228:200|248:136,1,110
364,24,13073,1,0,0:0:0:0:
144,152,13215,1,0,0:0:0:0:
356,216,13358,1,0,0:0:0:0:
204,56,13501,1,0,0:0:0:0:
424,256,13644,6,0,B|432:224|432:224|428:188|428:188|440:144|440:144|428:92,1,165
388,12,13930,1,0,0:0:0:0:
172,152,14073,1,0,0:0:0:0:
340,264,14215,1,0,0:0:0:0:
340,264,14287,1,0,0:0:0:0:
340,264,14358,1,0,0:0:0:0:
204,56,14501,1,0,0:0:0:0:
428,36,14644,1,0,0:0:0:0:
424,48,14715,1,0,0:0:0:0:
420,60,14787,6,0,P|436:84|468:108,1,55,0|0,0:0|2:0,0:0:0:0:
312,152,14930,2,0,P|272:160|244:156,1,55,0|0,0:0|2:0,0:0:0:0:
112,260,15073,2,0,L|124:124,1,110
128,12,15358,1,0,0:0:0:0:
252,240,15501,1,0,0:0:0:0:
28,164,15644,1,0,0:0:0:0:
312,152,15787,1,0,0:0:0:0:
128,80,15930,5,0,0:0:0:0:
384,128,16073,1,0,0:0:0:0:
248,296,16215,1,0,0:0:0:0:
140,104,16358,1,0,0:0:0:0:
360,256,16501,1,0,0:0:0:0:
220,60,16644,1,0,0:0:0:0:
108,280,16787,1,0,0:0:0:0:
416,184,16930,1,0,0:0:0:0:
184,72,17073,6,0,P|156:32|152:12,1,55,0|0,0:0|2:0,0:0:0:0:
272,216,17215,2,0,P|253:261|239:275,1,55,0|0,0:0|2:0,0:0:0:0:
352,104,17358,2,0,B|408:96|408:96|472:120,1,110,0|0,0:0|0:0,0:0:0:0:
192,208,17644,2,0,L|72:192,1,110
284,16,17930,1,0,0:0:0:0:
432,276,18073,1,0,0:0:0:0:
152,156,18215,5,0,0:0:0:0:
127,118,18287,1,0,0:0:0:0:
127,73,18358,1,0,0:0:0:0:
153,36,18430,1,0,0:0:0:0:
195,20,18501,1,0,0:0:0:0:
239,31,18573,1,0,0:0:0:0:
272,64,18644,5,0,0:0:0:0:
284,106,18715,1,0,0:0:0:0:
280,148,18787,1,0,0:0:0:0:
268,191,18858,1,0,0:0:0:0:
281,232,18930,1,0,0:0:0:0:
295,274,19001,1,0,0:0:0:0:
336,308,19073,6,0,P|364:312|404:308,1,55,0|0,0:0|0:0,0:0:0:0:
208,148,19215,2,0,P|156:144|140:148,1,55,0|0,0:0|0:0,0:0:0:0:
44,240,19358,6,0,P|22:278|108:249,1,219.999993286133,0|0,0:0|0:0,0:0:0:0:
116,252,19930,6,0,L|188:256,1,44,0|0,0:0|0:0,0:0:0:0:
272,300,20073,2,0,B|384:288|384:288|332:332,1,176,0|0,0:0|0:0,0:0:0:0:
324,332,20430,5,0,0:0:0:0:
324,332,20501,2,0,L|332:248,1,76.9999976501466,0|0,0:0|0:0,0:0:0:0:
272,112,20787,2,0,P|260:168|280:208,1,76.9999976501466,0|0,0:0|0:0,0:0:0:0:
436,188,21073,2,0,P|408:160|328:160,1,115.49999647522,0|0,0:0|0:0,0:0:0:0:
312,168,21358,2,0,P|276:180|188:128,1,115.49999647522,0|0,0:0|0:0,0:0:0:0:
192,140,21644,6,0,L|200:60,1,76.9999976501466,0|0,0:0|0:0,0:0:0:0:
368,224,21930,1,0,0:0:0:0:
276,288,22073,1,0,0:0:0:0:
188,156,22215,1,0,0:0:0:0:
276,200,22358,1,0,0:0:0:0:
120,216,22501,2,0,P|104:180|124:100,1,115.49999647522,0|0,0:0|0:0,0:0:0:0:
124,96,22787,6,0,L|36:88,1,76.9999976501466,0|0,0:0|0:0,0:0:0:0:
184,160,23073,2,0,L|260:166,1,76.9999976501466,0|0,0:0|0:0,0:0:0:0:
384,160,23358,2,0,B|328:148|328:148|256:164,1,115.49999647522,0|0,0:0|0:0,0:0:0:0:
272,240,23644,2,0,B|328:252|328:252|400:236,1,115.49999647522,0|0,0:0|0:0,0:0:0:0:
400,236,23930,6,0,P|448:232|480:248,1,76.9999976501466,0|0,0:0|0:0,0:0:0:0:
264,156,24215,1,0,0:0:0:0:
204,280,24358,1,0,0:0:0:0:
428,308,24501,1,0,0:0:0:0:
324,240,24644,1,0,0:0:0:0:
435,192,24787,2,0,L|427:312,1,115.49999647522,0|0,0:0|0:0,0:0:0:0:
420,320,25073,6,0,P|376:324|336:308,1,76.9999976501466,0|0,0:0|0:0,0:0:0:0:
232,240,25358,2,0,P|188:228|132:244,1,76.9999976501466,0|0,0:0|0:0,0:0:0:0:
8,312,25644,2,0,P|48:328|124:312,1,115.49999647522,0|0,0:0|0:0,0:0:0:0:
140,304,25930,2,0,P|195:290|249:307,1,115.49999647522,0|0,0:0|0:0,0:0:0:0:
312,348,26215,5,0,0:0:0:0:
392,300,26358,1,0,0:0:0:0:
236,192,26501,1,0,0:0:0:0:
316,256,26644,1,0,0:0:0:0:
340,152,26787,1,0,0:0:0:0:
224,208,26930,1,0,0:0:0:0:
336,276,27073,2,0,P|384:292|456:268,1,115.49999647522,0|0,0:0|0:0,0:0:0:0:
464,260,27358,6,0,L|472:156,1,76.9999976501466,0|0,0:0|0:0,0:0:0:0:
310,179,27644,2,0,L|318:283,1,76.9999976501466,0|0,0:0|0:0,0:0:0:0:
364,120,27930,2,0,P|324:100|244:136,1,115.49999647522,0|0,0:0|0:0,0:0:0:0:
200,200,28215,2,0,P|216:164|172:84,1,115.49999647522,0|0,0:0|0:0,0:0:0:0:
68,144,28501,6,0,L|148:152,1,76.9999976501466,0|0,0:0|0:0,0:0:0:0:
312,176,28787,1,0,0:0:0:0:
184,272,28930,1,0,0:0:0:0:
328,156,29073,1,0,0:0:0:0:
376,328,29215,1,0,0:0:0:0:
160,244,29358,2,0,P|144:208|180:120,1,115.49999647522
232,84,29644,6,0,L|354:79,1,93.500001783371
494,201,29930,2,0,B|367:191|367:191|292:210,1,187.000003566742,0|0,0:0|0:0,0:0:0:0:
240,240,30215,1,0,0:0:0:0:
340,79,30358,1,0,0:0:0:0:
147,46,30501,2,0,P|132:107|151:158,1,93.500001783371,0|0,0:0|0:0,0:0:0:0:
315,314,30787,6,0,P|343:252|300:154,1,140.250002675057,0|0,0:0|0:0,0:0:0:0:
236,98,31073,1,0,0:0:0:0:
76,212,31215,1,0,0:0:0:0:
103,232,31287,1,0,0:0:0:0:
135,249,31358,1,0,0:0:0:0:
170,256,31430,1,0,0:0:0:0:
207,256,31501,1,0,0:0:0:0:
241,248,31573,1,0,0:0:0:0:
263,234,31644,2,0,L|277:116,1,93.500001783371,0|0,0:0|0:0,0:0:0:0:
66,191,31930,6,0,L|75:313,1,93.500001783371,0|0,0:0|0:0,0:0:0:0:
353,229,32215,1,0,0:0:0:0:
222,60,32358,1,0,0:0:0:0:
81,201,32501,2,0,P|95:262|132:299,1,93.500001783371,0|0,0:0|0:0,0:0:0:0:
372,154,32787,1,0,0:0:0:0:
193,33,32930,1,0,0:0:0:0:
109,220,33073,5,0,0:0:0:0:
304,68,33215,1,0,0:0:0:0:
388,248,33358,1,0,0:0:0:0:
176,132,33501,1,0,0:0:0:0:
408,236,33644,5,0,0:0:0:0:
176,292,33787,1,0,0:0:0:0:
276,88,33930,1,0,0:0:0:0:
432,224,34073,1,0,0:0:0:0:
99,201,34215,6,0,L|216:186,1,93.500001783371,0|0,0:0|0:0,0:0:0:0:
452,173,34501,2,0,B|390:163|390:163|348:173|348:173|278:158,1,140.250002675057,0|0,0:0|0:0,0:0:0:0:
207,187,34787,1,0,0:0:0:0:
348,52,34930,1,0,0:0:0:0:
396,253,35073,2,0,L|400:370,1,93.500001783371,0|0,0:0|0:0,0:0:0:0:
142,257,35358,6,0,P|109:200|170:92,1,187.000003566742,0|0,0:0|0:0,0:0:0:0:
222,56,35644,1,0,0:0:0:0:
392,192,35787,1,0,0:0:0:0:
366,220,35858,1,0,0:0:0:0:
329,235,35930,1,0,0:0:0:0:
292,236,36001,1,0,0:0:0:0:
253,229,36073,1,0,0:0:0:0:
220,210,36144,1,0,0:0:0:0:
203,183,36215,2,0,L|193:51,1,93.500001783371,0|0,0:0|0:0,0:0:0:0:
429,145,36501,6,0,P|438:210|414:262,1,93.500001783371,0|0,0:0|0:0,0:0:0:0:
165,370,36787,1,0,0:0:0:0:
339,191,36930,1,0,0:0:0:0:
66,131,37073,1,0,0:0:0:0:
348,187,37215,1,0,0:0:0:0:
184,68,37358,1,0,0:0:0:0:
185,103,37429,1,0,0:0:0:0:
187,138,37500,1,0,0:0:0:0:
188,173,37572,1,0,0:0:0:0:
190,208,37643,5,0,0:0:0:0:
360,171,37930,1,0,0:0:0:0:
325,323,38215,1,0,0:0:0:0:
185,291,38501,1,0,0:0:0:0:
184,292,38787,6,0,B|176:236|176:236|200:144,1,110,0|0,0:0|0:0,0:0:0:0:
392,124,39073,2,0,L|272:136,1,110,0|0,0:0|0:0,0:0:0:0:
8,280,39358,2,0,P|64:272|116:296,1,110,0|0,0:0|0:0,0:0:0:0:
360,252,39644,1,0,0:0:0:0:
152,88,39787,1,0,0:0:0:0:
372,268,39930,6,0,P|316:276|264:252,1,110,0|0,0:0|0:0,0:0:0:0:
28,88,40215,2,0,L|160:100,1,110,0|0,0:0|0:0,0:0:0:0:
208,124,40430,1,0,0:0:0:0:
244,112,40501,1,0,0:0:0:0:
328,200,40644,1,0,0:0:0:0:
136,276,40787,2,0,B|124:224|124:224|144:160,1,110,0|0,0:0|0:0,0:0:0:0:
404,152,41073,6,0,B|416:204|416:204|396:268,1,110,0|0,0:0|0:0,0:0:0:0:
188,348,41358,2,0,P|128:360|72:340,1,110,0|0,0:0|0:0,0:0:0:0:
298,150,41644,2,0,P|358:138|414:158,1,110,0|0,0:0|0:0,0:0:0:0:
136,276,41930,1,0,0:0:0:0:
348,316,42073,1,0,0:0:0:0:
228,120,42215,6,0,L|224:4,1,110,0|0,0:0|0:0,0:0:0:0:
358,211,42501,2,0,P|366:267|342:323,1,110,0|0,0:0|0:0,0:0:0:0:
272,352,42715,1,0,0:0:0:0:
240,356,42787,1,0,0:0:0:0:
116,224,42930,1,0,0:0:0:0:
348,92,43073,2,0,L|480:88,1,110
392,248,43358,5,0,0:0:0:0:
346,263,43429,1,0,0:0:0:0:
298,254,43500,1,0,0:0:0:0:
261,224,43572,1,0,0:0:0:0:
244,180,43644,1,0,0:0:0:0:
228,136,43716,1,0,0:0:0:0:
196,98,43787,5,0,0:0:0:0:
149,86,43858,1,0,0:0:0:0:
104,104,43930,1,0,0:0:0:0:
78,145,44001,1,0,0:0:0:0:
81,194,44073,1,0,0:0:0:0:
112,231,44144,1,0,0:0:0:0:
159,244,44216,5,0,0:0:0:0:
204,226,44287,1,0,0:0:0:0:
240,200,44358,1,0,0:0:0:0:
280,183,44429,1,0,0:0:0:0:
324,180,44500,1,0,0:0:0:0:
366,191,44572,1,0,0:0:0:0:
402,216,44643,5,0,0:0:0:0:
424,252,44715,1,0,0:0:0:0:
426,295,44786,1,0,0:0:0:0:
408,335,44857,1,0,0:0:0:0:
374,363,44929,1,0,0:0:0:0:
332,372,45000,1,0,0:0:0:0:
290,362,45072,5,0,0:0:0:0:
257,334,45143,1,0,0:0:0:0:
240,293,45215,1,0,0:0:0:0:
243,250,45286,1,0,0:0:0:0:
265,212,45357,1,0,0:0:0:0:
301,189,45429,1,0,0:0:0:0:
344,180,45501,5,0,0:0:0:0:
388,192,45572,1,0,0:0:0:0:
408,233,45643,1,0,0:0:0:0:
389,275,45715,1,0,0:0:0:0:
346,289,45786,1,0,0:0:0:0:
308,276,45858,1,0,0:0:0:0:
266,260,45929,5,0,0:0:0:0:
223,263,46000,1,0,0:0:0:0:
184,282,46072,1,0,0:0:0:0:
141,291,46143,1,0,0:0:0:0:
99,278,46215,1,0,0:0:0:0:
64,252,46287,1,0,0:0:0:0:
48,209,46358,5,0,0:0:0:0:
51,164,46429,1,0,0:0:0:0:
74,124,46501,1,0,0:0:0:0:
111,98,46572,1,0,0:0:0:0:
156,92,46644,2,0,L|232:100,1,55
376,140,46787,5,0,0:0:0:0:
232,236,46930,1,0,0:0:0:0:
400,292,47073,1,0,0:0:0:0:
240,124,47358,1,0,0:0:0:0:
240,124,47430,1,0,0:0:0:0:
240,124,47501,2,0,L|248:192,2,55
104,240,47930,6,0,B|156:256|156:256|192:248|192:248|244:276|292:264|324:216,1,214.49999018097,0|0,3:0|0:0,0:0:0:0:
372,144,48215,2,0,B|380:108|380:108|368:52,1,71.4999967269899
248,116,48358,2,0,B|240:152|240:152|252:208,1,71.4999967269899,0|0,3:0|0:0,0:0:0:0:
360,292,48501,6,0,P|424:272|488:284,1,110,8|0,3:0|0:0,0:0:0:0:
236,196,48644,6,0,P|192:204|140:192,1,82.5000031471254,0|0,3:0|0:0,0:0:0:0:
380,96,48787,6,0,P|420:116|328:176,1,214.49999018097
276,100,49073,6,0,L|272:8,1,55,0|0,3:0|0:0,0:0:0:0:
155,166,49215,1,0,0:0:0:0:
155,198,49287,1,0,0:0:0:0:
155,230,49358,2,0,L|159:322,2,55,0|0|0,0:0|0:0|3:0,0:0:0:0:
412,184,49644,1,8,3:0:0:0:
157,284,49787,1,0,0:0:0:0:
476,136,49930,2,0,P|492:196|460:244,1,110,0|0,0:0|0:0,0:0:0:0:
432,256,50144,1,0,0:0:0:0:
388,268,50215,6,0,B|216:252|216:252|232:296,1,214.49999018097,0|0,3:0|0:0,0:0:0:0:
300,172,50501,2,0,P|296:148|268:108,1,71.4999967269899
148,208,50644,2,0,P|204:172|228:172,1,71.4999967269899,0|0,3:0|0:0,0:0:0:0:
336,68,50787,6,0,L|208:56,1,110,8|0,3:0|0:0,0:0:0:0:
60,128,50930,6,0,L|176:112,1,82.5000031471254,0|0,3:0|0:0,0:0:0:0:
324,176,51073,6,0,P|360:176|440:32,1,214.49999018097
329,13,51358,6,0,L|337:85,2,55,0|0|0,3:0|0:0|0:0,0:0:0:0:
228,168,51644,1,0,0:0:0:0:
468,272,51787,1,0,3:0:0:0:
164,224,51930,2,0,P|144:173|155:120,1,110,8|0,3:0|0:0,0:0:0:0:
392,116,52215,2,0,P|412:167|401:220,1,110
112,308,52501,6,0,P|136:252|296:248,1,214.49999018097,0|0,3:0|0:0,0:0:0:0:
360,312,52787,6,0,L|356:384,1,71.4999967269899
212,304,52930,2,0,L|216:232,1,71.4999967269899,0|0,3:0|0:0,0:0:0:0:
356,100,53073,6,0,P|400:144|400:200,1,110,8|0,3:0|0:0,0:0:0:0:
300,252,53215,6,0,P|304:200|344:160,1,82.5000031471254,0|0,3:0|0:0,0:0:0:0:
468,272,53358,6,0,B|408:280|408:280|336:268|336:268|240:288,1,214.49999018097
156,336,53644,6,0,L|92:328,1,55,0|0,3:0|0:0,0:0:0:0:
4,216,53787,1,0,0:0:0:0:
16,220,53858,1,0,0:0:0:0:
28,224,53930,2,0,L|104:216,2,55,0|0|0,0:0|0:0|3:0,0:0:0:0:
168,112,54215,1,8,3:0:0:0:
380,328,54358,1,0,0:0:0:0:
144,252,54501,6,0,P|204:220|272:236,1,110
404,364,54787,6,0,B|373:367|373:367|362:348|362:348|325:333|287:334|287:334|266:307|266:307|228:309|199:292,1,214.49999018097,0|0,3:0|0:0,0:0:0:0:
116,160,55073,2,0,P|112:108|128:60,1,71.4999967269899
296,128,55215,2,0,P|300:180|284:228,1,71.4999967269899,0|0,3:0|0:0,0:0:0:0:
188,312,55358,6,0,P|148:300|56:328,1,110,8|0,3:0|0:0,0:0:0:0:
332,348,55501,6,0,P|364:348|412:332,1,82.5000031471254,0|0,3:0|0:0,0:0:0:0:
429,165,55644,6,0,B|285:153|285:153|353:193,1,214.49999018097
308,328,55930,6,0,P|324:292|216:268,1,165.000006294251,0|0,3:0|0:0,0:0:0:0:
100,200,56430,1,0,3:0:0:0:
328,348,56644,2,0,B|384:352|384:352|440:336|440:336|512:340,1,165.000006294251,0|0,3:0|0:0,0:0:0:0:
256,192,57215,12,0,59358,0:0:0:0:
144,232,59751,6,0,L|185:235,1,41.2500015735627
324,184,60108,2,0,L|376:180,2,41.2500015735627
63,120,61644,5,0,0:0:0:0:
104,147,61715,1,0,0:0:0:0:
151,161,61786,1,0,0:0:0:0:
200,165,61858,1,0,0:0:0:0:
249,157,61929,1,0,0:0:0:0:
296,141,62001,1,0,0:0:0:0:
344,141,62072,5,0,0:0:0:0:
387,165,62144,1,0,0:0:0:0:
413,206,62215,1,0,0:0:0:0:
414,254,62286,1,0,0:0:0:0:
390,296,62358,1,0,0:0:0:0:
347,319,62429,1,0,0:0:0:0:
298,318,62501,5,0,0:0:0:0:
258,290,62572,1,0,0:0:0:0:
242,244,62644,1,0,0:0:0:0:
211,205,62715,1,0,0:0:0:0:
176,167,62786,1,0,0:0:0:0:
128,152,62857,1,0,0:0:0:0:
81,167,62929,5,0,0:0:0:0:
49,205,63000,1,0,0:0:0:0:
42,255,63072,1,0,0:0:0:0:
63,300,63143,1,0,0:0:0:0:
107,326,63215,1,0,0:0:0:0:
157,330,63287,1,0,0:0:0:0:
196,312,63358,6,0,L|208:236,2,55,0|0|0,1:0|2:0|2:0,2:0:0:0:
332,188,63573,1,0,1:0:0:0:
352,184,63644,1,0,2:0:0:0:
368,180,63715,2,0,L|356:256,2,55,0|0|0,2:0|1:0|2:0,2:0:0:0:
444,112,63930,5,0,0:0:0:0:
405,85,64001,1,0,0:0:0:0:
358,76,64072,1,0,0:0:0:0:
313,89,64144,1,0,0:0:0:0:
277,118,64215,1,0,0:0:0:0:
257,161,64287,1,0,1:0:0:0:
234,204,64358,5,0,0:0:0:0:
198,233,64429,1,0,0:0:0:0:
151,241,64500,1,0,0:0:0:0:
108,225,64572,1,0,0:0:0:0:
79,188,64643,1,0,0:0:0:0:
72,142,64715,1,0,0:0:0:0:
90,99,64786,5,0,0:0:0:0:
127,70,64858,1,0,0:0:0:0:
174,65,64929,1,0,0:0:0:0:
216,84,65000,1,0,0:0:0:0:
239,119,65073,6,0,L|229:228,1,110,0|0,1:0|2:0,2:0:0:0:
464,360,65358,2,0,L|473:250,1,110,0|0,1:0|2:0,2:0:0:0:
121,247,65644,2,0,L|245:227,1,110,0|0,1:0|2:0,2:0:0:0:
496,36,65930,2,0,L|387:53,1,110,0|0,1:0|2:0,2:0:0:0:
105,109,66215,5,0,0:0:0:0:
66,133,66286,1,0,0:0:0:0:
41,175,66357,1,0,0:0:0:0:
39,222,66429,1,0,0:0:0:0:
58,264,66500,1,0,0:0:0:0:
93,294,66572,1,0,0:0:0:0:
138,305,66643,5,0,0:0:0:0:
185,294,66714,1,0,0:0:0:0:
220,267,66786,1,0,0:0:0:0:
256,232,66858,1,0,0:0:0:0:
288,201,66929,1,0,0:0:0:0:
330,185,67000,1,0,0:0:0:0:
374,181,67073,5,0,0:0:0:0:
417,200,67144,1,0,0:0:0:0:
442,242,67215,1,0,0:0:0:0:
441,291,67287,1,0,0:0:0:0:
413,330,67358,1,0,0:0:0:0:
367,348,67430,1,0,0:0:0:0:
320,337,67501,5,0,0:0:0:0:
286,303,67572,1,0,0:0:0:0:
277,256,67644,1,0,0:0:0:0:
296,210,67715,1,0,0:0:0:0:
334,177,67787,1,0,0:0:0:0:
384,170,67858,1,0,0:0:0:0:
428,176,67930,6,0,P|452:184|480:204,2,55,0|0|0,1:0|2:0|2:0,2:0:0:0:
288,248,68144,1,0,1:0:0:0:
256,260,68215,1,0,2:0:0:0:
216,264,68287,2,0,P|196:260|160:240,2,55,0|0|0,2:0|1:0|2:0,2:0:0:0:
368,104,68501,5,0,0:0:0:0:
343,61,68573,1,0,0:0:0:0:
295,49,68644,1,0,0:0:0:0:
253,67,68715,1,0,0:0:0:0:
232,110,68787,1,0,0:0:0:0:
238,158,68858,1,0,0:0:0:0:
256,203,68930,5,0,0:0:0:0:
253,251,69001,1,0,0:0:0:0:
217,284,69073,1,0,0:0:0:0:
170,296,69144,1,0,0:0:0:0:
128,274,69215,1,0,0:0:0:0:
111,228,69287,1,0,0:0:0:0:
130,184,69358,5,0,0:0:0:0:
173,164,69430,1,0,0:0:0:0:
220,158,69501,1,0,0:0:0:0:
265,173,69573,1,0,0:0:0:0:
292,208,69644,6,0,P|304:280|288:324,1,110
56,168,69930,2,0,P|47:114|68:64,1,110,0|0,0:0|2:0,0:0:0:0:
408,184,70215,1,0,0:0:0:0:
132,124,70358,1,0,0:0:0:0:
344,64,70501,1,0,0:0:0:0:
248,304,70644,1,0,0:0:0:0:
52,100,70787,5,0,0:0:0:0:
77,63,70858,1,0,0:0:0:0:
113,42,70929,1,0,0:0:0:0:
157,36,71001,1,0,0:0:0:0:
197,48,71072,1,0,0:0:0:0:
229,76,71144,1,0,0:0:0:0:
256,110,71215,5,0,0:0:0:0:
292,132,71286,1,0,0:0:0:0:
334,134,71358,1,0,0:0:0:0:
376,122,71429,1,0,0:0:0:0:
412,102,71501,1,0,0:0:0:0:
426,142,71572,1,0,0:0:0:0:
423,186,71644,5,0,0:0:0:0:
404,225,71715,1,0,0:0:0:0:
372,254,71786,1,0,0:0:0:0:
333,271,71858,1,0,0:0:0:0:
292,286,71930,1,0,0:0:0:0:
253,288,72001,1,0,0:0:0:0:
218,274,72072,5,0,0:0:0:0:
193,243,72144,1,0,0:0:0:0:
184,204,72215,1,0,0:0:0:0:
195,167,72287,1,0,0:0:0:0:
223,138,72358,1,0,0:0:0:0:
260,125,72429,1,0,0:0:0:0:
300,132,72501,6,0,L|364:140,2,55,0|0|0,1:0|2:0|2:0,2:0:0:0:
152,196,72715,1,0,1:0:0:0:
133,204,72787,1,0,2:0:0:0:
117,212,72858,2,0,L|57:200,2,55,0|0|0,2:0|1:0|2:0,2:0:0:0:
236,80,73073,5,0,0:0:0:0:
195,50,73144,1,0,0:0:0:0:
144,50,73215,1,0,0:0:0:0:
104,80,73287,1,0,0:0:0:0:
89,129,73358,1,0,0:0:0:0:
106,176,73430,1,0,0:0:0:0:
148,205,73501,5,0,0:0:0:0:
199,201,73572,1,0,0:0:0:0:
238,169,73644,1,0,0:0:0:0:
283,147,73715,1,0,0:0:0:0:
333,150,73786,1,0,0:0:0:0:
371,185,73857,1,0,0:0:0:0:
378,236,73929,5,0,0:0:0:0:
353,280,74000,1,0,0:0:0:0:
304,299,74072,1,0,0:0:0:0:
256,284,74143,1,0,0:0:0:0:
236,240,74214,1,0,0:0:0:0:
228,200,74215,6,0,P|233:139|267:90,1,110,0|0,0:0|2:0,0:0:0:0:
48,264,74501,2,0,P|42:324|8:373,1,110,0|0,0:0|2:0,0:0:0:0:
160,120,74787,2,0,L|168:0,1,110,0|0,0:0|2:0,0:0:0:0:
352,248,75073,2,0,L|360:368,1,110,0|0,0:0|2:0,0:0:0:0:
504,180,75358,5,0,0:0:0:0:
463,149,75429,1,0,0:0:0:0:
418,131,75500,1,0,0:0:0:0:
368,132,75572,1,0,0:0:0:0:
322,150,75643,1,0,0:0:0:0:
284,180,75715,1,0,0:0:0:0:
252,220,75786,5,0,0:0:0:0:
212,250,75858,1,0,0:0:0:0:
167,266,75929,1,0,0:0:0:0:
116,267,76001,1,0,0:0:0:0:
70,251,76072,1,0,0:0:0:0:
33,221,76143,1,0,0:0:0:0:
12,172,76215,5,0,0:0:0:0:
15,114,76286,1,0,0:0:0:0:
40,67,76357,1,0,0:0:0:0:
85,35,76429,1,0,0:0:0:0:
138,23,76500,1,0,0:0:0:0:
191,37,76572,1,0,0:0:0:0:
233,69,76643,5,0,0:0:0:0:
259,118,76714,1,0,0:0:0:0:
259,172,76786,1,0,0:0:0:0:
237,224,76857,1,0,0:0:0:0:
201,260,76929,1,0,0:0:0:0:
156,272,77001,6,0,L|58:244,1,55
456,112,77287,1,0,0:0:0:0:
68,180,77501,1,0,0:0:0:0:
456,112,77644,5,0,0:0:0:0:
414,88,77715,1,0,0:0:0:0:
368,97,77786,1,0,0:0:0:0:
339,134,77858,1,0,0:0:0:0:
339,181,77929,1,0,0:0:0:0:
370,217,78001,1,0,0:0:0:0:
399,251,78073,5,0,0:0:0:0:
358,233,78144,1,0,0:0:0:0:
313,232,78215,1,0,0:0:0:0:
271,248,78287,1,0,0:0:0:0:
237,231,78358,1,0,0:0:0:0:
209,194,78429,1,0,0:0:0:0:
210,150,78500,5,0,0:0:0:0:
239,116,78572,1,0,0:0:0:0:
283,107,78643,1,0,0:0:0:0:
323,126,78715,1,0,0:0:0:0:
336,160,78787,2,0,L|340:280,1,110
232,172,79073,5,0,0:0:0:0:
188,320,79215,1,0,0:0:0:0:
188,320,79287,1,0,0:0:0:0:
188,320,79358,1,0,0:0:0:0:
416,244,79501,1,0,0:0:0:0:
388,64,79644,2,0,L|380:4,2,55
284,232,79930,5,0,0:0:0:0:
464,92,80073,1,0,0:0:0:0:
248,32,80215,1,0,0:0:0:0:
468,240,80358,5,0,0:0:0:0:
426,220,80429,1,0,0:0:0:0:
381,214,80500,1,0,0:0:0:0:
337,225,80572,1,0,0:0:0:0:
294,238,80643,1,0,0:0:0:0:
248,234,80715,1,0,0:0:0:0:
208,208,80787,2,0,L|200:128,2,55
136,356,81073,5,0,0:0:0:0:
376,308,81215,2,0,L|384:376,2,55
260,88,81501,2,0,P|208:72|140:92,1,110
208,208,81715,2,0,P|260:224|328:204,1,110
436,120,82073,1,0,0:0:0:0:
300,296,82215,6,0,P|296:324|304:360,1,55,0|0,1:0|2:0,2:0:0:0:
264,144,82358,2,0,P|240:112|202:92,1,55,0|0,1:0|2:0,2:0:0:0:
56,236,82501,1,0,0:0:0:0:
264,144,82644,5,0,0:0:0:0:
312,140,82715,1,0,0:0:0:0:
355,162,82786,1,0,0:0:0:0:
380,203,82858,1,0,0:0:0:0:
381,252,82929,1,0,0:0:0:0:
356,294,83001,1,0,0:0:0:0:
312,312,83073,5,0,0:0:0:0:
271,305,83144,1,0,0:0:0:0:
230,299,83215,1,0,0:0:0:0:
189,293,83287,1,0,0:0:0:0:
144,280,83358,2,0,P|128:212|156:152,1,110
139,175,83573,5,0,0:0:0:0:
139,175,83644,2,0,B|100:184|100:184|0:172,1,110
240,80,83930,1,0,0:0:0:0:
240,80,84001,2,0,B|279:71|279:71|379:83,1,110
412,140,84215,2,0,B|416:184|416:184|404:216|404:216|408:276,1,110
464,312,84501,5,0,0:0:0:0:
304,160,84644,1,0,0:0:0:0:
172,304,84787,1,0,0:0:0:0:
404,192,84930,5,0,0:0:0:0:
363,170,85001,1,0,0:0:0:0:
318,165,85072,1,0,0:0:0:0:
274,176,85144,1,0,0:0:0:0:
237,203,85215,1,0,0:0:0:0:
213,242,85287,1,0,0:0:0:0:
208,288,85358,2,0,L|216:352,2,55
296,108,85644,5,0,0:0:0:0:
88,192,85787,2,0,P|64:196|12:188,2,55
364,56,86073,2,0,B|376:112|376:112|352:180,1,110
220,160,86287,2,0,B|202:110|202:110|214:54,1,110
104,228,86644,1,0,0:0:0:0:
344,288,86787,6,0,P|376:300|404:320,1,55,0|0,1:0|2:0,2:0:0:0:
200,164,86930,2,0,P|180:128|180:84,1,55,0|0,1:0|2:0,2:0:0:0:
320,48,87073,1,0,0:0:0:0:
448,204,87215,2,0,L|444:268,1,55
284,164,87501,5,0,0:0:0:0:
237,148,87573,1,0,0:0:0:0:
189,148,87644,1,0,0:0:0:0:
146,172,87716,1,0,0:0:0:0:
120,213,87787,1,0,0:0:0:0:
119,261,87858,1,0,0:0:0:0:
143,303,87930,5,0,0:0:0:0:
186,326,88001,1,0,0:0:0:0:
235,325,88073,1,0,0:0:0:0:
275,297,88144,1,0,0:0:0:0:
291,251,88216,1,0,0:0:0:0:
322,212,88287,1,0,0:0:0:0:
357,174,88358,5,0,0:0:0:0:
405,159,88429,1,0,0:0:0:0:
452,174,88501,1,0,0:0:0:0:
484,212,88572,1,0,0:0:0:0:
491,262,88644,1,0,0:0:0:0:
470,307,88715,1,0,0:0:0:0:
426,333,88787,5,0,0:0:0:0:
376,337,88859,1,0,0:0:0:0:
328,320,88930,1,0,0:0:0:0:
296,280,89001,1,0,0:0:0:0:
292,232,89073,6,0,L|296:160,2,55
140,360,89358,1,0,0:0:0:0:
32,192,89501,5,0,0:0:0:0:
74,172,89572,1,0,0:0:0:0:
119,166,89643,1,0,0:0:0:0:
163,177,89715,1,0,0:0:0:0:
206,190,89786,1,0,0:0:0:0:
252,186,89858,1,0,0:0:0:0:
292,160,89930,2,0,L|300:80,2,55
392,344,90215,5,0,0:0:0:0:
196,256,90358,2,0,L|132:248,2,55
456,224,90644,2,0,P|392:228|340:204,1,110
292,160,90858,1,0,0:0:0:0:
24,200,91001,2,0,P|88:196|140:220,1,110
196,256,91215,1,0,0:0:0:0:
412,132,91358,6,0,P|424:92|420:56,1,55,0|0,1:0|2:0,2:0:0:0:
232,268,91501,2,0,P|240:292|256:320,1,55,0|0,1:0|2:0,2:0:0:0:
344,92,91644,1,0,0:0:0:0:
488,256,91787,5,0,0:0:0:0:
441,279,91858,1,0,0:0:0:0:
389,283,91929,1,0,0:0:0:0:
340,266,92001,1,0,0:0:0:0:
301,232,92072,1,0,0:0:0:0:
252,212,92144,1,0,0:0:0:0:
200,220,92215,2,0,P|168:236|144:260,2,55
388,208,92501,5,0,0:0:0:0:
484,76,92644,2,0,P|492:37|489:1,2,55
364,236,92930,2,0,P|352:300|372:348,1,110
248,188,93144,2,0,P|216:168|168:164,1,55
432,284,93287,2,0,P|464:284|500:272,1,55
376,116,93430,1,0,0:0:0:0:
364,136,93501,1,0,0:0:0:0:
352,156,93573,1,0,0:0:0:0:
344,176,93644,6,0,L|356:288,2,110
188,44,94073,1,0,0:0:0:0:
139,39,94144,1,0,0:0:0:0:
92,54,94215,1,0,0:0:0:0:
55,86,94287,1,0,0:0:0:0:
34,131,94358,1,0,0:0:0:0:
34,180,94430,5,0,0:0:0:0:
52,225,94501,1,0,0:0:0:0:
88,259,94572,1,0,0:0:0:0:
134,276,94644,1,0,0:0:0:0:
183,273,94715,1,0,0:0:0:0:
228,252,94787,6,0,L|240:128,1,110
238,142,95001,1,0,0:0:0:0:
238,142,95073,1,0,0:0:0:0:
376,256,95215,2,0,P|436:268|504:252,1,110
244,148,95430,2,0,P|184:136|116:152,1,110
34,180,95644,5,0,0:0:0:0:
272,320,95787,1,0,0:0:0:0:
304,88,95930,5,0,0:0:0:0:
144,312,96073,1,0,0:0:0:0:
144,312,96144,1,0,0:0:0:0:
144,312,96215,1,0,0:0:0:0:
384,168,96358,2,0,L|392:104,1,55
404,36,96501,1,0,0:0:0:0:
236,200,96644,2,0,L|244:264,1,55
264,340,96787,1,0,0:0:0:0:
264,340,96858,1,0,0:0:0:0:
264,340,96930,1,0,0:0:0:0:
484,300,97073,5,0,0:0:0:0:
244,200,97215,1,0,0:0:0:0:
420,120,97358,1,0,0:0:0:0:
324,276,97501,1,0,0:0:0:0:
172,160,97644,1,0,0:0:0:0:
388,200,97787,1,0,0:0:0:0:
248,356,97930,1,0,0:0:0:0:
164,132,98073,1,0,0:0:0:0:
28,264,98215,6,0,L|148:256,1,110,0|0,1:0|0:0,0:0:0:0:
352,312,98787,2,0,L|416:304,1,55,0|0,0:0|0:0,0:0:0:0:
406,305,99001,1,0,0:0:0:0:
406,305,99073,1,0,0:0:0:0:
464,240,99215,1,0,0:0:0:0:
424,168,99358,6,0,P|388:152|316:176,1,110,0|0,0:0|0:0,0:0:0:0:
240,240,99787,2,0,P|189:259|138:241,1,110,0|0,0:0|0:0,0:0:0:0:
44,136,100215,1,0,0:0:0:0:
188,176,100358,1,0,0:0:0:0:
24,128,100501,6,0,L|36:240,1,110,0|0,0:0|0:0,0:0:0:0:
96,312,100930,2,0,P|136:328|216:312,1,110,0|0,0:0|0:0,0:0:0:0:
292,260,101358,1,0,0:0:0:0:
292,260,101644,6,0,B|304:236|304:236|280:220|280:220|320:180|312:140|304:108|272:84,1,192.5
220,44,102215,5,0,0:0:0:0:
76,168,102358,1,0,0:0:0:0:
76,168,102430,1,0,0:0:0:0:
76,168,102501,1,0,0:0:0:0:
232,156,102644,1,0,0:0:0:0:
64,156,102787,6,0,L|56:96,1,55,0|0,0:0|2:0,0:0:0:0:
228,188,102930,2,0,L|220:252,1,55,0|0,0:0|2:0,0:0:0:0:
328,104,103073,2,0,P|388:88|444:112,1,110
240,312,103358,1,0,0:0:0:0:
384,168,103501,1,0,0:0:0:0:
176,64,103644,1,0,0:0:0:0:
336,248,103787,1,0,0:0:0:0:
132,132,103930,5,0,0:0:0:0:
344,56,104073,1,0,0:0:0:0:
236,256,104215,1,0,0:0:0:0:
116,116,104358,1,0,0:0:0:0:
384,192,104501,1,0,0:0:0:0:
176,64,104644,1,0,0:0:0:0:
344,264,104787,1,0,0:0:0:0:
112,216,104930,1,0,0:0:0:0:
348,116,105073,6,0,P|376:108|416:108,1,55,0|0,0:0|2:0,0:0:0:0:
220,168,105215,2,0,P|184:168|144:156,1,55,0|0,0:0|2:0,0:0:0:0:
336,328,105358,2,0,L|344:200,1,110,0|0,0:0|0:0,0:0:0:0:
196,76,105644,1,0,0:0:0:0:
428,260,105787,1,0,0:0:0:0:
176,308,105930,1,0,0:0:0:0:
364,132,106073,1,0,0:0:0:0:
156,316,106215,6,0,P|88:328|44:312,1,110
344,144,106501,2,0,P|412:132|456:148,1,110,0|0,0:0|0:0,0:0:0:0:
240,296,106787,5,0,0:0:0:0:
238,272,106858,1,0,0:0:0:0:
237,248,106929,1,0,0:0:0:0:
236,225,107001,1,0,0:0:0:0:
235,201,107072,1,0,0:0:0:0:
234,178,107144,1,0,0:0:0:0:
233,154,107215,1,0,0:0:0:0:
232,131,107286,1,0,0:0:0:0:
232,112,107358,6,0,L|300:104,1,55,0|0,0:0|2:0,0:0:0:0:
500,204,107501,2,0,P|456:200|432:188,1,55,0|0,0:0|2:0,0:0:0:0:
360,48,107644,2,0,P|368:104|352:180,1,110
440,328,107930,1,0,0:0:0:0:
286,105,108073,1,0,0:0:0:0:
188,336,108215,1,0,0:0:0:0:
76,168,108358,1,0,0:0:0:0:
260,232,108501,6,0,P|324:240|368:224,1,110
220,64,108787,1,0,0:0:0:0:
108,288,108930,1,0,0:0:0:0:
332,136,109073,1,0,0:0:0:0:
88,168,109215,1,0,0:0:0:0:
312,216,109358,1,0,0:0:0:0:
200,48,109501,1,0,0:0:0:0:
128,288,109644,6,0,P|124:324|132:348,1,55,0|0,0:0|2:0,0:0:0:0:
311,269,109787,2,0,P|316:242|311:215,1,55,0|0,0:0|2:0,0:0:0:0:
184,112,109930,2,0,L|48:104,1,110
308,196,110215,2,0,L|444:204,1,110
204,328,110501,1,0,0:0:0:0:
340,116,110644,1,0,0:0:0:0:
112,64,110787,5,0,0:0:0:0:
76,91,110858,1,0,0:0:0:0:
61,133,110929,1,0,0:0:0:0:
67,179,111001,1,0,0:0:0:0:
95,214,111072,1,0,0:0:0:0:
138,231,111144,1,0,0:0:0:0:
182,224,111215,1,0,0:0:0:0:
218,196,111286,1,0,0:0:0:0:
232,160,111358,6,0,L|236:96,1,55,0|0,0:0|0:0,0:0:0:0:
352,308,111501,2,0,L|356:372,1,55,0|0,0:0|0:0,0:0:0:0:
480,184,111644,2,0,P|436:172|412:172,1,55,0|0,0:0|0:0,0:0:0:0:
148,276,111787,2,0,P|188:268|212:256,1,55,0|0,0:0|0:0,0:0:0:0:
328,188,111930,5,0,0:0:0:0:
