osu file format v14

[General]
AudioFilename: miracle_5ympho_x.mp3
AudioLeadIn: 0
PreviewTime: 9073
Countdown: 0
SampleSet: Soft
StackLeniency: 0.7
Mode: 2
LetterboxInBreaks: 0
WidescreenStoryboard: 1

[Editor]
Bookmarks: 37644,38787,87787,89073
DistanceSpacing: 1
BeatDivisor: 4
GridSize: 16
TimelineZoom: 1

[Metadata]
Title:Miracle 5ympho X
TitleUnicode:Miracle 5ympho X
Artist:USAO
ArtistUnicode:USAO
Creator:Mel
Version:Kurokami's Rain
Source:beatmania IIDX 21 SPADA
Tags:frey sionkotori kokodoko ナウい 一年一片 frenchcore dubstep intensity fullerene kurokami gezo
BeatmapID:482547
BeatmapSetID:137394

[Difficulty]
HPDrainRate:6
CircleSize:4
OverallDifficulty:9
ApproachRate:9
SliderMultiplier:1.8
SliderTickRate:1

[Events]
//Background and Video events
0,0,"5ympho.png",0,0
//Break Periods
2,57987,59187
//Storyboard Layer 0 (Background)
//Storyboard Layer 1 (Fail)
//Storyboard Layer 2 (Pass)
//Storyboard Layer 3 (Foreground)
//Storyboard Sound Samples

[TimingPoints]
1073,285.714285714286,4,2,0,60,1,0
10215,-100,4,1,0,60,0,0
20501,-100,4,2,0,40,0,0
29644,-100,4,1,0,70,0,0
46858,-100,4,2,0,5,0,0
47930,-100,4,1,0,80,0,0
59644,-100,4,2,0,50,0,0
61644,-100,4,1,0,80,0,0
79930,-100,4,1,0,80,0,1
97073,-100,4,2,0,60,0,0
102787,-100,4,1,0,80,0,0
111930,-100,4,2,0,40,0,0

[Colours]
Combo1 : 232,182,30
Combo2 : 46,92,109

[HitObjects]
160,256,1073,5,4,0:0:0:0:
368,240,1787,1,2,0:0:0:0:
416,176,1858,1,0,0:0:0:0:
368,112,1930,1,2,0:0:0:0:
224,112,2073,1,2,0:0:0:0:
80,112,2215,6,0,L|320:240,1,270,2|2,0:0|0:0,0:0:0:0:
0,48,3073,1,0,0:0:0:0:
192,16,3358,6,0,L|448:112,1,270,2|2,0:0|0:0,0:0:0:0:
128,16,4215,1,0,0:0:0:0:
304,16,4501,5,2,0:0:0:0:
0,16,4930,2,0,L|240:144,1,270,2|0,0:0|0:0,0:0:0:0:
416,160,5644,6,0,L|272:272,2,180,0|0|0,0:0|0:0|0:0,0:0:0:0:
256,144,6430,1,0,0:0:0:0:
192,96,6501,1,0,0:0:0:0:
400,96,6644,1,0,0:0:0:0:
288,16,6787,5,0,0:0:0:0:
112,16,7073,2,0,L|32:64,2,90,0|0|0,0:0|0:0|0:0,0:0:0:0:
304,16,7644,1,0,0:0:0:0:
496,16,7930,5,0,0:0:0:0:
304,16,8215,2,0,L|224:64,2,90,0|0|0,0:0|0:0|0:0,0:0:0:0:
112,16,8787,1,0,0:0:0:0:
496,16,9073,1,4,0:0:0:0:
112,240,10215,5,4,0:0:0:0:
256,208,10358,1,0,0:0:0:0:
400,176,10501,1,0,0:0:0:0:
224,144,10787,2,0,B|160:80|160:80|224:16,1,180,0|0,0:0|0:0,0:0:0:0:
400,16,11358,5,0,0:0:0:0:
176,64,11644,2,0,L|0:112,2,180,0|0|0,0:0|0:0|0:0,0:0:0:0:
336,80,12501,5,0,0:0:0:0:
464,128,12644,1,0,0:0:0:0:
320,192,12787,2,0,L|144:240,2,180,0|0|0,0:0|0:0|0:0,0:0:0:0:
464,256,13501,1,0,0:0:0:0:
336,304,13644,5,0,0:0:0:0:
112,304,13930,1,0,0:0:0:0:
256,240,14215,1,0,0:0:0:0:
192,208,14287,1,0,0:0:0:0:
128,176,14358,1,0,0:0:0:0:
0,128,14501,1,0,0:0:0:0:
144,80,14644,1,0,0:0:0:0:
240,64,14715,1,0,0:0:0:0:
336,48,14787,5,0,0:0:0:0:
480,96,14930,1,0,0:0:0:0:
384,192,15073,2,0,L|512:320,1,180,0|0,0:0|0:0,0:0:0:0:
368,352,15644,1,0,0:0:0:0:
224,352,15930,6,0,L|352:224,1,180,0|0,0:0|0:0,0:0:0:0:
208,224,16501,2,0,L|336:96,1,180,0|0,0:0|0:0,0:0:0:0:
224,48,17073,5,2,0:0:0:0:
112,48,17215,1,0,0:0:0:0:
0,48,17358,1,0,0:0:0:0:
224,48,17644,1,0,0:0:0:0:
448,48,17930,1,0,0:0:0:0:
320,96,18215,6,0,L|272:112,1,45,0|0,0:0|0:0,0:0:0:0:
192,144,18358,2,0,L|208:192,1,45,2|0,0:0|0:0,0:0:0:0:
128,224,18501,2,0,L|144:272,1,45,0|0,0:0|0:0,0:0:0:0:
224,288,18644,2,0,L|240:336,1,45,2|0,0:0|0:0,0:0:0:0:
320,352,18787,6,0,L|368:352,1,45,0|0,0:0|0:0,0:0:0:0:
448,320,18930,2,0,L|480:288,1,45,2|0,0:0|0:0,0:0:0:0:
400,256,19073,2,0,L|368:224,1,45,0|0,0:0|0:0,0:0:0:0:
448,192,19215,2,0,L|480:160,1,45,2|0,0:0|0:0,0:0:0:0:
320,96,19358,1,4,0:0:0:0:
160,144,20501,6,0,P|64:192|160:256,1,270,2|0,0:0|0:0,0:0:0:0:
320,256,21073,1,2,0:0:0:0:
192,192,21358,1,2,0:0:0:0:
352,144,21644,2,0,P|448:192|352:256,1,270,2|0,0:0|0:0,0:0:0:0:
160,256,22501,1,2,0:0:0:0:
0,224,22787,6,0,L|144:112,1,180,2|2,0:0|0:0,0:0:0:0:
320,48,23358,2,0,L|128:48,1,180,2|2,0:0|0:0,0:0:0:0:
384,48,23930,1,2,0:0:0:0:
64,112,24501,1,2,0:0:0:0:
256,112,24787,1,2,0:0:0:0:
448,112,25073,6,0,P|320:192|448:272,1,360,2|2,0:0|0:0,0:0:0:0:
240,272,25930,2,0,L|144:272,2,90,2|0|2,0:0|0:0|0:0,0:0:0:0:
96,208,26501,2,0,L|192:208,1,90,0|0,0:0|0:0,0:0:0:0:
464,192,27073,1,2,0:0:0:0:
256,192,27358,6,0,P|192:144|256:96,1,180,2|2,0:0|0:0,0:0:0:0:
416,112,27930,2,0,P|480:64|416:16,1,180,2|2,0:0|0:0,0:0:0:0:
224,48,28501,2,0,L|400:96,1,180,2|2,0:0|0:0,0:0:0:0:
256,128,29073,2,0,L|80:176,1,180,2|2,0:0|0:0,0:0:0:0:
448,192,29644,6,0,L|304:304,1,180,0|8,0:0|0:0,0:0:0:0:
176,304,30215,1,0,0:0:0:0:
32,256,30358,1,0,0:0:0:0:
256,256,30501,1,8,0:0:0:0:
384,192,30787,2,0,P|512:112|384:32,1,360,0|0,0:0|0:0,0:0:0:0:
256,32,31644,1,8,0:0:0:0:
64,80,31930,6,0,L|160:80,2,90,0|0|8,0:0|0:0|0:0,0:0:0:0:
240,144,32501,2,0,L|336:144,2,90,0|0|8,0:0|0:0|0:0,0:0:0:0:
416,192,33073,2,0,L|512:192,2,90,0|0|8,0:0|0:0|0:0,0:0:0:0:
288,240,33644,1,0,0:0:0:0:
480,288,33930,1,8,0:0:0:0:
128,320,34215,6,0,B|0:192|0:192|128:64,1,360,0|0,0:0|0:0,0:0:0:0:
256,192,35073,1,8,0:0:0:0:
384,320,35358,2,0,B|512:192|512:192|384:64,1,360,0|0,0:0|0:0,0:0:0:0:
256,64,36073,1,0,0:0:0:0:
368,0,36215,1,8,0:0:0:0:
144,0,36501,6,0,P|48:64|144:112,1,270,0|0,0:0|0:0,0:0:0:0:
288,80,37073,1,0,0:0:0:0:
432,112,37215,1,0,0:0:0:0:
224,160,37644,1,4,0:0:0:0:
160,176,37715,1,0,0:0:0:0:
112,208,37787,1,0,0:0:0:0:
80,256,37858,1,0,0:0:0:0:
80,304,37930,1,0,0:0:0:0:
272,352,38215,1,0,0:0:0:0:
464,304,38501,1,0,0:0:0:0:
80,304,38787,6,0,L|256:256,2,180,6|2|2,0:0|0:0|0:0,0:0:0:0:
288,256,39644,1,2,0:0:0:0:
496,256,39787,1,2,0:0:0:0:
336,192,40073,2,0,L|240:192,2,90,2|0|2,0:0|0:0|0:0,0:0:0:0:
160,192,40501,2,0,L|64:192,2,90,2|0|2,0:0|0:0|0:0,0:0:0:0:
512,192,41073,6,0,L|368:80,1,180,6|2,0:0|0:0,0:0:0:0:
192,80,41644,2,0,L|384:80,1,180,2|2,0:0|0:0,0:0:0:0:
176,80,42073,2,0,L|32:192,1,180,2|2,0:0|0:0,0:0:0:0:
176,176,42501,2,0,L|96:240,1,90,0|2,0:0|0:0,0:0:0:0:
256,208,42787,2,0,L|112:320,1,180,2|2,0:0|0:0,0:0:0:0:
480,336,43358,6,0,L|288:336,1,180,6|2,0:0|0:0,0:0:0:0:
160,336,43787,1,0,0:0:0:0:
256,272,43930,1,6,0:0:0:0:
352,208,44073,1,0,0:0:0:0:
224,160,44215,2,0,L|128:160,2,90,2|2|4,0:0|0:0|0:0,0:0:0:0:
448,160,44644,6,0,L|512:96,1,90,2|0,0:0|0:0,0:0:0:0:
400,32,44930,1,2,0:0:0:0:
160,160,45073,2,0,L|96:96,1,90,6|0,0:0|0:0,0:0:0:0:
208,32,45358,1,2,0:0:0:0:
368,32,45644,5,2,0:0:0:0:
224,112,45930,1,2,0:0:0:0:
448,160,46215,1,2,0:0:0:0:
80,160,46501,2,0,L|16:224,1,90,2|2,0:0|0:0,0:0:0:0:
144,256,46787,1,4,0:0:0:0:
208,272,46858,1,0,0:0:0:0:
288,288,46930,1,0,0:0:0:0:
384,304,47001,1,0,0:0:0:0:
496,320,47073,1,0,0:0:0:0:
256,336,47930,6,0,L|224:304,1,45,6|0,0:0|0:0,0:0:0:0:
160,272,48073,2,0,L|176:224,1,45,0|0,0:0|0:0,0:0:0:0:
240,192,48215,2,0,L|224:144,1,45,0|0,0:0|0:0,0:0:0:0:
192,80,48358,1,0,0:0:0:0:
320,32,48501,1,2,0:0:0:0:
448,48,48644,1,0,0:0:0:0:
352,128,48787,1,0,0:0:0:0:
512,192,49073,5,0,0:0:0:0:
384,240,49215,1,2,0:0:0:0:
192,256,49501,1,2,0:0:0:0:
320,304,49644,1,2,0:0:0:0:
128,352,49930,1,2,0:0:0:0:
256,336,50215,6,0,L|288:304,1,45,6|0,0:0|0:0,0:0:0:0:
352,272,50358,2,0,L|336:224,1,45,0|2,0:0|0:0,0:0:0:0:
272,192,50500,2,0,L|288:144,1,45,2|0,0:0|0:0,0:0:0:0:
320,80,50643,1,0,0:0:0:0:
192,32,50786,1,2,0:0:0:0:
64,48,50929,1,0,0:0:0:0:
160,128,51072,1,2,0:0:0:0:
0,192,51358,5,2,0:0:0:0:
128,240,51500,1,2,0:0:0:0:
320,256,51786,1,2,0:0:0:0:
192,304,51929,1,0,0:0:0:0:
384,352,52215,1,2,0:0:0:0:
192,304,52501,5,4,0:0:0:0:
144,272,52573,1,0,0:0:0:0:
80,240,52644,1,0,0:0:0:0:
48,192,52715,1,0,0:0:0:0:
80,128,52787,1,0,0:0:0:0:
128,80,52858,1,0,0:0:0:0:
96,16,52930,1,0,0:0:0:0:
224,32,53073,1,2,0:0:0:0:
352,0,53215,1,0,0:0:0:0:
480,32,53358,1,2,0:0:0:0:
224,32,53644,5,0,0:0:0:0:
96,16,53787,1,2,0:0:0:0:
336,80,54073,1,2,0:0:0:0:
464,112,54215,1,2,0:0:0:0:
192,144,54501,1,2,0:0:0:0:
320,304,54787,5,2,0:0:0:0:
368,272,54859,1,0,0:0:0:0:
432,240,54930,1,0,0:0:0:0:
464,192,55001,1,2,0:0:0:0:
432,128,55073,1,2,0:0:0:0:
384,80,55144,1,0,0:0:0:0:
416,16,55216,1,0,0:0:0:0:
288,32,55359,1,2,0:0:0:0:
160,0,55501,1,0,0:0:0:0:
32,32,55644,1,2,0:0:0:0:
256,112,55930,6,0,B|352:208|352:208|256:304,1,270,0|0,0:0|0:0,0:0:0:0:
192,352,56430,1,0,0:0:0:0:
352,352,56644,1,0,0:0:0:0:
256,192,56787,12,0,57787,0:0:0:0:
144,224,59787,5,0,0:0:0:0:
32,192,59858,1,0,0:0:0:0:
352,192,60073,1,0,0:0:0:0:
480,128,60215,1,0,0:0:0:0:
224,352,61644,5,4,0:0:0:0:
144,336,61715,1,0,0:0:0:0:
128,256,61787,1,0,0:0:0:0:
64,224,61858,1,0,0:0:0:0:
96,160,61930,1,0,0:0:0:0:
144,96,62001,1,0,0:0:0:0:
160,16,62073,1,0,0:0:0:0:
240,16,62144,1,0,0:0:0:0:
256,96,62215,5,0,0:0:0:0:
336,96,62287,1,0,0:0:0:0:
352,176,62358,1,0,0:0:0:0:
432,176,62430,1,0,0:0:0:0:
512,176,62501,1,0,0:0:0:0:
496,256,62573,1,0,0:0:0:0:
480,336,62644,1,0,0:0:0:0:
400,288,62715,1,0,0:0:0:0:
384,352,62787,5,0,0:0:0:0:
304,288,62858,1,0,0:0:0:0:
288,352,62930,1,0,0:0:0:0:
208,288,63001,1,0,0:0:0:0:
192,352,63073,1,0,0:0:0:0:
112,352,63144,1,0,0:0:0:0:
64,304,63215,1,0,0:0:0:0:
128,256,63287,1,0,0:0:0:0:
208,208,63358,5,4,0:0:0:0:
336,160,63573,1,4,0:0:0:0:
176,128,63787,1,4,0:0:0:0:
48,80,63930,6,0,L|32:32,1,45,4|0,0:0|0:0,0:0:0:0:
112,64,64073,2,0,L|112:16,1,45,0|0,0:0|0:0,0:0:0:0:
192,80,64215,2,0,L|208:32,1,45,0|0,0:0|0:0,0:0:0:0:
288,16,64358,2,0,L|304:64,1,45,0|0,0:0|0:0,0:0:0:0:
384,80,64501,6,0,L|400:128,1,45,0|0,0:0|0:0,0:0:0:0:
464,160,64644,2,0,L|448:208,1,45,0|0,0:0|0:0,0:0:0:0:
480,272,64787,2,0,L|464:320,1,45,0|0,0:0|0:0,0:0:0:0:
384,304,64930,2,0,L|368:352,1,45,0|0,0:0|0:0,0:0:0:0:
208,352,65073,5,4,0:0:0:0:
48,272,65358,1,4,0:0:0:0:
192,192,65644,1,4,0:0:0:0:
0,112,65930,1,4,0:0:0:0:
224,128,66215,6,0,L|240:80,1,45,4|0,0:0|0:0,0:0:0:0:
320,128,66358,2,0,L|336:80,1,45,0|0,0:0|0:0,0:0:0:0:
416,128,66501,2,0,L|432:80,1,45,0|0,0:0|0:0,0:0:0:0:
512,96,66644,2,0,L|496:144,1,45,0|0,0:0|0:0,0:0:0:0:
432,192,66787,6,0,L|464:224,1,45,0|0,0:0|0:0,0:0:0:0:
416,272,66930,2,0,L|464:320,1,45,0|0,0:0|0:0,0:0:0:0:
288,304,67073,2,0,L|256:336,1,45,0|0,0:0|0:0,0:0:0:0:
176,304,67215,2,0,L|144:336,1,45,0|0,0:0|0:0,0:0:0:0:
64,320,67358,6,0,L|32:288,1,45,0|0,0:0|0:0,0:0:0:0:
112,240,67501,2,0,L|144:208,1,45,0|0,0:0|0:0,0:0:0:0:
96,144,67644,2,0,L|80:96,1,45,0|0,0:0|0:0,0:0:0:0:
160,80,67787,2,0,L|192:48,1,45,0|0,0:0|0:0,0:0:0:0:
256,0,67930,5,4,0:0:0:0:
416,32,68144,1,4,0:0:0:0:
320,112,68358,1,4,0:0:0:0:
432,144,68501,6,0,L|480:160,1,45,4|0,0:0|0:0,0:0:0:0:
432,224,68644,2,0,L|384:240,1,45,0|0,0:0|0:0,0:0:0:0:
304,240,68787,2,0,L|272:272,1,45,0|0,0:0|0:0,0:0:0:0:
192,272,68930,2,0,L|160:320,1,45,0|0,0:0|0:0,0:0:0:0:
80,304,69073,6,0,L|64:352,1,45,0|0,0:0|0:0,0:0:0:0:
144,352,69215,2,0,L|144:304,1,45,0|0,0:0|0:0,0:0:0:0:
224,272,69358,2,0,L|240:224,1,45,0|0,0:0|0:0,0:0:0:0:
288,176,69501,2,0,L|272:128,1,45,0|0,0:0|0:0,0:0:0:0:
112,128,69644,6,0,L|32:80,1,90,4|2,0:0|0:0,0:0:0:0:
272,80,69930,2,0,L|352:32,1,90,4|2,0:0|0:0,0:0:0:0:
128,32,70215,1,4,0:0:0:0:
80,112,70358,1,2,0:0:0:0:
336,112,70501,1,4,0:0:0:0:
384,192,70644,1,2,0:0:0:0:
160,192,70787,6,0,L|112:208,1,45,4|0,0:0|0:0,0:0:0:0:
32,240,70930,2,0,L|0:272,1,45,0|0,0:0|0:0,0:0:0:0:
48,320,71073,2,0,L|80:352,1,45,0|0,0:0|0:0,0:0:0:0:
160,352,71215,2,0,L|176:304,1,45,0|0,0:0|0:0,0:0:0:0:
256,288,71358,6,0,L|240:240,1,45,0|0,0:0|0:0,0:0:0:0:
320,224,71501,2,0,L|336:176,1,45,0|0,0:0|0:0,0:0:0:0:
416,144,71644,2,0,L|448:112,1,45,0|0,0:0|0:0,0:0:0:0:
416,48,71787,2,0,L|400:0,1,45,0|0,0:0|0:0,0:0:0:0:
320,16,71930,6,0,L|288:48,1,45,0|0,0:0|0:0,0:0:0:0:
208,64,72073,2,0,L|224:112,1,45,0|0,0:0|0:0,0:0:0:0:
144,128,72215,2,0,L|160:176,1,45,0|0,0:0|0:0,0:0:0:0:
80,192,72358,2,0,L|96:240,1,45,0|0,0:0|0:0,0:0:0:0:
256,288,72501,5,4,0:0:0:0:
400,256,72715,1,4,0:0:0:0:
320,176,72930,1,4,0:0:0:0:
432,128,73073,6,0,L|448:80,1,45,4|0,0:0|0:0,0:0:0:0:
368,80,73215,2,0,L|352:32,1,45,0|0,0:0|0:0,0:0:0:0:
272,32,73358,2,0,L|224:32,1,45,0|0,0:0|0:0,0:0:0:0:
144,32,73501,2,0,L|112:64,1,45,0|0,0:0|0:0,0:0:0:0:
64,112,73644,6,0,L|80:160,1,45,0|0,0:0|0:0,0:0:0:0:
160,192,73787,2,0,L|128:240,1,45,0|0,0:0|0:0,0:0:0:0:
208,256,73930,2,0,L|192:304,1,45,0|0,0:0|0:0,0:0:0:0:
272,304,74073,2,0,L|272:352,1,45,0|0,0:0|0:0,0:0:0:0:
432,352,74215,5,4,0:0:0:0:
304,256,74501,1,4,0:0:0:0:
400,160,74787,1,4,0:0:0:0:
176,128,75073,1,4,0:0:0:0:
336,64,75358,6,0,L|336:112,1,45,4|0,0:0|0:0,0:0:0:0:
400,160,75501,2,0,L|400:208,1,45,0|0,0:0|0:0,0:0:0:0:
320,208,75644,2,0,L|320:256,1,45,0|0,0:0|0:0,0:0:0:0:
240,256,75787,2,0,L|240:304,1,45,0|0,0:0|0:0,0:0:0:0:
160,304,75930,6,0,L|112:304,1,45,0|0,0:0|0:0,0:0:0:0:
32,272,76073,2,0,L|0:240,1,45,0|0,0:0|0:0,0:0:0:0:
48,192,76215,2,0,L|64:144,1,45,0|0,0:0|0:0,0:0:0:0:
144,128,76358,2,0,L|128:80,1,45,0|0,0:0|0:0,0:0:0:0:
208,64,76501,6,0,L|256:48,1,45,0|0,0:0|0:0,0:0:0:0:
336,64,76644,2,0,L|368:96,1,45,0|0,0:0|0:0,0:0:0:0:
400,160,76787,2,0,L|384:208,1,45,0|0,0:0|0:0,0:0:0:0:
448,240,76930,2,0,L|432:288,1,45,0|0,0:0|0:0,0:0:0:0:
384,352,77073,5,4,0:0:0:0:
272,320,77215,2,0,L|240:368,2,45,0|4|0,0:0|0:0|0:0,0:0:0:0:
208,224,77501,1,4,0:0:0:0:
96,272,77644,6,0,L|64:240,1,45,4|0,0:0|0:0,0:0:0:0:
16,192,77787,2,0,L|0:144,1,45,0|0,0:0|0:0,0:0:0:0:
64,128,77930,2,0,L|80:80,1,45,0|0,0:0|0:0,0:0:0:0:
144,96,78073,2,0,L|176:64,1,45,0|0,0:0|0:0,0:0:0:0:
368,272,78215,6,0,L|400:240,1,45,0|0,0:0|0:0,0:0:0:0:
448,192,78358,2,0,L|464:144,1,45,0|0,0:0|0:0,0:0:0:0:
400,128,78501,2,0,L|384:80,1,45,0|0,0:0|0:0,0:0:0:0:
320,96,78644,2,0,L|288:64,1,45,0|0,0:0|0:0,0:0:0:0:
160,336,79930,5,0,0:0:0:0:
32,288,80073,1,0,0:0:0:0:
128,192,80215,1,4,0:0:0:0:
400,192,80430,1,0,0:0:0:0:
496,160,80501,1,0,0:0:0:0:
368,96,80644,1,4,0:0:0:0:
144,144,80787,1,0,0:0:0:0:
48,112,80858,1,0,0:0:0:0:
160,32,81073,5,0,0:0:0:0:
288,32,81215,2,0,L|320:64,2,45,0|0|0,0:0|0:0|0:0,0:0:0:0:
160,32,81501,2,0,L|256:128,1,135,4|0,0:0|0:0,0:0:0:0:
48,112,81858,2,0,L|144:208,1,135,4|0,0:0|0:0,0:0:0:0:
304,256,82215,6,0,L|400:272,2,90,0|0|0,0:0|0:0|0:0,0:0:0:0:
160,272,82715,1,0,0:0:0:0:
64,304,82787,1,0,0:0:0:0:
272,304,82930,1,0,0:0:0:0:
352,320,83001,1,0,0:0:0:0:
432,336,83073,1,0,0:0:0:0:
304,256,83215,1,0,0:0:0:0:
256,208,83287,1,0,0:0:0:0:
208,160,83358,5,0,0:0:0:0:
416,144,83501,1,0,0:0:0:0:
464,96,83573,1,0,0:0:0:0:
512,48,83644,1,0,0:0:0:0:
384,16,83787,1,4,0:0:0:0:
256,48,83930,2,0,L|128:96,1,135,0|4,0:0|0:0,0:0:0:0:
48,144,84215,2,0,L|112:208,1,90,0|0,0:0|0:0,0:0:0:0:
256,208,84501,5,0,0:0:0:0:
384,272,84644,1,0,0:0:0:0:
160,272,84787,1,4,0:0:0:0:
0,320,85001,2,0,L|32:352,1,45,0|0,0:0|0:0,0:0:0:0:
176,368,85215,1,4,0:0:0:0:
320,336,85358,2,0,L|352:304,1,45,0|0,0:0|0:0,0:0:0:0:
512,208,85644,5,0,0:0:0:0:
384,160,85787,1,0,0:0:0:0:
448,128,85858,1,0,0:0:0:0:
512,96,85930,2,0,L|480:0,1,90,0|4,0:0|0:0,0:0:0:0:
256,32,86215,2,0,L|128:80,1,135,0|4,0:0|0:0,0:0:0:0:
32,112,86501,2,0,L|80:192,1,90,0|0,0:0|0:0,0:0:0:0:
208,256,86787,5,0,0:0:0:0:
128,336,86930,1,0,0:0:0:0:
288,336,87073,2,0,L|384:336,2,90,4|0|0,0:0|0:0|0:0,0:0:0:0:
208,256,87501,2,0,L|176:224,1,45,4|0,0:0|0:0,0:0:0:0:
112,160,87644,1,0,0:0:0:0:
320,160,87787,5,0,0:0:0:0:
368,176,87858,1,4,0:0:0:0:
416,176,87930,1,0,0:0:0:0:
464,144,88001,1,0,0:0:0:0:
480,96,88073,1,0,0:0:0:0:
464,48,88144,1,0,0:0:0:0:
416,16,88215,1,0,0:0:0:0:
368,16,88287,1,0,0:0:0:0:
320,16,88358,1,0,0:0:0:0:
288,64,88430,5,0,0:0:0:0:
256,112,88501,1,0,0:0:0:0:
208,144,88573,1,0,0:0:0:0:
160,176,88644,1,0,0:0:0:0:
112,160,88715,1,0,0:0:0:0:
64,128,88787,1,0,0:0:0:0:
48,80,88858,1,0,0:0:0:0:
96,32,88930,1,0,0:0:0:0:
144,32,89001,1,0,0:0:0:0:
192,64,89073,5,0,0:0:0:0:
320,160,89215,1,0,0:0:0:0:
208,224,89358,1,4,0:0:0:0:
352,256,89501,2,0,L|448:272,2,90,0|0|4,0:0|0:0|0:0,0:0:0:0:
240,304,89930,1,0,0:0:0:0:
192,320,90001,1,0,0:0:0:0:
128,288,90073,1,0,0:0:0:0:
0,208,90215,5,0,0:0:0:0:
112,144,90358,1,0,0:0:0:0:
48,112,90430,1,0,0:0:0:0:
0,64,90501,1,0,0:0:0:0:
144,64,90644,2,0,L|224:16,1,90,4|0,0:0|0:0,0:0:0:0:
272,0,90858,1,0,0:0:0:0:
432,0,91001,1,4,0:0:0:0:
368,48,91073,2,0,L|288:96,1,90,0|0,0:0|0:0,0:0:0:0:
80,96,91358,6,0,L|0:48,2,90,0|0|4,0:0|0:0|0:0,0:0:0:0:
208,144,91787,1,0,0:0:0:0:
304,176,91858,1,0,0:0:0:0:
464,176,91930,2,0,L|512:256,1,90,0|4,0:0|0:0,0:0:0:0:
400,272,92215,1,0,0:0:0:0:
320,320,92287,1,0,0:0:0:0:
272,240,92358,1,0,0:0:0:0:
32,240,92501,5,0,0:0:0:0:
144,176,92644,1,0,0:0:0:0:
80,144,92715,1,0,0:0:0:0:
16,112,92787,1,0,0:0:0:0:
144,80,92930,1,4,0:0:0:0:
272,64,93073,1,0,0:0:0:0:
368,32,93144,1,0,0:0:0:0:
144,32,93287,1,4,0:0:0:0:
96,32,93358,1,0,0:0:0:0:
48,64,93430,1,0,0:0:0:0:
16,112,93501,1,0,0:0:0:0:
144,176,93644,5,0,0:0:0:0:
272,240,93787,1,0,0:0:0:0:
400,176,93930,1,4,0:0:0:0:
288,128,94144,1,0,0:0:0:0:
192,112,94215,2,0,L|80:112,2,90,0|4|0,0:0|0:0|0:0,0:0:0:0:
288,128,94573,1,0,0:0:0:0:
448,64,94787,5,0,0:0:0:0:
320,48,94930,2,0,L|288:80,2,45,0|0|0,0:0|0:0|0:0,0:0:0:0:
192,16,95215,1,4,0:0:0:0:
64,64,95358,1,0,0:0:0:0:
160,112,95430,1,0,0:0:0:0:
336,144,95573,1,4,0:0:0:0:
448,176,95644,1,0,0:0:0:0:
368,272,95787,1,0,0:0:0:0:
224,272,95930,6,0,L|128:272,2,90,0|0|4,0:0|0:0|0:0,0:0:0:0:
368,272,96430,1,0,0:0:0:0:
464,224,96501,1,0,0:0:0:0:
336,144,96644,1,4,0:0:0:0:
128,144,96787,1,0,0:0:0:0:
32,96,96858,1,0,0:0:0:0:
256,192,97073,12,4,98215,0:0:0:0:
368,288,99073,5,0,0:0:0:0:
496,224,99215,1,0,0:0:0:0:
272,224,99358,2,0,P|160:240|128:112,2,270,0|0|0,0:0|0:0|0:0,0:0:0:0:
432,80,100501,2,0,P|512:176|432:272,1,270,0|0,0:0|0:0,0:0:0:0:
160,192,101358,1,0,0:0:0:0:
336,160,101644,6,0,L|192:48,1,180,0|0,0:0|0:0,0:0:0:0:
16,48,102215,2,0,L|144:96,1,135,2|2,0:0|0:0,0:0:0:0:
320,96,102501,2,0,L|400:144,1,90,2|2,0:0|0:0,0:0:0:0:
160,144,102787,5,4,0:0:0:0:
32,192,102930,1,0,0:0:0:0:
112,288,103073,1,0,0:0:0:0:
368,144,103358,2,0,L|192:192,1,180,0|0,0:0|0:0,0:0:0:0:
336,256,103930,2,0,L|160:304,2,180,0|0|0,0:0|0:0|0:0,0:0:0:0:
496,208,104787,1,0,0:0:0:0:
144,208,105073,6,0,L|48:208,2,90,0|0|0,0:0|0:0|0:0,0:0:0:0:
304,192,105644,2,0,P|352:112|304:48,1,180,0|0,0:0|0:0,0:0:0:0:
160,32,106215,1,0,0:0:0:0:
64,96,106358,1,0,0:0:0:0:
208,128,106501,1,0,0:0:0:0:
128,224,106644,1,0,0:0:0:0:
272,224,106787,6,0,L|304:192,3,45,0|0|0|0,0:0|0:0|0:0|0:0,0:0:0:0:
384,160,107073,2,0,L|416:128,3,45,0|0|0|0,0:0|0:0|0:0|0:0,0:0:0:0:
480,80,107358,5,4,0:0:0:0:
336,48,107501,1,0,0:0:0:0:
192,96,107644,2,0,L|16:144,2,180,0|0|0,0:0|0:0|0:0,0:0:0:0:
384,112,108501,2,0,L|208:160,1,180,0|0,0:0|0:0,0:0:0:0:
432,192,109073,2,0,L|256:240,1,180,0|0,0:0|0:0,0:0:0:0:
64,256,109644,6,0,L|0:320,1,90,2|0,0:0|0:0,0:0:0:0:
128,272,109930,2,0,L|96:368,1,90,0|2,0:0|0:0,0:0:0:0:
224,272,110215,2,0,L|256:368,1,90,0|2,0:0|0:0,0:0:0:0:
384,272,110501,2,0,L|288:272,1,90,0|2,0:0|0:0,0:0:0:0:
160,208,110787,2,0,P|112:128|160:64,1,180,0|0,0:0|0:0,0:0:0:0:
400,208,111215,2,0,P|448:128|400:64,2,180,2|2|2,0:0|0:0|0:0,0:0:0:0:
384,48,112715,5,0,0:0:0:0:
272,80,112787,1,2,0:0:0:0:
64,80,112930,1,2,0:0:0:0:
176,192,113073,2,0,P|320:192|320:288,2,270,2|2|0,0:0|0:0|0:0,0:0:0:0:
432,192,114215,2,0,P|288:192|288:288,2,270,2|2|0,0:0|0:0|0:0,0:0:0:0:
32,192,115358,6,0,B|192:160|192:160|144:64,1,270,2|2,0:0|0:0,0:0:0:0:
256,32,116215,1,0,0:0:0:0:
368,64,116501,2,0,B|320:160|320:160|480:192,1,270,2|0,0:0|0:0,0:0:0:0:
256,240,117215,2,0,L|224:288,2,45,2|0|2,0:0|0:0|0:0,0:0:0:0:
336,144,117501,1,2,0:0:0:0:
128,144,117644,2,0,P|32:80|128:16,1,270,2|2,0:0|0:0,0:0:0:0:
304,64,118501,1,2,0:0:0:0:
416,144,118787,6,0,P|512:80|416:16,1,270,2|2,0:0|0:0,0:0:0:0:
304,64,119644,1,2,0:0:0:0:
0,80,119930,1,2,0:0:0:0:
144,160,120358,1,2,0:0:0:0:
512,160,120787,1,4,0:0:0:0:
