osu file format v14

[General]
AudioFilename: miracle_5ympho_x.mp3
AudioLeadIn: 0
PreviewTime: 9073
Countdown: 0
SampleSet: Soft
StackLeniency: 0.7
Mode: 2
LetterboxInBreaks: 0
WidescreenStoryboard: 1

[Editor]
DistanceSpacing: 1
BeatDivisor: 4
GridSize: 8
TimelineZoom: 3.939998

[Metadata]
Title:Miracle 5ympho X
TitleUnicode:Miracle 5ympho X
Artist:USAO
ArtistUnicode:USAO
Creator:Mel
Version:Intensity's Overdose
Source:beatmania IIDX 21 SPADA
Tags:frey sionkotori kokodoko ナウい 一年一片 frenchcore dubstep intensity fullerene kurokami gezo
BeatmapID:472496
BeatmapSetID:137394

[Difficulty]
HPDrainRate:7
CircleSize:4.5
OverallDifficulty:9.5
ApproachRate:9.5
SliderMultiplier:1.85
SliderTickRate:2

[Events]
//Background and Video events
0,0,"5ympho.png",0,0
//Break Periods
2,57986,59199
//Storyboard Layer 0 (Background)
//Storyboard Layer 1 (Fail)
//Storyboard Layer 2 (Pass)
//Storyboard Layer 3 (Foreground)
//Storyboard Sound Samples

[TimingPoints]
1073,285.714285714286,4,2,0,85,1,0
2215,-142.857142857143,4,2,0,85,0,0
5644,-100,4,2,0,45,0,0
6215,-100,4,2,0,60,0,0
6787,-100,4,2,0,65,0,0
7358,-100,4,2,0,80,0,0
7930,-100,4,2,0,85,0,0
8501,-100,4,2,0,80,0,0
10215,-100,4,2,0,85,0,0
29644,-100,4,2,0,70,0,0
38787,-100,4,2,0,70,0,0
41073,-100,4,2,0,75,0,0
43358,-100,4,2,0,90,0,0
44501,-100,4,2,0,95,0,0
45644,-100,4,2,0,80,0,0
47930,-66.6666666666667,4,2,0,85,0,0
48501,-100,4,2,0,85,0,0
52501,-66.6666666666667,4,2,0,85,0,0
53073,-100,4,2,0,85,0,0
55930,-100,4,2,0,65,0,0
56215,-100,4,2,0,70,0,0
56430,-100,4,2,0,60,0,0
56644,-100,4,2,0,50,0,0
57787,-100,4,2,0,5,0,0
59358,-100,4,2,0,55,0,0
61644,-100,4,1,0,75,0,0
78787,-100,4,1,0,80,0,0
79930,-100,4,1,0,95,0,1
97073,-100,4,1,0,95,0,0
98215,-100,4,2,0,70,0,0
101644,-100,4,2,0,80,0,0
102787,-100,4,2,0,90,0,0

[Colours]
Combo1 : 232,182,30
Combo2 : 46,92,109

[HitObjects]
96,144,1073,5,4,0:0:0:0:
160,56,1787,6,0,L|104:56,2,46.25,0|2|2,0:0|0:0|0:0,0:0:0:0:
256,32,2073,1,2,0:0:0:0:
352,56,2215,6,0,P|412:64|464:176,2,194.249994071961,2|2|0,0:0|0:0|0:0,0:0:0:0:
160,56,3358,2,0,P|99:64|48:176,2,194.249994071961,2|0|2,0:0|0:0|0:0,0:0:0:0:
432,312,4501,2,0,L|336:128,2,194.249994071961,2|2|0,0:0|0:0|0:0,0:0:0:0:
112,336,5644,6,0,L|120:128,1,185,0|0,1:0|1:0,0:0:0:0:
360,200,6215,2,0,L|398:86,1,92.5,0|0,1:0|0:0,0:0:0:0:
400,80,6430,1,0,0:0:0:0:
384,56,6501,1,0,1:0:0:0:
224,40,6644,1,0,0:0:0:0:
72,48,6787,6,0,P|48:120|112:232,1,185,0|0,1:0|1:0,0:0:0:0:
336,344,7358,2,0,L|368:232,1,92.5,0|0,1:0|1:0,0:0:0:0:
496,240,7644,2,0,L|464:128,1,92.5,0|0,1:0|0:0,0:0:0:0:
320,176,7930,6,0,P|336:96|384:-8,1,185,0|0,1:0|1:0,0:0:0:0:
104,304,8501,2,0,P|120:248|112:104,1,185,0|0,1:0|1:0,0:0:0:0:
24,104,8930,1,0,0:0:0:0:
400,40,9073,6,0,P|448:72|368:320,1,370,4|8,1:0|3:0,0:0:0:0:
104,304,9787,2,0,P|88:208|104:88,1,185,4|4,3:0|3:0,0:0:0:0:
368,104,10215,6,0,L|480:104,1,92.5,0|0,1:0|1:0,0:0:0:0:
248,32,10501,2,0,P|224:80|280:208,1,185,8|0,0:0|1:0,0:0:0:0:
368,104,10930,1,0,0:0:0:0:
208,80,11073,2,0,L|200:200,1,92.5,8|0,0:0|0:0,0:0:0:0:
56,192,11358,6,0,L|40:296,1,92.5,0|0,1:0|0:0,0:0:0:0:
192,336,11644,2,0,P|272:320|280:200,1,185,8|0,0:0|1:0,0:0:0:0:
95,184,12073,1,0,0:0:0:0:
3,189,12215,2,0,L|96:184,1,92.5,8|0,0:0|0:0,0:0:0:0:
296,96,12501,5,0,1:0:0:0:
216,48,12644,1,0,1:0:0:0:
376,40,12787,2,0,P|392:120|384:240,1,185,8|0,0:0|1:0,0:0:0:0:
232,224,13215,1,0,0:0:0:0:
424,208,13358,2,0,L|400:320,1,92.5,8|0,0:0|1:0,0:0:0:0:
88,256,13644,2,0,P|56:176|88:56,1,185,0|8,1:0|0:0,0:0:0:0:
416,72,14215,6,0,L|480:72,2,46.25,0|0|0,1:0|1:0|1:0,0:0:0:0:
128,80,14501,1,8,0:0:0:0:
328,80,14644,1,0,1:0:0:0:
400,80,14715,1,0,1:0:0:0:
472,80,14787,6,0,L|464:184,1,92.5,0|0,1:0|1:0,0:0:0:0:
224,336,15073,2,0,P|184:296|256:192,1,185,8|0,0:0|1:0,0:0:0:0:
360,184,15501,1,0,0:0:0:0:
488,168,15644,2,0,L|396:181,1,92.5,8|0,0:0|0:0,0:0:0:0:
168,48,15930,6,0,L|260:61,1,92.5,0|0,1:0|0:0,0:0:0:0:
480,64,16215,2,0,P|496:128|456:248,1,185,8|0,0:0|1:0,0:0:0:0:
360,248,16644,1,0,0:0:0:0:
16,264,16787,2,0,L|32:160,1,92.5,8|0,0:0|0:0,0:0:0:0:
208,96,17073,6,0,L|312:88,2,92.5,0|0|8,1:0|1:0|0:0,0:0:0:0:
80,112,17501,1,2,0:1:0:0:
320,104,17644,2,0,L|352:0,1,92.5,0|2,1:0|0:1,0:0:0:0:
480,128,17930,2,0,L|512:24,1,92.5,8|2,0:0|1:0,0:0:0:0:
80,24,18215,5,0,3:0:0:0:
73,69,18286,1,0,3:0:0:0:
63,114,18357,1,2,3:1:0:0:
48,158,18429,1,0,3:0:0:0:
128,88,18501,1,0,3:0:0:0:
134,133,18572,1,0,3:0:0:0:
144,178,18643,1,2,3:1:0:0:
159,222,18715,1,0,3:0:0:0:
56,152,18787,5,0,3:0:0:0:
49,197,18858,1,0,3:0:0:0:
39,242,18929,1,2,3:1:0:0:
24,286,19001,1,0,3:0:0:0:
160,208,19073,1,0,3:0:0:0:
166,253,19144,1,0,3:0:0:0:
176,298,19215,1,2,3:1:0:0:
191,342,19287,1,0,3:0:0:0:
8,336,19358,5,4,1:0:0:0:
104,288,19930,5,8,3:0:0:0:
24,272,20073,2,0,P|8:160|48:88,1,185,4|4,3:0|3:0,0:0:0:0:
360,48,20501,6,0,P|448:112|328:320,1,370,2|0,0:0|0:0,0:0:0:0:
72,184,21358,1,0,0:0:0:0:
200,0,21644,2,0,P|184:200|192:368,1,370,2|0,0:0|0:0,0:0:0:0:
120,304,22501,1,0,0:0:0:0:
416,280,22787,6,0,P|432:216|400:88,1,185,2|0,0:0|0:0,0:0:0:0:
208,96,23358,2,0,L|16:128,2,185,2|0|2,0:0|0:0|0:0,0:0:0:0:
400,32,24501,6,0,L|432:216,1,185,2|0,0:0|0:0,0:0:0:0:
184,320,25073,6,0,P|116:261|232:41,1,370,2|0,0:0|0:0,0:0:0:0:
384,112,25930,1,2,0:0:0:0:
160,344,26215,2,0,P|128:304|208:-8,1,370,2|0,0:0|0:0,0:0:0:0:
432,144,27073,2,0,L|408:32,1,92.5,2|0,0:0|0:0,0:0:0:0:
248,80,27358,6,0,P|192:96|64:64,1,185,2|0,0:0|0:0,0:0:0:0:
280,200,27930,2,0,P|336:216|464:184,1,185,2|2,0:0|0:0,0:0:0:0:
192,152,28501,2,0,L|168:352,1,185,2|0,0:0|0:0,0:0:0:0:
328,16,29073,2,0,L|352:216,1,185,0|2,0:0|0:0,0:0:0:0:
80,272,29644,6,0,L|32:188,1,92.5,0|0,1:0|0:0,0:0:0:0:
232,184,29930,2,0,P|310:138|420:192,1,185,8|0,1:0|3:0,0:0:0:0:
232,184,30358,1,0,1:0:0:0:
120,64,30501,2,0,L|136:168,1,92.5,8|0,1:0|0:0,0:0:0:0:
392,64,30787,6,0,L|376:248,1,185,0|8,1:0|1:0,0:0:0:0:
504,216,31215,1,0,3:0:0:0:
328,216,31358,2,0,L|320:312,1,92.5,0|0,0:0|1:0,0:0:0:0:
232,144,31644,2,0,L|224:240,1,92.5,8|0,1:0|0:0,0:0:0:0:
16,112,31930,6,0,P|80:112|128:8,1,185,0|8,1:0|1:0,0:0:0:0:
40,24,32358,1,0,3:0:0:0:
320,56,32501,2,0,L|416:48,1,92.5,0|0,0:0|1:0,0:0:0:0:
192,192,32787,2,0,L|96:184,1,92.5,8|0,1:0|0:0,0:0:0:0:
312,144,33073,6,0,P|344:240|312:328,1,185,0|8,1:0|1:0,0:0:0:0:
184,248,33501,1,0,3:0:0:0:
384,160,33644,2,0,L|368:64,1,92.5,0|0,1:0|0:0,0:0:0:0:
120,128,33930,2,0,L|136:32,1,92.5,8|0,1:0|1:0,0:0:0:0:
248,24,34144,1,0,1:0:0:0:
280,32,34215,6,0,P|312:104|304:232,1,185,0|8,1:0|1:0,0:0:0:0:
240,152,34644,1,0,3:0:0:0:
64,232,34787,2,0,L|155:216,2,92.5,0|0|8,0:0|1:0|1:0,0:0:0:0:
232,224,35215,1,0,0:0:0:0:
360,136,35358,6,0,P|440:136|480:232,1,185,0|8,1:0|1:0,0:0:0:0:
272,304,35787,1,0,3:0:0:0:
376,232,35930,2,0,L|392:336,1,92.5,0|0,0:0|1:0,0:0:0:0:
272,304,36215,2,0,L|168:288,1,92.5,8|0,1:0|0:0,0:0:0:0:
40,72,36501,6,0,P|48:176|64:272,1,185,0|8,1:0|1:0,0:0:0:0:
512,240,36930,1,0,3:0:0:0:
392,176,37073,2,0,L|488:152,1,92.5,0|0,0:0|1:0,0:0:0:0:
352,88,37358,2,0,L|448:64,1,92.5,8|0,1:0|0:0,0:0:0:0:
48,56,37644,5,4,1:0:0:0:
56,112,38787,5,4,1:0:0:0:
296,96,39073,1,8,0:0:0:0:
56,120,39358,1,0,1:0:0:0:
296,96,39644,5,8,0:0:0:0:
464,168,39787,2,0,P|464:88|392:8,1,185,2|2,1:0|1:0,0:0:0:0:
144,224,40358,1,2,1:0:0:0:
48,168,40501,2,0,P|48:88|120:8,1,185,2|2,1:0|1:0,0:0:0:0:
368,96,41073,5,0,1:0:0:0:
112,112,41358,1,8,0:0:0:0:
392,160,41644,1,0,1:0:0:0:
144,192,41930,5,8,0:0:0:0:
32,64,42073,2,0,L|40:288,1,185,2|2,1:0|1:0,0:0:0:0:
368,192,42644,1,2,1:0:0:0:
480,64,42787,2,0,L|472:288,1,185,2|2,1:0|1:0,0:0:0:0:
168,288,43358,6,0,L|184:168,1,92.5,8|0,0:0|1:0,0:0:0:0:
35,124,43644,2,0,L|48:216,1,92.5,8|0,0:0|1:0,0:0:0:0:
344,288,43930,2,0,L|328:168,1,92.5,8|0,0:0|1:0,0:0:0:0:
476,124,44216,2,0,L|464:216,1,92.5,8|0,0:0|1:0,0:0:0:0:
176,288,44501,6,0,L|160:168,1,92.5,8|0,0:0|1:0,0:0:0:0:
0,176,44787,2,0,L|120:192,1,92.5,8|0,0:0|1:0,0:0:0:0:
336,288,45073,2,0,L|352:168,1,92.5,8|0,0:0|1:0,0:0:0:0:
512,176,45358,2,0,L|392:192,1,92.5,8|0,0:0|1:0,0:0:0:0:
64,48,45644,5,8,0:0:0:0:
24,69,45715,1,0,1:0:0:0:
5,111,45786,1,0,1:0:0:0:
16,155,45858,1,0,1:0:0:0:
52,182,45930,2,0,L|112:176,1,46.25,0|0,1:0|1:0,1:0:0:0:
192,240,46073,2,0,L|252:234,1,46.25,0|0,1:0|1:0,1:0:0:0:
448,48,46215,5,8,0:0:0:0:
488,69,46286,1,0,1:0:0:0:
507,111,46357,1,0,1:0:0:0:
496,155,46429,1,0,1:0:0:0:
460,182,46501,2,0,L|400:176,1,46.25,8|0,0:0|1:0,1:0:0:0:
320,240,46644,2,0,L|260:234,1,46.25,0|0,1:0|1:0,1:0:0:0:
52,182,46787,5,4,1:0:0:0:
256,192,46930,12,0,47644,0:0:0:0:
432,0,47930,6,0,B|352:168|352:168|496:200|489:318|368:352,1,416.250015878678,4|0,1:0|1:0,0:0:0:0:
48,344,48501,2,0,L|24:216,1,92.5,8|4,1:0|1:3,0:0:0:0:
192,192,48787,2,0,L|216:64,1,92.5
24,88,49073,5,0,1:0:0:0:
160,32,49215,2,0,P|176:144|160:256,1,185,2|2,1:0|1:0,0:0:0:0:
432,344,49644,2,0,P|426:251|442:161,1,185,10|2,1:0|1:0,0:0:0:0:
328,112,50215,6,0,L|160:104,1,138.75,0|0,1:0|0:0,0:0:0:0:
24,64,50501,2,0,P|8:112|32:240,1,138.75,2|0,1:0|0:0,0:0:0:0:
189,105,50787,2,0,L|357:113,1,138.75,8|0,1:0|0:0,0:0:0:0:
488,64,51073,2,0,P|504:112|480:240,1,138.75,2|0,1:0|0:0,0:0:0:0:
152,296,51358,5,0,1:0:0:0:
24,296,51501,2,0,P|-8:216|24:112,1,185,2|0,1:0|1:0,0:0:0:0:
184,80,51930,2,0,L|80:72,2,92.5,8|2|2,1:0|1:0|1:0,0:0:0:0:
442,27,52501,6,0,B|384:40|384:40|392:136|392:136|488:128|488:128|488:208|488:208|384:232,1,416.250015878678,4|0,1:0|1:0,0:0:0:0:
160,136,53073,6,0,L|148:227,1,92.5,8|4,1:0|1:3,0:0:0:0:
406,226,53358,2,0,L|414:346,1,92.5
160,136,53644,5,0,1:0:0:0:
48,48,53787,2,0,P|40:120|56:264,1,185,2|2,1:0|1:0,0:0:0:0:
464,48,54215,2,0,P|472:120|456:264,1,185,10|2,1:0|1:0,0:0:0:0:
112,328,54787,6,0,P|56:248|72:176,1,138.75,0|0,1:0|0:0,0:0:0:0:
272,264,55073,2,0,P|328:184|312:112,1,138.75,2|0,1:0|0:0,0:0:0:0:
80,280,55358,2,0,P|24:200|40:128,1,138.75,2|0,1:0|0:0,0:0:0:0:
240,216,55644,2,0,P|296:136|280:64,1,138.75,0|0,1:0|0:0,0:0:0:0:
168,64,55930,6,0,L|48:80,1,92.5,0|0,1:0|1:0,0:0:0:0:
304,56,56216,1,0,1:0:0:0:
440,136,56430,1,0,1:0:0:0:
256,120,56644,6,0,P|8:192|280:248,1,740,4|0,1:2|0:0,0:0:0:0:
96,112,59739,5,0,3:0:0:0:
88,64,59834,1,2,3:0:0:0:
416,112,60120,5,0,3:0:0:0:
425,83,60168,1,0,3:0:0:0:
435,54,60215,1,0,3:0:0:0:
256,192,60501,12,0,61501,0:0:0:0:
384,48,61644,5,0,1:0:0:0:
416,79,61715,1,0,1:0:0:0:
414,124,61786,1,0,1:0:0:0:
378,151,61858,1,0,1:0:0:0:
328,152,61930,2,4,L|320:216,1,46.25,4|4,3:0|3:0,3:0:0:0:
480,224,62073,2,4,L|488:288,1,46.25,4|4,3:0|3:0,3:0:0:0:
248,344,62215,5,0,1:0:0:0:
217,310,62286,1,0,1:0:0:0:
224,264,62357,1,0,1:0:0:0:
253,235,62429,1,0,1:0:0:0:
296,216,62501,2,4,L|280:160,1,46.25,4|4,3:0|3:0,3:0:0:0:
120,128,62644,2,4,L|136:64,1,46.25,4|4,3:0|3:0,3:0:0:0:
280,40,62787,5,0,1:0:0:0:
307,76,62858,1,0,1:0:0:0:
314,121,62929,1,0,1:0:0:0:
298,164,63001,1,0,1:0:0:0:
48,120,63073,5,4,3:0:0:0:
20,156,63144,1,4,3:0:0:0:
13,201,63215,1,4,3:0:0:0:
29,244,63287,1,4,3:0:0:0:
208,248,63358,6,0,L|216:352,1,92.5,4|0,1:0|2:0,3:0:0:0:
408,280,63573,2,0,L|416:188,1,92.5,4|0,1:0|2:0,3:0:0:0:
488,176,63787,1,4,1:0:0:0:
184,88,63930,5,0,0:0:0:0:
138,94,64001,1,0,0:0:0:0:
92,101,64072,1,0,0:0:0:0:
46,107,64144,1,0,0:0:0:0:
8,112,64215,2,4,L|16:56,1,46.25,4|4,3:0|3:0,3:0:0:0:
160,48,64358,2,4,L|205:54,1,46.25,4|4,3:0|3:0,3:0:0:0:
352,72,64501,5,0,0:0:0:0:
395,82,64572,1,0,0:0:0:0:
417,121,64643,1,0,0:0:0:0:
404,164,64715,1,0,0:0:0:0:
360,184,64787,2,4,L|312:192,1,46.25,4|4,3:0|3:0,3:0:0:0:
456,272,64930,2,4,L|504:280,1,46.25,4|4,3:0|3:0,3:0:0:0:
88,312,65073,6,0,P|43:248|94:153,1,185,4|0,0:0|0:0,0:0:0:0:
424,184,65644,2,0,P|465:106|419:30,1,185,4|0,0:0|0:0,0:0:0:0:
40,80,66216,6,0,L|30:34,1,46.25
88,104,66359,2,0,L|78:58,1,46.25
136,128,66502,2,4,L|126:82,1,46.25,4|4,3:0|3:0,3:0:0:0:
384,240,66644,2,4,L|394:194,1,46.25,4|4,3:0|3:0,3:0:0:0:
336,264,66787,2,0,L|346:218,1,46.25
288,288,66930,2,0,L|298:242,1,46.25
64,312,67073,5,4,3:0:0:0:
50,268,67144,1,4,3:0:0:0:
48,221,67215,1,4,3:0:0:0:
60,177,67287,1,4,3:0:0:0:
136,144,67358,2,0,L|200:136,3,46.25
256,128,67644,2,4,L|320:120,3,46.25,4|4|4|4,3:0|3:0|3:0|3:0,3:0:0:0:
96,128,67930,6,0,L|-24:136,1,92.5,4|0,1:0|2:0,0:0:0:0:
160,56,68144,2,0,L|280:48,1,92.5,4|0,1:0|2:0,0:0:0:0:
208,64,68358,1,4,1:0:0:0:
448,64,68501,6,0,L|456:128,1,46.25
272,112,68644,2,0,L|264:176,1,46.25
416,88,68787,2,4,L|424:152,1,46.25,4|4,3:0|3:0,3:0:0:0:
240,136,68930,2,4,L|232:200,1,46.25,4|4,3:0|3:0,3:0:0:0:
440,176,69073,5,0,0:0:0:0:
454,219,69144,1,0,0:0:0:0:
475,260,69215,1,0,0:0:0:0:
499,299,69287,1,0,0:0:0:0:
320,88,69358,1,4,3:0:0:0:
304,130,69429,1,4,3:0:0:0:
283,171,69500,1,4,3:0:0:0:
259,210,69572,1,4,3:0:0:0:
120,288,69644,6,0,L|224:280,1,92.5,4|0,0:3|0:0,0:0:0:0:
16,176,69930,2,0,L|108:183,1,92.5,12|0,0:0|0:0,0:0:0:0:
392,288,70215,2,0,L|288:280,1,92.5,4|0,0:3|0:0,0:0:0:0:
496,176,70501,2,0,L|404:183,1,92.5,12|0,0:0|0:0,0:0:0:0:
200,192,70787,6,0,L|128:192,1,46.25
64,176,70930,2,0,L|136:176,1,46.25
216,128,71073,2,4,L|144:128,1,46.25,4|4,3:0|3:0,3:0:0:0:
80,112,71216,2,4,L|152:112,1,46.25,4|4,3:0|3:0,3:0:0:0:
248,80,71358,5,0,0:0:0:0:
283,107,71429,1,0,0:0:0:0:
297,151,71500,1,0,0:0:0:0:
283,194,71572,1,0,0:0:0:0:
80,208,71644,1,4,3:0:0:0:
45,235,71715,1,4,3:0:0:0:
31,279,71786,1,4,3:0:0:0:
45,322,71858,1,4,3:0:0:0:
88,344,71930,6,0,L|96:288,1,46.25
280,288,72073,2,0,L|272:232,1,46.25
72,272,72215,2,4,L|80:216,1,46.25,4|4,3:0|3:0,3:0:0:0:
280,208,72358,2,4,L|272:152,1,46.25,4|4,3:0|3:0,3:0:0:0:
48,192,72501,6,0,L|64:88,1,92.5,4|0,1:0|2:0,0:0:0:0:
304,128,72715,2,0,L|288:24,1,92.5,4|0,1:0|2:0,0:0:0:0:
286,10,72930,1,4,1:0:0:0:
432,64,73073,5,0,0:0:0:0:
469,89,73144,1,0,0:0:0:0:
478,133,73215,1,0,0:0:0:0:
454,172,73287,1,0,0:0:0:0:
408,192,73358,1,4,3:0:0:0:
370,216,73430,1,4,3:0:0:0:
359,259,73501,1,4,3:0:0:0:
382,299,73572,1,4,3:0:0:0:
416,320,73644,6,0,L|480:320,3,46.25
216,280,73930,2,4,L|152:280,3,46.25,4|4|4|4,3:0|3:0|3:0|3:0,3:0:0:0:
72,240,74215,6,0,P|56:136|80:40,1,185,4|0,0:0|0:0,0:0:0:0:
432,96,74787,1,0,0:0:0:0:
80,96,75073,1,0,0:0:0:0:
352,48,75358,5,0,0:0:0:0:
372,87,75429,1,0,0:0:0:0:
377,133,75500,1,0,0:0:0:0:
363,177,75572,1,0,0:0:0:0:
216,184,75644,1,4,3:0:0:0:
196,223,75715,1,4,3:0:0:0:
191,269,75786,1,4,3:0:0:0:
205,313,75858,1,4,3:0:0:0:
376,268,75930,6,0,L|360:312,1,46.25
416,252,76073,2,0,L|400:296,1,46.25
304,176,76215,2,0,L|288:219,1,46.25,4|4,3:0|3:0,0:0:0:0:
344,160,76358,2,0,L|328:203,1,46.25,4|4,3:0|3:0,0:0:0:0:
248,256,76501,5,0,0:0:0:0:
279,254,76573,1,0,0:0:0:0:
310,252,76644,1,0,0:0:0:0:
341,250,76715,1,0,0:0:0:0:
504,280,76787,1,4,3:0:0:0:
487,254,76858,1,4,3:0:0:0:
461,239,76929,1,4,3:0:0:0:
430,238,77001,1,4,3:0:0:0:
176,264,77073,6,0,L|56:304,1,92.5,4|0,1:0|2:0,0:0:0:0:
128,184,77287,2,0,L|40:213,1,92.5,4|0,1:0|2:0,0:0:0:0:
80,112,77501,1,4,1:0:0:0:
472,24,77644,5,0,0:0:0:0:
474,70,77715,1,0,0:0:0:0:
476,116,77786,1,0,0:0:0:0:
478,162,77858,1,0,0:0:0:0:
408,184,77930,1,0,0:0:0:0:
406,230,78001,1,0,0:0:0:0:
448,280,78072,1,0,0:0:0:0:
446,326,78144,1,0,0:0:0:0:
304,216,78215,5,4,0:3:0:0:
306,262,78286,1,4,0:3:0:0:
308,308,78357,1,4,0:3:0:0:
310,354,78429,1,4,0:3:0:0:
216,192,78501,1,4,0:3:0:0:
214,238,78572,1,4,0:3:0:0:
296,296,78643,1,4,0:3:0:0:
294,342,78715,1,4,0:3:0:0:
112,288,78787,6,0,L|16:304,1,92.5
224,264,79073,1,2,0:3:0:0:
96,208,79215,2,0,L|0:224,1,92.5
208,184,79501,1,2,0:3:0:0:
72,128,79644,2,0,L|88:32,1,92.5
425,36,79930,6,0,L|449:148,1,92.5,4|0,0:0|0:0,0:0:0:0:
152,312,80215,2,0,P|128:240|160:152,1,138.75,8|0,0:0|0:0,0:0:0:0:
416,40,80644,2,0,P|439:111|416:176,1,138.75,8|0,0:0|0:0,0:0:0:0:
392,168,80930,1,0,0:0:0:0:
136,152,81073,5,0,0:0:0:0:
360,104,81215,1,0,0:0:0:0:
400,96,81287,1,0,0:0:0:0:
448,96,81358,1,0,0:0:0:0:
112,48,81501,2,0,P|104:112|128:200,1,138.75,8|0,0:0|0:0,0:0:0:0:
360,184,81858,2,0,L|368:56,1,92.5,8|0,0:0|0:0,0:0:0:0:
368,32,82073,1,0,0:0:0:0:
144,104,82215,6,0,L|32:120,1,92.5
304,96,82501,2,0,P|328:144|288:256,1,138.75,8|0,0:0|0:0,0:0:0:0:
80,216,82930,1,8,0:0:0:0:
104,208,83001,1,0,0:0:0:0:
320,200,83144,1,8,0:0:0:0:
320,160,83215,1,0,0:0:0:0:
304,120,83287,1,0,0:0:0:0:
176,80,83358,6,0,L|83:87,1,92.5,0|8,0:0|0:0,0:0:0:0:
32,112,83573,1,0,0:0:0:0:
88,104,83644,1,0,0:0:0:0:
264,24,83787,2,0,L|272:168,1,138.75,8|0,0:0|0:0,0:0:0:0:
512,104,84144,2,0,L|496:232,1,92.5,8|0,0:0|0:0,0:0:0:0:
496,224,84358,1,0,0:0:0:0:
264,288,84501,6,0,L|144:296,1,92.5,4|0,0:0|0:0,0:0:0:0:
304,192,84787,1,8,0:0:0:0:
40,208,85001,1,0,0:0:0:0:
256,56,85215,1,8,0:0:0:0:
64,64,85429,1,0,0:0:0:0:
360,64,85644,6,0,L|368:184,1,92.5
432,160,85858,1,0,0:0:0:0:
440,208,85930,1,0,0:0:0:0:
128,160,86073,2,0,L|112:320,1,138.75,8|0,0:0|0:0,0:0:0:0:
336,176,86430,2,0,P|344:112|328:40,1,138.75,8|0,0:0|0:0,0:0:0:0:
96,56,86787,6,0,L|104:152,1,92.5
288,232,87073,1,8,0:0:0:0:
80,304,87286,1,0,0:0:0:0:
368,288,87501,1,8,0:0:0:0:
320,280,87573,1,0,0:0:0:0:
56,184,87716,1,8,0:0:0:0:
64,144,87787,1,0,0:0:0:0:
72,104,87858,1,0,0:0:0:0:
112,80,87930,6,0,L|120:24,1,46.25
272,112,88073,2,0,L|264:56,1,46.25
96,96,88215,2,0,L|104:40,1,46.25,4|4,1:3|1:3,0:0:0:0:
256,128,88358,2,0,L|248:72,1,46.25,4|4,1:3|1:3,0:0:0:0:
88,144,88501,5,0,0:0:0:0:
81,189,88572,1,0,0:0:0:0:
72,240,88644,1,0,0:0:0:0:
65,285,88715,1,0,0:0:0:0:
264,168,88787,1,4,1:3:0:0:
270,213,88858,1,4,1:3:0:0:
280,264,88930,1,4,1:3:0:0:
286,309,89001,1,4,1:3:0:0:
512,296,89073,6,0,L|488:192,1,92.5,4|0,0:0|0:0,0:0:0:0:
160,144,89358,2,0,L|120:40,1,92.5,8|0,0:0|0:0,0:0:0:0:
175,50,89573,1,8,0:0:0:0:
408,64,89715,1,0,0:0:0:0:
368,48,89787,1,8,0:0:0:0:
160,144,89930,1,0,0:0:0:0:
96,184,90001,2,0,L|56:80,1,92.5,8|0,0:0|0:0,0:0:0:0:
376,200,90215,5,0,0:0:0:0:
464,168,90358,1,8,0:0:0:0:
512,200,90430,1,0,0:0:0:0:
464,232,90501,1,0,0:0:0:0:
200,312,90644,2,0,P|128:312|48:320,1,138.75,8|0,0:0|0:0,0:0:0:0:
280,192,91001,2,0,L|296:56,1,92.5,8|0,0:0|0:0,0:0:0:0:
300,25,91215,1,0,0:0:0:0:
96,72,91358,6,0,L|-16:88,1,92.5
232,96,91644,1,8,0:0:0:0:
88,192,91858,1,0,0:0:0:0:
288,216,92073,1,8,0:0:0:0:
64,304,92286,1,0,0:0:0:0:
368,320,92501,6,0,L|384:200,1,92.5,0|8,0:0|0:0,0:0:0:0:
456,184,92715,1,0,0:0:0:0:
448,144,92787,1,0,0:0:0:0:
96,64,92930,2,0,P|80:128|88:224,1,138.75,8|0,0:0|0:0,0:0:0:0:
408,136,93287,2,0,L|400:32,1,92.5,8|0,0:0|0:0,0:0:0:0:
376,40,93501,1,8,0:0:0:0:
96,24,93644,6,0,L|80:128,1,92.5,4|0,0:0|0:0,0:0:0:0:
272,136,93930,1,8,0:0:0:0:
64,224,94144,1,0,0:0:0:0:
312,256,94359,1,8,0:0:0:0:
48,336,94573,1,0,0:0:0:0:
360,288,94787,6,0,L|464:272,1,92.5,4|8,0:0|0:0,0:0:0:0:
496,240,95001,1,0,0:0:0:0:
448,208,95073,1,0,0:0:0:0:
144,216,95215,2,0,P|112:144|112:56,1,138.75,8|0,0:0|0:0,0:0:0:0:
400,24,95573,2,0,P|416:96|376:184,1,138.75,8|0,0:0|0:0,0:0:0:0:
144,280,95930,6,0,L|52:287,1,92.5,4|0,0:0|0:0,0:0:0:0:
368,280,96215,2,0,P|432:248|512:256,3,138.75,8|0|8|0,0:0|0:0|0:0|0:0,0:0:0:0:
15,250,97073,5,4,0:0:0:0:
256,192,97215,12,4,98215,0:0:0:0:
32,128,98930,5,0,0:0:0:0:
56,120,99001,1,2,0:0:0:0:
136,96,99073,2,0,L|152:208,1,92.5,2|2,0:0|0:0,0:0:0:0:
304,88,99358,6,0,P|299:177|280:304,1,185,2|0,0:0|0:0,0:0:0:0:
448,96,99787,2,0,P|448:192|472:312,1,185,2|0,0:0|0:0,0:0:0:0:
376,320,100215,1,2,0:0:0:0:
144,296,100501,2,0,P|88:248|168:96,2,277.5,2|0|2,0:0|0:0|0:0,0:0:0:0:
416,40,101644,6,0,B|400:96|448:160|448:160|368:176|368:176|392:208|392:280,1,277.5
16,264,102215,6,2,L|32:160,1,92.5,2|0,0:0|0:0,0:0:0:0:
144,144,102430,1,2,0:0:0:0:
149,119,102501,1,2,0:0:0:0:
40,72,102644,1,2,0:0:0:0:
448,48,102787,6,0,L|480:144,1,92.5,0|0,1:0|1:0,0:0:0:0:
272,104,103073,2,0,P|160:168|96:152,1,185,8|0,0:0|1:0,0:0:0:0:
184,80,103501,1,0,0:0:0:0:
8,40,103644,2,0,L|40:144,1,92.5,8|0,0:0|0:0,0:0:0:0:
296,112,103930,6,0,P|360:160|296:224,1,185,0|8,1:0|0:0,0:0:0:0:
136,208,104358,1,0,0:0:0:0:
24,176,104501,2,0,L|56:272,1,92.5,0|0,1:0|0:0,0:0:0:0:
304,224,104787,2,0,L|344:328,1,92.5,8|0,0:0|0:0,0:0:0:0:
464,256,105073,5,0,1:0:0:0:
144,272,105215,1,0,1:0:0:0:
248,312,105358,2,0,L|232:208,1,92.5,8|0,0:0|0:0,0:0:0:0:
344,56,105644,2,0,P|344:176|320:256,1,185,0|8,1:0|0:0,0:0:0:0:
400,192,106073,1,0,0:0:0:0:
456,120,106215,5,0,1:0:0:0:
304,56,106358,1,0,1:0:0:0:
496,72,106501,1,0,1:0:0:0:
312,16,106644,1,0,1:0:0:0:
480,144,106787,6,0,L|496:64,1,46.25,0|0,1:0|1:0,1:0:0:0:
288,72,106930,2,0,L|272:-8,1,46.25,0|0,1:0|1:0,1:0:0:0:
472,200,107073,2,0,L|488:120,1,46.25,0|0,1:0|1:0,1:0:0:0:
280,128,107216,2,0,L|264:48,1,46.25,0|0,1:0|1:0,1:0:0:0:
472,256,107358,6,0,L|488:360,1,92.5,0|0,1:0|1:0,0:0:0:0:
288,280,107644,2,0,P|272:200|336:128,1,185,8|0,0:0|1:0,0:0:0:0:
424,200,108073,1,0,0:0:0:0:
288,136,108215,2,0,L|416:120,1,92.5,8|0,0:0|0:0,0:0:0:0:
88,280,108501,6,0,P|96:160|144:64,1,185,0|8,1:0|0:0,0:0:0:0:
184,192,108930,1,0,0:0:0:0:
424,280,109073,2,0,P|416:160|368:64,1,185,0|8,1:0|0:0,0:0:0:0:
120,112,109644,6,0,L|24:120,1,92.5,0|2,1:0|1:0,0:0:0:0:
240,48,109930,2,0,P|248:120|240:176,1,92.5,8|2,0:0|1:0,0:0:0:0:
120,200,110215,1,0,0:0:0:0:
48,256,110358,1,2,1:0:0:0:
296,336,110501,2,0,L|400:328,1,92.5,8|2,0:0|1:0,0:0:0:0:
480,256,110787,5,0,1:0:0:0:
320,232,110930,2,0,L|288:200,2,46.25,2|0|0,1:0|3:0|3:0,0:0:0:0:
408,136,111144,2,0,L|440:104,2,46.25,0|2|0,3:0|1:0|3:0,0:0:0:0:
304,128,111358,5,0,0:0:0:0:
112,88,111501,2,0,P|64:128|112:248,1,185,2|2,1:0|1:0,0:0:0:0:
160,240,111930,1,0,0:0:0:0:
368,72,112644,6,0,L|424:72,2,46.25,0|2|2,0:0|0:0|0:0,0:0:0:0:
256,48,112930,1,2,0:0:0:0:
144,72,113072,6,0,L|24:336,2,277.5,2|2|0,0:0|0:0|0:0,0:0:0:0:
384,320,114215,2,0,L|480:32,2,277.5,2|0|2,0:0|0:0|0:0,0:0:0:0:
128,320,115358,2,0,L|32:32,2,277.5,2|2|0,0:0|0:0|0:0,0:0:0:0:
256,328,116501,5,4,0:0:0:0:
384,168,117215,5,0,0:0:0:0:
368,144,117287,1,2,0:0:0:0:
352,120,117358,1,2,0:0:0:0:
480,104,117501,1,2,0:0:0:0:
336,56,117644,6,2,L|320:256,1,185,2|0,0:0|0:0,0:0:0:0:
480,104,118073,2,2,L|496:304,1,185,2|0,0:0|0:0,0:0:0:0:
312,328,118501,1,2,0:0:0:0:
144,328,118787,6,2,P|96:224|144:72,1,277.5
320,128,119644,1,2,0:0:0:0:
112,144,119930,5,2,0:0:0:0:
256,216,120358,1,2,0:0:0:0:
400,144,120787,1,4,0:0:0:0:
256,192,120930,12,0,122501,0:0:0:0:
