osu file format v14

[General]
AudioFilename: miracle_5ympho_x.mp3
AudioLeadIn: 0
PreviewTime: 9073
Countdown: 0
SampleSet: Normal
StackLeniency: 0.7
Mode: 0
LetterboxInBreaks: 0
WidescreenStoryboard: 1

[Editor]
Bookmarks: 17073,29644,38787,47930,55930,61644,79930,98215,102787,111930,120787
DistanceSpacing: 0.8
BeatDivisor: 4
GridSize: 4
TimelineZoom: 1

[Metadata]
Title:Miracle 5ympho X
TitleUnicode:Miracle 5ympho X
Artist:USAO
ArtistUnicode:USAO
Creator:Mel
Version:Frey's Another
Source:beatmania IIDX 21 SPADA
Tags:frey sionkotori kokodoko ナウい 一年一片 frenchcore dubstep intensity fullerene kurokami gezo
BeatmapID:919757
BeatmapSetID:137394

[Difficulty]
HPDrainRate:6
CircleSize:4
OverallDifficulty:6
ApproachRate:9
SliderMultiplier:1.8
SliderTickRate:1

[Events]
//Background and Video events
0,0,"5ympho.png",0,0
//Break Periods
2,56130,59139
//Storyboard Layer 0 (Background)
//Storyboard Layer 1 (Fail)
//Storyboard Layer 2 (Pass)
//Storyboard Layer 3 (Foreground)
//Storyboard Sound Samples

[TimingPoints]
1073,285.714285714286,4,1,0,60,1,0
1073,-200,4,2,0,45,0,0
5644,-133.333333333333,4,2,0,45,0,0
6787,-133.333333333333,4,2,0,55,0,0
7930,-133.333333333333,4,2,0,65,0,0
9073,-200,4,2,0,45,0,0
10215,-100,4,1,0,60,0,0
18287,-100,4,1,0,50,0,0
18358,-100,4,1,0,40,0,0
18430,-100,4,1,0,30,0,0
18501,-100,4,1,0,25,0,0
18573,-100,4,1,0,20,0,0
18644,-100,4,2,0,25,0,0
18715,-100,4,2,0,35,0,0
18787,-100,4,2,0,50,0,0
18930,-100,4,2,0,60,0,0
20501,-166.666666666667,4,2,0,60,0,0
29644,-133.333333333333,4,1,0,40,0,0
38787,-117.647058823529,4,1,0,60,0,0
47930,-100,4,1,0,60,0,1
48001,-100,4,1,0,60,0,0
59739,-100,4,2,0,35,0,0
61644,-100,4,1,0,60,0,0
79930,-100,4,1,0,60,0,1
89001,-100,4,1,0,60,0,0
89073,-100,4,1,0,60,0,1
97073,-100,4,1,0,60,0,0
98215,-200,4,2,0,50,0,0
102787,-100,4,1,0,60,0,0
110858,-100,4,1,0,50,0,0
110930,-100,4,1,0,40,0,0
111001,-100,4,1,0,30,0,0
111073,-100,4,1,0,25,0,0
111144,-100,4,1,0,20,0,0
111215,-100,4,2,0,25,0,0
111287,-100,4,2,0,35,0,0
111358,-100,4,2,0,50,0,0
111430,-100,4,2,0,60,0,0
111930,-200,4,2,0,60,0,0

[Colours]
Combo1 : 244,244,0
Combo2 : 244,11,81

[HitObjects]
20,92,1073,6,0,B|112:171|140:59|232:123,1,225,4|0,0:0|0:0,0:0:0:0:
239,137,1858,1,0,0:0:0:0:
243,154,1930,2,0,P|231:202|231:218,1,45,2|0,0:0|0:0,0:0:0:0:
352,232,2215,6,0,P|384:172|364:104,2,135,0|2|0,0:0|0:0|0:0,0:0:0:0:
160,232,3358,2,0,P|128:172|148:104,2,135,0|2|0,0:0|0:0|0:0,0:0:0:0:
256,352,4501,6,0,L|316:276,1,90
200,281,4930,2,0,L|256:352,1,90,2|0,0:0|0:0,0:0:0:0:
256,192,5358,1,0,0:0:0:0:
256,192,5644,6,0,P|222:186|189:178,1,67.5000025749208
328,140,5930,2,0,P|333:106|341:73,1,67.5000025749208,2|0,0:0|0:0,0:0:0:0:
380,212,6215,2,0,P|413:217|446:225,1,67.5000025749208
308,263,6501,2,0,P|302:296|294:329,1,67.5000025749208,2|0,0:0|0:0,0:0:0:0:
170,310,6787,6,0,P|178:277|184:243,1,67.5000025749208
65,158,7072,2,0,P|98:166|132:172,1,67.5000025749208,2|0,0:0|0:0,0:0:0:0:
217,54,7358,2,0,P|209:87|204:121,1,67.5000025749208
322,205,7644,2,0,P|289:197|255:191,1,67.5000025749208,2|0,0:0|0:0,0:0:0:0:
132,172,7930,6,0,P|124:124|124:88,1,67.5000025749208
226,121,8215,2,0,P|219:87|217:54,1,67.5000025749208,2|0,0:0|0:0,0:0:0:0:
286,263,8501,2,0,P|292:296|294:329,1,67.5000025749208
380,212,8788,2,0,P|388:260|388:296,1,67.5000025749208,2|0,0:0|0:0,0:0:0:0:
444,152,9073,6,2,B|324:56|280:260|152:148,1,315,4|2,0:0|0:0,0:0:0:0:
144,60,10215,5,0,0:0:0:0:
228,92,10358,1,0,0:0:0:0:
156,151,10501,2,0,L|80:216,1,90,8|0,0:0|0:0,0:0:0:0:
72,120,10787,1,0,0:0:0:0:
228,92,10930,1,0,0:0:0:0:
288,240,11073,1,8,0:0:0:0:
204,272,11215,1,0,0:0:0:0:
216,184,11358,6,0,P|256:156|308:152,1,90
432,92,11644,2,0,P|387:84|352:58,1,90,8|0,0:0|0:0,0:0:0:0:
495,27,11930,2,0,P|516:66|519:111,1,90
392,240,12215,2,0,P|371:201|369:156,1,90,8|0,0:0|0:0,0:0:0:0:
456,176,12501,5,0,0:0:0:0:
400,328,12644,1,0,0:0:0:0:
256,252,12787,1,8,0:0:0:0:
300,172,12930,1,0,0:0:0:0:
348,247,13073,2,0,P|329:288|316:331,1,90
212,172,13358,1,8,0:0:0:0:
300,172,13501,1,0,0:0:0:0:
164,247,13644,6,0,P|96:240|44:232,1,90
32,152,13930,2,0,P|76:157|121:162,1,90,8|0,0:0|0:0,0:0:0:0:
208,140,14215,1,0,0:0:0:0:
208,140,14287,1,0,0:0:0:0:
208,140,14358,1,0,0:0:0:0:
144,76,14501,1,8,0:0:0:0:
121,162,14644,1,0,0:0:0:0:
121,162,14715,1,0,0:0:0:0:
121,162,14787,5,0,0:0:0:0:
256,244,14930,1,0,0:0:0:0:
368,76,15073,1,8,0:0:0:0:
391,162,15216,1,0,0:0:0:0:
304,140,15358,2,0,P|282:100|280:56,1,90
391,162,15644,2,0,P|412:201|414:245,1,90,8|0,0:0|0:0,0:0:0:0:
457,65,15930,6,0,P|412:74|368:76,1,90
238,238,16215,2,0,P|283:229|328:228,1,90,8|0,0:0|0:0,0:0:0:0:
413,245,16501,1,0,0:0:0:0:
391,162,16644,1,0,0:0:0:0:
326,227,16787,2,0,P|308:272|300:324,1,90,8|0,0:0|0:0,0:0:0:0:
186,157,17073,6,0,P|204:112|212:60,1,90
132,32,17358,1,8,0:0:0:0:
60,84,17501,1,0,0:0:0:0:
32,168,17644,2,0,P|32:216|44:256,1,90
236,328,17930,2,0,P|236:280|224:240,1,90,8|0,0:0|0:0,0:0:0:0:
186,157,18215,5,0,0:0:0:0:
136,232,18358,1,0,0:0:0:0:
236,328,18501,2,0,P|316:316|356:316,1,90,8|0,0:0|0:0,0:0:0:0:
444,240,18787,2,0,P|400:236|356:228,1,90
511,175,19073,2,0,P|531:216|532:268,1,90,8|0,0:0|0:0,0:0:0:0:
472,328,19358,5,0,0:0:0:0:
380,316,19501,1,0,0:0:0:0:
356,228,19644,1,2,0:0:0:0:
480,92,19930,1,0,0:0:0:0:
304,52,20215,1,2,0:0:0:0:
304,52,20501,6,0,L|128:76,1,161.999995056153,4|0,0:0|0:0,0:0:0:0:
40,12,21073,2,0,P|23:62|31:115,1,107.999996704102,0|2,0:0|0:0,0:0:0:0:
116,274,21644,2,0,P|200:202|144:74,1,269.999991760254
64,64,22501,5,2,0:0:0:0:
16,188,22787,1,0,0:0:0:0:
116,274,23073,1,2,0:0:0:0:
228,200,23358,1,0,0:0:0:0:
196,72,23644,1,2,0:0:0:0:
80,140,23930,2,0,P|76:224|72:312,1,161.999995056153
136,356,24501,5,0,0:0:0:0:
280,272,24787,1,2,0:0:0:0:
232,112,25073,2,0,B|300:116|300:116|328:132|328:132|392:136,1,161.999995056153
496,112,25644,2,0,L|472:4,1,107.999996704102,0|2,0:0|0:0,0:0:0:0:
389,135,26215,2,0,P|369:199|372:296,1,161.999995056153
448,320,26787,1,0,0:0:0:0:
503,165,27073,6,0,P|499:125|491:97,1,53.9999983520508,2|0,0:0|0:0,0:0:0:0:
428,44,27358,1,0,0:0:0:0:
316,92,27644,1,2,0:0:0:0:
292,208,27930,1,0,0:0:0:0:
184,260,28215,1,2,0:0:0:0:
72,228,28501,1,0,0:0:0:0:
24,120,28787,1,2,0:0:0:0:
216,48,29073,2,0,L|109:32,1,107.999996704102,0|2,0:0|0:0,0:0:0:0:
296,48,29644,6,0,L|452:24,1,135.000005149842,0|8,0:0|0:0,0:0:0:0:
488,96,30073,1,0,0:0:0:0:
360,184,30215,2,0,P|352:128|344:88,1,67.5000025749208
296,48,30501,1,8,0:0:0:0:
264,132,30644,1,0,0:0:0:0:
307,255,30787,6,0,P|372:268|429:235,1,135.000005149842,0|8,0:0|0:0,0:0:0:0:
360,184,31215,1,0,0:0:0:0:
272,172,31358,2,0,L|205:184,1,67.5000025749208
96,276,31644,2,0,L|162:288,1,67.5000025749208,8|0,0:0|0:0,0:0:0:0:
39,208,31930,6,0,P|6:264|23:327,1,135.000005149842,0|8,0:0|0:0,0:0:0:0:
108,360,32358,1,0,0:0:0:0:
162,288,32501,2,0,P|150:232|146:200,1,67.5000025749208
244,64,32787,2,0,P|238:97|230:130,1,67.5000025749208,8|0,0:0|0:0,0:0:0:0:
104,144,33073,6,0,P|72:92|104:12,1,135.000005149842,0|8,0:0|0:0,0:0:0:0:
176,4,33501,1,0,0:0:0:0:
244,64,33644,2,0,P|312:72|328:72,1,67.5000025749208
444,48,33930,2,0,P|436:116|436:132,1,67.5000025749208,8|0,0:0|0:0,0:0:0:0:
424,204,34215,6,0,P|344:192|288:236,1,135.000005149842,0|8,0:0|0:0,0:0:0:0:
256,296,34644,1,0,0:0:0:0:
212,218,34787,2,0,L|204:144,1,67.5000025749208
315,82,35073,2,0,L|308:150,1,67.5000025749208,8|0,0:0|0:0,0:0:0:0:
212,218,35358,6,0,B|160:224|160:224|128:212|128:212|72:220,1,135.000005149842,0|8,0:0|0:0,0:0:0:0:
4,172,35787,1,0,0:0:0:0:
70,61,35930,2,0,P|78:94|80:128,1,67.5000025749208
212,218,36215,2,0,P|203:185|202:151,1,67.5000025749208,8|0,0:0|0:0,0:0:0:0:
307,31,36501,6,0,P|329:95|328:162,1,135.000005149842,0|8,0:0|0:0,0:0:0:0:
296,248,36930,1,0,0:0:0:0:
212,218,37073,1,0,0:0:0:0:
244,132,37215,1,0,0:0:0:0:
328,162,37358,2,0,L|416:194,1,67.5000025749208,8|0,0:0|0:0,0:0:0:0:
212,218,37644,5,4,0:0:0:0:
444,16,38787,5,4,0:2:0:0:
328,196,39073,1,8,0:0:0:0:
296,48,39358,1,0,0:0:0:0:
476,164,39644,1,8,0:0:0:0:
476,164,39787,1,0,0:0:0:0:
396,108,39930,6,0,P|384:80|372:20,1,76.5000014591217
484,64,40215,1,8,0:0:0:0:
476,164,40358,1,0,0:0:0:0:
384,204,40501,2,0,P|328:196|296:188,1,76.5000014591217
128,204,40787,2,0,P|184:196|216:188,1,76.5000014591217,8|0,0:0|0:0,0:0:0:0:
148,96,41073,5,0,0:0:0:0:
184,300,41358,1,8,0:0:0:0:
4,124,41644,1,0,0:0:0:0:
40,328,41929,1,8,0:0:0:0:
40,328,42073,1,0,0:0:0:0:
96,248,42215,6,0,P|148:256|188:256,1,76.5000014591217
256,200,42501,1,8,0:0:0:0:
168,156,42644,1,0,0:0:0:0:
171,256,42787,2,0,P|183:304|183:344,1,76.5000014591217
328,330,43073,2,0,P|330:292|341:255,1,76.5000014591217,8|0,0:0|0:0,0:0:0:0:
344,156,43358,5,4,0:2:0:0:
256,200,43501,1,0,0:0:0:0:
341,255,43644,2,0,P|400:240|440:236,1,76.5000014591217,8|0,0:0|0:0,0:0:0:0:
347,57,43930,1,0,0:2:0:0:
259,101,44073,1,0,0:0:0:0:
344,156,44216,2,0,P|403:141|443:137,1,76.5000014591217,8|0,0:0|0:0,0:0:0:0:
499,79,44501,6,0,P|513:115|516:153,1,76.5000014591217
398,311,44787,2,0,P|400:272|414:237,1,76.5000014591217,8|0,0:0|0:0,0:0:0:0:
496,296,45073,1,0,0:0:0:0:
496,296,45215,1,0,0:0:0:0:
364,176,45358,1,8,0:0:0:0:
364,176,45501,1,0,0:0:0:0:
256,192,45644,5,0,0:0:0:0:
236,188,45715,1,0,0:0:0:0:
216,184,45787,1,0,0:0:0:0:
196,180,45858,1,0,0:0:0:0:
176,176,45930,2,0,L|168:128,3,38.2500007295609,8|0|0|0,0:0|0:0|0:0|0:0,0:0:0:0:
77,86,46215,2,0,L|84:124,3,38.2500007295609
20,208,46501,2,0,L|13:170,3,38.2500007295609,8|0|0|0,0:0|0:0|0:0|0:0,0:0:0:0:
112,260,46787,5,0,0:0:0:0:
376,76,47930,5,0,1:0:0:0:
464,120,48073,2,0,P|484:208|472:312,1,180,0|0,1:0|1:0,0:0:0:0:
300,372,48501,2,0,P|268:292|320:212,1,180,8|0,0:0|0:0,0:0:0:0:
312,216,49073,5,0,0:0:0:0:
424,144,49215,2,0,P|432:208|440:248,1,90
360,332,49501,1,0,0:0:0:0:
260,312,49644,2,0,P|236:308|160:300,1,90,8|0,0:0|0:0,0:0:0:0:
56,216,49930,2,0,P|100:209|145:204,1,90
256,148,50215,6,0,P|260:100|216:88,1,90
72,70,50501,2,0,P|36:93|48:136,1,90
145,204,50787,1,8,0:0:0:0:
152,88,50930,1,0,0:0:0:0:
256,40,51073,2,0,B|296:48|296:48|348:32|348:32|404:44,1,135
440,56,51358,5,0,0:0:0:0:
364,208,51501,2,0,P|346:166|351:122,1,90
448,152,51787,1,0,0:0:0:0:
456,252,51930,1,8,0:0:0:0:
372,308,52073,1,0,0:0:0:0:
209,240,52215,2,0,P|220:172|220:132,1,90
256,356,52501,5,0,0:0:0:0:
256,356,52644,2,0,L|78:328,1,180
209,240,53073,2,0,B|305:248|293:200|385:208,1,180,8|0,0:0|0:0,0:0:0:0:
384,208,53644,5,0,0:0:0:0:
383,108,53787,2,0,P|341:122|297:128,1,90
128,208,54073,1,0,0:0:0:0:
128,108,54215,2,0,P|170:122|214:128,1,90,8|0,0:0|0:0,0:0:0:0:
52,43,54501,2,0,P|32:84|32:128,1,90
88,328,54787,6,0,P|88:256|64:252,1,90
214,128,55073,2,0,P|176:184|192:212,1,90
256,260,55358,1,8,0:0:0:0:
331,198,55501,1,0,0:0:0:0:
256,68,55644,2,0,L|112:76,1,135
64,80,55930,5,0,0:0:0:0:
124,48,59739,5,0,0:0:0:0:
156,76,59834,2,0,L|224:136,2,90,8|0|0,0:0|0:0|0:0,0:0:0:0:
124,48,60215,1,2,0:0:0:0:
384,164,61644,6,0,L|406:125,3,45
406,214,61930,2,0,L|449:223,3,45
365,252,62215,2,0,L|369:295,3,45
316,224,62501,2,0,L|275:241,3,45
328,169,62787,2,0,L|298:136,3,45
384,164,63073,2,0,L|406:125,3,45
406,214,63358,5,0,0:0:0:0:
256,332,63573,1,0,0:0:0:0:
106,214,63787,1,0,0:0:0:0:
96,124,63930,6,0,L|88:60,3,45
186,114,64215,2,0,L|250:106,3,45
196,204,64501,2,0,L|204:268,3,45
106,214,64787,2,0,L|61:219,3,45
96,124,65073,6,0,L|84:24,1,90,4|0,0:2|0:0,0:0:0:0:
196,204,65358,2,0,L|206:293,1,90,4|0,0:2|0:0,0:0:0:0:
106,214,65644,2,0,L|16:224,1,90,4|0,0:2|0:0,0:0:0:0:
186,114,65930,2,0,L|275:103,1,90,4|0,0:2|0:0,0:0:0:0:
368,92,66215,6,0,P|376:48|376:32,3,45
428,148,66501,2,0,P|448:139|470:132,3,45
409,227,66787,2,0,P|427:240|443:256,3,45
331,251,67073,2,0,P|325:272|322:295,3,45
271,195,67358,2,0,P|249:201|228:210,3,45
289,115,67644,2,0,P|270:101|254:85,3,45
348,172,67930,5,0,0:0:0:0:
256,328,68144,1,0,0:0:0:0:
164,172,68358,1,0,0:0:0:0:
256,236,68501,6,0,P|278:239|300:244,3,45
412,264,68787,2,0,P|420:220|424:200,3,45
440,108,69073,2,0,P|396:100|376:96,3,45
284,80,69358,2,0,P|276:124|272:144,3,45
256,236,69644,6,0,P|320:224|360:220,1,90,4|0,0:2|0:0,0:0:0:0:
440,108,69930,2,0,P|376:120|336:124,1,90,12|0,0:2|0:0,0:0:0:0:
256,236,70215,2,0,P|192:224|152:220,1,90,4|0,0:2|0:0,0:0:0:0:
72,108,70501,2,0,P|136:120|176:124,1,90,12|0,0:2|0:0,0:0:0:0:
90,277,70787,6,0,L|78:205,1,45
118,273,70930,2,0,L|106:201,1,45
146,269,71073,2,0,L|134:197,1,45
174,265,71215,2,0,L|162:193,1,45
232,340,71358,6,0,L|239:295,1,45
260,344,71501,2,0,L|267:299,1,45
288,348,71644,2,0,L|295:303,1,45
316,352,71787,2,0,L|323:307,1,45
352,195,71930,6,0,L|360:240,1,45
380,191,72073,2,0,L|388:236,1,45
408,187,72215,2,0,L|416:232,1,45
436,183,72358,2,0,L|444:228,1,45
464,180,72501,5,0,0:0:0:0:
256,36,72715,1,0,0:0:0:0:
60,200,72930,1,0,0:0:0:0:
48,80,73072,6,0,L|40:8,1,45
88,92,73215,2,0,L|80:20,1,45
128,104,73358,2,0,L|120:32,1,45
168,116,73501,2,0,L|160:44,1,45
176,192,73643,6,0,L|172:236,1,45
216,180,73786,2,0,L|212:224,1,45
256,168,73929,2,0,L|252:212,1,45
296,156,74072,2,0,L|292:200,1,45
304,80,74215,6,0,P|380:60|412:48,1,90,4|0,0:2|0:0,0:0:0:0:
368,240,74501,2,0,P|388:316|400:348,1,90,4|0,0:2|0:0,0:0:0:0:
208,304,74787,2,0,P|132:324|100:336,1,90,4|0,0:2|0:0,0:0:0:0:
144,144,75073,2,0,P|124:68|112:36,1,90,4|0,0:2|0:0,0:0:0:0:
256,8,75358,5,0,0:0:0:0:
268,24,75430,1,0,0:0:0:0:
276,40,75501,1,0,0:0:0:0:
280,56,75573,1,0,0:0:0:0:
280,72,75644,1,0,0:0:0:0:
276,88,75715,1,0,0:0:0:0:
268,104,75787,1,0,0:0:0:0:
256,116,75858,1,0,0:0:0:0:
240,124,75930,6,0,P|224:160|224:188,3,45
224,184,76215,2,0,P|236:232|244:240,3,45
244,240,76501,2,0,P|268:256|304:268,3,45
300,268,76787,2,0,P|328:268|364:256,3,45
316,180,77073,5,0,0:0:0:0:
196,356,77287,1,0,0:0:0:0:
8,244,77501,1,0,0:0:0:0:
72,168,77644,5,0,0:0:0:0:
92,164,77715,1,0,0:0:0:0:
116,168,77787,1,0,0:0:0:0:
136,180,77858,1,0,0:0:0:0:
152,196,77930,1,0,0:0:0:0:
164,216,78001,1,0,0:0:0:0:
180,232,78073,1,0,0:0:0:0:
200,244,78144,1,0,0:0:0:0:
220,252,78215,6,0,L|276:244,3,45
308,320,78501,2,0,L|364:312,3,45
436,300,78787,6,0,L|448:208,1,90
336,136,79073,2,0,L|347:46,1,90,4|0,0:2|0:0,0:0:0:0:
165,46,79358,2,0,L|176:135,1,90,4|0,0:2|0:0,0:0:0:0:
64,210,79644,2,0,L|76:300,1,90,4|0,0:2|0:0,0:0:0:0:
184,348,79930,5,4,0:2:0:0:
232,268,80073,1,0,0:0:0:0:
324,284,80215,1,8,0:0:0:0:
340,376,80358,1,0,0:0:0:0:
340,376,80430,2,0,L|440:364,1,90
444,348,80644,2,0,L|454:258,1,90,0|8,0:0|0:0,0:0:0:0:
440,240,80858,2,0,L|340:228,1,90
328,228,81073,5,0,0:0:0:0:
256,124,81215,1,0,0:0:0:0:
256,124,81287,1,0,0:0:0:0:
256,124,81358,2,0,L|356:112,1,90,8|0,0:0|0:0,0:0:0:0:
408,48,81644,1,0,0:0:0:0:
408,48,81715,2,0,P|432:112|424:148,1,90
424,156,81930,1,8,0:0:0:0:
352,228,82073,1,0,0:0:0:0:
249,213,82215,6,0,L|257:105,1,90
128,108,82501,1,8,0:0:0:0:
120,208,82644,1,0,0:0:0:0:
120,208,82715,2,0,L|113:297,1,90
92,304,82930,2,0,L|44:320,1,45
140,368,83073,1,8,0:0:0:0:
161,361,83144,1,0,0:0:0:0:
182,354,83215,1,0,0:0:0:0:
204,347,83287,1,0,0:0:0:0:
224,340,83358,6,0,L|344:352,1,90
360,352,83573,1,0,0:0:0:0:
360,352,83644,1,8,0:0:0:0:
400,268,83787,1,0,0:0:0:0:
344,192,83930,1,0,0:0:0:0:
344,192,84001,2,0,P|332:148|328:84,1,90
324,80,84215,1,8,0:0:0:0:
216,40,84358,1,0,0:0:0:0:
124,116,84501,6,0,P|136:160|144:228,1,90,4|0,0:2|0:0,0:0:0:0:
52,180,84787,1,8,0:0:0:0:
36,88,84930,1,0,0:0:0:0:
36,88,85001,2,0,P|64:44|112:28,1,90
120,24,85215,2,0,P|168:40|240:48,1,90,0|8,0:0|0:0,0:0:0:0:
224,48,85430,2,0,P|248:132|248:160,1,90
252,156,85644,5,0,0:0:0:0:
180,212,85787,1,0,0:0:0:0:
180,212,85858,1,0,0:0:0:0:
180,212,85930,1,8,0:0:0:0:
264,248,86073,1,0,0:0:0:0:
192,304,86215,1,0,0:0:0:0:
192,304,86287,2,0,L|88:292,1,90,0|8,0:0|0:0,0:0:0:0:
88,276,86501,2,0,P|68:236|69:191,1,90
0,292,86787,5,0,0:0:0:0:
136,352,86930,1,0,0:0:0:0:
180,212,87073,1,8,0:0:0:0:
264,248,87215,1,0,0:0:0:0:
264,248,87287,2,0,P|280:320|272:352,1,90
276,356,87501,2,0,L|216:368,1,45
348,376,87644,1,8,0:0:0:0:
370,371,87715,1,0,0:0:0:0:
392,367,87786,1,0,0:0:0:0:
414,362,87858,1,0,0:0:0:0:
436,360,87930,6,0,L|444:300,3,45
404,280,88215,2,0,L|412:220,3,45,8|0|0|0,0:0|0:0|0:0|0:0,0:0:0:0:
372,200,88501,2,0,L|380:140,3,45
340,120,88787,2,0,L|348:60,3,45,8|0|0|0,0:0|0:0|0:0|0:0,0:0:0:0:
416,32,89073,5,0,0:0:0:0:
456,140,89215,1,0,0:0:0:0:
340,120,89358,1,8,0:0:0:0:
252,132,89501,1,0,0:0:0:0:
252,132,89573,2,0,L|268:248,1,90
248,236,89787,2,0,L|159:219,1,90,0|8,0:0|0:0,0:0:0:0:
136,216,90002,1,0,0:0:0:0:
56,176,90215,5,0,0:0:0:0:
36,88,90358,1,0,0:0:0:0:
36,88,90430,1,0,0:0:0:0:
36,88,90501,2,0,P|28:40|32:0,1,90,8|0,0:0|0:0,0:0:0:0:
132,44,90787,1,0,0:0:0:0:
132,44,90858,2,0,P|140:92|136:132,1,90
132,156,91073,1,8,0:0:0:0:
80,228,91215,1,0,0:0:0:0:
104,316,91358,6,0,P|168:308|220:300,1,90
318,304,91644,2,0,L|363:310|408:316,1,90,8|0,0:0|0:0,0:0:0:0:
428,304,91858,2,0,P|416:252|420:196,1,90
428,196,92073,2,0,P|427:151|416:107,1,90,0|8,0:0|0:0,0:0:0:0:
404,88,92287,2,0,P|328:84|300:76,1,90
292,76,92501,5,0,0:0:0:0:
180,36,92644,1,0,0:0:0:0:
180,36,92715,1,0,0:0:0:0:
180,36,92787,1,8,0:0:0:0:
92,112,92930,1,0,0:0:0:0:
108,200,93073,1,0,0:0:0:0:
108,200,93144,2,0,P|108:264|96:312,1,90
96,312,93358,2,0,L|36:324,2,45,8|0|0,0:0|0:0|0:0,0:0:0:0:
208,376,93644,6,0,P|208:312|220:264,1,90
256,204,93930,1,8,0:0:0:0:
340,164,94073,1,0,0:0:0:0:
340,164,94144,2,0,L|464:180,1,90
444,192,94358,2,0,P|460:254|455:303,1,90,0|8,0:0|0:0,0:0:0:0:
448,300,94573,2,0,P|386:316|337:311,1,90
336,316,94787,5,0,0:0:0:0:
256,204,94930,1,0,0:0:0:0:
256,204,95001,1,0,0:0:0:0:
256,204,95073,2,0,P|252:152|264:108,1,90,8|0,0:0|0:0,0:0:0:0:
320,44,95358,1,0,0:0:0:0:
320,44,95430,2,0,P|280:26|233:29,1,90
216,40,95644,1,8,0:0:0:0:
140,88,95787,1,0,0:0:0:0:
52,76,95930,6,0,P|56:128|56:176,1,90
148,264,96215,1,8,0:0:0:0:
224,216,96358,1,0,0:0:0:0:
224,216,96430,2,0,P|220:164|220:116,1,90
236,112,96644,2,0,P|288:108|336:108,1,90,0|8,0:0|0:0,0:0:0:0:
348,108,96858,1,0,0:0:0:0:
256,304,97073,5,4,0:2:0:0:
256,192,97144,12,4,98215,0:0:0:0:
132,192,98930,5,0,0:0:0:0:
132,192,99001,1,0,0:0:0:0:
132,192,99073,2,0,L|120:248,1,45,2|0,0:0|0:0,0:0:0:0:
208,144,99358,2,0,P|155:103|90:112,2,135,0|2|0,0:0|0:0|0:0,0:0:0:0:
304,240,100501,2,0,P|356:280|421:271,2,135,0|2|0,0:0|0:0|0:0,0:0:0:0:
256,24,101644,6,0,B|292:48|340:24|340:24|372:72|428:64,1,180
316,124,102358,1,0,0:0:0:0:
316,124,102430,1,0,0:0:0:0:
316,124,102501,1,2,0:0:0:0:
196,124,102644,1,2,0:0:0:0:
256,24,102787,5,0,0:0:0:0:
256,192,102930,1,0,0:0:0:0:
344,212,103073,1,8,0:0:0:0:
316,124,103215,1,0,0:0:0:0:
196,260,103358,2,0,P|152:308|128:336,1,90
256,380,103644,1,8,0:0:0:0:
377,326,103787,1,0,0:0:0:0:
377,326,103930,6,0,P|347:292|316:259,1,90
195,124,104215,2,0,P|164:91|135:57,1,90,8|0,0:0|0:0,0:0:0:0:
48,80,104501,1,0,0:0:0:0:
100,176,104644,1,0,0:0:0:0:
195,124,104787,2,0,P|207:80|224:39,1,90,8|0,0:0|0:0,0:0:0:0:
316,24,105073,5,0,0:0:0:0:
404,148,105215,1,0,0:0:0:0:
256,192,105358,1,8,0:0:0:0:
317,124,105501,1,0,0:0:0:0:
344,212,105644,2,0,P|336:272|316:320,1,90
185,299,105930,2,0,P|172:256|168:212,1,90,8|0,0:0|0:0,0:0:0:0:
256,59,106215,5,0,0:0:0:0:
300,134,106358,1,0,0:0:0:0:
344,212,106501,1,8,0:0:0:0:
256,212,106644,1,0,0:0:0:0:
168,211,106787,1,0,0:0:0:0:
179,192,106858,1,0,0:0:0:0:
189,173,106929,1,0,0:0:0:0:
201,155,107001,1,0,0:0:0:0:
212,135,107072,1,8,0:0:0:0:
223,116,107144,1,0,0:0:0:0:
235,98,107215,1,0,0:0:0:0:
246,79,107287,1,0,0:0:0:0:
256,59,107358,5,0,0:0:0:0:
340,20,107501,1,0,0:0:0:0:
408,84,107644,2,0,P|428:152|424:184,1,90,8|0,0:0|0:0,0:0:0:0:
392,292,107930,2,0,L|288:276,1,90
168,211,108215,2,0,L|256:197,1,90,8|0,0:0|0:0,0:0:0:0:
348,200,108501,5,0,0:0:0:0:
303,278,108644,1,0,0:0:0:0:
212,288,108787,2,0,L|123:301,1,90,8|0,0:0|0:0,0:0:0:0:
16,140,109073,1,0,0:0:0:0:
0,228,109215,1,0,0:0:0:0:
84,199,109358,2,0,P|105:160|105:116,1,90,8|0,0:0|0:0,0:0:0:0:
0,228,109644,5,0,0:0:0:0:
123,301,109787,1,0,0:0:0:0:
200,180,109930,2,0,L|188:84,1,90,8|0,0:0|0:0,0:0:0:0:
324,90,110215,1,0,0:0:0:0:
324,90,110358,1,0,0:0:0:0:
312,179,110501,2,0,L|301:269,1,90,8|0,0:0|0:0,0:0:0:0:
376,316,110787,6,0,P|440:296|480:300,1,90
504,180,111073,2,0,P|459:177|417:160,1,90,8|0,0:0|0:0,0:0:0:0:
324,90,111358,1,0,0:0:0:0:
412,68,111501,1,0,0:0:0:0:
417,160,111644,2,0,P|337:180|305:180,1,90,8|0,0:0|0:0,0:0:0:0:
187,90,111930,6,0,P|140:186|195:279,1,225
212,288,112715,1,0,0:0:0:0:
228,296,112787,2,0,P|244:252|252:236,1,45,2|0,0:0|0:0,0:0:0:0:
368,200,113073,6,0,P|336:292|316:344,2,135,0|2|0,0:0|0:0|0:0,0:0:0:0:
144,184,114215,2,0,P|176:92|196:40,2,135,0|2|0,0:0|0:0|0:0,0:0:0:0:
60,212,115358,6,0,P|36:172|36:120,1,90
144,184,115787,2,0,P|168:224|168:276,1,90,2|0,0:0|0:0,0:0:0:0:
152,356,116215,1,0,0:0:0:0:
60,212,116501,6,0,P|88:110|196:112,1,225
204,124,117287,1,0,0:0:0:0:
216,136,117358,2,0,P|252:144|280:148,1,45,2|0,0:0|0:0,0:0:0:0:
384,104,117644,6,0,B|340:95|340:95|304:68|304:68|252:60,2,135,0|2|0,0:0|0:0|0:0,0:0:0:0:
256,192,118787,2,0,B|212:201|212:201|176:228|176:228|131:234,2,135,0|2|0,0:0|0:0|0:0,0:0:0:0:
381,234,119930,6,0,P|368:184|364:128,1,90
239,103,120358,2,0,P|252:153|256:209,1,90,2|0,0:0|0:0,0:0:0:0:
140,236,120787,1,0,0:0:0:0:
