osu file format v14

[General]
AudioFilename: miracle_5ympho_x.mp3
AudioLeadIn: 0
PreviewTime: 9073
Countdown: 0
SampleSet: Normal
StackLeniency: 0.7
Mode: 0
LetterboxInBreaks: 0
WidescreenStoryboard: 1

[Editor]
Bookmarks: 17073,38787,47930,55930,61644,79930,98215,102787,111930,120787
DistanceSpacing: 1
BeatDivisor: 4
GridSize: 4
TimelineZoom: 1

[Metadata]
Title:Miracle 5ympho X
TitleUnicode:Miracle 5ympho X
Artist:USAO
ArtistUnicode:USAO
Creator:Mel
Version:Black Another
Source:beatmania IIDX 21 SPADA
Tags:frey sionkotori kokodoko ナウい 一年一片 frenchcore dubstep intensity fullerene kurokami gezo
BeatmapID:581401
BeatmapSetID:137394

[Difficulty]
HPDrainRate:6
CircleSize:4
OverallDifficulty:7.5
ApproachRate:9.5
SliderMultiplier:1.9
SliderTickRate:1

[Events]
//Background and Video events
0,0,"5ympho.png",0,0
//Break Periods
2,56844,61119
//Storyboard Layer 0 (Background)
//Storyboard Layer 1 (Fail)
//Storyboard Layer 2 (Pass)
//Storyboard Layer 3 (Foreground)
//Storyboard Sound Samples

[TimingPoints]
1073,285.714285714286,4,1,0,60,1,0
1073,-200,4,2,0,45,0,0
7358,-200,4,2,0,55,0,0
7930,-200,4,2,0,65,0,0
9644,-200,4,2,0,15,0,0
10215,-100,4,1,0,60,0,0
18287,-100,4,1,0,50,0,0
18358,-100,4,1,0,40,0,0
18430,-100,4,1,0,30,0,0
18501,-100,4,1,0,25,0,0
18573,-100,4,1,0,20,0,0
18644,-100,4,2,0,25,0,0
18715,-100,4,2,0,35,0,0
18787,-100,4,2,0,50,0,0
18930,-100,4,2,0,60,0,0
20501,-166.666666666667,4,2,0,60,0,0
29644,-133.333333333333,4,1,0,40,0,0
38787,-117.647058823529,4,1,0,60,0,0
47930,-76.9230769230769,4,2,0,95,0,1
48001,-76.9230769230769,4,2,0,95,0,0
48215,-100,4,2,0,95,0,0
48787,-66.6666666666667,4,2,0,95,0,0
49215,-100,4,2,0,95,0,0
50215,-76.9230769230769,4,2,0,95,0,0
50501,-100,4,2,0,95,0,0
51073,-66.6666666666667,4,2,0,95,0,0
51501,-100,4,2,0,95,0,0
51930,-76.9230769230769,4,2,0,95,0,0
52215,-100,4,2,0,95,0,0
52501,-76.9230769230769,4,2,0,95,0,0
52787,-100,4,2,0,95,0,0
53358,-66.6666666666667,4,2,0,95,0,0
53644,-100,4,2,0,95,0,0
54787,-76.9230769230769,4,2,0,95,0,0
55644,-66.6666666666667,4,2,0,95,0,0
55930,-200,4,2,0,95,0,0
56001,-200,4,2,0,75,0,0
61644,-100,4,1,0,60,0,0
78215,-100,4,1,0,50,0,0
78287,-100,4,1,0,40,0,0
78358,-100,4,1,0,30,0,0
78430,-100,4,1,0,20,0,0
78501,-100,4,2,0,30,0,0
78787,-133.333333333333,4,1,0,60,0,0
79930,-100,4,1,0,60,0,1
89001,-100,4,1,0,60,0,0
89073,-100,4,1,0,60,0,1
97073,-100,4,1,0,60,0,0
98215,-166.666666666667,4,2,0,40,0,0
101644,-200,4,2,0,65,0,0
102215,-200,4,2,0,15,0,0
102358,-133.333333333333,4,2,0,50,0,0
102787,-100,4,1,0,60,0,0
110858,-100,4,1,0,50,0,0
110930,-100,4,1,0,40,0,0
111001,-100,4,1,0,30,0,0
111073,-100,4,1,0,25,0,0
111144,-100,4,1,0,20,0,0
111215,-100,4,2,0,25,0,0
111287,-100,4,2,0,35,0,0
111358,-100,4,2,0,50,0,0
111430,-100,4,2,0,60,0,0

[Colours]
Combo1 : 244,244,0
Combo2 : 244,11,81

[HitObjects]
120,340,1073,5,0,0:0:0:0:
232,140,1787,2,0,L|224:72,2,47.5,0|0|0,0:0|0:0|0:0,0:0:0:0:
300,248,2215,2,0,P|336:264|400:244,1,95
456,192,2644,1,0,0:0:0:0:
308,64,3073,1,0,0:0:0:0:
388,4,3358,6,0,P|412:44|372:140,1,142.5
236,200,4215,1,0,0:0:0:0:
108,120,4501,2,0,L|96:8,1,95
184,72,4930,1,0,0:0:0:0:
52,176,5358,1,0,0:0:0:0:
136,244,5644,6,0,P|168:256|240:248,1,95
368,192,6215,2,0,P|336:180|264:188,1,95
120,256,6787,1,0,0:0:0:0:
52,156,7073,1,0,0:0:0:0:
136,72,7358,2,0,L|240:64,1,95
432,120,7930,2,0,L|328:128,1,95,0|0,0:0|0:0,0:0:0:0:
136,212,8501,1,0,0:0:0:0:
364,296,8787,1,0,0:0:0:0:
256,88,9073,6,0,B|232:132|256:176|256:176|284:228|256:280,1,190
224,300,9787,2,0,L|128:308,1,95
332,132,10215,5,0,0:0:0:0:
192,224,10358,1,0,0:0:0:0:
96,108,10501,2,0,P|80:64|104:8,1,95
252,180,10787,2,0,P|268:224|244:280,1,95
108,360,11073,1,0,0:0:0:0:
28,200,11215,1,0,0:0:0:0:
184,104,11358,6,0,L|312:96,1,95
488,48,11644,2,0,L|360:40,1,95
188,24,11930,1,0,0:0:0:0:
336,168,12073,1,0,0:0:0:0:
144,224,12215,1,0,0:0:0:0:
312,84,12358,1,0,0:0:0:0:
220,232,12501,6,0,P|216:288|236:336,1,95
336,168,12787,1,0,0:0:0:0:
176,76,12930,1,0,0:0:0:0:
368,32,13073,2,0,L|476:28,1,95
264,104,13358,6,0,P|240:56|248:4,1,95
424,104,13644,2,0,P|440:192|392:260,1,142.5
392,256,13930,2,0,L|288:256,1,95
184,160,14215,1,0,0:0:0:0:
184,160,14287,1,0,0:0:0:0:
184,160,14358,1,0,0:0:0:0:
108,312,14501,1,0,0:0:0:0:
56,96,14644,5,0,0:0:0:0:
56,96,14715,1,0,0:0:0:0:
56,96,14787,2,0,L|64:220,1,95
184,344,15073,2,0,P|232:356|304:324,1,95
416,220,15358,1,0,0:0:0:0:
252,96,15501,1,0,0:0:0:0:
424,32,15644,2,0,L|400:136,1,95
324,324,15930,2,0,L|302:231,1,95
144,96,16215,5,0,0:0:0:0:
340,32,16358,1,0,0:0:0:0:
220,192,16501,2,0,P|176:224|64:180,1,142.5
64,192,16787,1,0,0:0:0:0:
296,108,17073,6,0,L|312:224,1,95
392,320,17358,1,0,0:0:0:0:
220,244,17501,1,0,0:0:0:0:
368,92,17644,2,0,L|380:36,2,47.5,0|0|0,0:0|0:0|0:0,0:0:0:0:
296,280,17930,2,0,L|308:336,2,47.5,0|0|0,0:0|0:0|0:0,0:0:0:0:
196,116,18215,5,0,0:0:0:0:
157,101,18286,1,0,0:0:0:0:
116,103,18357,1,0,0:0:0:0:
79,122,18429,1,0,0:0:0:0:
53,154,18500,1,0,0:0:0:0:
43,194,18572,1,0,0:0:0:0:
49,234,18643,1,0,0:0:0:0:
72,269,18715,1,0,0:0:0:0:
104,300,18787,6,0,P|152:316|216:296,1,95
416,168,19073,2,0,P|368:152|304:172,1,95
156,240,19358,1,0,0:0:0:0:
48,152,20501,6,0,P|84:176|176:164,1,113.999996520996
280,132,21073,1,0,0:0:0:0:
392,212,21358,1,0,0:0:0:0:
268,288,21644,2,0,B|230:305|192:290|192:290|140:269|99:295,1,170.999994781494
102,293,22501,5,0,0:0:0:0:
48,212,22787,2,0,P|32:164|56:84,1,113.999996520996
160,40,23358,2,0,L|296:36,1,113.999996520996
408,96,23930,1,0,0:0:0:0:
408,96,24501,5,0,0:0:0:0:
464,192,24787,1,0,0:0:0:0:
376,276,25073,2,0,P|344:288|256:264,1,113.999996520996
132,184,25644,2,0,P|164:172|252:196,1,113.999996520996
328,312,26215,2,0,B|300:272|324:228|324:228|348:180|316:136,1,170.999994781494
324,149,27073,5,0,0:0:0:0:
248,52,27358,2,0,L|124:44,1,113.999996520996
0,152,27930,2,0,L|124:160,1,113.999996520996
280,192,28501,1,0,0:0:0:0:
460,120,28787,1,0,0:0:0:0:
324,12,29073,1,0,0:0:0:0:
436,228,29358,1,0,0:0:0:0:
296,308,29644,6,0,L|208:316,1,71.2500027179719
88,272,29930,1,0,0:0:0:0:
88,272,30073,2,0,P|128:284|216:236,1,142.500005435944
256,120,30501,1,0,0:0:0:0:
468,84,30787,6,0,L|460:168,1,71.2500027179719
368,304,31073,1,0,0:0:0:0:
452,248,31215,2,0,P|396:208|308:224,1,142.500005435944
192,304,31644,2,0,P|152:316|76:292,1,106.875004076958
64,272,31930,6,0,L|72:176,1,71.2500027179719
156,56,32215,2,0,L|161:127,1,71.2500027179719
232,280,32644,1,0,0:0:0:0:
232,280,32787,1,0,0:0:0:0:
232,280,33073,6,0,L|320:272,1,71.2500027179719
480,216,33358,2,0,L|392:208,1,71.2500027179719
240,144,33644,2,0,P|208:80|240:0,1,142.500005435944
308,76,34215,5,0,0:0:0:0:
384,164,34358,2,0,L|376:248,1,71.2500027179719
240,144,34644,2,0,P|176:168|88:116,1,142.500005435944
56,32,35073,1,0,0:0:0:0:
308,76,35358,6,0,L|316:172,1,71.2500027179719
376,280,35644,1,0,0:0:0:0:
452,348,35787,2,0,P|476:308|432:200,1,142.500005435944
312,148,36215,2,0,L|216:144,1,71.2500027179719
56,160,36501,6,0,P|92:192|188:184,1,142.500005435944
296,68,36930,1,0,0:0:0:0:
296,68,37073,2,0,L|304:156,1,71.2500027179719
368,304,37358,2,0,L|376:216,1,71.2500027179719
448,120,37644,1,8,0:0:0:0:
448,120,38787,6,0,P|384:84|284:120,1,161.500003080368
200,220,39215,1,0,0:0:0:0:
84,124,39358,2,0,B|76:80|76:80|88:20,1,80.750001540184
200,220,39644,2,0,B|208:264|208:264|196:324,1,80.750001540184
156,132,39930,2,0,P|196:120|276:164,1,121.125002310276
266,150,40215,1,0,0:0:0:0:
432,320,40501,1,0,0:0:0:0:
484,108,40787,1,0,0:0:0:0:
364,260,41073,6,0,P|324:284|208:244,1,161.500003080368
140,120,41501,1,0,0:0:0:0:
288,40,41644,2,0,L|388:36,1,80.750001540184
140,120,41930,2,0,L|40:116,1,80.750001540184
216,68,42215,2,0,P|232:120|200:192,1,121.125002310276
210,180,42501,1,0,0:0:0:0:
348,324,42787,1,0,0:0:0:0:
440,172,43073,1,0,0:0:0:0:
284,64,43358,6,0,L|296:168,1,80.750001540184
240,308,43644,2,0,P|188:336|80:284,1,161.500003080368
84,292,44001,1,0,0:0:0:0:
76,280,44073,2,0,L|72:184,1,80.750001540184
184,48,44358,1,0,0:0:0:0:
184,48,44430,1,0,0:0:0:0:
184,48,44501,1,0,0:0:0:0:
304,168,44644,1,0,0:0:0:0:
132,264,44787,6,0,B|188:260|188:260|232:276|232:276|316:268,1,161.500003080368
308,268,45144,1,0,0:0:0:0:
328,264,45215,1,0,0:0:0:0:
464,176,45358,1,0,0:0:0:0:
336,56,45501,1,0,0:0:0:0:
216,196,45644,6,0,L|228:300,1,80.750001540184
380,356,45930,1,0,0:0:0:0:
380,356,46001,1,0,0:0:0:0:
380,356,46073,1,0,0:0:0:0:
468,212,46215,2,0,L|476:156,2,40.375000770092,0|0|0,0:0|0:0|0:0,0:0:0:0:
320,128,46501,5,0,0:0:0:0:
316,104,46573,1,0,0:0:0:0:
312,76,46644,1,0,0:0:0:0:
308,52,46715,1,0,0:0:0:0:
304,28,46787,1,0,0:0:0:0:
56,140,47930,6,0,B|88:124|88:124|104:144|104:144|132:124|180:112|220:132|244:172,1,185.249991519928,0|0,3:0|0:0,0:0:0:0:
244,180,48215,6,0,L|236:288,1,95,0|0,0:0|3:0,0:0:0:0:
352,104,48501,1,8,3:0:0:0:
484,248,48644,1,0,3:0:0:0:
316,276,48787,2,0,L|320:232,4,35.625001358986
448,172,49073,5,0,3:0:0:0:
372,336,49215,2,0,P|320:356|236:288,1,142.5
212,252,49501,1,0,3:0:0:0:
324,128,49644,2,0,B|344:196|344:196|316:288,1,142.5,8|0,3:0|0:0,0:0:0:0:
176,264,49930,2,0,B|155:195|155:195|175:127,1,142.5
276,64,50215,6,0,P|212:92|88:56,1,185.249991519928,0|0,3:0|0:0,0:0:0:0:
52,20,50501,1,0,0:0:0:0:
52,20,50573,1,0,0:0:0:0:
52,20,50644,1,0,3:0:0:0:
8,264,50787,1,8,3:0:0:0:
192,160,50930,1,0,3:0:0:0:
256,336,51073,2,0,L|260:388,4,35.625001358986
248,216,51358,5,0,3:0:0:0:
448,160,51501,2,0,P|392:136|300:160,1,142.5
260,204,51787,1,0,3:0:0:0:
348,296,51930,2,0,P|396:300|416:296,1,61.7499971733095,8|0,3:0|0:0,0:0:0:0:
256,224,52073,2,0,P|208:220|188:224,1,61.7499971733095
72,284,52215,2,0,P|116:236|92:144,1,142.5
48,120,52501,6,0,B|116:132|116:132|168:116|168:116|244:128,1,185.249991519928,0|0,3:0|0:0,0:0:0:0:
260,108,52787,6,0,L|256:0,1,95,0|0,0:0|3:0,0:0:0:0:
400,216,53073,1,8,3:0:0:0:
224,352,53215,1,0,3:0:0:0:
188,144,53358,6,0,L|184:108,4,35.625001358986
328,264,53644,5,0,3:0:0:0:
240,56,53787,2,0,B|192:36|192:36|96:52,1,142.5
32,76,54073,1,0,3:0:0:0:
184,108,54215,2,0,P|206:173|165:248,1,142.5,8|0,3:0|0:0,0:0:0:0:
3,221,54501,2,0,P|47:169|128:172,1,142.5
108,372,54787,6,0,B|83:245|83:245|136:292,1,185.249991519928,0|0,3:0|0:0,0:0:0:0:
192,332,55073,1,0,0:0:0:0:
192,332,55144,1,0,0:0:0:0:
192,332,55215,1,0,3:0:0:0:
348,216,55358,1,8,3:0:0:0:
172,136,55501,1,0,3:0:0:0:
288,288,55644,6,0,P|292:304|288:332,4,35.625001358986
216,204,55930,6,0,B|256:212|256:212|284:200|284:200|320:220|352:216|376:196,1,166.25,0|0,3:0|0:0,0:0:0:0:
396,176,56644,1,0,0:0:0:0:
397,26,61644,5,0,0:0:0:0:
416,45,61715,1,0,0:0:0:0:
430,68,61786,1,0,0:0:0:0:
435,95,61858,1,0,0:0:0:0:
432,121,61929,1,0,0:0:0:0:
421,146,62001,1,0,0:0:0:0:
404,167,62072,1,0,0:0:0:0:
380,180,62144,1,0,0:0:0:0:
392,207,62215,2,0,L|380:275,3,47.5,0|0|0|0,0:0|0:0|0:0|0:0,0:0:0:0:
288,347,62501,6,0,L|276:279,3,47.5,0|0|0|0,0:0|0:0|0:0|0:0,0:0:0:0:
264,275,62787,1,0,0:0:0:0:
242,258,62858,1,0,0:0:0:0:
217,247,62929,1,0,0:0:0:0:
191,241,63001,1,0,0:0:0:0:
164,241,63072,1,0,0:0:0:0:
137,246,63144,1,0,0:0:0:0:
112,257,63215,1,0,0:0:0:0:
90,273,63287,1,0,0:0:0:0:
68,296,63358,6,0,L|76:188,1,95
75,201,63573,1,0,0:0:0:0:
192,32,63787,1,0,0:0:0:0:
192,32,63930,5,0,0:0:0:0:
212,59,64001,1,0,0:0:0:0:
224,90,64072,1,0,0:0:0:0:
228,124,64144,1,0,0:0:0:0:
223,157,64215,1,0,0:0:0:0:
210,188,64287,1,0,0:0:0:0:
190,215,64358,1,0,0:0:0:0:
163,236,64430,1,0,0:0:0:0:
128,248,64501,6,0,L|72:252,2,47.5,0|0|0,0:0|0:0|0:0,0:0:0:0:
268,232,64715,2,0,L|324:236,2,47.5,0|0|0,0:0|0:0|0:0,0:0:0:0:
340,128,64930,1,0,0:0:0:0:
348,116,65001,1,0,0:0:0:0:
356,108,65073,2,0,B|376:152|376:152|220:140,1,190
52,96,65644,2,0,B|32:52|32:52|188:64,1,190
341,23,66215,5,0,0:0:0:0:
325,45,66286,1,0,0:0:0:0:
316,70,66357,1,0,0:0:0:0:
313,97,66429,1,0,0:0:0:0:
316,124,66500,1,0,0:0:0:0:
326,149,66572,1,0,0:0:0:0:
342,171,66643,1,0,0:0:0:0:
362,189,66714,1,0,0:0:0:0:
361,215,66787,2,0,L|373:287,1,47.5
265,355,66930,6,0,L|253:283,1,47.5,0|0,0:0|0:0,0:0:0:0:
213,215,67073,1,0,0:0:0:0:
193,196,67144,1,0,0:0:0:0:
169,183,67215,1,0,0:0:0:0:
143,176,67287,1,0,0:0:0:0:
116,176,67358,1,0,0:0:0:0:
90,183,67430,1,0,0:0:0:0:
66,197,67501,1,0,0:0:0:0:
47,215,67572,1,0,0:0:0:0:
37,239,67644,2,0,L|29:299,2,47.5,0|0|0,0:0|0:0|0:0,0:0:0:0:
124,108,67930,6,0,P|140:64|108:-4,1,95
128,18,68144,1,0,0:0:0:0:
248,148,68358,1,0,0:0:0:0:
248,148,68501,5,0,0:0:0:0:
260,171,68572,1,0,0:0:0:0:
279,191,68643,1,0,0:0:0:0:
302,205,68715,1,0,0:0:0:0:
328,213,68786,1,0,0:0:0:0:
355,214,68858,1,0,0:0:0:0:
381,209,68929,1,0,0:0:0:0:
405,196,69000,1,0,0:0:0:0:
424,180,69073,6,0,L|480:176,2,47.5,0|0|0,0:0|0:0|0:0,0:0:0:0:
320,284,69287,2,0,P|316:308|328:348,2,47.5,0|0|0,0:0|0:0|0:0,0:0:0:0:
344,144,69501,5,0,0:0:0:0:
344,144,69573,1,0,0:0:0:0:
344,144,69644,2,0,L|212:148,1,95
60,216,69930,2,0,L|192:220,1,95
296,72,70215,2,0,P|304:40|300:12,2,47.5,0|0|0,0:0|0:0|0:0,0:0:0:0:
248,264,70501,2,0,P|264:292|287:309,2,47.5,0|0|0,0:0|0:0|0:0,0:0:0:0:
124,148,70787,5,0,0:0:0:0:
149,156,70858,1,0,0:0:0:0:
176,158,70929,1,0,0:0:0:0:
203,153,71001,1,0,0:0:0:0:
229,146,71072,1,0,0:0:0:0:
256,144,71144,1,0,0:0:0:0:
283,148,71215,1,0,0:0:0:0:
308,158,71286,1,0,0:0:0:0:
332,176,71358,6,0,L|400:172,3,47.5,0|0|0|0,0:0|0:0|0:0|0:0,0:0:0:0:
476,80,71644,2,0,L|408:76,3,47.5,0|0|0|0,0:0|0:0|0:0|0:0,0:0:0:0:
264,40,71930,1,0,0:0:0:0:
229,71,72001,1,0,0:0:0:0:
225,117,72072,1,0,0:0:0:0:
252,155,72144,1,0,0:0:0:0:
297,164,72215,1,0,0:0:0:0:
338,141,72287,1,0,0:0:0:0:
352,97,72358,1,0,0:0:0:0:
334,54,72429,1,0,0:0:0:0:
304,36,72501,6,0,L|192:32,1,95
209,32,72715,1,0,0:0:0:0:
80,168,72930,1,0,0:0:0:0:
80,168,73073,5,0,0:0:0:0:
92,184,73144,1,0,0:0:0:0:
104,200,73215,1,0,0:0:0:0:
117,216,73287,1,0,0:0:0:0:
129,232,73358,1,0,0:0:0:0:
142,248,73430,1,0,0:0:0:0:
154,264,73501,1,0,0:0:0:0:
167,280,73572,1,0,0:0:0:0:
180,300,73644,6,0,L|236:312,3,47.5,0|0|0|0,0:0|0:0|0:0|0:0,0:0:0:0:
356,260,73930,2,0,L|300:272,3,47.5,0|0|0|0,0:0|0:0|0:0|0:0,0:0:0:0:
212,200,74215,2,0,P|180:148|272:28,1,190
276,224,74787,2,0,P|217:205|208:54,1,190
411,41,75358,5,0,0:0:0:0:
422,67,75429,1,0,0:0:0:0:
428,92,75500,1,0,0:0:0:0:
432,120,75572,1,0,0:0:0:0:
430,146,75643,1,0,0:0:0:0:
424,173,75715,1,0,0:0:0:0:
414,198,75786,1,0,0:0:0:0:
400,222,75857,1,0,0:0:0:0:
380,244,75930,2,0,L|320:260,15,47.5,0|0|0|0|0|0|0|0|0|0|0|0|0|0|0|0,0:0|0:0|0:0|0:0|0:0|0:0|0:0|0:0|0:0|0:0|0:0|0:0|0:0|0:0|0:0|0:0,0:0:0:0:
312,288,77073,6,0,B|256:284|256:284|220:296|220:296|144:292,1,142.5
32,180,77501,1,0,0:0:0:0:
32,180,77644,5,0,0:0:0:0:
32,180,77715,1,0,0:0:0:0:
32,180,77787,1,0,0:0:0:0:
136,60,77930,2,0,L|152:8,2,47.5,0|0|0,0:0|0:0|0:0,0:0:0:0:
180,204,78215,5,0,0:0:0:0:
202,225,78286,1,0,0:0:0:0:
228,242,78357,1,0,0:0:0:0:
257,253,78429,1,0,0:0:0:0:
288,258,78500,1,0,0:0:0:0:
319,256,78572,1,0,0:0:0:0:
349,247,78643,1,0,0:0:0:0:
376,232,78714,1,0,0:0:0:0:
400,212,78787,6,0,L|412:108,1,71.2500027179719
256,16,79073,2,0,L|244:120,1,71.2500027179719
456,260,79358,1,0,0:0:0:0:
328,40,79501,1,0,0:0:0:0:
176,208,79644,1,0,0:0:0:0:
440,184,79787,1,0,0:0:0:0:
340,72,79930,5,0,0:0:0:0:
236,248,80073,1,0,0:0:0:0:
440,184,80215,2,0,B|388:180|388:180|352:188|352:188|256:180,1,142.5
264,156,80501,2,0,P|252:104|272:52,1,95
388,256,80787,1,0,0:0:0:0:
388,256,80858,1,0,0:0:0:0:
388,256,80930,1,0,0:0:0:0:
240,340,81073,6,0,P|180:352|128:328,1,95
148,342,81287,1,0,0:0:0:0:
148,342,81358,1,0,0:0:0:0:
64,164,81501,2,0,L|52:48,1,95
152,8,81715,2,0,L|164:124,1,95
220,204,81930,1,0,0:0:0:0:
220,204,82001,1,0,0:0:0:0:
220,204,82073,1,0,0:0:0:0:
120,328,82215,5,0,0:0:0:0:
300,236,82358,1,0,0:0:0:0:
140,152,82501,2,0,P|188:172|284:148,1,142.5
296,136,82787,1,0,0:0:0:0:
488,212,82930,5,0,0:0:0:0:
460,195,83001,1,0,0:0:0:0:
430,186,83072,1,0,0:0:0:0:
399,183,83144,1,0,0:0:0:0:
367,187,83215,1,0,0:0:0:0:
338,199,83287,1,0,0:0:0:0:
312,216,83358,1,0,0:0:0:0:
208,344,83501,5,0,0:0:0:0:
208,344,83573,1,0,0:0:0:0:
208,344,83644,1,0,0:0:0:0:
100,220,83787,2,0,P|84:164|108:112,1,95
224,68,84001,2,0,P|240:124|216:176,1,95
180,216,84215,1,0,0:0:0:0:
388,272,84358,1,0,0:0:0:0:
324,96,84501,5,0,0:0:0:0:
152,252,84644,1,0,0:0:0:0:
300,172,84787,2,0,B|352:168|352:168|392:176|392:176|456:172,1,142.5
472,152,85073,2,0,P|484:100|456:40,1,95
340,244,85358,1,0,0:0:0:0:
340,244,85430,1,0,0:0:0:0:
340,244,85501,1,0,0:0:0:0:
144,348,85644,6,0,L|152:244,1,95
152,228,85858,1,0,0:0:0:0:
156,192,85930,1,0,0:0:0:0:
280,40,86073,2,0,P|324:28|384:48,1,95
248,120,86287,2,0,P|204:132|144:112,1,95
88,40,86501,1,0,0:0:0:0:
88,40,86573,1,0,0:0:0:0:
88,40,86644,1,0,0:0:0:0:
228,224,86787,5,0,0:0:0:0:
24,300,86930,1,0,0:0:0:0:
156,176,87073,2,0,P|180:108|156:36,1,142.5
140,24,87358,1,0,0:0:0:0:
252,124,87501,1,0,0:0:0:0:
252,124,87573,1,0,0:0:0:0:
252,124,87644,2,0,P|304:144|352:132,1,95
492,232,87930,5,0,0:0:0:0:
469,216,88001,1,0,0:0:0:0:
444,206,88072,1,0,0:0:0:0:
418,200,88144,1,0,0:0:0:0:
390,200,88215,1,0,0:0:0:0:
364,205,88287,1,0,0:0:0:0:
339,216,88358,1,0,0:0:0:0:
316,231,88429,1,0,0:0:0:0:
300,248,88501,6,0,L|288:312,1,47.5
180,344,88644,2,0,L|192:280,1,47.5
320,228,88787,2,0,L|308:292,1,47.5
156,356,88930,2,0,L|168:292,1,47.5
256,168,89073,5,0,0:0:0:0:
408,244,89215,1,0,0:0:0:0:
408,244,89287,1,0,0:0:0:0:
408,244,89358,2,0,P|436:188|376:92,1,142.5
380,100,89644,2,0,L|268:88,1,95
136,40,89930,1,0,0:0:0:0:
136,40,90001,1,0,0:0:0:0:
136,40,90073,1,0,0:0:0:0:
64,160,90215,6,0,P|52:216|84:272,1,95
80,268,90430,1,0,0:0:0:0:
100,276,90501,1,0,0:0:0:0:
268,312,90644,2,0,L|340:304,1,47.5
504,272,90787,2,0,L|432:280,1,47.5
380,348,90930,1,0,0:0:0:0:
380,348,91001,1,0,0:0:0:0:
380,348,91073,2,0,P|388:292|340:228,1,95
220,180,91358,5,0,0:0:0:0:
360,40,91501,1,0,0:0:0:0:
440,192,91644,2,0,P|384:212|288:180,1,142.5
284,176,91930,1,0,0:0:0:0:
172,60,92073,2,0,L|176:0,1,47.5,0|0,0:0|0:0,0:0:0:0:
76,108,92215,2,0,L|72:168,1,47.5
64,272,92358,1,0,0:0:0:0:
248,340,92501,6,0,P|308:348|360:324,1,95
360,328,92715,1,0,0:0:0:0:
376,316,92787,1,0,0:0:0:0:
456,160,92930,2,0,L|464:40,1,95
368,12,93144,2,0,L|360:132,1,95
356,220,93358,1,0,0:0:0:0:
356,220,93430,1,0,0:0:0:0:
356,220,93501,1,0,0:0:0:0:
500,288,93644,5,0,0:0:0:0:
404,112,93787,1,0,0:0:0:0:
404,112,93858,1,0,0:0:0:0:
404,112,93930,2,0,B|348:104|348:104|312:112|312:112|232:100,1,142.5
232,88,94215,1,0,0:0:0:0:
96,8,94358,2,0,L|80:108,1,95
120,228,94573,2,0,L|128:176,1,47.5
200,24,94787,5,0,0:0:0:0:
312,204,94930,1,0,0:0:0:0:
312,204,95001,1,0,0:0:0:0:
312,204,95073,2,0,L|324:80,1,95
368,44,95287,2,0,P|400:88|396:144,1,95
360,260,95501,2,0,P|328:276|296:272,1,47.5
156,212,95644,2,0,P|220:212|248:236,1,95
360,344,95930,5,0,0:0:0:0:
476,192,96073,1,0,0:0:0:0:
476,192,96144,1,0,0:0:0:0:
476,192,96215,2,0,B|408:200|408:200|320:188,1,142.5
304,180,96501,1,0,0:0:0:0:
136,104,96644,2,0,P|120:56|148:0,1,95
133,15,96858,1,0,0:0:0:0:
133,15,96930,1,0,0:0:0:0:
344,260,97073,5,0,0:0:0:0:
256,192,97144,12,0,98215,1:0:0:0:
260,48,98787,5,0,0:0:0:0:
344,148,98930,1,0,0:0:0:0:
344,148,99001,1,0,0:0:0:0:
344,148,99073,2,0,L|336:228,1,56.9999982604981
384,312,99358,1,0,0:0:0:0:
312,272,99787,1,0,0:0:0:0:
236,304,100215,1,0,0:0:0:0:
272,232,100501,5,0,0:0:0:0:
312,152,100930,1,0,0:0:0:0:
256,80,101358,1,0,0:0:0:0:
256,80,101644,6,0,B|280:124|256:168|256:168|228:220|256:272,1,190
324,328,102358,1,0,0:0:0:0:
324,328,102430,1,0,0:0:0:0:
324,328,102501,2,0,L|408:332,1,71.2500027179719
188,124,102787,5,0,0:0:0:0:
340,228,102930,1,0,0:0:0:0:
468,112,103073,2,0,P|480:56|456:8,1,95
264,184,103358,2,0,P|252:240|276:288,1,95
408,360,103644,1,0,0:0:0:0:
492,200,103787,1,0,0:0:0:0:
392,68,103930,6,0,P|328:56|284:80,1,95
120,168,104215,2,0,P|184:180|228:156,1,95
316,28,104501,1,0,0:0:0:0:
440,184,104644,1,0,0:0:0:0:
240,220,104787,1,0,0:0:0:0:
396,72,104930,1,0,0:0:0:0:
320,236,105073,6,0,L|316:336,1,95
416,176,105358,1,0,0:0:0:0:
224,280,105501,1,0,0:0:0:0:
128,120,105644,2,0,L|132:20,1,95
264,140,105930,1,0,0:0:0:0:
92,256,106073,1,0,0:0:0:0:
300,340,106215,6,0,P|356:352|404:324,1,95
200,196,106501,2,0,P|144:184|96:212,1,95
256,284,106787,1,0,0:0:0:0:
281,261,106858,1,0,0:0:0:0:
297,231,106929,1,0,0:0:0:0:
303,198,107001,1,0,0:0:0:0:
298,165,107072,1,0,0:0:0:0:
283,135,107144,1,0,0:0:0:0:
258,111,107215,1,0,0:0:0:0:
228,97,107286,1,0,0:0:0:0:
200,88,107358,6,0,L|92:92,1,95
256,16,107644,1,0,0:0:0:0:
52,164,107787,1,0,0:0:0:0:
216,300,107930,2,0,L|332:292,1,95,0|0,0:0|0:0,0:0:0:0:
480,244,108215,2,0,L|364:236,1,95,0|0,0:0|0:0,0:0:0:0:
180,176,108501,6,0,P|152:108|192:32,1,142.5
200,36,108787,2,0,L|316:32,1,95
480,192,109073,2,0,B|424:196|424:196|392:208|392:208|316:212,1,142.5
308,192,109358,2,0,P|288:144|304:96,1,95
392,308,109644,6,0,P|324:336|280:324,1,95
164,228,109930,2,0,B|136:176|164:132|164:132|196:80|156:24,1,190
332,184,110358,2,0,L|212:176,1,95
84,88,110644,1,0,0:0:0:0:
84,88,110787,5,0,0:0:0:0:
113,71,110858,1,0,0:0:0:0:
146,62,110929,1,0,0:0:0:0:
179,60,111001,1,0,0:0:0:0:
213,67,111072,1,0,0:0:0:0:
243,81,111144,1,0,0:0:0:0:
270,101,111215,1,0,0:0:0:0:
291,128,111286,1,0,0:0:0:0:
312,160,111358,6,0,L|324:264,1,95
472,168,111644,1,0,0:0:0:0:
392,308,111787,1,0,0:0:0:0:
224,228,111930,5,0,0:0:0:0:
