osu file format v14

[General]
AudioFilename: miracle_5ympho_x.mp3
AudioLeadIn: 0
PreviewTime: 9073
Countdown: 0
SampleSet: Normal
StackLeniency: 0.7
Mode: 0
LetterboxInBreaks: 0
WidescreenStoryboard: 1

[Editor]
Bookmarks: 5644,17073,29644,38787,47930,55930,61644,79930,98215,102787,111930,120787
DistanceSpacing: 1
BeatDivisor: 2
GridSize: 4
TimelineZoom: 1

[Metadata]
Title:Miracle 5ympho X
TitleUnicode:Miracle 5ympho X
Artist:USAO
ArtistUnicode:USAO
Creator:Mel
Version:Beginner
Source:beatmania IIDX 21 SPADA
Tags:frey sionkotori kokodoko ナウい 一年一片 frenchcore dubstep intensity fullerene kurokami gezo
BeatmapID:909309
BeatmapSetID:137394

[Difficulty]
HPDrainRate:3
CircleSize:3
OverallDifficulty:3
ApproachRate:3
SliderMultiplier:0.6
SliderTickRate:1

[Events]
//Background and Video events
0,0,"5ympho.png",0,0
//Break Periods
2,56130,60204
2,98215,100204
//Storyboard Layer 0 (Background)
//Storyboard Layer 1 (Fail)
//Storyboard Layer 2 (Pass)
//Storyboard Layer 3 (Foreground)
//Storyboard Sound Samples

[TimingPoints]
1073,285.714285714286,4,1,0,60,1,0
1073,-100,4,2,0,45,0,0
10215,-100,4,1,0,60,0,0
18287,-100,4,1,0,50,0,0
18358,-100,4,1,0,40,0,0
18430,-100,4,1,0,30,0,0
18501,-100,4,1,0,25,0,0
18573,-100,4,1,0,20,0,0
18644,-100,4,2,0,25,0,0
18715,-100,4,2,0,35,0,0
18787,-100,4,2,0,50,0,0
18930,-100,4,2,0,60,0,0
20501,-100,4,2,0,60,0,0
29644,-100,4,1,0,40,0,0
38787,-100,4,1,0,60,0,0
47930,-100,4,2,0,95,0,1
48001,-100,4,2,0,95,0,0
61644,-100,4,1,0,60,0,0
79930,-100,4,1,0,60,0,1
89001,-100,4,1,0,60,0,0
89073,-100,4,1,0,60,0,1
97073,-100,4,1,0,60,0,0
98215,-100,4,2,0,40,0,0
102787,-100,4,1,0,60,0,0
110858,-100,4,1,0,50,0,0
110930,-100,4,1,0,40,0,0
111001,-100,4,1,0,30,0,0
111073,-100,4,1,0,25,0,0
111144,-100,4,1,0,20,0,0
111215,-100,4,2,0,25,0,0
111287,-100,4,2,0,35,0,0
111358,-100,4,2,0,50,0,0
111430,-100,4,2,0,60,0,0

[Colours]
Combo1 : 244,244,0
Combo2 : 244,11,81

[HitObjects]
140,88,1073,6,0,P|96:152|152:308,1,240
373,297,3358,2,0,P|422:192|372:87,1,240
156,192,5644,6,0,B|212:216|272:192|272:192|332:172|392:204,2,240
372,84,9073,1,0,0:0:0:0:
212,264,10215,6,0,B|172:276|172:276|76:260,1,120
40,156,11358,2,0,P|56:104|124:60,1,120
228,64,12501,2,0,L|352:72,1,120
448,136,13644,2,0,P|456:180|344:184,1,180
316,152,14787,6,0,P|276:136|188:156,1,120
136,248,15930,2,0,P|176:264|264:244,1,120
336,172,17073,1,0,0:0:0:0:
439,231,17644,1,0,0:0:0:0:
384,328,18215,1,0,0:0:0:0:
288,256,18787,2,0,B|280:220|280:220|288:176,2,60
56,192,20501,6,0,B|148:188|148:188|184:220,1,120
248,296,21644,2,0,P|288:312|372:288,1,120
428,196,22787,2,0,P|434:126|314:170,1,240
288,268,24501,1,0,0:0:0:0:
196,192,25073,6,0,P|152:184|64:196,1,120
136,296,26215,2,0,P|180:304|268:292,1,120
356,232,27358,1,0,0:0:0:0:
312,120,27930,1,0,0:0:0:0:
196,148,28501,1,0,0:0:0:0:
232,264,29073,1,0,0:0:0:0:
340,212,29644,6,0,B|384:200|384:200|476:208,1,120
384,300,30787,2,0,P|344:312|260:276,1,120
192,196,31930,2,0,P|140:176|72:200,1,120
76,312,33073,2,0,P|132:329|187:309,1,120
244,204,34215,6,0,L|256:68,1,120
368,48,35358,2,0,L|357:167,1,120
340,288,36501,1,0,0:0:0:0:
224,260,37073,1,0,0:0:0:0:
108,228,37644,1,0,0:0:0:0:
340,164,38787,6,0,P|356:216|324:288,1,120
224,316,39930,2,0,L|96:304,1,120
28,212,41073,2,0,P|60:168|140:148,1,120
240,156,42215,2,0,L|368:168,1,120
256,192,43358,12,0,46787,0:0:0:0:
64,128,47930,6,0,P|116:120|168:176,1,120,0|8,3:0|3:0,0:0:0:0:
176,280,49073,2,0,B|220:264|220:264|312:264,1,120,0|8,3:0|3:0,0:0:0:0:
412,288,50215,2,0,P|424:240|412:148,1,120,0|8,3:0|3:0,0:0:0:0:
356,68,51358,1,0,3:0:0:0:
248,116,51930,1,8,3:0:0:0:
340,192,52501,6,0,P|296:228|212:228,1,120,0|8,3:0|3:0,0:0:0:0:
132,172,53644,2,0,P|124:136|136:40,1,120,0|8,3:0|3:0,0:0:0:0:
252,52,54787,2,0,P|260:111|251:170,1,120,0|8,3:0|3:0,0:0:0:0:
188,272,55930,1,0,3:0:0:0:
100,248,61644,6,0,B|128:136|128:136|168:188|168:188|208:136|208:136|240:260,1,360
332,316,63930,2,0,P|380:316|304:252,1,240
92,320,66215,6,0,B|80:264|80:264|104:212|104:212|84:156|84:156|104:108|104:108|88:64|88:64|120:80|156:80|188:64,1,360
284,28,68501,2,0,B|300:68|280:120|280:120|316:124|344:132|364:152|364:152|360:184|372:212,1,240
164,332,70787,6,0,P|124:320|248:224,1,360
272,332,73073,2,0,B|316:320|316:320|340:328|340:328|360:320|360:320|388:324|388:324|420:316|420:316|448:320|448:320|480:312|480:312|508:316,1,240
316,164,75358,6,0,B|224:132|96:184|96:184|160:232|232:228,1,360
256,192,77644,12,0,78787,0:0:0:0:
160,148,79930,6,0,P|144:200|144:232,1,60
200,276,80644,2,0,L|312:268,2,90
308,172,82215,6,0,P|344:160|376:156,1,60
448,192,82930,2,0,P|464:232|468:292,2,90
340,88,84501,6,0,P|332:48|336:4,1,60
252,68,85215,2,0,P|240:132|228:164,2,90
120,140,86787,6,0,P|120:196|128:220,1,60
168,276,87501,1,0,0:0:0:0:
252,308,87930,2,0,B|304:300|304:300|352:312|352:312|424:304,1,150
468,248,89073,6,0,P|476:200|472:164,1,60
428,112,89787,2,0,P|376:96|320:92,2,90
304,196,91358,6,0,P|264:204|232:204,1,60
172,152,92073,2,0,P|160:112|156:40,2,90
208,296,93644,6,0,P|252:280|288:276,1,60
356,280,94358,2,0,L|472:288,2,90
244,180,95930,6,0,P|236:136|236:96,1,60
176,52,96644,2,0,P|160:88|116:152,1,90
68,192,101644,6,0,P|108:176|192:220,1,120
252,296,102787,6,0,L|384:280,1,120
428,176,103930,2,0,L|308:190,1,120
188,208,105073,2,0,P|148:208|96:144,1,120
72,36,106215,2,0,B|132:44|132:44|180:80|180:80|252:92,1,180
296,76,107358,6,0,P|288:120|288:200,1,120
240,308,108501,2,0,P|220:256|168:180,1,120
80,144,109644,1,0,0:0:0:0:
192,100,110215,1,0,0:0:0:0:
228,216,110787,1,0,0:0:0:0:
116,256,111358,2,0,L|52:276,2,60
