osu file format v14

[General]
AudioFilename: miracle_5ympho_x.mp3
AudioLeadIn: 0
PreviewTime: 9073
Countdown: 0
SampleSet: Normal
StackLeniency: 0.7
Mode: 0
LetterboxInBreaks: 0
WidescreenStoryboard: 0

[Editor]
Bookmarks: 5644,17073,29644,38787,47930,55930,61644,79930,98215,102787,111930,120787
DistanceSpacing: 1
BeatDivisor: 2
GridSize: 4
TimelineZoom: 1

[Metadata]
Title:Miracle 5ympho X
TitleUnicode:Miracle 5ympho X
Artist:USAO
ArtistUnicode:USAO
Creator:Mel
Version:Normal
Source:beatmania IIDX 21 SPADA
Tags:frey sionkotori kokodoko ナウい 一年一片 frenchcore dubstep intensity fullerene kurokami gezo
BeatmapID:897517
BeatmapSetID:137394

[Difficulty]
HPDrainRate:4
CircleSize:3
OverallDifficulty:4
ApproachRate:5
SliderMultiplier:0.9
SliderTickRate:1

[Events]
//Background and Video events
0,0,"5ympho.png",0,0
//Break Periods
2,56129,60444
//Storyboard Layer 0 (Background)
//Storyboard Layer 1 (Fail)
//Storyboard Layer 2 (Pass)
//Storyboard Layer 3 (Foreground)
//Storyboard Sound Samples

[TimingPoints]
1073,285.714285714286,4,1,0,60,1,0
1073,-100,4,2,0,45,0,0
10215,-100,4,1,0,60,0,0
18287,-100,4,1,0,50,0,0
18358,-100,4,1,0,40,0,0
18430,-100,4,1,0,30,0,0
18501,-100,4,1,0,25,0,0
18573,-100,4,1,0,20,0,0
18644,-100,4,2,0,25,0,0
18715,-100,4,2,0,35,0,0
18787,-100,4,2,0,50,0,0
18930,-100,4,2,0,60,0,0
20501,-100,4,2,0,60,0,0
29644,-100,4,1,0,40,0,0
38787,-100,4,1,0,60,0,0
47930,-100,4,2,0,95,0,1
48001,-100,4,2,0,95,0,0
61644,-100,4,1,0,60,0,0
79930,-100,4,1,0,60,0,1
89001,-100,4,1,0,60,0,0
89073,-100,4,1,0,60,0,1
97073,-100,4,1,0,60,0,0
98215,-100,4,2,0,40,0,0
102787,-100,4,1,0,60,0,0
110858,-100,4,1,0,50,0,0
110930,-100,4,1,0,40,0,0
111001,-100,4,1,0,30,0,0
111073,-100,4,1,0,25,0,0
111144,-100,4,1,0,20,0,0
111215,-100,4,2,0,25,0,0
111287,-100,4,2,0,35,0,0
111358,-100,4,2,0,50,0,0
111430,-100,4,2,0,60,0,0

[Colours]
Combo1 : 244,244,0
Combo2 : 244,11,81

[HitObjects]
120,84,1073,5,0,0:0:0:0:
468,168,2215,1,0,0:0:0:0:
156,352,3358,1,0,0:0:0:0:
320,32,4501,1,0,0:0:0:0:
92,148,5644,6,0,P|156:136|192:148,1,90
260,184,6215,2,0,P|308:196|356:188,1,90
416,132,6787,2,0,L|428:16,2,90
400,220,7644,5,0,0:0:0:0:
324,272,7930,2,0,P|276:288|232:284,2,90
268,200,8787,1,0,0:0:0:0:
192,152,9073,2,0,B|148:140|148:140|100:152|100:152|52:144|52:144|8:148,1,180
124,292,10215,6,0,L|108:344,2,45
156,208,10787,2,0,P|164:148|156:112,1,90
96,52,11358,2,0,P|148:88|264:76,1,180
340,32,12215,1,0,0:0:0:0:
428,52,12501,2,0,P|464:68|480:80,2,45
340,76,13073,2,0,B|304:144|304:144|328:252,1,180
396,304,13930,2,0,L|500:300,2,90
312,340,14787,6,0,L|292:384,2,45
328,252,15358,2,0,P|292:192|256:176,1,90
188,164,15930,2,0,B|248:156|248:156|296:124|296:124|384:112,1,180
448,116,16787,1,0,0:0:0:0:
496,192,17073,6,0,P|500:260|468:300,1,90
408,312,17644,2,0,L|304:320,1,90
232,292,18215,2,0,P|190:262|318:258,1,360
276,312,20501,6,0,P|224:336|96:264,1,180
108,208,21358,1,0,0:0:0:0:
196,160,21644,2,0,B|212:200|212:200|200:256,2,90
144,84,22501,1,0,0:0:0:0:
64,136,22787,6,0,P|112:176|232:128,1,180
460,132,23930,2,0,P|412:92|292:140,1,180
256,192,24787,1,0,0:0:0:0:
224,276,25073,6,0,L|220:380,1,90
128,320,25644,2,0,L|131:230,1,90
64,152,26215,2,0,B|131:115|194:152|194:152|248:183|325:152,1,270
396,100,27358,6,0,L|404:0,2,90
412,188,28215,1,0,0:0:0:0:
364,264,28501,2,0,P|320:292|200:264,1,180
148,192,29358,1,0,0:0:0:0:
96,116,29644,6,0,B|152:92|196:116|196:116|236:136|292:112,1,180
356,88,30501,1,0,0:0:0:0:
440,52,30787,2,0,P|444:104|428:144,1,90
364,200,31358,2,0,P|348:256|364:304,1,90
424,344,31930,6,0,P|380:316|240:328,1,180
176,356,32787,1,0,0:0:0:0:
140,272,33073,2,0,L|136:164,2,90
60,112,34215,6,0,P|132:84|236:136,1,180
280,192,35073,1,0,0:0:0:0:
352,244,35358,2,0,P|408:252|444:244,2,90
268,280,36215,1,0,0:0:0:0:
192,328,36501,6,0,P|176:280|348:236,1,270
396,276,37644,1,0,0:0:0:0:
396,276,38787,6,0,L|404:168,1,90
312,196,39358,2,0,L|320:96,1,90
228,120,39930,2,0,B|236:32|236:32|148:56|148:56|136:176,1,270
172,228,41073,6,0,P|216:248|268:240,1,90
336,204,41644,2,0,P|396:196|428:208,1,90
472,280,42215,2,0,B|424:292|424:292|380:280|380:280|316:296|316:296|284:332|284:332|216:352,1,270
256,192,43358,12,0,46787,0:0:0:0:
72,240,47930,6,0,B|128:220|128:220|192:232|192:232|264:208,1,180
324,172,48787,1,0,0:0:0:0:
396,116,49073,2,0,P|416:164|344:264,1,180
260,260,49930,1,0,0:0:0:0:
200,192,50215,6,0,B|192:160|192:160|200:132|200:132|180:92|180:92|192:52|192:52|184:12,1,180
96,48,51073,1,0,0:0:0:0:
272,88,51358,2,0,P|320:92|364:80,2,90
124,192,52501,6,0,B|252:176|252:176|324:208,1,180
376,244,53358,1,0,0:0:0:0:
424,320,53644,2,0,P|468:228|412:160,1,180
348,136,54501,1,0,0:0:0:0:
260,160,54787,6,0,B|208:180|172:164|172:164|124:140|72:160,1,180
120,240,55644,2,0,L|108:336,1,90
80,224,61644,6,0,B|136:204|180:224|180:224|220:240|276:220,1,180
336,188,62501,1,0,0:0:0:0:
408,132,62787,2,0,P|420:84|308:52,1,180
220,188,63930,6,0,P|204:252|280:348,1,180
360,360,64787,1,0,0:0:0:0:
424,288,65073,2,0,P|372:264|332:268,1,90
252,284,65644,2,0,P|200:288|148:256,1,90
96,328,66215,6,0,B|116:272|116:272|100:216|100:216|132:124,1,180
176,88,67073,1,0,0:0:0:0:
252,36,67358,2,0,P|320:24|408:112,1,180
468,256,68501,6,0,L|268:244,1,180
200,232,69358,1,0,0:0:0:0:
140,164,69644,2,0,L|124:56,2,90
112,248,70501,1,0,0:0:0:0:
176,308,70787,6,0,P|232:328|336:264,1,180
356,188,71644,1,0,0:0:0:0:
312,112,71930,2,0,P|264:88|152:140,1,180
280,264,73073,6,0,B|424:280|424:280|456:212,1,180
468,164,73930,1,0,0:0:0:0:
400,104,74215,2,0,P|348:88|304:104,1,90
244,152,74787,2,0,P|184:164|144:152,1,90
256,192,75358,12,0,78787,0:0:0:0:
228,176,79930,5,0,0:0:0:0:
160,116,80215,2,0,B|120:92|120:92|72:100|72:100|20:76,2,135
228,176,81358,2,0,B|265:174|288:144|288:144|316:164|316:164|376:108|440:152,1,225
464,168,82215,5,0,0:0:0:0:
384,224,82501,2,0,L|376:368,2,135
344,144,83644,2,0,P|300:124|192:244,1,225
196,272,84501,5,0,0:0:0:0:
272,320,84787,2,0,B|304:336|336:324|336:324|376:312|404:328,2,135
196,272,85930,2,0,B|184:200|184:200|212:144|212:144|196:40,1,225
216,16,86787,5,0,0:0:0:0:
292,64,87073,2,0,P|340:80|436:56,1,135
388,196,87930,6,0,L|384:268,2,45
292,248,88501,2,0,L|304:304,2,45
200,288,89073,5,0,0:0:0:0:
220,200,89358,2,0,P|228:128|204:60,2,135
152,276,90501,2,0,B|212:312|268:284|268:284|324:260|384:300,1,225
396,304,91358,5,0,0:0:0:0:
432,224,91644,2,0,L|444:84,2,135
396,304,92787,2,0,B|344:316|344:316|304:292|304:292|248:316|204:296|180:268,1,225
168,244,93644,1,0,0:0:0:0:
256,208,93930,2,0,B|272:160|272:160|264:120|264:120|288:60,2,135
304,284,95073,6,0,P|364:304|444:272,2,135
240,220,96215,2,0,P|180:200|100:232,2,135
448,300,98215,2,0,B|396:264|396:264|276:284,1,180
192,304,99073,1,0,0:0:0:0:
132,236,99358,2,0,P|112:156|140:88,2,135
240,236,100501,2,0,P|260:156|232:88,2,135
164,284,101644,6,0,B|208:272|208:272|256:284|256:284|304:276|304:276|348:280,1,180
388,92,102787,6,0,L|404:40,2,45
356,176,103359,2,0,P|348:236|356:272,1,90
416,332,103930,2,0,P|364:296|248:308,1,180
172,352,104787,1,0,0:0:0:0:
84,332,105073,2,0,P|48:316|32:304,2,45
168,296,105644,2,0,B|188:260|168:216|168:216|144:168|180:116,1,180
252,76,106502,2,0,L|360:68,2,90
156,60,107359,6,0,L|128:20,2,45
192,140,107930,2,0,P|192:189|156:242,1,90
104,280,108501,2,0,P|152:252|292:256,1,180
356,284,109359,1,0,0:0:0:0:
424,216,109644,6,0,L|436:112,1,90
336,168,110215,2,0,L|348:64,1,90
256,192,110787,12,0,111930,0:0:0:0:
