osu file format v14

[General]
AudioFilename: miracle_5ympho_x.mp3
AudioLeadIn: 0
PreviewTime: 9073
Countdown: 0
SampleSet: Soft
StackLeniency: 0.7
Mode: 0
LetterboxInBreaks: 0
WidescreenStoryboard: 0

[Editor]
Bookmarks: 17073,29644,38787,47930,55930,61644,79930,98215,102787,111930,120787
DistanceSpacing: 1
BeatDivisor: 4
GridSize: 4
TimelineZoom: 1

[Metadata]
Title:Miracle 5ympho X
TitleUnicode:Miracle 5ympho X
Artist:USAO
ArtistUnicode:USAO
Creator:Mel
Version:Hyper
Source:beatmania IIDX 21 SPADA
Tags:frey sionkotori kokodoko ナウい 一年一片 frenchcore dubstep intensity fullerene kurokami gezo
BeatmapID:427342
BeatmapSetID:137394

[Difficulty]
HPDrainRate:6
CircleSize:4
OverallDifficulty:6
ApproachRate:8.5
SliderMultiplier:1.6
SliderTickRate:1

[Events]
//Background and Video events
0,0,"5ympho.png",0,0
//Break Periods
2,56129,60969
//Storyboard Layer 0 (Background)
//Storyboard Layer 1 (Fail)
//Storyboard Layer 2 (Pass)
//Storyboard Layer 3 (Foreground)
//Storyboard Sound Samples

[TimingPoints]
1073,285.714285714286,4,1,0,60,1,0
1073,-200,4,2,0,45,0,0
10215,-100,4,1,0,60,0,0
18287,-100,4,1,0,50,0,0
18358,-100,4,1,0,40,0,0
18430,-100,4,1,0,30,0,0
18501,-100,4,1,0,25,0,0
18573,-100,4,1,0,20,0,0
18644,-100,4,2,0,25,0,0
18715,-100,4,2,0,35,0,0
18787,-100,4,2,0,50,0,0
18930,-100,4,2,0,60,0,0
20501,-166.666666666667,4,2,0,60,0,0
29644,-133.333333333333,4,1,0,40,0,0
38787,-117.647058823529,4,1,0,60,0,0
47930,-100,4,2,0,95,0,1
48001,-100,4,2,0,95,0,0
61644,-100,4,1,0,60,0,0
79930,-100,4,1,0,60,0,1
89001,-100,4,1,0,60,0,0
89073,-100,4,1,0,60,0,1
97073,-100,4,1,0,60,0,0
98215,-200,4,2,0,40,0,0
102787,-100,4,1,0,60,0,0
110858,-100,4,1,0,50,0,0
110930,-100,4,1,0,40,0,0
111001,-100,4,1,0,30,0,0
111073,-100,4,1,0,25,0,0
111144,-100,4,1,0,20,0,0
111215,-100,4,2,0,25,0,0
111287,-100,4,2,0,35,0,0
111358,-100,4,2,0,50,0,0
111430,-100,4,2,0,60,0,0

[Colours]
Combo1 : 244,244,0
Combo2 : 244,11,81

[HitObjects]
196,176,1073,5,0,0:0:0:0:
276,316,1787,2,0,L|272:360,2,40
312,240,2215,2,0,P|340:224|424:248,1,120
244,176,3073,1,0,0:0:0:0:
244,176,3358,2,0,P|223:200|136:208,1,120
140,20,4215,1,0,0:0:0:0:
140,20,4501,2,0,P|164:48|168:140,2,120
252,100,5644,6,0,P|292:108|340:100,1,80
472,148,6215,2,0,P|432:140|384:148,1,80
308,236,6787,2,0,L|304:324,1,80
208,220,7358,2,0,L|204:132,1,80
264,48,7930,6,0,P|304:40|352:64,1,80
336,192,8501,2,0,P|307:162|301:109,1,80
436,60,9073,1,0,0:0:0:0:
36,240,10215,5,0,0:0:0:0:
120,284,10358,1,0,0:0:0:0:
204,224,10501,2,0,B|264:212|264:212|308:228|308:228|368:216,1,160
468,200,10930,1,0,0:0:0:0:
468,200,11073,2,0,L|460:308,1,80
360,200,11358,2,0,L|365:120,1,80
424,52,11644,6,0,P|368:28|280:108,1,160
248,160,12073,1,0,0:0:0:0:
176,224,12215,2,0,P|144:232|88:208,1,80
20,164,12501,1,0,0:0:0:0:
80,80,12644,1,0,0:0:0:0:
144,156,12787,6,0,B|196:144|196:144|248:152|248:152|308:140,1,160
396,112,13215,1,0,0:0:0:0:
396,112,13358,2,0,P|408:64|388:24,1,80
464,172,13644,2,0,P|452:220|472:260,1,80
364,184,13930,2,0,P|320:176|236:216,1,120
236,232,14215,2,0,L|224:284,2,40
180,124,14501,1,0,0:0:0:0:
180,124,14644,2,0,L|168:72,2,40
136,220,14930,5,0,0:0:0:0:
64,276,15073,2,0,B|116:264|116:264|232:284,1,160
312,304,15501,1,0,0:0:0:0:
400,276,15644,2,0,P|420:236|408:180,1,80
296,160,15930,2,0,P|316:208|372:224,1,80
360,108,16215,2,0,P|312:80|220:124,2,160
456,252,17073,5,0,0:0:0:0:
380,308,17215,1,0,0:0:0:0:
292,268,17358,2,0,B|248:256|248:256|192:264|192:264|112:244,1,160
72,184,17787,1,0,0:0:0:0:
72,184,17930,6,0,L|80:104,1,80
188,52,18215,2,0,L|180:132,1,80
280,184,18501,2,0,L|288:104,1,80
396,52,18787,2,0,L|388:132,1,80
348,244,19073,2,0,P|296:280|196:224,1,160
132,164,20501,6,0,P|120:120|140:52,1,95.9999970703126
272,72,21073,2,0,P|284:116|264:184,1,95.9999970703126
200,256,21644,1,0,0:0:0:0:
200,256,22501,5,0,0:0:0:0:
268,180,22787,2,0,B|284:136|284:136|272:88,1,95.9999970703126
356,192,23358,2,0,B|340:236|340:236|352:284,1,95.9999970703126
448,240,23930,1,0,0:0:0:0:
448,240,24501,5,0,0:0:0:0:
368,172,24787,1,0,0:0:0:0:
272,188,25073,2,0,L|172:208,1,95.9999970703126
56,136,25644,2,0,L|150:117,1,95.9999970703126
256,96,26215,1,0,0:0:0:0:
256,96,27073,5,0,0:0:0:0:
352,128,27358,1,0,0:0:0:0:
272,196,27644,1,0,0:0:0:0:
220,96,27930,5,0,0:0:0:0:
384,64,28215,1,0,0:0:0:0:
332,208,28501,1,0,0:0:0:0:
220,96,28787,6,0,P|208:60|220:0,1,95.9999970703126
384,132,29358,1,0,0:0:0:0:
384,132,29644,6,0,P|400:176|368:256,1,120.000004577637
204,200,30215,2,0,B|248:176|248:176|328:184,1,120.000004577637
144,272,30787,2,0,P|124:248|128:156,1,120.000004577637
192,60,31358,1,0,0:0:0:0:
304,128,31644,1,0,0:0:0:0:
200,204,31930,6,0,L|192:328,1,120.000004577637
324,148,32501,2,0,L|331:28,1,120.000004577637
408,228,33073,1,0,0:0:0:0:
300,264,33358,1,0,0:0:0:0:
192,292,33644,1,0,0:0:0:0:
224,172,33930,1,0,0:0:0:0:
320,268,34215,6,0,P|340:312|316:384,1,120.000004577637
164,228,34787,2,0,P|144:184|168:112,1,120.000004577637
284,56,35358,2,0,L|408:52,1,120.000004577637
343,168,35930,5,0,0:0:0:0:
224,172,36215,1,0,0:0:0:0:
228,176,36501,2,0,B|192:184|160:172|160:172|120:180|80:168|80:168|112:200|136:204|160:200|160:200|184:212,1,240.000009155274
268,248,37358,2,0,P|308:244|380:292,1,120.000004577637
376,276,38787,5,0,0:0:0:0:
251,153,39073,1,0,0:0:0:0:
201,327,39358,1,0,0:0:0:0:
328,200,39644,2,0,P|340:160|328:116,1,68.0000012969971
224,100,39930,2,0,P|244:144|284:164,2,68.0000012969971
304,32,40358,1,0,0:0:0:0:
304,32,40501,2,0,B|304:80|304:80|340:104|352:128|344:176,1,136.000002593994
324,304,41073,5,0,0:0:0:0:
208,208,41358,1,0,0:0:0:0:
112,352,41644,1,0,0:0:0:0:
60,232,41930,2,0,L|64:144,1,68.0000012969971
112,60,42215,2,0,P|80:48|40:52,2,68.0000012969971
200,120,42644,1,0,0:0:0:0:
200,120,42787,2,0,P|236:136|336:120,1,136.000002593994
468,32,43358,5,0,0:0:0:0:
256,192,43501,12,0,46787,0:0:0:0:
108,96,47930,6,0,B|148:84|148:84|188:104|188:104|224:72|268:56|324:96|336:132,1,240,0|0,3:0|3:0,0:0:0:0:
288,228,48501,2,0,P|256:188|256:152,1,80,8|0,3:0|3:0,0:0:0:0:
376,192,48787,2,0,B|384:248|384:248|356:308,1,120
332,320,49073,6,0,L|168:308,1,160,0|0,3:0|0:0,0:0:0:0:
80,292,49501,1,0,3:0:0:0:
140,224,49644,2,0,B|152:188|152:188|140:132,1,80,8|0,3:0|0:0,0:0:0:0:
236,68,49930,2,0,B|224:104|224:104|236:160,1,80
304,204,50215,6,0,B|364:232|448:224|448:224|412:252|412:252|372:248|340:272,1,240,0|0,3:0|3:0,0:0:0:0:
272,300,50787,2,0,P|276:336|312:372,1,80,0|0,3:0|3:0,0:0:0:0:
380,272,51073,2,0,L|384:136,1,120
408,128,51358,6,0,B|352:112|352:112|308:120|308:120|236:100,1,160,0|0,3:0|0:0,0:0:0:0:
168,76,51787,1,0,3:0:0:0:
112,148,51930,2,0,P|104:200|120:232,1,80,8|0,3:0|0:0,0:0:0:0:
260,224,52215,2,0,P|220:188|185:184,1,80
188,284,52501,6,0,B|224:328|296:324|328:296|344:260|344:260|380:268|412:252,1,240,0|0,3:0|3:0,0:0:0:0:
492,200,53073,2,0,P|504:156|480:100,1,80,8|0,3:0|3:0,0:0:0:0:
332,92,53358,2,0,P|364:144|444:148,1,120
408,168,53644,6,0,L|248:160,1,160,0|0,3:0|0:0,0:0:0:0:
160,148,54073,1,0,3:0:0:0:
68,184,54215,2,0,B|56:144|56:144|76:84,1,80,8|0,3:0|0:0,0:0:0:0:
172,160,54501,2,0,B|184:200|184:200|164:260,1,80
84,332,54787,6,0,B|64:320|28:316|28:316|76:316|120:300|120:300|160:328|220:304,1,240,0|0,3:0|3:0,0:0:0:0:
292,260,55358,2,0,P|308:212|284:156,1,80,8|0,3:0|3:0,0:0:0:0:
232,132,55644,2,0,P|284:148|372:84,1,160,0|0,0:0|3:0,0:0:0:0:
148,160,61644,6,0,L|144:96,2,40
84,220,61930,2,0,B|136:208|136:208|192:220|192:220|256:204,1,160
320,176,62358,1,0,0:0:0:0:
384,116,62501,2,0,P|388:84|380:44,2,40
404,204,62787,2,0,P|408:232|416:264,2,40
320,176,63073,2,0,P|280:168|168:172,1,120
180,172,63358,2,0,P|120:176|44:164,2,120
236,92,63930,6,0,L|240:44,2,40
276,168,64215,2,0,B|268:224|268:224|288:268|288:268|276:340,1,160
212,368,64644,1,0,0:0:0:0:
136,340,64787,2,0,P|108:336|76:336,2,40
200,284,65073,5,0,0:0:0:0:
352,212,65358,1,0,0:0:0:0:
216,140,65644,1,0,0:0:0:0:
300,308,65930,1,0,0:0:0:0:
396,192,66215,6,0,P|400:164|400:128,2,40
444,260,66501,2,0,P|400:248|268:248,1,160
208,264,66930,1,0,0:0:0:0:
152,324,67073,2,0,L|144:372,2,40
104,248,67358,2,0,L|112:200,2,40
76,320,67644,6,0,P|28:272|44:196,1,120
36,204,67930,2,0,P|48:152|44:68,2,120
104,248,68501,6,0,P|152:232|200:204,1,80
228,152,68787,2,0,L|240:44,1,80
316,128,69073,2,0,L|308:216,1,80
388,264,69358,2,0,L|400:156,1,80
392,92,69644,6,0,P|364:60|244:80,1,160
104,188,70215,2,0,P|48:196|4:196,2,80
188,152,70644,1,0,0:0:0:0:
248,220,70787,6,0,P|248:256|244:280,2,40
321,165,71073,2,0,P|285:129|173:181,1,160
148,224,71501,1,0,0:0:0:0:
80,272,71644,2,0,P|60:276|32:280,2,40
152,304,71930,2,0,P|180:300|208:300,2,40
232,360,72215,6,0,P|248:308|232:208,1,120
240,224,72501,2,0,P|232:168|248:88,2,120
324,264,73073,6,0,L|364:252,2,40
256,304,73358,2,0,B|232:300|232:300|204:304|204:304|172:296|172:296|136:300|136:300|84:292,1,160
40,248,73787,1,0,0:0:0:0:
24,172,73930,2,0,L|24:120,2,40
100,192,74215,5,0,0:0:0:0:
180,112,74501,1,0,0:0:0:0:
240,212,74787,1,0,0:0:0:0:
348,180,75073,1,0,0:0:0:0:
256,192,75358,12,0,78787,0:0:0:0:
96,140,79930,5,0,0:0:0:0:
180,108,80073,1,0,0:0:0:0:
248,168,80215,2,0,P|264:220|220:284,1,120
68,224,80644,2,0,B|116:204|116:204|192:216,1,120
336,268,81073,2,0,L|416:260,2,80
260,296,81501,6,0,L|268:156,1,120
236,92,81858,2,0,P|192:76|112:120,1,120
88,172,82215,5,0,0:0:0:0:
128,248,82358,1,0,0:0:0:0:
212,268,82501,2,0,B|260:272|260:272|296:264|296:264|368:272,1,120
484,344,82930,2,0,L|480:384,1,40
408,260,83144,1,0,0:0:0:0:
412,228,83215,1,0,0:0:0:0:
416,192,83287,1,0,0:0:0:0:
420,164,83358,6,0,B|464:156|464:156|512:164,2,80
336,208,83787,2,0,L|208:196,1,120
128,240,84144,2,0,P|116:192|172:120,1,120
232,76,84501,5,0,0:0:0:0:
316,112,84644,1,0,0:0:0:0:
324,200,84787,2,0,B|280:216|280:216|200:200,1,120
32,134,85215,2,0,B|76:118|76:118|156:134,1,120
248,280,85644,2,0,P|256:324|236:364,2,80
200,196,86073,6,0,L|340:188,1,120
400,108,86430,2,0,L|280:114,1,120
200,80,86787,5,0,0:0:0:0:
144,148,86930,1,0,0:0:0:0:
72,96,87073,2,0,P|52:136|100:224,1,120
220,264,87501,2,0,L|280:264,1,40
396,304,87715,1,0,0:0:0:0:
404,288,87787,1,0,0:0:0:0:
412,272,87858,1,0,0:0:0:0:
420,256,87930,6,0,L|424:200,2,40
324,172,88215,2,0,L|312:117,2,40
208,136,88501,2,0,L|173:91,2,40
96,132,88787,1,0,0:0:0:0:
92,156,88858,1,0,0:0:0:0:
88,176,88930,1,0,0:0:0:0:
84,196,89001,1,0,0:0:0:0:
80,216,89073,6,0,P|80:264|104:296,1,80
256,268,89358,2,0,P|216:236|120:260,1,120
332,348,89787,2,0,B|356:312|356:312|364:216,1,120
376,80,90215,2,0,L|384:-4,2,80
312,172,90644,6,0,P|272:184|192:148,1,120
264,80,91001,2,0,P|304:68|384:104,1,120
424,168,91358,5,0,0:0:0:0:
400,248,91501,1,0,0:0:0:0:
328,288,91644,2,0,L|192:280,1,120
64,220,92073,2,0,P|40:172|84:96,1,120
192,148,92501,2,0,P|152:168|104:156,2,80
264,84,92930,6,0,L|260:224,1,120
260,296,93287,1,0,0:0:0:0:
352,232,93430,1,0,0:0:0:0:
352,232,93501,1,0,0:0:0:0:
428,304,93644,6,0,P|436:352|424:380,1,80
288,284,93930,2,0,P|268:240|304:160,1,120
472,240,94358,2,0,B|432:248|432:248|328:228,1,120
232,120,94787,2,0,L|228:28,2,80
188,216,95215,6,0,P|144:240|60:204,1,120
84,64,95573,2,0,P|120:96|124:176,1,120
72,304,95930,5,0,0:0:0:0:
168,320,96073,1,0,0:0:0:0:
260,312,96215,2,0,B|296:276|296:276|308:200,1,120
156,108,96644,2,0,B|166:157|166:157|223:209,1,120
380,124,97073,1,0,0:0:0:0:
360,136,98215,5,0,0:0:0:0:
284,180,98501,1,0,0:0:0:0:
352,228,98787,2,0,L|348:308,1,80
256,348,99358,6,0,L|264:216,1,120
188,128,100215,1,0,0:0:0:0:
188,128,100501,2,0,P|212:136|304:96,1,120
228,32,101358,5,0,0:0:0:0:
228,32,101644,2,0,B|204:72|228:112|228:112|252:156|224:196,1,160
168,260,102358,1,0,0:0:0:0:
168,260,102430,1,0,0:0:0:0:
168,260,102501,2,0,L|112:260,1,40
164,152,102787,5,0,0:0:0:0:
256,256,102930,1,0,0:0:0:0:
368,200,103073,2,0,P|400:148|352:48,1,160
252,84,103501,1,0,0:0:0:0:
252,84,103644,2,0,B|280:116|280:116|336:132,1,80
432,242,103930,2,0,B|404:210|404:210|348:194,1,80
256,184,104215,6,0,P|188:193|134:272,1,160
220,348,104644,1,0,0:0:0:0:
220,348,104787,2,0,P|236:308|220:260,1,80
172,196,105073,5,0,0:0:0:0:
108,128,105215,1,0,0:0:0:0:
200,104,105358,2,0,B|252:96|252:96|368:124,1,160
432,180,105787,1,0,0:0:0:0:
432,180,105930,2,0,L|428:272,1,80
344,328,106215,6,0,P|336:288|364:236,1,80
208,192,106501,2,0,P|245:207|274:258,1,80
160,328,106787,1,0,0:0:0:0:
140,332,106858,1,0,0:0:0:0:
119,332,106930,1,0,0:0:0:0:
99,328,107001,1,0,0:0:0:0:
82,320,107073,2,0,L|37:292,2,40
196,268,107358,5,0,0:0:0:0:
256,328,107501,1,0,0:0:0:0:
324,280,107644,2,0,B|381:276|381:276|427:288|427:288|492:284,2,160
232,292,108358,1,0,0:0:0:0:
152,256,108501,6,0,P|116:204|172:108,1,160
336,144,109073,2,0,P|300:188|184:176,1,160
68,96,109644,6,0,B|60:56|60:56|72:8,1,80
148,68,109930,2,0,B|156:116|156:116|132:188|132:188|144:236,1,160
192,292,110358,1,0,0:0:0:0:
264,336,110501,2,0,P|308:348|364:332,1,80
412,284,110787,6,0,L|420:244,2,40
340,216,111073,2,0,L|332:168,2,40
252,172,111358,2,0,L|260:68,1,80
268,16,111644,5,0,0:0:0:0:
180,92,111787,1,0,0:0:0:0:
296,140,111930,1,0,0:0:0:0:
