osu file format v14

[General]
AudioFilename: miracle_5ympho_x.mp3
AudioLeadIn: 0
PreviewTime: 9073
Countdown: 0
SampleSet: Normal
StackLeniency: 0.7
Mode: 0
LetterboxInBreaks: 0
WidescreenStoryboard: 0

[Editor]
Bookmarks: 17073,38787,47930,61644,79930,98215,102787,111930,120787
DistanceSpacing: 1
BeatDivisor: 4
GridSize: 4
TimelineZoom: 1

[Metadata]
Title:Miracle 5ympho X
TitleUnicode:Miracle 5ympho X
Artist:USAO
ArtistUnicode:USAO
Creator:Mel
Version:Black Another 2013
Source:beatmania IIDX 21 SPADA
Tags:frey sionkotori kokodoko ナウい 一年一片 frenchcore dubstep intensity fullerene kurokami gezo
BeatmapID:1109572
BeatmapSetID:137394

[Difficulty]
HPDrainRate:6
CircleSize:4
OverallDifficulty:7.5
ApproachRate:9.5
SliderMultiplier:1.8
SliderTickRate:1

[Events]
//Background and Video events
0,0,"5ympho.png",0,0
//Break Periods
//Storyboard Layer 0 (Background)
//Storyboard Layer 1 (Fail)
//Storyboard Layer 2 (Pass)
//Storyboard Layer 3 (Foreground)
//Storyboard Sound Samples

[TimingPoints]
1073,285.714285714286,4,1,0,60,1,0
1073,-133.333333333333,4,1,0,60,0,0
9073,-133.333333333333,4,1,0,60,0,0
10215,-100,4,1,0,60,0,0
18501,-100,4,1,0,60,0,0
20501,-133.333333333333,4,2,0,90,0,0
29644,-117.647058823529,4,1,0,60,0,0
47930,-100,4,1,0,60,0,1
48001,-100,4,1,0,60,0,0
49215,-100,4,1,0,20,0,0
49501,-100,4,1,0,60,0,0
49787,-100,4,1,0,20,0,0
50215,-100,4,1,0,60,0,0
51501,-100,4,1,0,20,0,0
51787,-100,4,1,0,60,0,0
52073,-100,4,1,0,20,0,0
52501,-100,4,1,0,60,0,0
53787,-100,4,1,0,20,0,0
54073,-100,4,1,0,60,0,0
54358,-100,4,1,0,20,0,0
54787,-100,4,1,0,60,0,0
60215,-100,4,1,0,15,0,0
61644,-100,4,1,0,60,0,0
79930,-100,4,1,0,60,0,1
89001,-100,4,1,0,60,0,0
89073,-100,4,1,0,60,0,1
97073,-100,4,1,0,60,0,0
98215,-133.333333333333,4,1,0,60,0,0
102215,-100,4,1,0,60,0,0
102787,-100,4,1,0,60,0,1
102858,-100,4,1,0,60,0,0
107358,-100,4,1,0,60,0,1
107430,-100,4,1,0,60,0,0
111930,-133.333333333333,4,1,0,60,0,0
119930,-200,4,1,0,10,0,0

[Colours]
Combo1 : 244,244,0
Combo2 : 244,11,81

[HitObjects]
120,124,1073,5,0,0:0:0:0:
368,72,1787,1,0,0:0:0:0:
380,116,1858,1,0,0:0:0:0:
372,164,1930,1,0,0:0:0:0:
300,284,2073,1,0,0:0:0:0:
160,292,2215,2,0,P|112:253|132:111,1,202.500007724762
256,192,3073,1,0,0:0:0:0:
352,292,3358,2,0,P|400:253|380:111,1,202.500007724762
256,52,4215,1,0,0:0:0:0:
168,184,4501,6,0,P|232:220|360:160,2,202.500007724762
256,52,5644,1,0,0:0:0:0:
88,172,5930,1,0,0:0:0:0:
256,280,6215,1,0,0:0:0:0:
408,172,6358,1,0,0:0:0:0:
394,127,6429,1,0,0:0:0:0:
363,91,6501,1,0,0:0:0:0:
224,40,6644,1,0,0:0:0:0:
100,136,6787,6,0,P|92:192|136:280,1,135.000005149842
256,320,7215,1,0,0:0:0:0:
384,264,7358,2,0,P|410:202|404:136,1,135.000005149842,0|0,0:0|0:0,0:0:0:0:
44,192,7930,2,0,P|96:184|176:240,1,135.000005149842
256,320,8358,1,0,0:0:0:0:
348,224,8501,2,0,P|403:187|469:192,1,135.000005149842
469,192,9073,1,0,0:0:0:0:
304,144,10215,5,0,0:0:0:0:
472,184,10358,1,0,0:0:0:0:
156,60,10501,2,0,P|124:116|164:224,1,180
288,332,10930,2,0,P|339:316|367:277,1,90
378,103,11215,2,0,P|326:118|298:157,1,90
192,288,11501,1,0,0:0:0:0:
72,180,11644,2,0,P|104:140|168:136,1,90
304,144,11930,1,0,0:0:0:0:
444,264,12073,2,0,P|468:208|452:168,1,90
304,144,12358,6,0,P|280:200|296:240,1,90
408,336,12644,1,0,0:0:0:0:
208,148,12787,1,0,0:0:0:0:
348,284,12930,2,0,P|296:312|248:296,1,90
92,304,13215,2,0,P|100:256|140:220,1,90
304,144,13501,1,0,0:0:0:0:
488,104,13644,6,0,B|472:148|416:168|416:168|364:184|336:236,1,180
256,336,14073,1,0,0:0:0:0:
112,236,14215,1,0,0:0:0:0:
104,188,14287,1,0,0:0:0:0:
116,140,14358,1,0,0:0:0:0:
256,40,14501,1,0,0:0:0:0:
396,140,14644,1,0,0:0:0:0:
408,188,14715,1,0,0:0:0:0:
400,236,14787,1,0,0:0:0:0:
256,336,14930,6,0,P|240:280|264:228,1,90
372,100,15215,1,0,0:0:0:0:
248,250,15358,2,0,P|192:240|168:216,1,90
56,88,15644,2,0,P|108:56|156:64,1,90
288,160,15930,1,0,0:0:0:0:
448,288,16073,2,0,P|400:332|352:324,1,90
288,160,16358,2,0,P|336:116|384:124,1,90
378,332,16644,2,0,P|324:336|280:324,1,90
140,268,16930,1,0,0:0:0:0:
76,124,17073,6,0,P|64:172|80:216,1,90
220,332,17358,2,0,P|232:284|216:240,1,90
180,76,17644,1,0,0:0:0:0:
68,207,17787,2,0,P|96:240|156:248,1,90
300,208,18073,1,0,0:0:0:0:
424,104,18215,2,0,P|384:76|340:72,1,90
184,112,18501,1,0,0:0:0:0:
148,136,18573,1,0,0:0:0:0:
136,176,18644,1,0,0:0:0:0:
156,216,18715,1,0,0:0:0:0:
192,240,18787,5,0,0:0:0:0:
232,232,18858,1,0,0:0:0:0:
264,212,18930,1,0,0:0:0:0:
304,216,19001,1,0,0:0:0:0:
340,236,19073,1,0,0:0:0:0:
360,276,19144,1,0,0:0:0:0:
356,320,19215,1,0,0:0:0:0:
328,348,19287,2,0,P|308:356|276:356,1,45
284,336,20501,6,0,P|224:340|208:332,1,67.5000025749208
108,296,20787,2,0,P|136:248|132:160,1,135.000005149842
176,56,21215,1,0,0:0:0:0:
276,124,21358,2,0,P|320:140|360:136,1,67.5000025749208
440,136,21644,2,0,P|396:160|320:240,1,135.000005149842
252,328,22073,1,0,0:0:0:0:
144,280,22215,2,0,L|64:232,1,67.5000025749208
104,124,22501,2,0,L|184:172,1,67.5000025749208
284,224,22787,6,0,P|336:248|428:232,2,135.000005149842,0|0|0,0:0|0:0|0:0,0:0:0:0:
104,124,23644,1,0,0:0:0:0:
284,224,23930,1,0,0:0:0:0:
284,224,24501,2,0,P|300:176|369:123,1,135.000005149842
364,124,25073,6,0,P|312:120|288:116,1,67.5000025749208
212,44,25358,2,0,P|180:84|204:176,1,135.000005149842
260,268,25787,1,0,0:0:0:0:
388,316,25930,2,0,P|436:337|459:359,1,67.5000025749208
336,264,26215,2,0,P|344:200|328:108,1,135.000005149842
335,130,27073,5,0,0:0:0:0:
335,130,27358,2,0,P|384:120|472:148,2,135.000005149842,0|0|0,0:0|0:0|0:0,0:0:0:0:
190,196,28215,1,0,0:0:0:0:
190,196,28500,2,0,P|141:206|53:178,2,135.000005149842,0|0|0,0:0|0:0|0:0,0:0:0:0:
403,144,29358,1,0,0:0:0:0:
403,144,29644,6,0,P|412:192|368:296,1,153.000002918243
212,340,30073,2,0,P|160:336|124:304,1,76.5000014591217
24,192,30358,1,0,0:0:0:0:
140,60,30501,2,0,P|174:43|212:44,1,76.5000014591217
403,144,30787,2,0,P|424:188|412:240,1,76.5000014591217
296,340,31073,2,0,P|240:352|144:296,1,153.000002918243
24,192,31501,1,0,0:0:0:0:
140,60,31644,2,0,P|184:56|216:76,1,76.5000014591217
324,224,31930,6,0,B|322:280|281:307|281:307|223:345,1,153.000002918243
100,248,32358,2,0,L|188:192,1,76.5000014591217
344,120,32644,1,0,0:0:0:0:
384,300,32787,2,0,P|336:336|292:324,1,76.5000014591217
164,208,33073,2,0,P|176:161|289:114,1,153.000002918243
460,88,33501,2,0,P|468:140|440:184,1,76.5000014591217
324,252,33787,1,0,0:0:0:0:
160,280,33930,2,0,P|152:236|172:200,1,76.5000014591217
396,236,34215,6,0,P|388:288|296:320,1,153.000002918243
164,208,34644,1,0,0:0:0:0:
92,56,34787,2,0,P|48:80|36:120,1,76.5000014591217
164,208,35073,2,0,P|208:184|220:144,1,76.5000014591217
324,36,35358,2,0,P|312:92|348:180,1,153.000002918243
296,328,35787,1,0,0:0:0:0:
112,292,35930,1,0,0:0:0:0:
48,128,36073,2,0,P|96:112|140:128,1,76.5000014591217
252,244,36358,1,0,0:0:0:0:
44,320,36501,6,0,P|40:272|128:220,1,153.000002918243
328,252,36930,2,0,P|328:192|304:164,1,76.5000014591217
192,60,37215,1,0,0:0:0:0:
118,218,37358,2,0,P|168:244|272:212,1,153.000002918243
259,223,38787,5,0,0:0:0:0:
468,248,39073,1,0,0:0:0:0:
384,44,39358,1,0,0:0:0:0:
259,223,39644,2,0,B|240:264|240:264|192:292,1,76.5000014591217
72,184,39930,2,0,B|91:143|91:143|139:115,1,76.5000014591217
276,88,40215,1,0,0:0:0:0:
420,196,40358,1,0,0:0:0:0:
260,224,40501,2,0,P|256:284|276:316,1,76.5000014591217
420,196,40787,2,0,P|424:136|404:104,1,76.5000014591217
276,88,41073,5,0,0:0:0:0:
176,268,41358,1,0,0:0:0:0:
72,104,41644,1,0,0:0:0:0:
176,268,41930,2,0,B|200:232|200:232|204:192,1,76.5000014591217
72,104,42215,2,0,B|48:144|48:144|44:180,1,76.5000014591217
128,332,42501,2,0,P|168:348|216:336,1,76.5000014591217
320,216,42787,2,0,L|348:136,1,76.5000014591217
472,36,43073,2,0,L|444:116,1,76.5000014591217
388,276,43358,6,0,P|352:304|300:300,1,76.5000014591217
140,264,43644,1,0,0:0:0:0:
76,92,43787,1,0,0:0:0:0:
240,156,43930,1,0,0:0:0:0:
412,252,44073,1,0,0:0:0:0:
480,100,44215,2,0,L|392:68,1,76.5000014591217
240,156,44501,6,0,L|328:188,1,76.5000014591217
440,332,44787,1,0,0:0:0:0:
256,316,44930,1,0,0:0:0:0:
152,164,45073,2,0,P|160:112|204:80,1,76.5000014591217
314,183,45358,2,0,P|306:235|262:267,1,76.5000014591217
132,324,45644,5,0,0:0:0:0:
92,328,45715,1,0,0:0:0:0:
56,312,45787,1,0,0:0:0:0:
44,276,45858,1,0,0:0:0:0:
52,240,45930,1,0,0:0:0:0:
80,212,46001,1,0,0:0:0:0:
120,208,46073,1,0,0:0:0:0:
156,224,46144,1,0,0:0:0:0:
196,216,46215,5,0,0:0:0:0:
224,188,46287,1,0,0:0:0:0:
232,152,46358,1,0,0:0:0:0:
224,112,46430,1,0,0:0:0:0:
200,76,46501,1,0,0:0:0:0:
160,60,46573,1,0,0:0:0:0:
120,60,46644,2,0,L|72:68,2,38.2500007295609
120,76,47930,6,0,B|158:108|148:150|148:150|186:170|186:170|164:264|264:280,1,270
420,292,48501,2,0,P|476:268|492:216,1,90
436,48,48787,2,0,P|368:28|284:120,1,180
352,232,49215,1,0,0:0:0:0:
460,148,49358,2,0,P|404:140|368:100,1,90
208,64,49644,2,0,P|264:72|300:112,1,90
432,224,49930,1,0,0:0:0:0:
468,88,50073,1,0,0:0:0:0:
468,88,50215,6,0,B|431:89|431:89|415:131|415:131|378:144|378:144|362:180|362:180|307:221|250:153,1,270
168,44,50787,2,0,P|136:80|136:140,1,90
264,264,51073,2,0,P|344:276|444:204,1,180
468,88,51501,1,0,0:0:0:0:
336,24,51644,2,0,P|316:72|332:128,1,90
264,264,51930,2,0,P|284:216|268:160,1,90
208,24,52215,1,0,0:0:0:0:
180,168,52358,1,0,0:0:0:0:
180,168,52501,6,0,B|208:128|260:140|260:140|304:112|304:112|384:108|416:200,1,270
360,328,53073,2,0,P|304:340|268:320,1,90
132,232,53358,2,0,P|105:181|196:80,1,180
316,56,53787,1,0,0:0:0:0:
444,132,53930,2,0,P|468:176|460:232,1,90
328,324,54215,2,0,P|304:280|312:224,1,90
376,100,54501,1,0,0:0:0:0:
464,236,54644,1,0,0:0:0:0:
464,236,54787,6,0,B|411:227|411:227|388:189|388:189|347:179|347:179|319:113|227:116,1,270
68,136,55358,2,0,P|32:168|20:216,1,90
136,100,55644,2,0,P|172:68|184:20,1,90
256,192,55930,12,0,60215,0:0:0:0:
120,92,61644,5,0,0:0:0:0:
104,128,61715,1,0,0:0:0:0:
96,164,61787,1,0,0:0:0:0:
100,200,61858,1,0,0:0:0:0:
112,228,61930,1,0,0:0:0:0:
140,248,62001,1,0,0:0:0:0:
172,256,62073,1,0,0:0:0:0:
200,244,62144,1,0,0:0:0:0:
232,228,62215,1,0,0:0:0:0:
264,224,62287,5,0,0:0:0:0:
292,228,62358,1,0,0:0:0:0:
320,240,62430,1,0,0:0:0:0:
356,248,62501,1,0,0:0:0:0:
392,236,62573,1,0,0:0:0:0:
416,208,62644,1,0,0:0:0:0:
424,168,62715,1,0,0:0:0:0:
416,132,62787,1,0,0:0:0:0:
400,96,62858,1,0,0:0:0:0:
372,76,62930,1,0,0:0:0:0:
336,64,63001,5,0,0:0:0:0:
296,60,63073,1,0,0:0:0:0:
256,64,63144,1,0,0:0:0:0:
224,76,63215,1,0,0:0:0:0:
188,96,63287,1,0,0:0:0:0:
144,96,63358,1,0,0:0:0:0:
32,300,63573,1,0,0:0:0:0:
224,284,63787,1,0,0:0:0:0:
144,96,63930,5,0,0:0:0:0:
112,128,64001,1,0,0:0:0:0:
96,168,64073,1,0,0:0:0:0:
92,212,64144,1,0,0:0:0:0:
108,248,64215,1,0,0:0:0:0:
144,268,64287,1,0,0:0:0:0:
184,280,64358,1,0,0:0:0:0:
224,284,64430,1,0,0:0:0:0:
260,276,64501,1,0,0:0:0:0:
300,280,64573,5,0,0:0:0:0:
340,292,64644,1,0,0:0:0:0:
380,288,64715,1,0,0:0:0:0:
420,268,64787,1,0,0:0:0:0:
444,232,64858,1,0,0:0:0:0:
440,184,64930,1,0,0:0:0:0:
416,144,65001,1,0,0:0:0:0:
388,112,65073,2,0,P|344:76|208:84,1,180
124,272,65644,2,0,P|168:308|304:300,1,180
256,60,66215,5,0,0:0:0:0:
216,48,66287,1,0,0:0:0:0:
172,48,66358,1,0,0:0:0:0:
136,72,66430,1,0,0:0:0:0:
116,112,66501,1,0,0:0:0:0:
116,156,66573,1,0,0:0:0:0:
136,196,66644,1,0,0:0:0:0:
168,208,66715,1,0,0:0:0:0:
208,216,66787,1,0,0:0:0:0:
248,200,66858,5,0,0:0:0:0:
284,176,66930,1,0,0:0:0:0:
328,152,67001,1,0,0:0:0:0:
372,160,67073,1,0,0:0:0:0:
408,184,67144,1,0,0:0:0:0:
428,220,67215,1,0,0:0:0:0:
432,264,67287,1,0,0:0:0:0:
412,300,67358,1,0,0:0:0:0:
380,328,67430,1,0,0:0:0:0:
336,348,67501,5,0,0:0:0:0:
292,344,67573,1,0,0:0:0:0:
256,316,67644,1,0,0:0:0:0:
220,292,67715,1,0,0:0:0:0:
180,288,67787,1,0,0:0:0:0:
136,292,67858,1,0,0:0:0:0:
96,312,67930,1,0,0:0:0:0:
44,128,68144,1,0,0:0:0:0:
264,236,68358,1,0,0:0:0:0:
96,312,68501,5,0,0:0:0:0:
84,272,68573,1,0,0:0:0:0:
88,232,68644,1,0,0:0:0:0:
116,200,68715,1,0,0:0:0:0:
156,184,68787,1,0,0:0:0:0:
196,192,68858,1,0,0:0:0:0:
232,208,68930,1,0,0:0:0:0:
264,236,69001,1,0,0:0:0:0:
296,256,69073,1,0,0:0:0:0:
336,252,69144,5,0,0:0:0:0:
376,240,69215,1,0,0:0:0:0:
412,216,69287,1,0,0:0:0:0:
432,176,69358,1,0,0:0:0:0:
428,136,69430,1,0,0:0:0:0:
408,100,69501,1,0,0:0:0:0:
372,72,69573,1,0,0:0:0:0:
336,52,69644,6,0,P|284:40|236:56,1,90
132,152,69930,2,0,P|184:164|232:148,1,90
412,52,70215,2,0,P|380:116|344:124,1,90
56,152,70501,2,0,P|88:88|124:80,1,90
312,64,70787,5,0,0:0:0:0:
348,60,70858,1,0,0:0:0:0:
384,68,70930,1,0,0:0:0:0:
416,88,71001,1,0,0:0:0:0:
436,120,71073,1,0,0:0:0:0:
432,160,71144,1,0,0:0:0:0:
416,196,71215,1,0,0:0:0:0:
392,224,71287,1,0,0:0:0:0:
352,236,71358,1,0,0:0:0:0:
316,232,71430,5,0,0:0:0:0:
276,208,71501,1,0,0:0:0:0:
252,172,71573,1,0,0:0:0:0:
212,152,71644,1,0,0:0:0:0:
176,136,71715,1,0,0:0:0:0:
136,136,71787,1,0,0:0:0:0:
100,160,71858,1,0,0:0:0:0:
80,196,71930,1,0,0:0:0:0:
72,236,72001,1,0,0:0:0:0:
84,276,72073,5,0,0:0:0:0:
104,308,72144,1,0,0:0:0:0:
140,324,72215,1,0,0:0:0:0:
180,328,72287,1,0,0:0:0:0:
216,312,72358,1,0,0:0:0:0:
256,296,72430,1,0,0:0:0:0:
296,292,72501,1,0,0:0:0:0:
484,356,72715,1,0,0:0:0:0:
416,160,72930,1,0,0:0:0:0:
296,292,73073,5,0,0:0:0:0:
264,316,73144,1,0,0:0:0:0:
228,328,73215,1,0,0:0:0:0:
188,336,73287,1,0,0:0:0:0:
148,328,73358,1,0,0:0:0:0:
112,304,73430,1,0,0:0:0:0:
92,268,73501,1,0,0:0:0:0:
80,224,73573,1,0,0:0:0:0:
88,184,73644,1,0,0:0:0:0:
108,148,73715,5,0,0:0:0:0:
144,116,73787,1,0,0:0:0:0:
184,96,73858,1,0,0:0:0:0:
224,92,73930,1,0,0:0:0:0:
264,96,74001,1,0,0:0:0:0:
304,108,74073,1,0,0:0:0:0:
336,132,74144,1,0,0:0:0:0:
360,164,74215,2,0,P|384:212|348:344,1,180
152,220,74787,2,0,P|128:172|164:40,1,180
360,164,75358,5,0,0:0:0:0:
376,200,75430,1,0,0:0:0:0:
384,240,75501,1,0,0:0:0:0:
380,280,75573,1,0,0:0:0:0:
360,312,75644,1,0,0:0:0:0:
328,336,75715,1,0,0:0:0:0:
288,340,75787,1,0,0:0:0:0:
252,332,75858,1,0,0:0:0:0:
224,308,75930,1,0,0:0:0:0:
212,272,76001,5,0,0:0:0:0:
220,232,76073,1,0,0:0:0:0:
244,200,76144,1,0,0:0:0:0:
276,172,76215,1,0,0:0:0:0:
296,136,76287,1,0,0:0:0:0:
296,96,76358,1,0,0:0:0:0:
280,56,76430,1,0,0:0:0:0:
244,32,76501,1,0,0:0:0:0:
204,28,76573,1,0,0:0:0:0:
164,44,76644,5,0,0:0:0:0:
132,68,76715,1,0,0:0:0:0:
116,104,76787,1,0,0:0:0:0:
116,144,76858,1,0,0:0:0:0:
132,184,76930,1,0,0:0:0:0:
148,224,77001,1,0,0:0:0:0:
148,268,77073,1,0,0:0:0:0:
308,356,77287,1,0,0:0:0:0:
392,160,77501,1,0,0:0:0:0:
176,112,77644,6,0,L|137:73,2,45
176,271,77930,2,0,L|137:310,2,45
335,271,78215,2,0,L|374:310,2,45
335,112,78501,2,0,L|374:73,2,45
176,272,78787,1,0,0:0:0:0:
176,272,79930,5,0,0:0:0:0:
104,96,80073,2,0,P|148:72|208:80,1,90
297,247,80358,1,0,0:0:0:0:
297,247,80430,2,0,P|259:278|169:267,1,135
188,72,80787,1,0,0:0:0:0:
188,72,80859,2,0,P|225:40|315:51,1,135
400,228,81215,1,0,0:0:0:0:
388,268,81287,1,0,0:0:0:0:
360,300,81358,1,0,0:0:0:0:
144,300,81501,6,0,P|132:248|184:176,1,135
360,300,81858,2,0,P|372:248|320:176,1,135
132,48,82215,2,0,P|161:89|216:99,1,90
392,128,82501,2,0,P|338:101|253:146,1,135
144,300,82930,6,0,L|116:344,2,45,0|0|0,0:0|0:0|0:0,0:0:0:0:
272,124,83215,2,0,L|296:80,2,45,0|0|0,0:0|0:0|0:0,0:0:0:0:
472,180,83501,1,0,0:0:0:0:
472,180,83573,1,0,0:0:0:0:
472,180,83644,2,0,P|412:208|384:204,1,90
156,84,84001,1,0,0:0:0:0:
156,84,84144,2,0,P|212:80|276:128,1,135
380,248,84501,5,0,0:0:0:0:
204,280,84644,1,0,0:0:0:0:
272,124,84787,2,0,P|313:85|400:88,1,135
388,301,85215,2,0,P|322:302|272:260,2,135,0|0|0,0:0|0:0|0:0,0:0:0:0:
480,124,85787,5,0,0:0:0:0:
451,143,85858,1,0,0:0:0:0:
421,166,85930,1,0,0:0:0:0:
272,260,86073,2,0,P|228:220|148:224,1,135
16,316,86430,2,0,P|60:356|140:352,1,135
304,232,86787,1,0,0:0:0:0:
236,48,86930,1,0,0:0:0:0:
372,176,87073,6,0,P|396:232|328:304,1,135
76,288,87501,1,0,0:0:0:0:
56,248,87573,1,0,0:0:0:0:
52,204,87644,1,0,0:0:0:0:
62,159,87715,1,0,0:0:0:0:
85,129,87787,1,0,0:0:0:0:
124,112,87858,1,0,0:0:0:0:
160,111,87930,1,0,0:0:0:0:
198,125,88001,1,0,0:0:0:0:
222,158,88073,1,0,0:0:0:0:
235,195,88144,1,0,0:0:0:0:
248,228,88215,5,0,0:0:0:0:
272,256,88287,1,0,0:0:0:0:
307,279,88358,1,0,0:0:0:0:
343,296,88430,1,0,0:0:0:0:
384,293,88501,1,0,0:0:0:0:
419,275,88573,1,0,0:0:0:0:
444,240,88644,1,0,0:0:0:0:
464,192,88715,1,0,0:0:0:0:
460,148,88787,1,0,0:0:0:0:
444,108,88858,1,0,0:0:0:0:
416,80,88930,5,0,0:0:0:0:
376,68,89001,1,0,0:0:0:0:
336,72,89073,2,0,P|288:88|264:124,1,90
204,272,89358,2,0,P|208:216|172:124,1,135
40,32,89787,2,0,P|36:88|72:180,2,135,0|0|0,0:0|0:0|0:0,0:0:0:0:
224,32,90358,5,0,0:0:0:0:
264,40,90430,1,0,0:0:0:0:
300,60,90501,1,0,0:0:0:0:
448,128,90644,2,0,P|462:181|408:250,1,135
260,280,91001,2,0,P|210:254|195:168,1,135
300,60,91358,5,0,0:0:0:0:
424,240,91501,1,0,0:0:0:0:
236,116,91644,2,0,P|188:100|112:176,1,135
256,280,92073,2,0,P|304:296|380:220,1,135
192,194,92501,2,0,P|165:224|162:279,1,90
159,271,92715,1,0,0:0:0:0:
159,271,92787,1,0,0:0:0:0:
168,104,92930,6,0,P|217:124|300:104,1,135
448,48,93287,1,0,0:0:0:0:
372,220,93430,1,0,0:0:0:0:
336,252,93501,1,0,0:0:0:0:
184,340,93644,2,0,P|128:340|96:284,1,90
4,216,93930,2,0,P|42:170|132:179,1,135
364,256,94358,2,0,P|428:269|481:230,2,135
256,104,94930,5,0,0:0:0:0:
256,140,95001,1,0,0:0:0:0:
256,180,95073,1,0,0:0:0:0:
80,204,95215,2,0,P|105:143|164:113,1,135
344,112,95573,2,0,P|388:128|428:220,1,135
280,340,95930,5,0,0:0:0:0:
132,164,96073,1,0,0:0:0:0:
344,112,96215,2,0,P|372:152|340:256,1,135
150,233,96644,2,0,P|135:169|168:112,1,135
256,180,97073,5,0,0:0:0:0:
256,180,98215,5,0,0:0:0:0:
456,144,98930,1,0,0:0:0:0:
456,144,99001,1,0,0:0:0:0:
456,144,99073,1,0,0:0:0:0:
408,268,99215,1,0,0:0:0:0:
280,316,99358,2,0,B|184:360|176:256|68:332,2,202.500007724762
232,68,100501,2,0,B|328:24|336:128|444:52,2,202.500007724762
280,316,101644,1,0,0:0:0:0:
232,68,102215,5,0,0:0:0:0:
120,188,102358,2,0,L|80:224,2,45
232,68,102644,1,0,0:0:0:0:
352,192,102787,5,0,0:0:0:0:
240,332,102930,1,0,0:0:0:0:
408,140,103073,2,0,P|424:223|353:269,1,180
168,232,103501,2,0,P|112:192|100:144,1,90
248,44,103787,2,0,P|304:84|316:132,1,90
344,272,104073,1,0,0:0:0:0:
176,316,104215,6,0,P|160:260|180:212,1,90
313,102,104501,2,0,P|368:118|399:160,1,90
376,328,104787,2,0,L|308:256,1,90
176,104,105073,1,0,0:0:0:0:
392,140,105215,1,0,0:0:0:0:
96,124,105358,6,0,P|120:164|240:156,1,180
428,72,105787,2,0,P|464:104|464:164,1,90
408,296,106073,2,0,P|356:312|312:288,1,90
208,144,106358,1,0,0:0:0:0:
128,296,106501,1,0,0:0:0:0:
280,356,106644,1,0,0:0:0:0:
336,164,106787,5,0,0:0:0:0:
320,120,106858,1,0,0:0:0:0:
288,84,106930,1,0,0:0:0:0:
252,60,107001,1,0,0:0:0:0:
208,56,107073,1,0,0:0:0:0:
164,64,107144,1,0,0:0:0:0:
124,84,107215,1,0,0:0:0:0:
96,116,107287,1,0,0:0:0:0:
80,156,107358,6,0,P|76:216|108:256,1,90
256,328,107644,2,0,P|308:336|396:248,1,180
468,88,108073,2,0,P|412:68|368:80,1,90
224,160,108358,1,0,0:0:0:0:
84,276,108501,6,0,P|128:312|168:316,1,90
372,284,108787,2,0,P|411:243|419:203,1,90
328,72,109073,1,0,0:0:0:0:
164,48,109215,2,0,P|124:88|128:152,1,90
160,280,109501,1,0,0:0:0:0:
328,328,109644,6,0,P|377:310|401:278,1,90
328,72,109930,2,0,P|279:90|255:122,1,90
184,260,110215,1,0,0:0:0:0:
72,348,110358,2,0,P|44:300|48:246,1,90
164,104,110644,1,0,0:0:0:0:
348,80,110787,1,0,0:0:0:0:
276,264,110930,1,0,0:0:0:0:
164,104,111073,5,0,0:0:0:0:
124,96,111144,1,0,0:0:0:0:
84,104,111215,1,0,0:0:0:0:
52,132,111287,1,0,0:0:0:0:
28,168,111358,2,0,P|20:224|40:272,1,90
196,320,111644,2,0,P|204:264|184:216,1,90
136,64,111930,5,0,0:0:0:0:
136,64,112644,1,0,0:0:0:0:
136,64,112715,1,0,0:0:0:0:
136,64,112787,1,0,0:0:0:0:
264,172,112930,1,0,0:0:0:0:
396,72,113073,1,0,0:0:0:0:
132,320,113501,1,0,0:0:0:0:
132,320,113930,5,0,0:0:0:0:
216,112,114215,1,0,0:0:0:0:
448,296,114644,2,0,B|342:332|357:229|261:252,1,202.500007724762,0|0,0:0|0:0,0:0:0:0:
76,296,115358,2,0,B|181:332|166:229|263:253,2,202.500007724762
264,160,116501,5,0,0:0:0:0:
264,160,117215,1,0,0:0:0:0:
264,160,117287,1,0,0:0:0:0:
264,160,117358,1,0,0:0:0:0:
264,272,117501,1,0,0:0:0:0:
368,332,117644,2,0,B|457:271|352:218|458:137,2,202.500007724762
144,332,118787,2,0,B|54:271|159:218|53:137,2,202.500007724762
252,208,119930,6,0,B|268:176|252:144|252:144|236:112|260:72,1,135
256,78,120787,5,0,0:0:0:0:
