osu file format v14

[General]
AudioFilename: miracle_5ympho_x.mp3
AudioLeadIn: 0
PreviewTime: 9073
Countdown: 0
SampleSet: Normal
StackLeniency: 0.7
Mode: 3
LetterboxInBreaks: 0
SpecialStyle: 0
WidescreenStoryboard: 0

[Editor]
Bookmarks: 17073,61644,98215,102787,120787
DistanceSpacing: 1
BeatDivisor: 4
GridSize: 8
TimelineZoom: 2.699999

[Metadata]
Title:Miracle 5ympho X
TitleUnicode:Miracle 5ympho X
Artist:USAO
ArtistUnicode:USAO
Creator:Mel
Version:7K Normal
Source:beatmania IIDX 21 SPADA
Tags:frey sionkotori kokodoko ナウい 一年一片 frenchcore dubstep intensity fullerene kurokami gezo
BeatmapID:448729
BeatmapSetID:137394

[Difficulty]
HPDrainRate:6
CircleSize:7
OverallDifficulty:6
ApproachRate:5
SliderMultiplier:1.4
SliderTickRate:1

[Events]
//Background and Video events
0,0,"5ympho.png",0,0
//Break Periods
//Storyboard Layer 0 (Background)
//Storyboard Layer 1 (Fail)
//Storyboard Layer 2 (Pass)
//Storyboard Layer 3 (Foreground)
//Storyboard Sound Samples

[TimingPoints]
1073,285.714285714286,4,1,0,60,1,0
47930,-100,4,1,0,60,0,1
48001,-100,4,1,0,60,0,0
58644,-100,4,1,0,15,0,0
61644,-100,4,1,0,60,0,0
79930,-100,4,1,0,60,0,1
97073,-100,4,1,0,60,0,0
102787,-100,4,1,0,60,0,1
102858,-100,4,1,0,60,0,0

[HitObjects]
402,192,1073,5,0,0:0:0:0:
256,192,1073,1,0,0:0:0:0:
109,192,1787,1,0,0:0:0:0:
402,192,1930,1,0,0:0:0:0:
182,192,2073,1,0,0:0:0:0:
329,192,2215,1,0,0:0:0:0:
256,192,2644,1,0,0:0:0:0:
402,192,3073,1,0,0:0:0:0:
256,192,3358,1,0,0:0:0:0:
109,192,3787,1,0,0:0:0:0:
256,192,4215,1,0,0:0:0:0:
402,192,4501,1,0,0:0:0:0:
109,192,4930,1,0,0:0:0:0:
256,192,5358,1,0,0:0:0:0:
36,192,5644,1,0,0:0:0:0:
475,192,5930,1,0,0:0:0:0:
36,192,6215,1,0,0:0:0:0:
402,192,6501,1,0,0:0:0:0:
109,192,6787,1,0,0:0:0:0:
402,192,7073,1,0,0:0:0:0:
36,192,7358,1,0,0:0:0:0:
475,192,7644,1,0,0:0:0:0:
36,192,7930,1,0,0:0:0:0:
475,192,8215,1,0,0:0:0:0:
182,192,8501,1,0,0:0:0:0:
329,192,8787,1,0,0:0:0:0:
36,192,9073,1,0,0:0:0:0:
475,192,9073,1,0,0:0:0:0:
182,192,10215,1,0,0:0:0:0:
329,192,10215,1,0,0:0:0:0:
182,192,10358,1,0,0:0:0:0:
329,192,10358,1,0,0:0:0:0:
182,192,10501,1,0,0:0:0:0:
329,192,10501,1,0,0:0:0:0:
256,192,10787,1,0,0:0:0:0:
329,192,11073,1,0,0:0:0:0:
475,192,11358,1,0,0:0:0:0:
256,192,11358,1,0,0:0:0:0:
329,192,11644,1,0,0:0:0:0:
109,192,11930,1,0,0:0:0:0:
402,192,12215,1,0,0:0:0:0:
329,192,12501,1,0,0:0:0:0:
475,192,12501,1,0,0:0:0:0:
329,192,12644,1,0,0:0:0:0:
475,192,12644,1,0,0:0:0:0:
475,192,12787,1,0,0:0:0:0:
329,192,12787,1,0,0:0:0:0:
109,192,13073,1,0,0:0:0:0:
36,192,13358,1,0,0:0:0:0:
182,192,13358,1,0,0:0:0:0:
182,192,13501,1,0,0:0:0:0:
36,192,13501,1,0,0:0:0:0:
36,192,13644,1,0,0:0:0:0:
182,192,13644,1,0,0:0:0:0:
402,192,13930,1,0,0:0:0:0:
182,192,14215,1,0,0:0:0:0:
329,192,14358,1,0,0:0:0:0:
109,192,14501,1,0,0:0:0:0:
256,192,14644,1,0,0:0:0:0:
182,192,14787,1,0,0:0:0:0:
329,192,14787,1,0,0:0:0:0:
329,192,14930,1,0,0:0:0:0:
182,192,14930,1,0,0:0:0:0:
182,192,15073,1,0,0:0:0:0:
329,192,15073,1,0,0:0:0:0:
36,192,15358,1,0,0:0:0:0:
329,192,15644,1,0,0:0:0:0:
109,192,15930,1,0,0:0:0:0:
402,192,15930,1,0,0:0:0:0:
256,192,16215,1,0,0:0:0:0:
402,192,16501,1,0,0:0:0:0:
182,192,16787,1,0,0:0:0:0:
109,192,17073,1,0,0:0:0:0:
256,192,17073,1,0,0:0:0:0:
256,192,17215,1,0,0:0:0:0:
109,192,17215,1,0,0:0:0:0:
109,192,17358,1,0,0:0:0:0:
256,192,17358,1,0,0:0:0:0:
402,192,17501,1,0,0:0:0:0:
256,192,17644,1,0,0:0:0:0:
475,192,17787,1,0,0:0:0:0:
329,192,17930,1,0,0:0:0:0:
182,192,18073,1,0,0:0:0:0:
402,192,18215,1,0,0:0:0:0:
109,192,18358,1,0,0:0:0:0:
256,192,18501,1,0,0:0:0:0:
402,192,18644,1,0,0:0:0:0:
109,192,18787,1,0,0:0:0:0:
329,192,18930,1,0,0:0:0:0:
182,192,19073,1,0,0:0:0:0:
329,192,19215,1,0,0:0:0:0:
256,192,19358,1,0,0:0:0:0:
109,192,20501,128,0,21644:0:0:0:0:
256,192,21644,128,0,22787:0:0:0:0:
475,192,21644,1,0,0:0:0:0:
109,192,22787,128,0,23930:0:0:0:0:
475,192,22787,1,0,0:0:0:0:
475,192,23930,1,0,0:0:0:0:
256,192,23930,128,0,25073:0:0:0:0:
36,192,25073,1,0,0:0:0:0:
109,192,25644,1,0,0:0:0:0:
402,192,25930,1,0,0:0:0:0:
182,192,26215,1,0,0:0:0:0:
402,192,27073,1,0,0:0:0:0:
256,192,27358,1,0,0:0:0:0:
475,192,27644,1,0,0:0:0:0:
109,192,27930,1,0,0:0:0:0:
256,192,28215,1,0,0:0:0:0:
475,192,28501,1,0,0:0:0:0:
109,192,28787,1,0,0:0:0:0:
402,192,29073,1,0,0:0:0:0:
329,192,29358,1,0,0:0:0:0:
256,192,29644,1,0,0:0:0:0:
109,192,29930,1,0,0:0:0:0:
402,192,29930,1,0,0:0:0:0:
402,192,30358,1,0,0:0:0:0:
329,192,30501,1,0,0:0:0:0:
36,192,30501,1,0,0:0:0:0:
256,192,30787,1,0,0:0:0:0:
475,192,31073,1,0,0:0:0:0:
182,192,31073,1,0,0:0:0:0:
109,192,31501,1,0,0:0:0:0:
182,192,31644,1,0,0:0:0:0:
475,192,31644,1,0,0:0:0:0:
256,192,31930,1,0,0:0:0:0:
109,192,32215,1,0,0:0:0:0:
402,192,32215,1,0,0:0:0:0:
402,192,32644,1,0,0:0:0:0:
329,192,32787,1,0,0:0:0:0:
36,192,32787,1,0,0:0:0:0:
36,192,33073,1,0,0:0:0:0:
475,192,33358,1,0,0:0:0:0:
329,192,33358,1,0,0:0:0:0:
109,192,33644,1,0,0:0:0:0:
402,192,33930,1,0,0:0:0:0:
109,192,33930,1,0,0:0:0:0:
256,192,34215,1,0,0:0:0:0:
109,192,34501,1,0,0:0:0:0:
402,192,34501,1,0,0:0:0:0:
109,192,34930,1,0,0:0:0:0:
329,192,35073,1,0,0:0:0:0:
36,192,35073,1,0,0:0:0:0:
256,192,35358,1,0,0:0:0:0:
402,192,35644,1,0,0:0:0:0:
402,192,36073,1,0,0:0:0:0:
182,192,36215,1,0,0:0:0:0:
475,192,36215,1,0,0:0:0:0:
402,192,36501,1,0,0:0:0:0:
182,192,36787,1,0,0:0:0:0:
475,192,36787,1,0,0:0:0:0:
329,192,37215,1,0,0:0:0:0:
475,192,37358,1,0,0:0:0:0:
182,192,37358,1,0,0:0:0:0:
109,192,37644,1,0,0:0:0:0:
402,192,37644,1,0,0:0:0:0:
256,192,38787,1,0,0:0:0:0:
109,192,38787,1,0,0:0:0:0:
182,192,39073,1,0,0:0:0:0:
329,192,39358,1,0,0:0:0:0:
109,192,39644,1,0,0:0:0:0:
402,192,39644,1,0,0:0:0:0:
182,192,39930,1,0,0:0:0:0:
402,192,40215,1,0,0:0:0:0:
109,192,40215,1,0,0:0:0:0:
36,192,40501,1,0,0:0:0:0:
475,192,40787,1,0,0:0:0:0:
256,192,40787,1,0,0:0:0:0:
329,192,41073,1,0,0:0:0:0:
329,192,41358,1,0,0:0:0:0:
36,192,41358,1,0,0:0:0:0:
402,192,41644,1,0,0:0:0:0:
182,192,41930,1,0,0:0:0:0:
475,192,41930,1,0,0:0:0:0:
256,192,42215,1,0,0:0:0:0:
329,192,42501,1,0,0:0:0:0:
36,192,42501,1,0,0:0:0:0:
475,192,42787,1,0,0:0:0:0:
182,192,43073,1,0,0:0:0:0:
109,192,43358,1,0,0:0:0:0:
475,192,43358,1,0,0:0:0:0:
182,192,43644,1,0,0:0:0:0:
402,192,43930,1,0,0:0:0:0:
256,192,44215,1,0,0:0:0:0:
329,192,44501,1,0,0:0:0:0:
109,192,44501,1,0,0:0:0:0:
182,192,44787,1,0,0:0:0:0:
256,192,45073,1,0,0:0:0:0:
402,192,45358,1,0,0:0:0:0:
475,192,45644,1,0,0:0:0:0:
182,192,45644,1,0,0:0:0:0:
329,192,45787,1,0,0:0:0:0:
256,192,45930,1,0,0:0:0:0:
182,192,46073,1,0,0:0:0:0:
36,192,46215,1,0,0:0:0:0:
402,192,46358,1,0,0:0:0:0:
182,192,46501,1,0,0:0:0:0:
256,192,46644,1,0,0:0:0:0:
475,192,46787,1,0,0:0:0:0:
36,192,46787,1,0,0:0:0:0:
329,192,47930,128,0,48787:0:0:0:0:
182,192,48358,1,0,0:0:0:0:
36,192,48501,128,0,48787:0:0:0:0:
402,192,49073,1,0,0:0:0:0:
182,192,49073,1,0,0:0:0:0:
256,192,49215,1,0,0:0:0:0:
329,192,49501,1,0,0:0:0:0:
109,192,49644,1,0,0:0:0:0:
475,192,49930,1,0,0:0:0:0:
109,192,50215,128,0,51073:0:0:0:0:
256,192,50644,1,0,0:0:0:0:
402,192,50787,128,0,51073:0:0:0:0:
36,192,51358,1,0,0:0:0:0:
329,192,51358,1,0,0:0:0:0:
109,192,51501,1,0,0:0:0:0:
402,192,51787,1,0,0:0:0:0:
256,192,51930,1,0,0:0:0:0:
475,192,52073,1,0,0:0:0:0:
182,192,52215,1,0,0:0:0:0:
256,192,52501,128,0,53358:0:0:0:0:
182,192,52930,1,0,0:0:0:0:
109,192,53073,128,0,53358:0:0:0:0:
109,192,53644,1,0,0:0:0:0:
402,192,53644,1,0,0:0:0:0:
329,192,53787,1,0,0:0:0:0:
36,192,54073,1,0,0:0:0:0:
256,192,54215,1,0,0:0:0:0:
109,192,54501,1,0,0:0:0:0:
182,192,54787,128,0,55644:0:0:0:0:
329,192,55215,1,0,0:0:0:0:
475,192,55358,128,0,55644:0:0:0:0:
329,192,55930,128,0,56430:0:0:0:0:
256,192,56644,1,0,0:0:0:0:
256,192,58644,128,0,59358:0:0:0:0:
329,192,59787,128,0,60215:0:0:0:0:
36,192,61644,128,0,63358:0:0:0:0:
402,192,61644,128,0,63358:0:0:0:0:
256,192,63573,1,0,0:0:0:0:
109,192,63787,1,0,0:0:0:0:
182,192,63930,128,0,65073:0:0:0:0:
329,192,63930,128,0,65073:0:0:0:0:
109,192,65358,1,0,0:0:0:0:
256,192,65358,1,0,0:0:0:0:
182,192,65644,1,0,0:0:0:0:
475,192,65644,1,0,0:0:0:0:
109,192,65930,1,0,0:0:0:0:
329,192,65930,1,0,0:0:0:0:
475,192,66215,128,0,67930:0:0:0:0:
256,192,66215,128,0,67930:0:0:0:0:
329,192,68144,1,0,0:0:0:0:
109,192,68358,1,0,0:0:0:0:
182,192,68501,128,0,69644:0:0:0:0:
402,192,68501,128,0,69644:0:0:0:0:
256,192,69787,1,0,0:0:0:0:
36,192,69930,1,0,0:0:0:0:
475,192,70073,1,0,0:0:0:0:
109,192,70215,1,0,0:0:0:0:
402,192,70358,1,0,0:0:0:0:
182,192,70501,1,0,0:0:0:0:
329,192,70644,1,0,0:0:0:0:
109,192,70787,128,0,72501:0:0:0:0:
256,192,70787,128,0,72501:0:0:0:0:
182,192,72715,1,0,0:0:0:0:
402,192,72930,1,0,0:0:0:0:
182,192,73073,128,0,74215:0:0:0:0:
475,192,73073,128,0,74215:0:0:0:0:
182,192,74501,1,0,0:0:0:0:
329,192,74501,1,0,0:0:0:0:
109,192,74787,1,0,0:0:0:0:
402,192,74787,1,0,0:0:0:0:
36,192,75073,1,0,0:0:0:0:
475,192,75073,1,0,0:0:0:0:
109,192,75358,128,0,77073:0:0:0:0:
402,192,75358,128,0,77073:0:0:0:0:
182,192,77287,1,0,0:0:0:0:
329,192,77501,1,0,0:0:0:0:
256,192,77644,128,0,78787:0:0:0:0:
109,192,79930,1,0,0:0:0:0:
402,192,79930,1,0,0:0:0:0:
402,192,80073,1,0,0:0:0:0:
109,192,80073,1,0,0:0:0:0:
109,192,80215,1,0,0:0:0:0:
402,192,80215,1,0,0:0:0:0:
182,192,80430,1,0,0:0:0:0:
402,192,80644,1,0,0:0:0:0:
109,192,80858,1,0,0:0:0:0:
256,192,81073,1,0,0:0:0:0:
329,192,81215,1,0,0:0:0:0:
182,192,81358,1,0,0:0:0:0:
402,192,81501,1,0,0:0:0:0:
109,192,81715,1,0,0:0:0:0:
256,192,81858,1,0,0:0:0:0:
475,192,82073,1,0,0:0:0:0:
182,192,82215,1,0,0:0:0:0:
329,192,82358,1,0,0:0:0:0:
109,192,82501,1,0,0:0:0:0:
402,192,82715,1,0,0:0:0:0:
182,192,82930,1,0,0:0:0:0:
256,192,83073,1,0,0:0:0:0:
329,192,83215,1,0,0:0:0:0:
402,192,83358,1,0,0:0:0:0:
256,192,83501,1,0,0:0:0:0:
182,192,83644,1,0,0:0:0:0:
109,192,83787,1,0,0:0:0:0:
329,192,84001,1,0,0:0:0:0:
402,192,84144,1,0,0:0:0:0:
256,192,84358,1,0,0:0:0:0:
109,192,84501,1,0,0:0:0:0:
329,192,84644,1,0,0:0:0:0:
182,192,84787,1,0,0:0:0:0:
475,192,85001,1,0,0:0:0:0:
109,192,85215,1,0,0:0:0:0:
329,192,85430,1,0,0:0:0:0:
182,192,85644,1,0,0:0:0:0:
256,192,85787,1,0,0:0:0:0:
329,192,85930,1,0,0:0:0:0:
402,192,86073,1,0,0:0:0:0:
182,192,86287,1,0,0:0:0:0:
36,192,86430,1,0,0:0:0:0:
256,192,86644,1,0,0:0:0:0:
329,192,86787,1,0,0:0:0:0:
182,192,86930,1,0,0:0:0:0:
256,192,87073,1,0,0:0:0:0:
109,192,87287,1,0,0:0:0:0:
402,192,87501,1,0,0:0:0:0:
109,192,87787,128,0,88930:0:0:0:0:
402,192,87787,128,0,88930:0:0:0:0:
182,192,89215,1,0,0:0:0:0:
329,192,89358,1,0,0:0:0:0:
109,192,89573,1,0,0:0:0:0:
256,192,89787,1,0,0:0:0:0:
402,192,90001,1,0,0:0:0:0:
182,192,90215,1,0,0:0:0:0:
329,192,90358,1,0,0:0:0:0:
256,192,90501,1,0,0:0:0:0:
402,192,90644,1,0,0:0:0:0:
36,192,90858,1,0,0:0:0:0:
182,192,91001,1,0,0:0:0:0:
329,192,91215,1,0,0:0:0:0:
256,192,91358,1,0,0:0:0:0:
182,192,91501,1,0,0:0:0:0:
109,192,91644,1,0,0:0:0:0:
329,192,91858,1,0,0:0:0:0:
182,192,92073,1,0,0:0:0:0:
402,192,92287,1,0,0:0:0:0:
36,192,92501,1,0,0:0:0:0:
402,192,92644,1,0,0:0:0:0:
329,192,92787,1,0,0:0:0:0:
475,192,92930,1,0,0:0:0:0:
256,192,93144,1,0,0:0:0:0:
329,192,93287,1,0,0:0:0:0:
402,192,93430,1,0,0:0:0:0:
109,192,93644,1,0,0:0:0:0:
256,192,93787,1,0,0:0:0:0:
182,192,93930,1,0,0:0:0:0:
475,192,94144,1,0,0:0:0:0:
109,192,94358,1,0,0:0:0:0:
402,192,94573,1,0,0:0:0:0:
182,192,94787,1,0,0:0:0:0:
402,192,94930,1,0,0:0:0:0:
329,192,95073,1,0,0:0:0:0:
256,192,95215,1,0,0:0:0:0:
475,192,95430,1,0,0:0:0:0:
402,192,95573,1,0,0:0:0:0:
109,192,95787,1,0,0:0:0:0:
182,192,95930,1,0,0:0:0:0:
256,192,96073,1,0,0:0:0:0:
329,192,96215,1,0,0:0:0:0:
109,192,96430,1,0,0:0:0:0:
475,192,96644,1,0,0:0:0:0:
256,192,96858,1,0,0:0:0:0:
402,192,97073,1,0,0:0:0:0:
109,192,97073,1,0,0:0:0:0:
256,192,98215,1,0,0:0:0:0:
109,192,98787,1,0,0:0:0:0:
402,192,98930,1,0,0:0:0:0:
182,192,99073,1,0,0:0:0:0:
329,192,99215,1,0,0:0:0:0:
256,192,99358,1,0,0:0:0:0:
402,192,99787,1,0,0:0:0:0:
182,192,100215,1,0,0:0:0:0:
256,192,100501,1,0,0:0:0:0:
329,192,100930,1,0,0:0:0:0:
109,192,101358,1,0,0:0:0:0:
329,192,101644,128,0,102787:0:0:0:0:
182,192,101644,128,0,102787:0:0:0:0:
36,192,102215,1,0,0:0:0:0:
475,192,102501,1,0,0:0:0:0:
182,192,102930,1,0,0:0:0:0:
329,192,102930,1,0,0:0:0:0:
182,192,103073,1,0,0:0:0:0:
329,192,103073,1,0,0:0:0:0:
182,192,103358,1,0,0:0:0:0:
402,192,103644,1,0,0:0:0:0:
182,192,103930,1,0,0:0:0:0:
329,192,103930,1,0,0:0:0:0:
109,192,104215,1,0,0:0:0:0:
256,192,104501,1,0,0:0:0:0:
36,192,104787,1,0,0:0:0:0:
109,192,105073,1,0,0:0:0:0:
329,192,105073,1,0,0:0:0:0:
109,192,105215,1,0,0:0:0:0:
329,192,105215,1,0,0:0:0:0:
109,192,105358,1,0,0:0:0:0:
329,192,105358,1,0,0:0:0:0:
475,192,105644,1,0,0:0:0:0:
256,192,105930,1,0,0:0:0:0:
109,192,106215,1,0,0:0:0:0:
329,192,106358,1,0,0:0:0:0:
182,192,106501,1,0,0:0:0:0:
402,192,106644,1,0,0:0:0:0:
329,192,106787,128,0,107358:0:0:0:0:
109,192,106787,128,0,107358:0:0:0:0:
109,192,107501,1,0,0:0:0:0:
329,192,107501,1,0,0:0:0:0:
109,192,107644,1,0,0:0:0:0:
329,192,107644,1,0,0:0:0:0:
256,192,107930,1,0,0:0:0:0:
402,192,108215,1,0,0:0:0:0:
109,192,108501,1,0,0:0:0:0:
329,192,108501,1,0,0:0:0:0:
182,192,108787,1,0,0:0:0:0:
402,192,109073,1,0,0:0:0:0:
109,192,109358,1,0,0:0:0:0:
329,192,109644,1,0,0:0:0:0:
182,192,109787,1,0,0:0:0:0:
402,192,109930,1,0,0:0:0:0:
256,192,110073,1,0,0:0:0:0:
109,192,110215,1,0,0:0:0:0:
256,192,110358,1,0,0:0:0:0:
36,192,110501,1,0,0:0:0:0:
182,192,110644,1,0,0:0:0:0:
329,192,110787,128,0,111930:0:0:0:0:
109,192,110787,128,0,111930:0:0:0:0:
182,192,112644,1,0,0:0:0:0:
329,192,112787,1,0,0:0:0:0:
182,192,112930,1,0,0:0:0:0:
256,192,113073,1,0,0:0:0:0:
109,192,113501,1,0,0:0:0:0:
402,192,113930,1,0,0:0:0:0:
256,192,114215,1,0,0:0:0:0:
329,192,114644,1,0,0:0:0:0:
182,192,115073,1,0,0:0:0:0:
256,192,115358,1,0,0:0:0:0:
475,192,115787,1,0,0:0:0:0:
329,192,116215,1,0,0:0:0:0:
256,192,116501,1,0,0:0:0:0:
109,192,117215,1,0,0:0:0:0:
329,192,117358,1,0,0:0:0:0:
36,192,117501,1,0,0:0:0:0:
256,192,117644,1,0,0:0:0:0:
402,192,118073,1,0,0:0:0:0:
109,192,118501,1,0,0:0:0:0:
256,192,118787,1,0,0:0:0:0:
329,192,119215,1,0,0:0:0:0:
182,192,119644,1,0,0:0:0:0:
402,192,119930,1,0,0:0:0:0:
109,192,120358,1,0,0:0:0:0:
256,192,120787,1,0,0:0:0:0:
