osu file format v14

[General]
AudioFilename: miracle_5ympho_x.mp3
AudioLeadIn: 0
PreviewTime: 9073
Countdown: 0
SampleSet: Normal
StackLeniency: 0.7
Mode: 3
LetterboxInBreaks: 0
SpecialStyle: 0
WidescreenStoryboard: 1

[Editor]
Bookmarks: 17073,38787,61644,98215,102787,120787
DistanceSpacing: 1
BeatDivisor: 4
GridSize: 8
TimelineZoom: 2

[Metadata]
Title:Miracle 5ympho X
TitleUnicode:Miracle 5ympho X
Artist:USAO
ArtistUnicode:USAO
Creator:Mel
Version:4K Another
Source:beatmania IIDX 21 SPADA
Tags:frey sionkotori kokodoko ナウい 一年一片 frenchcore dubstep intensity fullerene kurokami gezo
BeatmapID:413032
BeatmapSetID:137394

[Difficulty]
HPDrainRate:7
CircleSize:4
OverallDifficulty:7
ApproachRate:5
SliderMultiplier:1.4
SliderTickRate:1

[Events]
//Background and Video events
0,0,"5ympho.png",0,0
//Break Periods
//Storyboard Layer 0 (Background)
//Storyboard Layer 1 (Fail)
//Storyboard Layer 2 (Pass)
//Storyboard Layer 3 (Foreground)
//Storyboard Sound Samples

[TimingPoints]
1073,285.714285714286,4,1,0,60,1,0
47930,-100,4,1,0,60,0,1
48001,-100,4,1,0,60,0,0
61644,-100,4,1,0,60,0,0
79930,-100,4,1,0,60,0,1
97073,-100,4,1,0,60,0,0
102787,-100,4,1,0,60,0,1
102858,-100,4,1,0,60,0,0

[HitObjects]
320,192,1073,5,0,0:0:0:0:
64,192,1073,1,0,0:0:0:0:
64,192,1787,1,0,0:0:0:0:
192,192,1858,1,0,0:0:0:0:
320,192,1930,1,0,0:0:0:0:
448,192,2073,1,0,0:0:0:0:
64,192,2215,1,0,0:0:0:0:
320,192,2644,1,0,0:0:0:0:
192,192,3073,1,0,0:0:0:0:
320,192,3358,1,0,0:0:0:0:
64,192,3787,1,0,0:0:0:0:
448,192,4215,1,0,0:0:0:0:
320,192,4501,1,0,0:0:0:0:
192,192,4930,1,0,0:0:0:0:
192,192,5358,1,0,0:0:0:0:
64,192,5644,1,0,0:0:0:0:
320,192,5644,1,0,0:0:0:0:
64,192,5930,1,0,0:0:0:0:
192,192,6215,1,0,0:0:0:0:
448,192,6358,1,0,0:0:0:0:
320,192,6430,1,0,0:0:0:0:
192,192,6501,1,0,0:0:0:0:
320,192,6644,1,0,0:0:0:0:
192,192,6787,1,0,0:0:0:0:
448,192,6787,1,0,0:0:0:0:
448,192,7073,1,0,0:0:0:0:
320,192,7215,1,0,0:0:0:0:
64,192,7358,1,0,0:0:0:0:
192,192,7644,1,0,0:0:0:0:
320,192,7930,1,0,0:0:0:0:
64,192,7930,1,0,0:0:0:0:
448,192,8215,1,0,0:0:0:0:
192,192,8501,1,0,0:0:0:0:
320,192,8787,1,0,0:0:0:0:
64,192,9073,1,0,0:0:0:0:
448,192,9073,1,0,0:0:0:0:
64,192,10215,1,0,0:0:0:0:
448,192,10215,1,0,0:0:0:0:
64,192,10358,1,0,0:0:0:0:
448,192,10358,1,0,0:0:0:0:
64,192,10501,1,0,0:0:0:0:
448,192,10501,1,0,0:0:0:0:
192,192,10644,1,0,0:0:0:0:
320,192,10787,1,0,0:0:0:0:
64,192,10787,1,0,0:0:0:0:
192,192,10930,1,0,0:0:0:0:
64,192,11073,1,0,0:0:0:0:
448,192,11073,1,0,0:0:0:0:
320,192,11215,1,0,0:0:0:0:
192,192,11358,1,0,0:0:0:0:
448,192,11358,1,0,0:0:0:0:
320,192,11501,1,0,0:0:0:0:
64,192,11644,1,0,0:0:0:0:
192,192,11644,1,0,0:0:0:0:
448,192,11787,1,0,0:0:0:0:
320,192,11930,1,0,0:0:0:0:
192,192,11930,1,0,0:0:0:0:
64,192,12073,1,0,0:0:0:0:
64,192,12215,1,0,0:0:0:0:
448,192,12215,1,0,0:0:0:0:
320,192,12358,1,0,0:0:0:0:
448,192,12501,1,0,0:0:0:0:
192,192,12501,1,0,0:0:0:0:
192,192,12644,1,0,0:0:0:0:
448,192,12644,1,0,0:0:0:0:
192,192,12787,1,0,0:0:0:0:
448,192,12787,1,0,0:0:0:0:
320,192,12930,1,0,0:0:0:0:
64,192,13073,1,0,0:0:0:0:
448,192,13073,1,0,0:0:0:0:
192,192,13215,1,0,0:0:0:0:
320,192,13358,1,0,0:0:0:0:
64,192,13358,1,0,0:0:0:0:
64,192,13501,1,0,0:0:0:0:
320,192,13501,1,0,0:0:0:0:
448,192,13644,1,0,0:0:0:0:
64,192,13644,1,0,0:0:0:0:
192,192,13787,1,0,0:0:0:0:
448,192,13930,1,0,0:0:0:0:
320,192,13930,1,0,0:0:0:0:
192,192,14073,1,0,0:0:0:0:
64,192,14215,1,0,0:0:0:0:
192,192,14287,1,0,0:0:0:0:
320,192,14358,1,0,0:0:0:0:
192,192,14501,1,0,0:0:0:0:
448,192,14644,1,0,0:0:0:0:
320,192,14715,1,0,0:0:0:0:
192,192,14787,1,0,0:0:0:0:
64,192,14787,1,0,0:0:0:0:
320,192,14930,1,0,0:0:0:0:
448,192,15073,1,0,0:0:0:0:
192,192,15073,1,0,0:0:0:0:
320,192,15215,1,0,0:0:0:0:
64,192,15358,1,0,0:0:0:0:
192,192,15358,1,0,0:0:0:0:
320,192,15501,1,0,0:0:0:0:
192,192,15644,1,0,0:0:0:0:
448,192,15644,1,0,0:0:0:0:
448,192,15787,1,0,0:0:0:0:
192,192,15930,1,0,0:0:0:0:
320,192,15930,1,0,0:0:0:0:
64,192,16073,1,0,0:0:0:0:
192,192,16215,1,0,0:0:0:0:
448,192,16215,1,0,0:0:0:0:
320,192,16358,1,0,0:0:0:0:
448,192,16501,1,0,0:0:0:0:
64,192,16501,1,0,0:0:0:0:
320,192,16644,1,0,0:0:0:0:
64,192,16787,1,0,0:0:0:0:
192,192,16787,1,0,0:0:0:0:
192,192,16930,1,0,0:0:0:0:
320,192,17073,1,0,0:0:0:0:
64,192,17073,1,0,0:0:0:0:
64,192,17215,1,0,0:0:0:0:
320,192,17215,1,0,0:0:0:0:
64,192,17358,1,0,0:0:0:0:
320,192,17358,1,0,0:0:0:0:
64,192,17501,1,0,0:0:0:0:
320,192,17501,1,0,0:0:0:0:
192,192,17644,1,0,0:0:0:0:
320,192,17787,1,0,0:0:0:0:
448,192,17930,1,0,0:0:0:0:
64,192,18073,1,0,0:0:0:0:
320,192,18215,1,0,0:0:0:0:
448,192,18215,1,0,0:0:0:0:
192,192,18358,1,0,0:0:0:0:
448,192,18501,1,0,0:0:0:0:
320,192,18573,1,0,0:0:0:0:
192,192,18644,1,0,0:0:0:0:
64,192,18715,1,0,0:0:0:0:
192,192,18787,1,0,0:0:0:0:
320,192,18858,1,0,0:0:0:0:
448,192,18930,1,0,0:0:0:0:
320,192,19001,1,0,0:0:0:0:
192,192,19073,1,0,0:0:0:0:
64,192,19144,1,0,0:0:0:0:
192,192,19215,1,0,0:0:0:0:
320,192,19287,1,0,0:0:0:0:
448,192,19358,1,0,0:0:0:0:
64,192,19501,1,0,0:0:0:0:
64,192,19644,1,0,0:0:0:0:
64,192,19930,1,0,0:0:0:0:
64,192,20215,1,0,0:0:0:0:
192,192,20501,1,0,0:0:0:0:
448,192,20501,1,0,0:0:0:0:
320,192,20644,1,0,0:0:0:0:
192,192,20787,1,0,0:0:0:0:
448,192,20930,1,0,0:0:0:0:
320,192,21073,1,0,0:0:0:0:
64,192,21215,1,0,0:0:0:0:
192,192,21358,1,0,0:0:0:0:
320,192,21501,1,0,0:0:0:0:
192,192,21644,1,0,0:0:0:0:
448,192,21644,1,0,0:0:0:0:
448,192,21787,1,0,0:0:0:0:
192,192,21930,1,0,0:0:0:0:
448,192,22073,1,0,0:0:0:0:
64,192,22215,1,0,0:0:0:0:
320,192,22358,1,0,0:0:0:0:
64,192,22501,1,0,0:0:0:0:
320,192,22644,1,0,0:0:0:0:
192,192,22787,1,0,0:0:0:0:
448,192,22787,1,0,0:0:0:0:
64,192,22930,1,0,0:0:0:0:
320,192,23073,1,0,0:0:0:0:
192,192,23215,1,0,0:0:0:0:
320,192,23358,1,0,0:0:0:0:
64,192,23501,1,0,0:0:0:0:
448,192,23644,1,0,0:0:0:0:
192,192,23787,1,0,0:0:0:0:
320,192,23930,1,0,0:0:0:0:
64,192,23930,1,0,0:0:0:0:
192,192,24073,1,0,0:0:0:0:
448,192,24215,1,0,0:0:0:0:
320,192,24358,1,0,0:0:0:0:
64,192,24501,1,0,0:0:0:0:
192,192,24644,1,0,0:0:0:0:
448,192,24787,1,0,0:0:0:0:
64,192,24930,1,0,0:0:0:0:
320,192,25073,1,0,0:0:0:0:
192,192,25073,1,0,0:0:0:0:
448,192,25215,1,0,0:0:0:0:
64,192,25358,1,0,0:0:0:0:
320,192,25501,1,0,0:0:0:0:
192,192,25644,1,0,0:0:0:0:
448,192,25787,1,0,0:0:0:0:
320,192,25930,1,0,0:0:0:0:
192,192,26073,1,0,0:0:0:0:
64,192,26215,1,0,0:0:0:0:
320,192,26215,1,0,0:0:0:0:
448,192,26358,1,0,0:0:0:0:
192,192,26501,1,0,0:0:0:0:
448,192,26644,1,0,0:0:0:0:
192,192,26787,1,0,0:0:0:0:
64,192,26930,1,0,0:0:0:0:
320,192,27073,1,0,0:0:0:0:
64,192,27215,1,0,0:0:0:0:
320,192,27358,1,0,0:0:0:0:
448,192,27358,1,0,0:0:0:0:
192,192,27501,1,0,0:0:0:0:
320,192,27644,1,0,0:0:0:0:
192,192,27787,1,0,0:0:0:0:
448,192,27930,1,0,0:0:0:0:
64,192,28073,1,0,0:0:0:0:
192,192,28215,1,0,0:0:0:0:
320,192,28358,1,0,0:0:0:0:
448,192,28501,1,0,0:0:0:0:
192,192,28501,1,0,0:0:0:0:
192,192,28644,1,0,0:0:0:0:
320,192,28787,1,0,0:0:0:0:
64,192,28930,1,0,0:0:0:0:
320,192,29073,1,0,0:0:0:0:
448,192,29215,1,0,0:0:0:0:
192,192,29358,1,0,0:0:0:0:
320,192,29501,1,0,0:0:0:0:
192,192,29644,1,0,0:0:0:0:
64,192,29644,1,0,0:0:0:0:
320,192,29787,1,0,0:0:0:0:
448,192,29930,1,0,0:0:0:0:
320,192,29930,1,0,0:0:0:0:
64,192,30073,1,0,0:0:0:0:
320,192,30215,1,0,0:0:0:0:
192,192,30358,1,0,0:0:0:0:
448,192,30501,1,0,0:0:0:0:
320,192,30501,1,0,0:0:0:0:
192,192,30644,1,0,0:0:0:0:
320,192,30787,1,0,0:0:0:0:
64,192,30787,1,0,0:0:0:0:
192,192,30930,1,0,0:0:0:0:
320,192,31073,1,0,0:0:0:0:
448,192,31073,1,0,0:0:0:0:
192,192,31215,1,0,0:0:0:0:
64,192,31358,1,0,0:0:0:0:
448,192,31501,1,0,0:0:0:0:
320,192,31644,1,0,0:0:0:0:
448,192,31644,1,0,0:0:0:0:
64,192,31787,1,0,0:0:0:0:
192,192,31930,1,0,0:0:0:0:
448,192,31930,1,0,0:0:0:0:
320,192,32073,1,0,0:0:0:0:
192,192,32215,1,0,0:0:0:0:
64,192,32215,1,0,0:0:0:0:
448,192,32358,1,0,0:0:0:0:
320,192,32501,1,0,0:0:0:0:
64,192,32644,1,0,0:0:0:0:
64,192,32787,1,0,0:0:0:0:
192,192,32787,1,0,0:0:0:0:
320,192,32930,1,0,0:0:0:0:
448,192,33073,1,0,0:0:0:0:
64,192,33073,1,0,0:0:0:0:
320,192,33215,1,0,0:0:0:0:
64,192,33358,1,0,0:0:0:0:
192,192,33358,1,0,0:0:0:0:
192,192,33501,1,0,0:0:0:0:
64,192,33644,1,0,0:0:0:0:
320,192,33787,1,0,0:0:0:0:
64,192,33930,1,0,0:0:0:0:
192,192,33930,1,0,0:0:0:0:
320,192,34073,1,0,0:0:0:0:
192,192,34215,1,0,0:0:0:0:
448,192,34215,1,0,0:0:0:0:
320,192,34358,1,0,0:0:0:0:
192,192,34501,1,0,0:0:0:0:
448,192,34501,1,0,0:0:0:0:
64,192,34644,1,0,0:0:0:0:
192,192,34787,1,0,0:0:0:0:
320,192,34930,1,0,0:0:0:0:
192,192,35073,1,0,0:0:0:0:
448,192,35073,1,0,0:0:0:0:
320,192,35215,1,0,0:0:0:0:
64,192,35358,1,0,0:0:0:0:
192,192,35358,1,0,0:0:0:0:
320,192,35501,1,0,0:0:0:0:
64,192,35644,1,0,0:0:0:0:
448,192,35644,1,0,0:0:0:0:
192,192,35787,1,0,0:0:0:0:
320,192,35930,1,0,0:0:0:0:
192,192,36073,1,0,0:0:0:0:
64,192,36215,1,0,0:0:0:0:
448,192,36215,1,0,0:0:0:0:
320,192,36358,1,0,0:0:0:0:
192,192,36501,1,0,0:0:0:0:
64,192,36501,1,0,0:0:0:0:
320,192,36644,1,0,0:0:0:0:
64,192,36787,1,0,0:0:0:0:
448,192,36787,1,0,0:0:0:0:
192,192,36930,1,0,0:0:0:0:
320,192,37073,1,0,0:0:0:0:
192,192,37215,1,0,0:0:0:0:
448,192,37358,1,0,0:0:0:0:
64,192,37358,1,0,0:0:0:0:
192,192,37501,1,0,0:0:0:0:
320,192,37501,1,0,0:0:0:0:
448,192,37644,1,0,0:0:0:0:
64,192,37644,1,0,0:0:0:0:
448,192,37930,1,0,0:0:0:0:
64,192,37930,1,0,0:0:0:0:
64,192,38215,1,0,0:0:0:0:
448,192,38215,1,0,0:0:0:0:
64,192,38501,1,0,0:0:0:0:
448,192,38501,1,0,0:0:0:0:
192,192,38787,1,0,0:0:0:0:
448,192,38787,1,0,0:0:0:0:
320,192,38930,1,0,0:0:0:0:
192,192,39073,1,0,0:0:0:0:
448,192,39073,1,0,0:0:0:0:
64,192,39215,1,0,0:0:0:0:
192,192,39358,1,0,0:0:0:0:
320,192,39358,1,0,0:0:0:0:
448,192,39501,1,0,0:0:0:0:
64,192,39644,1,0,0:0:0:0:
320,192,39644,1,0,0:0:0:0:
192,192,39787,1,0,0:0:0:0:
320,192,39930,1,0,0:0:0:0:
64,192,39930,1,0,0:0:0:0:
448,192,40073,1,0,0:0:0:0:
192,192,40215,1,0,0:0:0:0:
320,192,40215,1,0,0:0:0:0:
192,192,40358,1,0,0:0:0:0:
448,192,40501,1,0,0:0:0:0:
64,192,40501,1,0,0:0:0:0:
320,192,40644,1,0,0:0:0:0:
192,192,40787,1,0,0:0:0:0:
448,192,40930,1,0,0:0:0:0:
320,192,41001,1,0,0:0:0:0:
192,192,41073,1,0,0:0:0:0:
64,192,41073,1,0,0:0:0:0:
448,192,41215,1,0,0:0:0:0:
64,192,41358,1,0,0:0:0:0:
320,192,41358,1,0,0:0:0:0:
192,192,41501,1,0,0:0:0:0:
320,192,41644,1,0,0:0:0:0:
448,192,41644,1,0,0:0:0:0:
192,192,41787,1,0,0:0:0:0:
320,192,41930,1,0,0:0:0:0:
448,192,41930,1,0,0:0:0:0:
192,192,42073,1,0,0:0:0:0:
320,192,42215,1,0,0:0:0:0:
64,192,42215,1,0,0:0:0:0:
192,192,42358,1,0,0:0:0:0:
448,192,42501,1,0,0:0:0:0:
64,192,42501,1,0,0:0:0:0:
320,192,42644,1,0,0:0:0:0:
192,192,42787,1,0,0:0:0:0:
448,192,42787,1,0,0:0:0:0:
64,192,42930,1,0,0:0:0:0:
192,192,43073,1,0,0:0:0:0:
320,192,43073,1,0,0:0:0:0:
448,192,43215,1,0,0:0:0:0:
320,192,43358,1,0,0:0:0:0:
64,192,43358,1,0,0:0:0:0:
192,192,43501,1,0,0:0:0:0:
320,192,43644,1,0,0:0:0:0:
448,192,43644,1,0,0:0:0:0:
64,192,43787,1,0,0:0:0:0:
192,192,43930,1,0,0:0:0:0:
448,192,43930,1,0,0:0:0:0:
320,192,44073,1,0,0:0:0:0:
64,192,44215,1,0,0:0:0:0:
192,192,44215,1,0,0:0:0:0:
448,192,44358,1,0,0:0:0:0:
320,192,44501,1,0,0:0:0:0:
64,192,44501,1,0,0:0:0:0:
192,192,44644,1,0,0:0:0:0:
192,192,44787,1,0,0:0:0:0:
448,192,44787,1,0,0:0:0:0:
320,192,44930,1,0,0:0:0:0:
64,192,45073,1,0,0:0:0:0:
192,192,45073,1,0,0:0:0:0:
448,192,45215,1,0,0:0:0:0:
192,192,45358,1,0,0:0:0:0:
446,192,45358,1,0,0:0:0:0:
320,192,45501,1,0,0:0:0:0:
192,192,45644,1,0,0:0:0:0:
64,192,45644,1,0,0:0:0:0:
320,192,45787,1,0,0:0:0:0:
448,192,45930,1,0,0:0:0:0:
192,192,45930,1,0,0:0:0:0:
64,192,46073,1,0,0:0:0:0:
320,192,46215,1,0,0:0:0:0:
448,192,46215,1,0,0:0:0:0:
192,192,46358,1,0,0:0:0:0:
320,192,46501,1,0,0:0:0:0:
64,192,46501,1,0,0:0:0:0:
192,192,46644,1,0,0:0:0:0:
448,192,46787,1,0,0:0:0:0:
448,192,46930,1,0,0:0:0:0:
448,192,47073,1,0,0:0:0:0:
448,192,47358,1,0,0:0:0:0:
448,192,47501,1,0,0:0:0:0:
320,192,47573,1,0,0:0:0:0:
192,192,47644,1,0,0:0:0:0:
64,192,47930,128,0,48787:0:0:0:0:
448,192,47930,1,0,0:0:0:0:
320,192,48358,1,0,0:0:0:0:
448,192,48501,1,0,0:0:0:0:
320,192,48644,1,0,0:0:0:0:
448,192,49073,1,0,0:0:0:0:
192,192,49073,1,0,0:0:0:0:
320,192,49215,1,0,0:0:0:0:
192,192,49501,1,0,0:0:0:0:
448,192,49644,1,0,0:0:0:0:
64,192,49644,1,0,0:0:0:0:
320,192,49930,1,0,0:0:0:0:
448,192,50215,128,0,51073:0:0:0:0:
64,192,50215,1,0,0:0:0:0:
64,192,50644,1,0,0:0:0:0:
192,192,50787,1,0,0:0:0:0:
64,192,50930,1,0,0:0:0:0:
320,192,51358,1,0,0:0:0:0:
448,192,51358,1,0,0:0:0:0:
192,192,51501,1,0,0:0:0:0:
64,192,51787,1,0,0:0:0:0:
320,192,51787,1,0,0:0:0:0:
448,192,51930,1,0,0:0:0:0:
192,192,51930,1,0,0:0:0:0:
320,192,52073,1,0,0:0:0:0:
64,192,52215,1,0,0:0:0:0:
64,192,52501,128,0,53358:0:0:0:0:
320,192,52501,1,0,0:0:0:0:
320,192,52930,1,0,0:0:0:0:
192,192,53073,1,0,0:0:0:0:
320,192,53215,1,0,0:0:0:0:
320,192,53644,1,0,0:0:0:0:
64,192,53644,1,0,0:0:0:0:
448,192,53787,1,0,0:0:0:0:
192,192,54073,1,0,0:0:0:0:
320,192,54073,1,0,0:0:0:0:
448,192,54215,1,0,0:0:0:0:
64,192,54215,1,0,0:0:0:0:
192,192,54501,1,0,0:0:0:0:
448,192,54787,128,0,55644:0:0:0:0:
64,192,54787,1,0,0:0:0:0:
64,192,55215,1,0,0:0:0:0:
192,192,55358,1,0,0:0:0:0:
64,192,55501,1,0,0:0:0:0:
64,192,55930,1,0,0:0:0:0:
192,192,55930,1,0,0:0:0:0:
64,192,56430,1,0,0:0:0:0:
64,192,56644,1,0,0:0:0:0:
448,192,59787,128,0,60215:0:0:0:0:
64,192,61644,1,0,0:0:0:0:
192,192,61715,1,0,0:0:0:0:
320,192,61787,1,0,0:0:0:0:
448,192,61858,1,0,0:0:0:0:
320,192,61930,1,0,0:0:0:0:
192,192,62001,1,0,0:0:0:0:
64,192,62073,1,0,0:0:0:0:
192,192,62144,1,0,0:0:0:0:
320,192,62215,1,0,0:0:0:0:
448,192,62287,1,0,0:0:0:0:
320,192,62358,1,0,0:0:0:0:
192,192,62430,1,0,0:0:0:0:
64,192,62501,1,0,0:0:0:0:
192,192,62573,1,0,0:0:0:0:
320,192,62644,1,0,0:0:0:0:
448,192,62715,1,0,0:0:0:0:
320,192,62787,1,0,0:0:0:0:
192,192,62858,1,0,0:0:0:0:
64,192,62930,1,0,0:0:0:0:
192,192,63001,1,0,0:0:0:0:
320,192,63073,1,0,0:0:0:0:
448,192,63144,1,0,0:0:0:0:
320,192,63215,1,0,0:0:0:0:
192,192,63287,1,0,0:0:0:0:
64,192,63358,1,0,0:0:0:0:
64,192,63573,1,0,0:0:0:0:
448,192,63573,1,0,0:0:0:0:
192,192,63787,1,0,0:0:0:0:
320,192,63787,1,0,0:0:0:0:
64,192,63930,1,0,0:0:0:0:
448,192,64001,1,0,0:0:0:0:
64,192,64073,1,0,0:0:0:0:
448,192,64144,1,0,0:0:0:0:
64,192,64215,1,0,0:0:0:0:
448,192,64287,1,0,0:0:0:0:
64,192,64358,1,0,0:0:0:0:
448,192,64430,1,0,0:0:0:0:
64,192,64501,1,0,0:0:0:0:
448,192,64573,1,0,0:0:0:0:
64,192,64644,1,0,0:0:0:0:
448,192,64715,1,0,0:0:0:0:
64,192,64787,1,0,0:0:0:0:
448,192,64858,1,0,0:0:0:0:
64,192,64930,1,0,0:0:0:0:
448,192,65001,1,0,0:0:0:0:
192,192,65073,1,0,0:0:0:0:
320,192,65073,1,0,0:0:0:0:
320,192,65358,1,0,0:0:0:0:
192,192,65358,1,0,0:0:0:0:
192,192,65644,1,0,0:0:0:0:
320,192,65644,1,0,0:0:0:0:
192,192,65930,1,0,0:0:0:0:
320,192,65930,1,0,0:0:0:0:
320,192,66215,1,0,0:0:0:0:
192,192,66287,1,0,0:0:0:0:
320,192,66358,1,0,0:0:0:0:
192,192,66430,1,0,0:0:0:0:
320,192,66501,1,0,0:0:0:0:
192,192,66573,1,0,0:0:0:0:
320,192,66644,1,0,0:0:0:0:
192,192,66715,1,0,0:0:0:0:
320,192,66787,1,0,0:0:0:0:
192,192,66858,1,0,0:0:0:0:
320,192,66930,1,0,0:0:0:0:
192,192,67001,1,0,0:0:0:0:
320,192,67073,1,0,0:0:0:0:
192,192,67144,1,0,0:0:0:0:
320,192,67215,1,0,0:0:0:0:
192,192,67287,1,0,0:0:0:0:
320,192,67358,1,0,0:0:0:0:
192,192,67430,1,0,0:0:0:0:
320,192,67501,1,0,0:0:0:0:
192,192,67573,1,0,0:0:0:0:
320,192,67644,1,0,0:0:0:0:
192,192,67715,1,0,0:0:0:0:
320,192,67787,1,0,0:0:0:0:
192,192,67858,1,0,0:0:0:0:
320,192,67930,1,0,0:0:0:0:
192,192,68144,1,0,0:0:0:0:
64,192,68144,1,0,0:0:0:0:
320,192,68358,1,0,0:0:0:0:
448,192,68358,1,0,0:0:0:0:
64,192,68501,1,0,0:0:0:0:
320,192,68573,1,0,0:0:0:0:
64,192,68644,1,0,0:0:0:0:
320,192,68715,1,0,0:0:0:0:
64,192,68787,1,0,0:0:0:0:
320,192,68858,1,0,0:0:0:0:
64,192,68930,1,0,0:0:0:0:
320,192,69001,1,0,0:0:0:0:
64,192,69073,1,0,0:0:0:0:
320,192,69144,1,0,0:0:0:0:
64,192,69215,1,0,0:0:0:0:
320,192,69287,1,0,0:0:0:0:
64,192,69358,1,0,0:0:0:0:
320,192,69430,1,0,0:0:0:0:
64,192,69501,1,0,0:0:0:0:
320,192,69573,1,0,0:0:0:0:
64,192,69644,1,0,0:0:0:0:
448,192,69644,1,0,0:0:0:0:
64,192,69930,1,0,0:0:0:0:
192,192,69930,1,0,0:0:0:0:
192,192,70215,1,0,0:0:0:0:
448,192,70215,1,0,0:0:0:0:
64,192,70358,1,0,0:0:0:0:
192,192,70501,1,0,0:0:0:0:
448,192,70501,1,0,0:0:0:0:
64,192,70644,1,0,0:0:0:0:
448,192,70787,1,0,0:0:0:0:
320,192,70858,1,0,0:0:0:0:
192,192,70930,1,0,0:0:0:0:
64,192,71001,1,0,0:0:0:0:
448,192,71073,1,0,0:0:0:0:
320,192,71144,1,0,0:0:0:0:
192,192,71215,1,0,0:0:0:0:
64,192,71287,1,0,0:0:0:0:
448,192,71358,1,0,0:0:0:0:
320,192,71430,1,0,0:0:0:0:
192,192,71501,1,0,0:0:0:0:
64,192,71573,1,0,0:0:0:0:
448,192,71644,1,0,0:0:0:0:
320,192,71715,1,0,0:0:0:0:
192,192,71787,1,0,0:0:0:0:
64,192,71858,1,0,0:0:0:0:
448,192,71930,1,0,0:0:0:0:
320,192,72001,1,0,0:0:0:0:
192,192,72073,1,0,0:0:0:0:
64,192,72144,1,0,0:0:0:0:
448,192,72215,1,0,0:0:0:0:
320,192,72287,1,0,0:0:0:0:
192,192,72358,1,0,0:0:0:0:
64,192,72430,1,0,0:0:0:0:
448,192,72501,1,0,0:0:0:0:
192,192,72501,1,0,0:0:0:0:
320,192,72715,1,0,0:0:0:0:
192,192,72930,1,0,0:0:0:0:
448,192,73073,1,0,0:0:0:0:
64,192,73144,1,0,0:0:0:0:
448,192,73215,1,0,0:0:0:0:
64,192,73287,1,0,0:0:0:0:
448,192,73358,1,0,0:0:0:0:
64,192,73430,1,0,0:0:0:0:
448,192,73501,1,0,0:0:0:0:
64,192,73573,1,0,0:0:0:0:
448,192,73644,1,0,0:0:0:0:
64,192,73715,1,0,0:0:0:0:
448,192,73787,1,0,0:0:0:0:
64,192,73858,1,0,0:0:0:0:
448,192,73930,1,0,0:0:0:0:
64,192,74001,1,0,0:0:0:0:
448,192,74073,1,0,0:0:0:0:
64,192,74144,1,0,0:0:0:0:
448,192,74215,128,0,74501:0:0:0:0:
320,192,74501,1,0,0:0:0:0:
64,192,74787,128,0,75073:0:0:0:0:
192,192,75073,1,0,0:0:0:0:
192,192,75358,1,0,0:0:0:0:
320,192,75430,1,0,0:0:0:0:
448,192,75501,1,0,0:0:0:0:
320,192,75573,1,0,0:0:0:0:
192,192,75644,1,0,0:0:0:0:
64,192,75715,1,0,0:0:0:0:
192,192,75787,1,0,0:0:0:0:
320,192,75858,1,0,0:0:0:0:
448,192,75930,1,0,0:0:0:0:
320,192,76001,1,0,0:0:0:0:
192,192,76073,1,0,0:0:0:0:
64,192,76144,1,0,0:0:0:0:
192,192,76215,1,0,0:0:0:0:
320,192,76287,1,0,0:0:0:0:
448,192,76358,1,0,0:0:0:0:
320,192,76430,1,0,0:0:0:0:
192,192,76501,1,0,0:0:0:0:
64,192,76573,1,0,0:0:0:0:
192,192,76644,1,0,0:0:0:0:
320,192,76715,1,0,0:0:0:0:
448,192,76787,1,0,0:0:0:0:
320,192,76858,1,0,0:0:0:0:
192,192,76930,1,0,0:0:0:0:
64,192,77001,1,0,0:0:0:0:
192,192,77073,1,0,0:0:0:0:
320,192,77073,1,0,0:0:0:0:
448,192,77287,1,0,0:0:0:0:
64,192,77287,1,0,0:0:0:0:
192,192,77501,1,0,0:0:0:0:
320,192,77501,1,0,0:0:0:0:
64,192,77644,1,0,0:0:0:0:
320,192,77715,1,0,0:0:0:0:
192,192,77787,1,0,0:0:0:0:
448,192,77858,1,0,0:0:0:0:
320,192,77930,1,0,0:0:0:0:
192,192,78001,1,0,0:0:0:0:
64,192,78073,1,0,0:0:0:0:
320,192,78144,1,0,0:0:0:0:
192,192,78215,1,0,0:0:0:0:
448,192,78287,1,0,0:0:0:0:
320,192,78358,1,0,0:0:0:0:
192,192,78430,1,0,0:0:0:0:
64,192,78501,1,0,0:0:0:0:
320,192,78573,1,0,0:0:0:0:
192,192,78644,1,0,0:0:0:0:
448,192,78715,1,0,0:0:0:0:
64,192,78787,128,0,79930:0:0:0:0:
192,192,78930,1,0,0:0:0:0:
320,192,79073,1,0,0:0:0:0:
448,192,79215,1,0,0:0:0:0:
320,192,79358,1,0,0:0:0:0:
192,192,79501,1,0,0:0:0:0:
448,192,79644,1,0,0:0:0:0:
320,192,79787,1,0,0:0:0:0:
192,192,79930,1,0,0:0:0:0:
320,192,80073,1,0,0:0:0:0:
448,192,80073,1,0,0:0:0:0:
64,192,80215,1,0,0:0:0:0:
192,192,80215,1,0,0:0:0:0:
320,192,80430,1,0,0:0:0:0:
448,192,80430,1,0,0:0:0:0:
320,192,80644,1,0,0:0:0:0:
192,192,80644,1,0,0:0:0:0:
448,192,80858,1,0,0:0:0:0:
64,192,80858,1,0,0:0:0:0:
192,192,81073,1,0,0:0:0:0:
320,192,81073,1,0,0:0:0:0:
448,192,81215,1,0,0:0:0:0:
320,192,81287,1,0,0:0:0:0:
192,192,81358,1,0,0:0:0:0:
320,192,81501,1,0,0:0:0:0:
64,192,81501,1,0,0:0:0:0:
192,192,81715,1,0,0:0:0:0:
448,192,81715,1,0,0:0:0:0:
192,192,81858,1,0,0:0:0:0:
448,192,81858,1,0,0:0:0:0:
320,192,82073,1,0,0:0:0:0:
64,192,82215,1,0,0:0:0:0:
448,192,82215,1,0,0:0:0:0:
320,192,82358,1,0,0:0:0:0:
192,192,82501,1,0,0:0:0:0:
192,192,82715,1,0,0:0:0:0:
320,192,82930,1,0,0:0:0:0:
448,192,83001,1,0,0:0:0:0:
64,192,83144,1,0,0:0:0:0:
192,192,83215,1,0,0:0:0:0:
320,192,83287,1,0,0:0:0:0:
64,192,83358,1,0,0:0:0:0:
448,192,83358,1,0,0:0:0:0:
448,192,83501,1,0,0:0:0:0:
320,192,83573,1,0,0:0:0:0:
192,192,83644,1,0,0:0:0:0:
448,192,83787,1,0,0:0:0:0:
192,192,84001,1,0,0:0:0:0:
320,192,84144,1,0,0:0:0:0:
64,192,84358,1,0,0:0:0:0:
448,192,84358,1,0,0:0:0:0:
64,192,84501,1,0,0:0:0:0:
448,192,84501,1,0,0:0:0:0:
192,192,84644,1,0,0:0:0:0:
320,192,84644,1,0,0:0:0:0:
448,192,84787,1,0,0:0:0:0:
64,192,84787,1,0,0:0:0:0:
64,192,85001,1,0,0:0:0:0:
192,192,85215,1,0,0:0:0:0:
448,192,85215,1,0,0:0:0:0:
320,192,85430,1,0,0:0:0:0:
192,192,85644,1,0,0:0:0:0:
64,192,85644,1,0,0:0:0:0:
448,192,85787,1,0,0:0:0:0:
192,192,85858,1,0,0:0:0:0:
320,192,85930,1,0,0:0:0:0:
64,192,86073,1,0,0:0:0:0:
448,192,86073,1,0,0:0:0:0:
192,192,86287,1,0,0:0:0:0:
320,192,86430,1,0,0:0:0:0:
448,192,86644,1,0,0:0:0:0:
320,192,86644,1,0,0:0:0:0:
192,192,86787,1,0,0:0:0:0:
64,192,86787,1,0,0:0:0:0:
320,192,86930,1,0,0:0:0:0:
448,192,86930,1,0,0:0:0:0:
192,192,87073,1,0,0:0:0:0:
448,192,87287,1,0,0:0:0:0:
192,192,87501,1,0,0:0:0:0:
320,192,87573,1,0,0:0:0:0:
64,192,87715,1,0,0:0:0:0:
192,192,87787,1,0,0:0:0:0:
320,192,87858,1,0,0:0:0:0:
448,192,87930,1,0,0:0:0:0:
320,192,88001,1,0,0:0:0:0:
192,192,88073,1,0,0:0:0:0:
64,192,88144,1,0,0:0:0:0:
192,192,88215,1,0,0:0:0:0:
320,192,88287,1,0,0:0:0:0:
448,192,88358,1,0,0:0:0:0:
320,192,88430,1,0,0:0:0:0:
192,192,88501,1,0,0:0:0:0:
64,192,88573,1,0,0:0:0:0:
192,192,88644,1,0,0:0:0:0:
320,192,88715,1,0,0:0:0:0:
448,192,88787,1,0,0:0:0:0:
320,192,88858,1,0,0:0:0:0:
192,192,88930,1,0,0:0:0:0:
64,192,89001,1,0,0:0:0:0:
192,192,89073,1,0,0:0:0:0:
448,192,89073,1,0,0:0:0:0:
192,192,89215,1,0,0:0:0:0:
448,192,89215,1,0,0:0:0:0:
320,192,89358,1,0,0:0:0:0:
64,192,89358,1,0,0:0:0:0:
192,192,89573,1,0,0:0:0:0:
448,192,89787,1,0,0:0:0:0:
64,192,90001,1,0,0:0:0:0:
320,192,90215,1,0,0:0:0:0:
448,192,90215,1,0,0:0:0:0:
64,192,90358,1,0,0:0:0:0:
192,192,90430,1,0,0:0:0:0:
320,192,90501,1,0,0:0:0:0:
64,192,90644,1,0,0:0:0:0:
192,192,90644,1,0,0:0:0:0:
320,192,90858,1,0,0:0:0:0:
448,192,90858,1,0,0:0:0:0:
64,192,91001,1,0,0:0:0:0:
192,192,91001,1,0,0:0:0:0:
448,192,91215,1,0,0:0:0:0:
64,192,91215,1,0,0:0:0:0:
192,192,91358,1,0,0:0:0:0:
448,192,91358,1,0,0:0:0:0:
320,192,91501,1,0,0:0:0:0:
64,192,91501,1,0,0:0:0:0:
448,192,91644,1,0,0:0:0:0:
64,192,91644,1,0,0:0:0:0:
192,192,91858,1,0,0:0:0:0:
320,192,91858,1,0,0:0:0:0:
448,192,92073,1,0,0:0:0:0:
192,192,92073,1,0,0:0:0:0:
320,192,92287,1,0,0:0:0:0:
64,192,92287,1,0,0:0:0:0:
192,192,92501,1,0,0:0:0:0:
320,192,92501,1,0,0:0:0:0:
192,192,92644,1,0,0:0:0:0:
320,192,92715,1,0,0:0:0:0:
448,192,92787,1,0,0:0:0:0:
192,192,92930,1,0,0:0:0:0:
320,192,93144,1,0,0:0:0:0:
64,192,93287,1,0,0:0:0:0:
448,192,93430,1,0,0:0:0:0:
320,192,93501,1,0,0:0:0:0:
320,192,93644,1,0,0:0:0:0:
64,192,93644,1,0,0:0:0:0:
192,192,93787,1,0,0:0:0:0:
320,192,93930,1,0,0:0:0:0:
448,192,94144,1,0,0:0:0:0:
64,192,94144,1,0,0:0:0:0:
320,192,94358,1,0,0:0:0:0:
192,192,94573,1,0,0:0:0:0:
448,192,94787,1,0,0:0:0:0:
64,192,94787,1,0,0:0:0:0:
64,192,94930,1,0,0:0:0:0:
192,192,95001,1,0,0:0:0:0:
320,192,95073,1,0,0:0:0:0:
192,192,95215,1,0,0:0:0:0:
64,192,95215,1,0,0:0:0:0:
320,192,95430,1,0,0:0:0:0:
448,192,95430,1,0,0:0:0:0:
192,192,95573,1,0,0:0:0:0:
320,192,95787,1,0,0:0:0:0:
448,192,95787,1,0,0:0:0:0:
192,192,95930,1,0,0:0:0:0:
64,192,95930,1,0,0:0:0:0:
320,192,96073,1,0,0:0:0:0:
448,192,96073,1,0,0:0:0:0:
192,192,96215,1,0,0:0:0:0:
64,192,96215,1,0,0:0:0:0:
320,192,96430,1,0,0:0:0:0:
192,192,96644,1,0,0:0:0:0:
320,192,96858,1,0,0:0:0:0:
192,192,97073,1,0,0:0:0:0:
448,192,97073,1,0,0:0:0:0:
320,192,98215,1,0,0:0:0:0:
192,192,98930,1,0,0:0:0:0:
320,192,99001,1,0,0:0:0:0:
448,192,99073,1,0,0:0:0:0:
192,192,99215,1,0,0:0:0:0:
320,192,99358,1,0,0:0:0:0:
64,192,99787,1,0,0:0:0:0:
448,192,100215,1,0,0:0:0:0:
320,192,100501,1,0,0:0:0:0:
192,192,100930,1,0,0:0:0:0:
448,192,101358,1,0,0:0:0:0:
448,192,101644,128,0,102644:0:0:0:0:
64,192,102215,1,0,0:0:0:0:
63,192,102406,1,0,0:0:0:0:
64,192,102501,1,0,0:0:0:0:
64,192,102644,1,0,0:0:0:0:
192,192,102787,1,0,0:0:0:0:
320,192,102787,1,0,0:0:0:0:
64,192,102930,1,0,0:0:0:0:
448,192,102930,1,0,0:0:0:0:
192,192,103073,1,0,0:0:0:0:
320,192,103073,1,0,0:0:0:0:
448,192,103215,1,0,0:0:0:0:
192,192,103358,1,0,0:0:0:0:
64,192,103358,1,0,0:0:0:0:
320,192,103501,1,0,0:0:0:0:
64,192,103644,1,0,0:0:0:0:
448,192,103644,1,0,0:0:0:0:
320,192,103787,1,0,0:0:0:0:
192,192,103930,1,0,0:0:0:0:
64,192,103930,1,0,0:0:0:0:
448,192,104073,1,0,0:0:0:0:
64,192,104215,1,0,0:0:0:0:
320,192,104215,1,0,0:0:0:0:
448,192,104358,1,0,0:0:0:0:
64,192,104501,1,0,0:0:0:0:
192,192,104501,1,0,0:0:0:0:
320,192,104644,1,0,0:0:0:0:
64,192,104787,1,0,0:0:0:0:
320,192,104787,1,0,0:0:0:0:
192,192,104930,1,0,0:0:0:0:
320,192,105073,1,0,0:0:0:0:
64,192,105073,1,0,0:0:0:0:
64,192,105215,1,0,0:0:0:0:
320,192,105215,1,0,0:0:0:0:
320,192,105358,1,0,0:0:0:0:
64,192,105358,1,0,0:0:0:0:
448,192,105501,1,0,0:0:0:0:
320,192,105644,1,0,0:0:0:0:
192,192,105644,1,0,0:0:0:0:
64,192,105787,1,0,0:0:0:0:
192,192,105930,1,0,0:0:0:0:
448,192,105930,1,0,0:0:0:0:
320,192,106073,1,0,0:0:0:0:
64,192,106215,1,0,0:0:0:0:
448,192,106215,1,0,0:0:0:0:
64,192,106358,1,0,0:0:0:0:
448,192,106358,1,0,0:0:0:0:
64,192,106501,1,0,0:0:0:0:
448,192,106501,1,0,0:0:0:0:
320,192,106644,1,0,0:0:0:0:
64,192,106787,1,0,0:0:0:0:
192,192,106858,1,0,0:0:0:0:
320,192,106930,1,0,0:0:0:0:
448,192,107001,1,0,0:0:0:0:
320,192,107073,1,0,0:0:0:0:
192,192,107144,1,0,0:0:0:0:
64,192,107215,1,0,0:0:0:0:
192,192,107287,1,0,0:0:0:0:
320,192,107358,1,0,0:0:0:0:
448,192,107358,1,0,0:0:0:0:
192,192,107501,1,0,0:0:0:0:
64,192,107501,1,0,0:0:0:0:
448,192,107644,1,0,0:0:0:0:
192,192,107644,1,0,0:0:0:0:
320,192,107787,1,0,0:0:0:0:
64,192,107930,1,0,0:0:0:0:
320,192,107930,1,0,0:0:0:0:
192,192,108073,1,0,0:0:0:0:
448,192,108215,1,0,0:0:0:0:
320,192,108215,1,0,0:0:0:0:
64,192,108358,1,0,0:0:0:0:
192,192,108501,1,0,0:0:0:0:
448,192,108501,1,0,0:0:0:0:
64,192,108644,1,0,0:0:0:0:
192,192,108787,1,0,0:0:0:0:
448,192,108787,1,0,0:0:0:0:
320,192,108930,1,0,0:0:0:0:
64,192,109073,1,0,0:0:0:0:
448,192,109073,1,0,0:0:0:0:
320,192,109215,1,0,0:0:0:0:
192,192,109358,1,0,0:0:0:0:
64,192,109358,1,0,0:0:0:0:
448,192,109501,1,0,0:0:0:0:
64,192,109644,1,0,0:0:0:0:
320,192,109644,1,0,0:0:0:0:
64,192,109787,1,0,0:0:0:0:
320,192,109787,1,0,0:0:0:0:
320,192,109930,1,0,0:0:0:0:
64,192,109930,1,0,0:0:0:0:
192,192,110073,1,0,0:0:0:0:
320,192,110215,1,0,0:0:0:0:
448,192,110215,1,0,0:0:0:0:
64,192,110358,1,0,0:0:0:0:
192,192,110501,1,0,0:0:0:0:
448,192,110501,1,0,0:0:0:0:
64,192,110644,1,0,0:0:0:0:
64,192,110787,1,0,0:0:0:0:
448,192,110787,1,0,0:0:0:0:
320,192,110930,1,0,0:0:0:0:
192,192,111001,1,0,0:0:0:0:
64,192,111073,1,0,0:0:0:0:
192,192,111144,1,0,0:0:0:0:
320,192,111215,1,0,0:0:0:0:
448,192,111287,1,0,0:0:0:0:
320,192,111358,1,0,0:0:0:0:
192,192,111501,1,0,0:0:0:0:
64,192,111644,1,0,0:0:0:0:
192,192,111787,1,0,0:0:0:0:
64,192,111930,1,0,0:0:0:0:
448,192,111930,1,0,0:0:0:0:
320,192,112073,1,0,0:0:0:0:
192,192,112215,1,0,0:0:0:0:
448,192,112358,1,0,0:0:0:0:
64,192,112501,1,0,0:0:0:0:
448,192,112644,1,0,0:0:0:0:
320,192,112715,1,0,0:0:0:0:
192,192,112787,1,0,0:0:0:0:
320,192,112930,1,0,0:0:0:0:
448,192,113073,1,0,0:0:0:0:
64,192,113073,1,0,0:0:0:0:
192,192,113215,1,0,0:0:0:0:
320,192,113358,1,0,0:0:0:0:
448,192,113501,1,0,0:0:0:0:
320,192,113644,1,0,0:0:0:0:
192,192,113787,1,0,0:0:0:0:
64,192,113930,1,0,0:0:0:0:
192,192,114073,1,0,0:0:0:0:
448,192,114215,1,0,0:0:0:0:
64,192,114215,1,0,0:0:0:0:
320,192,114358,1,0,0:0:0:0:
192,192,114501,1,0,0:0:0:0:
64,192,114644,1,0,0:0:0:0:
192,192,114787,1,0,0:0:0:0:
320,192,114930,1,0,0:0:0:0:
192,192,115073,1,0,0:0:0:0:
64,192,115215,1,0,0:0:0:0:
448,192,115358,1,0,0:0:0:0:
192,192,115358,1,0,0:0:0:0:
320,192,115501,1,0,0:0:0:0:
448,192,115644,1,0,0:0:0:0:
192,192,115787,1,0,0:0:0:0:
64,192,115930,1,0,0:0:0:0:
192,192,116073,1,0,0:0:0:0:
320,192,116215,1,0,0:0:0:0:
448,192,116358,1,0,0:0:0:0:
320,192,116501,1,0,0:0:0:0:
64,192,116501,1,0,0:0:0:0:
192,192,116644,1,0,0:0:0:0:
320,192,116787,1,0,0:0:0:0:
448,192,116930,1,0,0:0:0:0:
320,192,117073,1,0,0:0:0:0:
192,192,117215,1,0,0:0:0:0:
448,192,117287,1,0,0:0:0:0:
64,192,117358,1,0,0:0:0:0:
192,192,117501,1,0,0:0:0:0:
448,192,117644,1,0,0:0:0:0:
64,192,117644,1,0,0:0:0:0:
192,192,117787,1,0,0:0:0:0:
320,192,117930,1,0,0:0:0:0:
448,192,118073,1,0,0:0:0:0:
192,192,118215,1,0,0:0:0:0:
320,192,118358,1,0,0:0:0:0:
192,192,118501,1,0,0:0:0:0:
64,192,118644,1,0,0:0:0:0:
192,192,118787,1,0,0:0:0:0:
448,192,118787,1,0,0:0:0:0:
320,192,118930,1,0,0:0:0:0:
192,192,119073,1,0,0:0:0:0:
64,192,119215,1,0,0:0:0:0:
448,192,119644,1,0,0:0:0:0:
192,192,119930,1,0,0:0:0:0:
320,192,120358,1,0,0:0:0:0:
64,192,120787,1,0,0:0:0:0:
