osu file format v14

[General]
AudioFilename: audio.mp3
AudioLeadIn: 0
PreviewTime: 89923
Countdown: 0
SampleSet: Soft
StackLeniency: 0.7
Mode: 3
LetterboxInBreaks: 0
SpecialStyle: 0
WidescreenStoryboard: 1

[Editor]
DistanceSpacing: 0.3
BeatDivisor: 4
GridSize: 32
TimelineZoom: 3

[Metadata]
Title:Level Up
TitleUnicode:Level Up
Artist:USAO
ArtistUnicode:USAO
Creator:[ A v a l o n ]
Version:Insane
Source:
Tags:Electronic Instrumental Hardcore J-Core JCore Massive CircleZ REVOLUTION BEATZ 2nd TUNE MNFK-028 Worthlessnut9 [_A_v_a_l_o_n_] Avalon
BeatmapID:4262274
BeatmapSetID:2040918

[Difficulty]
HPDrainRate:8
CircleSize:4
OverallDifficulty:8
ApproachRate:8
SliderMultiplier:1.4
SliderTickRate:1

[Events]
//Background and Video events
0,0,"up up.jpg",0,0
//Break Periods
//Storyboard Layer 0 (Background)
//Storyboard Layer 1 (Fail)
//Storyboard Layer 2 (Pass)
//Storyboard Layer 3 (Foreground)
//Storyboard Layer 4 (Overlay)
//Storyboard Sound Samples

[TimingPoints]
66,285.714285714286,4,2,1,25,1,0
90351,-100,4,2,1,30,0,1
98351,-100,4,2,1,25,0,0
108637,-100,4,2,1,30,0,1
136066,-100,4,2,1,30,0,0

[HitObjects]
320,192,1208,5,0,0:0:0:0:
192,192,1351,1,0,0:0:0:0:
320,192,1423,1,0,0:0:0:0:
192,192,1566,1,0,0:0:0:0:
320,192,1637,1,0,0:0:0:0:
192,192,1851,1,0,0:0:0:0:
320,192,1923,1,0,0:0:0:0:
64,192,2066,1,8,0:0:0:0:
448,192,2066,1,0,0:0:0:0:
192,192,2351,1,0,0:0:0:0:
448,192,2351,1,0,0:0:0:0:
448,192,2494,1,0,0:0:0:0:
448,192,2780,1,0,0:0:0:0:
448,192,3066,1,0,0:0:0:0:
448,192,3351,1,0,0:0:0:0:
448,192,3637,1,0,0:0:0:0:
448,192,3923,1,0,0:0:0:0:
448,192,4208,1,0,0:0:0:0:
192,192,4351,1,0,0:0:0:0:
448,192,4494,1,0,0:0:0:0:
64,192,4637,1,0,0:0:0:0:
64,192,4780,1,0,0:0:0:0:
320,192,4923,1,0,0:0:0:0:
64,192,5066,1,0,0:0:0:0:
64,192,5351,1,0,0:0:0:0:
448,192,5494,1,0,0:0:0:0:
64,192,5637,1,0,0:0:0:0:
64,192,5923,1,0,0:0:0:0:
192,192,5994,1,0,0:0:0:0:
320,192,6066,1,0,0:0:0:0:
448,192,6208,1,0,0:0:0:0:
192,192,6351,1,0,0:0:0:0:
320,192,6423,1,0,0:0:0:0:
448,192,6494,1,0,0:0:0:0:
192,192,6637,1,0,0:0:0:0:
64,192,6780,1,0,0:0:0:0:
320,192,6923,1,0,0:0:0:0:
448,192,6923,1,0,0:0:0:0:
64,192,7066,1,0,0:0:0:0:
192,192,7137,1,0,0:0:0:0:
320,192,7208,1,0,0:0:0:0:
448,192,7351,1,0,0:0:0:0:
192,192,7494,1,0,0:0:0:0:
320,192,7637,1,0,0:0:0:0:
64,192,7780,1,0,0:0:0:0:
192,192,7923,1,0,0:0:0:0:
320,192,8066,1,0,0:0:0:0:
192,192,8208,1,0,0:0:0:0:
320,192,8280,1,0,0:0:0:0:
448,192,8351,1,0,0:0:0:0:
192,192,8494,1,0,0:0:0:0:
64,192,8637,1,0,0:0:0:0:
448,192,8780,1,0,0:0:0:0:
320,192,8923,1,0,0:0:0:0:
192,192,9066,1,0,0:0:0:0:
64,192,9208,1,0,0:0:0:0:
448,192,9351,1,0,0:0:0:0:
320,192,9423,1,0,0:0:0:0:
192,192,9494,1,0,0:0:0:0:
448,192,9637,1,0,0:0:0:0:
64,192,9780,1,0,0:0:0:0:
192,192,9851,1,0,0:0:0:0:
320,192,9923,1,0,0:0:0:0:
448,192,10066,1,0,0:0:0:0:
320,192,10208,1,0,0:0:0:0:
64,192,10351,1,0,0:0:0:0:
192,192,10351,1,0,0:0:0:0:
320,192,10494,1,0,0:0:0:0:
192,192,10566,1,0,0:0:0:0:
64,192,10637,1,0,0:0:0:0:
448,192,10637,1,0,0:0:0:0:
320,192,10780,1,0,0:0:0:0:
192,192,10923,1,0,0:0:0:0:
64,192,11066,1,0,0:0:0:0:
320,192,11066,1,0,0:0:0:0:
448,192,11208,1,0,0:0:0:0:
320,192,11280,1,0,0:0:0:0:
192,192,11351,1,0,0:0:0:0:
64,192,11423,1,0,0:0:0:0:
320,192,11494,1,2,0:0:0:0:
448,192,11494,1,4,0:0:0:0:
64,192,11637,1,0,0:0:0:0:
192,192,11708,1,0,0:0:0:0:
320,192,11780,1,0,0:0:0:0:
448,192,11923,1,0,0:0:0:0:
192,192,12066,1,0,0:0:0:0:
320,192,12137,1,0,0:0:0:0:
448,192,12208,1,0,0:0:0:0:
64,192,12351,1,0,0:0:0:0:
192,192,12494,1,0,0:0:0:0:
320,192,12637,1,0,0:0:0:0:
448,192,12780,1,0,0:0:0:0:
320,192,12851,1,0,0:0:0:0:
192,192,12923,1,0,0:0:0:0:
64,192,13066,1,0,0:0:0:0:
320,192,13208,1,0,0:0:0:0:
192,192,13280,1,0,0:0:0:0:
64,192,13351,1,0,0:0:0:0:
448,192,13494,1,0,0:0:0:0:
320,192,13637,1,0,0:0:0:0:
64,192,13780,1,0,0:0:0:0:
192,192,13780,1,0,0:0:0:0:
448,192,13923,1,0,0:0:0:0:
320,192,13994,1,0,0:0:0:0:
192,192,14066,1,0,0:0:0:0:
448,192,14208,1,0,0:0:0:0:
64,192,14351,1,0,0:0:0:0:
192,192,14423,1,0,0:0:0:0:
320,192,14494,1,0,0:0:0:0:
448,192,14637,1,0,0:0:0:0:
320,192,14780,1,0,0:0:0:0:
64,192,14923,1,0,0:0:0:0:
192,192,14923,1,0,0:0:0:0:
448,192,15066,1,0,0:0:0:0:
320,192,15137,1,0,0:0:0:0:
192,192,15208,1,0,0:0:0:0:
448,192,15351,1,0,0:0:0:0:
64,192,15494,1,0,0:0:0:0:
192,192,15566,1,0,0:0:0:0:
320,192,15637,1,0,0:0:0:0:
64,192,15780,1,0,0:0:0:0:
192,192,15923,1,0,0:0:0:0:
320,192,16066,1,0,0:0:0:0:
448,192,16066,1,0,0:0:0:0:
64,192,16208,1,0,0:0:0:0:
192,192,16280,1,0,0:0:0:0:
320,192,16351,1,0,0:0:0:0:
64,192,16494,1,0,0:0:0:0:
192,192,16637,1,0,0:0:0:0:
448,192,16780,1,0,0:0:0:0:
320,192,16923,1,0,0:0:0:0:
192,192,17066,1,0,0:0:0:0:
64,192,17208,1,0,0:0:0:0:
448,192,17351,1,0,0:0:0:0:
320,192,17423,1,0,0:0:0:0:
192,192,17494,1,0,0:0:0:0:
448,192,17637,1,0,0:0:0:0:
320,192,17780,1,0,0:0:0:0:
64,192,17923,1,0,0:0:0:0:
192,192,18066,1,0,0:0:0:0:
320,192,18208,1,0,0:0:0:0:
64,192,18351,1,0,0:0:0:0:
448,192,18351,1,0,0:0:0:0:
192,192,18494,1,0,0:0:0:0:
320,192,18566,1,0,0:0:0:0:
448,192,18637,1,0,0:0:0:0:
64,192,18780,1,0,0:0:0:0:
320,192,18923,1,0,0:0:0:0:
192,192,18994,1,0,0:0:0:0:
64,192,19066,1,0,0:0:0:0:
448,192,19208,1,0,0:0:0:0:
320,192,19280,1,0,0:0:0:0:
64,192,19351,1,0,0:0:0:0:
192,192,19423,1,0,0:0:0:0:
320,192,19494,128,0,19566:0:0:0:0:
448,192,19494,128,0,19566:0:0:0:0:
192,192,19780,128,0,19851:0:0:0:0:
320,192,19780,128,0,19851:0:0:0:0:
64,192,20066,128,0,20137:0:0:0:0:
192,192,20066,128,0,20137:0:0:0:0:
64,192,20316,128,0,20387:0:0:0:0:
320,192,20316,128,0,20387:0:0:0:0:
448,192,20316,128,0,20387:0:0:0:0:
64,192,20637,1,2,0:0:0:0:
448,192,20637,1,0,0:0:0:0:
192,192,20780,1,0,0:0:0:0:
320,192,20923,1,8,0:0:0:0:
448,192,20923,1,0,0:0:0:0:
64,192,20994,1,0,0:0:0:0:
192,192,21066,1,0,0:0:0:0:
320,192,21137,1,0,0:0:0:0:
64,192,21208,1,2,0:0:0:0:
448,192,21208,1,0,0:0:0:0:
192,192,21280,1,0,0:0:0:0:
320,192,21351,1,0,0:0:0:0:
192,192,21423,1,0,0:0:0:0:
320,192,21494,1,8,0:0:0:0:
448,192,21494,1,0,0:0:0:0:
64,192,21637,1,0,0:0:0:0:
192,192,21780,1,2,0:0:0:0:
448,192,21780,1,0,0:0:0:0:
448,192,21923,1,0,0:0:0:0:
64,192,22066,1,8,0:0:0:0:
448,192,22066,1,0,0:0:0:0:
192,192,22208,1,0,0:0:0:0:
320,192,22351,1,2,0:0:0:0:
448,192,22351,1,0,0:0:0:0:
192,192,22423,1,0,0:0:0:0:
64,192,22494,1,0,0:0:0:0:
448,192,22566,1,0,0:0:0:0:
192,192,22637,1,8,0:0:0:0:
320,192,22637,1,0,0:0:0:0:
64,192,22708,1,0,0:0:0:0:
448,192,22780,1,0,0:0:0:0:
320,192,22851,1,0,0:0:0:0:
64,192,22923,1,2,0:0:0:0:
192,192,22923,1,0,0:0:0:0:
320,192,23066,1,0,0:0:0:0:
64,192,23208,1,8,0:0:0:0:
448,192,23208,1,0,0:0:0:0:
192,192,23351,1,0,0:0:0:0:
64,192,23494,1,2,0:0:0:0:
448,192,23494,128,0,23566:0:0:0:0:
192,192,23637,1,0,0:0:0:0:
448,192,23637,128,0,23708:0:0:0:0:
64,192,23780,128,8,23851:0:0:0:0:
320,192,23780,1,0,0:0:0:0:
64,192,23923,128,0,23994:0:0:0:0:
448,192,23923,1,0,0:0:0:0:
192,192,24066,1,2,0:0:0:0:
320,192,24066,1,0,0:0:0:0:
64,192,24208,1,0,0:0:0:0:
448,192,24351,1,8,0:0:0:0:
192,192,24351,1,0,0:0:0:0:
320,192,24494,1,0,0:0:0:0:
64,192,24637,1,2,0:0:0:0:
448,192,24637,1,0,0:0:0:0:
192,192,24708,1,0,0:0:0:0:
320,192,24780,1,0,0:0:0:0:
448,192,24851,1,0,0:0:0:0:
64,192,24923,1,8,0:0:0:0:
192,192,24923,1,0,0:0:0:0:
64,192,25066,1,0,0:0:0:0:
192,192,25208,1,2,0:0:0:0:
448,192,25208,1,4,0:0:0:0:
448,192,25351,1,0,0:0:0:0:
64,192,25494,1,8,0:0:0:0:
320,192,25494,1,0,0:0:0:0:
320,192,25637,1,0,0:0:0:0:
64,192,25780,128,2,25851:0:0:0:0:
192,192,25780,128,0,25851:0:0:0:0:
448,192,25923,1,0,0:0:0:0:
320,192,25994,1,0,0:0:0:0:
192,192,26066,1,8,0:0:0:0:
448,192,26066,1,0,0:0:0:0:
320,192,26208,1,0,0:0:0:0:
64,192,26351,1,2,0:0:0:0:
448,192,26351,1,0,0:0:0:0:
64,192,26494,1,0,0:0:0:0:
64,192,26637,1,8,0:0:0:0:
448,192,26637,1,0,0:0:0:0:
192,192,26780,1,0,0:0:0:0:
320,192,26923,1,2,0:0:0:0:
448,192,26923,1,0,0:0:0:0:
192,192,26994,1,0,0:0:0:0:
320,192,27066,1,0,0:0:0:0:
192,192,27137,1,0,0:0:0:0:
64,192,27208,1,8,0:0:0:0:
448,192,27208,1,0,0:0:0:0:
320,192,27280,1,0,0:0:0:0:
192,192,27351,1,0,0:0:0:0:
320,192,27423,1,0,0:0:0:0:
64,192,27494,128,2,27637:0:0:0:0:
448,192,27494,128,0,27637:0:0:0:0:
192,192,27637,1,0,0:0:0:0:
64,192,27780,1,8,0:0:0:0:
448,192,27780,1,0,0:0:0:0:
320,192,27923,1,0,0:0:0:0:
64,192,28066,1,2,0:0:0:0:
448,192,28066,128,0,28137:0:0:0:0:
192,192,28208,1,0,0:0:0:0:
448,192,28208,128,0,28280:0:0:0:0:
64,192,28351,128,8,28423:0:0:0:0:
320,192,28351,1,0,0:0:0:0:
64,192,28494,128,0,28566:0:0:0:0:
448,192,28494,1,0,0:0:0:0:
192,192,28637,1,8,0:0:0:0:
320,192,28637,1,0,0:0:0:0:
64,192,28780,1,0,0:0:0:0:
192,192,28851,1,0,0:0:0:0:
320,192,28923,1,8,0:0:0:0:
448,192,28923,1,0,0:0:0:0:
192,192,29066,1,0,0:0:0:0:
320,192,29137,1,0,0:0:0:0:
64,192,29208,1,0,0:0:0:0:
192,192,29280,1,0,0:0:0:0:
320,192,29351,1,0,0:0:0:0:
64,192,29494,128,8,29637:0:0:0:0:
448,192,29494,128,0,29637:0:0:0:0:
64,192,29780,1,2,0:0:0:0:
320,192,29780,1,4,0:0:0:0:
448,192,29780,1,0,0:0:0:0:
320,192,29923,1,0,0:0:0:0:
64,192,30066,1,0,0:0:0:0:
192,192,30137,1,0,0:0:0:0:
448,192,30208,1,0,0:0:0:0:
320,192,30280,1,0,0:0:0:0:
64,192,30351,1,8,0:0:0:0:
192,192,30351,1,0,0:0:0:0:
448,192,30423,1,0,0:0:0:0:
192,192,30494,1,0,0:0:0:0:
448,192,30566,1,0,0:0:0:0:
192,192,30637,1,0,0:0:0:0:
320,192,30780,1,2,0:0:0:0:
448,192,30780,1,0,0:0:0:0:
448,192,30923,1,2,0:0:0:0:
320,192,30923,1,0,0:0:0:0:
64,192,31018,1,0,0:0:0:0:
192,192,31066,1,0,0:0:0:0:
320,192,31113,1,0,0:0:0:0:
448,192,31161,1,0,0:0:0:0:
64,192,31208,1,2,0:0:0:0:
192,192,31208,1,0,0:0:0:0:
320,192,31304,1,0,0:0:0:0:
192,192,31399,1,0,0:0:0:0:
64,192,31494,1,8,0:0:0:0:
448,192,31494,128,0,31566:0:0:0:0:
448,192,31637,128,0,31708:0:0:0:0:
64,192,31780,128,0,32066:0:0:0:0:
192,192,31923,128,0,32066:0:0:0:0:
320,192,32066,1,2,0:0:0:0:
448,192,32066,1,0,0:0:0:0:
192,192,32208,1,0,0:0:0:0:
64,192,32351,1,0,0:0:0:0:
320,192,32494,1,2,0:0:0:0:
448,192,32494,1,0,0:0:0:0:
64,192,32637,1,8,0:0:0:0:
192,192,32637,1,0,0:0:0:0:
448,192,32780,1,0,0:0:0:0:
192,192,32851,1,0,0:0:0:0:
448,192,32923,1,0,0:0:0:0:
192,192,32994,1,0,0:0:0:0:
320,192,33066,1,2,0:0:0:0:
448,192,33066,1,0,0:0:0:0:
64,192,33208,1,2,0:0:0:0:
192,192,33208,1,0,0:0:0:0:
320,192,33351,1,0,0:0:0:0:
64,192,33494,128,0,33637:0:0:0:0:
448,192,33494,1,0,0:0:0:0:
192,192,33637,1,2,0:0:0:0:
320,192,33708,1,2,0:0:0:0:
64,192,33780,1,8,0:0:0:0:
448,192,33780,1,0,0:0:0:0:
192,192,33851,1,0,0:0:0:0:
320,192,33923,1,0,0:0:0:0:
448,192,33994,1,0,0:0:0:0:
64,192,34066,1,0,0:0:0:0:
192,192,34137,1,0,0:0:0:0:
320,192,34208,1,2,0:0:0:0:
448,192,34208,1,0,0:0:0:0:
64,192,34351,1,2,0:0:0:0:
192,192,34351,1,4,0:0:0:0:
320,192,34494,1,0,0:0:0:0:
64,192,34637,1,0,0:0:0:0:
192,192,34780,1,0,0:0:0:0:
64,192,34923,1,2,0:0:0:0:
448,192,34923,1,0,0:0:0:0:
320,192,34994,1,0,0:0:0:0:
192,192,35066,1,0,0:0:0:0:
64,192,35137,1,0,0:0:0:0:
448,192,35208,1,0,0:0:0:0:
192,192,35351,1,2,0:0:0:0:
320,192,35351,1,0,0:0:0:0:
64,192,35494,1,2,0:0:0:0:
448,192,35494,128,0,35566:0:0:0:0:
448,192,35637,128,0,35708:0:0:0:0:
64,192,35780,1,8,0:0:0:0:
448,192,35780,128,0,36066:0:0:0:0:
320,192,35923,128,0,36066:0:0:0:0:
192,192,36066,1,2,0:0:0:0:
64,192,36137,1,0,0:0:0:0:
320,192,36208,1,0,0:0:0:0:
192,192,36280,1,0,0:0:0:0:
448,192,36351,1,0,0:0:0:0:
320,192,36423,1,0,0:0:0:0:
64,192,36494,1,0,0:0:0:0:
192,192,36566,1,0,0:0:0:0:
320,192,36637,128,2,36780:0:0:0:0:
448,192,36637,128,0,36780:0:0:0:0:
64,192,36923,1,0,0:0:0:0:
192,192,36923,1,0,0:0:0:0:
448,192,37066,1,2,0:0:0:0:
320,192,37066,1,0,0:0:0:0:
448,192,37208,1,8,0:0:0:0:
64,192,37208,1,0,0:0:0:0:
320,192,37256,1,0,0:0:0:0:
192,192,37304,1,0,0:0:0:0:
64,192,37351,1,0,0:0:0:0:
448,192,37399,1,0,0:0:0:0:
320,192,37446,1,0,0:0:0:0:
192,192,37494,1,0,0:0:0:0:
64,192,37494,1,0,0:0:0:0:
192,192,37637,1,2,0:0:0:0:
64,192,37637,1,0,0:0:0:0:
320,192,37780,1,2,0:0:0:0:
448,192,37780,1,0,0:0:0:0:
192,192,37923,1,0,0:0:0:0:
320,192,37994,1,0,0:0:0:0:
192,192,38137,1,0,0:0:0:0:
320,192,38208,1,0,0:0:0:0:
64,192,38351,1,0,0:0:0:0:
192,192,38423,1,0,0:0:0:0:
320,192,38494,1,0,0:0:0:0:
64,192,38637,1,0,0:0:0:0:
448,192,38637,128,2,38708:0:0:0:0:
320,192,38708,128,0,38780:0:0:0:0:
192,192,38780,128,0,38851:0:0:0:0:
64,192,38851,128,0,38923:0:0:0:0:
320,192,38923,1,4,0:0:0:0:
448,192,38923,1,0,0:0:0:0:
192,192,39137,1,0,0:0:0:0:
320,192,39351,1,0,0:0:0:0:
64,192,39566,1,0,0:0:0:0:
448,192,39780,1,0,0:0:0:0:
320,192,39923,1,0,0:0:0:0:
192,192,40066,1,0,0:0:0:0:
64,192,40280,1,0,0:0:0:0:
192,192,40494,1,0,0:0:0:0:
320,192,40708,1,0,0:0:0:0:
448,192,40923,1,0,0:0:0:0:
320,192,41066,1,0,0:0:0:0:
64,192,41208,1,0,0:0:0:0:
192,192,41208,1,0,0:0:0:0:
320,192,41423,1,0,0:0:0:0:
192,192,41637,1,0,0:0:0:0:
448,192,41851,1,0,0:0:0:0:
64,192,42066,1,0,0:0:0:0:
192,192,42208,1,0,0:0:0:0:
320,192,42351,1,0,0:0:0:0:
448,192,42351,1,0,0:0:0:0:
64,192,42566,1,0,0:0:0:0:
320,192,42780,1,0,0:0:0:0:
192,192,42994,1,0,0:0:0:0:
448,192,43208,1,0,0:0:0:0:
320,192,43351,1,0,0:0:0:0:
64,192,43494,1,2,0:0:0:0:
192,192,43494,1,0,0:0:0:0:
320,192,43637,1,0,0:0:0:0:
448,192,43780,1,0,0:0:0:0:
192,192,43923,1,0,0:0:0:0:
448,192,44066,1,2,0:0:0:0:
320,192,44066,1,0,0:0:0:0:
64,192,44208,1,0,0:0:0:0:
320,192,44351,1,0,0:0:0:0:
192,192,44494,1,0,0:0:0:0:
320,192,44637,1,2,0:0:0:0:
448,192,44637,1,0,0:0:0:0:
64,192,44780,1,0,0:0:0:0:
448,192,44923,1,0,0:0:0:0:
320,192,45066,1,0,0:0:0:0:
64,192,45208,1,2,0:0:0:0:
192,192,45208,1,0,0:0:0:0:
320,192,45351,1,0,0:0:0:0:
64,192,45494,1,0,0:0:0:0:
192,192,45637,1,0,0:0:0:0:
320,192,45780,1,2,0:0:0:0:
448,192,45780,1,0,0:0:0:0:
192,192,45923,1,0,0:0:0:0:
320,192,45994,1,0,0:0:0:0:
448,192,46066,1,0,0:0:0:0:
64,192,46208,1,0,0:0:0:0:
192,192,46280,1,0,0:0:0:0:
320,192,46351,1,2,0:0:0:0:
448,192,46351,1,0,0:0:0:0:
192,192,46423,1,0,0:0:0:0:
64,192,46494,1,0,0:0:0:0:
448,192,46637,1,0,0:0:0:0:
320,192,46708,1,0,0:0:0:0:
192,192,46780,1,0,0:0:0:0:
64,192,46851,1,0,0:0:0:0:
320,192,46923,1,2,0:0:0:0:
448,192,46923,1,0,0:0:0:0:
192,192,46994,1,0,0:0:0:0:
320,192,47066,1,0,0:0:0:0:
192,192,47137,1,0,0:0:0:0:
320,192,47208,1,0,0:0:0:0:
192,192,47280,1,0,0:0:0:0:
320,192,47351,1,0,0:0:0:0:
192,192,47423,1,0,0:0:0:0:
320,192,47494,1,2,0:0:0:0:
192,192,47566,1,0,0:0:0:0:
64,192,47637,1,0,0:0:0:0:
448,192,47637,1,0,0:0:0:0:
320,192,47780,1,2,0:0:0:0:
192,192,47780,1,0,0:0:0:0:
320,192,47923,1,2,0:0:0:0:
192,192,47923,1,0,0:0:0:0:
64,192,48066,1,4,0:0:0:0:
448,192,48066,1,2,0:0:0:0:
320,192,48280,1,0,0:0:0:0:
192,192,48494,1,0,0:0:0:0:
64,192,48708,1,0,0:0:0:0:
448,192,48923,1,0,0:0:0:0:
320,192,49066,1,0,0:0:0:0:
64,192,49208,1,0,0:0:0:0:
448,192,49208,1,0,0:0:0:0:
192,192,49423,1,0,0:0:0:0:
320,192,49637,1,0,0:0:0:0:
448,192,49851,1,0,0:0:0:0:
64,192,50066,1,0,0:0:0:0:
192,192,50208,1,0,0:0:0:0:
64,192,50351,1,0,0:0:0:0:
448,192,50351,1,0,0:0:0:0:
320,192,50566,1,0,0:0:0:0:
192,192,50780,1,0,0:0:0:0:
64,192,50994,1,0,0:0:0:0:
448,192,51208,1,0,0:0:0:0:
320,192,51351,1,0,0:0:0:0:
64,192,51494,1,0,0:0:0:0:
448,192,51494,1,0,0:0:0:0:
192,192,51708,1,0,0:0:0:0:
320,192,51923,1,0,0:0:0:0:
448,192,52137,1,0,0:0:0:0:
64,192,52351,1,0,0:0:0:0:
192,192,52494,1,0,0:0:0:0:
320,192,52637,1,0,0:0:0:0:
448,192,52637,1,8,0:0:0:0:
192,192,52851,1,0,0:0:0:0:
64,192,52851,1,0,0:0:0:0:
64,192,53066,1,0,0:0:0:0:
192,192,53066,1,0,0:0:0:0:
320,192,53208,1,0,0:0:0:0:
448,192,53208,1,0,0:0:0:0:
192,192,53423,1,0,0:0:0:0:
64,192,53423,1,0,0:0:0:0:
64,192,53637,1,0,0:0:0:0:
192,192,53637,1,0,0:0:0:0:
320,192,53780,1,0,0:0:0:0:
448,192,53780,1,8,0:0:0:0:
192,192,53994,1,0,0:0:0:0:
64,192,53994,1,0,0:0:0:0:
64,192,54208,1,0,0:0:0:0:
192,192,54208,1,0,0:0:0:0:
320,192,54351,1,0,0:0:0:0:
448,192,54351,1,0,0:0:0:0:
192,192,54566,1,0,0:0:0:0:
64,192,54566,1,0,0:0:0:0:
448,192,54780,1,0,0:0:0:0:
320,192,54780,1,0,0:0:0:0:
64,192,54923,128,0,54994:0:0:0:0:
192,192,54923,1,0,0:0:0:0:
448,192,55066,128,0,55137:0:0:0:0:
64,192,55208,128,0,55280:0:0:0:0:
192,192,55208,1,0,0:0:0:0:
448,192,55351,128,0,55423:0:0:0:0:
64,192,55494,128,0,55566:0:0:0:0:
192,192,55494,1,0,0:0:0:0:
64,192,55637,128,0,55708:0:0:0:0:
192,192,55637,1,0,0:0:0:0:
64,192,55780,128,0,55851:0:0:0:0:
192,192,55780,1,0,0:0:0:0:
64,192,55923,128,0,55994:0:0:0:0:
192,192,55923,1,0,0:0:0:0:
320,192,56066,1,0,0:0:0:0:
448,192,56066,1,0,0:0:0:0:
192,192,56351,1,0,0:0:0:0:
320,192,56351,1,0,0:0:0:0:
64,192,56637,1,8,1:0:0:0:
192,192,56637,1,0,0:0:0:0:
64,192,56780,1,8,1:0:0:0:
64,192,56923,1,8,1:0:0:0:
448,192,56923,128,0,56994:0:0:0:0:
320,192,56994,128,0,57066:0:0:0:0:
192,192,57066,128,0,57137:0:0:0:0:
64,192,57137,128,0,57208:0:0:0:0:
320,192,57208,1,4,0:0:0:0:
448,192,57208,1,2,0:0:0:0:
192,192,57351,1,0,0:0:0:0:
320,192,57423,1,0,0:0:0:0:
64,192,57494,1,8,0:0:0:0:
448,192,57494,1,0,0:0:0:0:
192,192,57637,1,0,0:0:0:0:
320,192,57780,1,2,0:0:0:0:
448,192,57780,1,0,0:0:0:0:
64,192,57851,1,0,0:0:0:0:
192,192,57923,1,0,0:0:0:0:
64,192,58066,1,8,0:0:0:0:
448,192,58066,1,0,0:0:0:0:
192,192,58208,1,0,0:0:0:0:
64,192,58351,1,2,0:0:0:0:
448,192,58351,1,0,0:0:0:0:
320,192,58494,1,0,0:0:0:0:
192,192,58566,1,0,0:0:0:0:
64,192,58637,1,8,0:0:0:0:
448,192,58637,1,0,0:0:0:0:
320,192,58780,1,0,0:0:0:0:
64,192,58923,1,2,0:0:0:0:
192,192,58923,1,0,0:0:0:0:
448,192,58994,1,0,0:0:0:0:
320,192,59066,1,0,0:0:0:0:
64,192,59208,1,8,0:0:0:0:
448,192,59208,1,0,0:0:0:0:
192,192,59351,1,0,0:0:0:0:
320,192,59470,1,8,1:0:0:0:
448,192,59470,1,0,0:0:0:0:
192,192,59542,1,8,1:0:0:0:
64,192,59613,1,0,0:0:0:0:
320,192,59613,1,8,1:0:0:0:
448,192,59685,1,8,1:0:0:0:
192,192,59756,1,8,1:0:0:0:
64,192,59756,1,0,0:0:0:0:
320,192,59827,1,8,1:0:0:0:
448,192,59899,1,8,1:0:0:0:
64,192,59899,1,0,0:0:0:0:
192,192,59970,1,8,1:0:0:0:
320,192,60066,1,2,0:0:0:0:
448,192,60066,1,0,0:0:0:0:
320,192,60208,1,2,0:0:0:0:
448,192,60208,1,0,0:0:0:0:
192,192,60351,1,2,0:0:0:0:
64,192,60351,1,0,0:0:0:0:
320,192,60637,1,4,0:0:0:0:
192,192,60637,1,2,0:0:0:0:
448,192,60637,1,0,0:0:0:0:
192,192,61208,128,0,61280:0:0:0:0:
64,192,61208,1,0,0:0:0:0:
448,192,61351,128,0,61423:0:0:0:0:
192,192,61494,128,0,61566:0:0:0:0:
64,192,61494,1,0,0:0:0:0:
448,192,61637,128,0,61708:0:0:0:0:
64,192,61780,128,0,61851:0:0:0:0:
192,192,61780,1,0,0:0:0:0:
320,192,61923,128,0,61994:0:0:0:0:
64,192,62066,128,0,62280:0:0:0:0:
192,192,62066,128,0,62208:0:0:0:0:
448,192,62280,128,0,62566:0:0:0:0:
320,192,62351,128,0,62566:0:0:0:0:
64,192,62566,128,0,62923:0:0:0:0:
192,192,62637,128,0,62923:0:0:0:0:
320,192,62923,1,4,0:0:0:0:
448,192,62923,1,2,0:0:0:0:
192,192,63066,1,0,0:0:0:0:
64,192,63208,1,0,0:0:0:0:
448,192,63351,1,0,0:0:0:0:
320,192,63423,1,0,0:0:0:0:
192,192,63494,1,2,0:0:0:0:
64,192,63566,1,0,0:0:0:0:
448,192,63637,1,0,0:0:0:0:
192,192,63851,1,0,0:0:0:0:
320,192,63923,1,0,0:0:0:0:
64,192,63994,1,0,0:0:0:0:
320,192,64066,1,2,0:0:0:0:
448,192,64066,1,0,0:0:0:0:
64,192,64351,1,0,0:0:0:0:
192,192,64351,1,0,0:0:0:0:
320,192,64494,1,0,0:0:0:0:
448,192,64566,1,0,0:0:0:0:
192,192,64637,1,2,0:0:0:0:
320,192,64708,1,0,0:0:0:0:
448,192,64780,1,0,0:0:0:0:
320,192,64923,1,0,0:0:0:0:
64,192,64994,1,0,0:0:0:0:
320,192,65066,1,0,0:0:0:0:
64,192,65137,1,0,0:0:0:0:
320,192,65208,1,2,0:0:0:0:
448,192,65208,1,0,0:0:0:0:
192,192,65351,1,0,0:0:0:0:
64,192,65494,1,0,0:0:0:0:
448,192,65494,1,0,0:0:0:0:
320,192,65637,1,0,0:0:0:0:
64,192,65780,1,2,0:0:0:0:
192,192,65780,1,0,0:0:0:0:
320,192,65851,1,0,0:0:0:0:
448,192,65923,1,0,0:0:0:0:
64,192,66066,1,0,0:0:0:0:
320,192,66137,1,0,0:0:0:0:
64,192,66208,1,0,0:0:0:0:
320,192,66280,1,0,0:0:0:0:
64,192,66351,1,2,0:0:0:0:
192,192,66351,1,0,0:0:0:0:
448,192,66494,1,0,0:0:0:0:
64,192,66637,1,0,0:0:0:0:
320,192,66637,1,0,0:0:0:0:
192,192,66780,1,0,0:0:0:0:
320,192,66923,1,2,0:0:0:0:
448,192,66923,1,0,0:0:0:0:
192,192,66994,1,0,0:0:0:0:
64,192,67066,1,0,0:0:0:0:
448,192,67208,1,0,0:0:0:0:
320,192,67280,1,0,0:0:0:0:
64,192,67351,1,0,0:0:0:0:
192,192,67351,1,2,0:0:0:0:
320,192,67494,1,2,0:0:0:0:
448,192,67494,1,0,0:0:0:0:
64,192,67637,1,0,0:0:0:0:
192,192,67780,1,0,0:0:0:0:
448,192,67780,1,0,0:0:0:0:
320,192,67923,1,0,0:0:0:0:
64,192,68066,1,2,0:0:0:0:
448,192,68066,1,0,0:0:0:0:
192,192,68137,1,0,0:0:0:0:
64,192,68208,1,0,0:0:0:0:
320,192,68351,1,0,0:0:0:0:
192,192,68423,1,0,0:0:0:0:
320,192,68494,1,0,0:0:0:0:
192,192,68566,1,0,0:0:0:0:
320,192,68637,1,2,0:0:0:0:
448,192,68637,1,0,0:0:0:0:
192,192,68780,1,0,0:0:0:0:
64,192,68923,1,0,0:0:0:0:
448,192,68923,1,0,0:0:0:0:
320,192,69066,1,0,0:0:0:0:
64,192,69208,1,2,0:0:0:0:
448,192,69208,1,0,0:0:0:0:
192,192,69280,1,0,0:0:0:0:
64,192,69351,1,0,0:0:0:0:
320,192,69494,1,0,0:0:0:0:
192,192,69566,1,0,0:0:0:0:
320,192,69637,1,0,0:0:0:0:
192,192,69708,1,0,0:0:0:0:
320,192,69780,1,2,0:0:0:0:
448,192,69780,1,0,0:0:0:0:
64,192,69923,1,0,0:0:0:0:
192,192,70066,1,0,0:0:0:0:
448,192,70066,1,0,0:0:0:0:
320,192,70208,1,0,0:0:0:0:
64,192,70351,1,2,0:0:0:0:
448,192,70351,1,0,0:0:0:0:
192,192,70423,1,0,0:0:0:0:
64,192,70494,1,0,0:0:0:0:
320,192,70637,1,0,0:0:0:0:
192,192,70708,1,0,0:0:0:0:
448,192,70780,1,0,0:0:0:0:
320,192,70851,1,0,0:0:0:0:
64,192,70923,128,2,71351:0:0:0:0:
192,192,70923,1,0,0:0:0:0:
192,192,71208,128,0,71351:0:0:0:0:
320,192,71494,1,8,0:0:0:0:
448,192,71494,128,0,72066:0:0:0:0:
192,192,71566,1,8,0:0:0:0:
320,192,71637,1,8,0:0:0:0:
192,192,71708,1,8,0:0:0:0:
64,192,71780,1,8,0:0:0:0:
320,192,71780,1,4,0:0:0:0:
64,192,72066,1,2,0:0:0:0:
192,192,72066,1,4,0:0:0:0:
320,192,72066,1,0,0:0:0:0:
192,192,72351,1,0,0:0:0:0:
320,192,72351,1,0,0:0:0:0:
64,192,72637,1,0,0:0:0:0:
448,192,72637,1,0,0:0:0:0:
192,192,72780,1,0,0:0:0:0:
320,192,73066,1,0,0:0:0:0:
64,192,73208,1,0,0:0:0:0:
448,192,73208,1,0,0:0:0:0:
192,192,73494,1,0,0:0:0:0:
320,192,73494,1,0,0:0:0:0:
64,192,73780,1,0,0:0:0:0:
448,192,73780,1,0,0:0:0:0:
320,192,73923,1,0,0:0:0:0:
64,192,74066,1,0,0:0:0:0:
192,192,74208,1,0,0:0:0:0:
320,192,74208,1,0,0:0:0:0:
64,192,74351,1,2,0:0:0:0:
448,192,74351,1,0,0:0:0:0:
192,192,74637,1,0,0:0:0:0:
448,192,74637,1,0,0:0:0:0:
64,192,74923,1,0,0:0:0:0:
192,192,74923,1,0,0:0:0:0:
320,192,75066,1,0,0:0:0:0:
64,192,75208,1,0,0:0:0:0:
448,192,75351,1,0,0:0:0:0:
64,192,75494,1,0,0:0:0:0:
320,192,75494,1,0,0:0:0:0:
192,192,75780,1,0,0:0:0:0:
448,192,75780,1,0,0:0:0:0:
64,192,76066,1,0,0:0:0:0:
320,192,76066,1,0,0:0:0:0:
192,192,76351,1,0,0:0:0:0:
448,192,76351,1,0,0:0:0:0:
64,192,76494,1,2,0:0:0:0:
320,192,76494,1,0,0:0:0:0:
64,192,76637,1,4,0:0:0:0:
192,192,76637,1,2,0:0:0:0:
448,192,76637,1,0,0:0:0:0:
64,192,76923,1,0,0:0:0:0:
192,192,76923,1,0,0:0:0:0:
448,192,77066,1,0,0:0:0:0:
320,192,77137,1,0,0:0:0:0:
64,192,77208,1,2,0:0:0:0:
192,192,77208,1,0,0:0:0:0:
448,192,77280,1,0,0:0:0:0:
320,192,77351,1,0,0:0:0:0:
64,192,77494,1,0,0:0:0:0:
192,192,77566,1,0,0:0:0:0:
320,192,77637,1,0,0:0:0:0:
448,192,77708,1,0,0:0:0:0:
64,192,77780,1,2,0:0:0:0:
192,192,77780,1,0,0:0:0:0:
448,192,78066,1,0,0:0:0:0:
64,192,78208,1,0,0:0:0:0:
192,192,78280,1,0,0:0:0:0:
320,192,78351,1,2,0:0:0:0:
448,192,78351,1,0,0:0:0:0:
64,192,78423,1,0,0:0:0:0:
192,192,78494,1,0,0:0:0:0:
448,192,78637,1,0,0:0:0:0:
320,192,78708,1,0,0:0:0:0:
192,192,78780,1,0,0:0:0:0:
64,192,78851,1,0,0:0:0:0:
320,192,78923,1,2,0:0:0:0:
448,192,78923,1,0,0:0:0:0:
64,192,79208,1,0,0:0:0:0:
448,192,79351,1,0,0:0:0:0:
320,192,79423,1,0,0:0:0:0:
64,192,79494,1,2,0:0:0:0:
192,192,79494,1,0,0:0:0:0:
448,192,79566,1,0,0:0:0:0:
320,192,79637,1,0,0:0:0:0:
64,192,79780,1,0,0:0:0:0:
192,192,79851,1,0,0:0:0:0:
320,192,79923,1,0,0:0:0:0:
448,192,79994,1,0,0:0:0:0:
64,192,80066,1,2,0:0:0:0:
192,192,80066,1,0,0:0:0:0:
320,192,80208,1,0,0:0:0:0:
448,192,80351,1,0,0:0:0:0:
64,192,80494,1,0,0:0:0:0:
192,192,80566,1,0,0:0:0:0:
320,192,80637,1,2,0:0:0:0:
448,192,80637,1,0,0:0:0:0:
64,192,80708,1,0,0:0:0:0:
192,192,80780,1,0,0:0:0:0:
448,192,80923,1,0,0:0:0:0:
320,192,80994,1,0,0:0:0:0:
192,192,81066,1,0,0:0:0:0:
64,192,81137,1,0,0:0:0:0:
192,192,81208,1,4,0:0:0:0:
320,192,81208,1,2,0:0:0:0:
448,192,81208,1,0,0:0:0:0:
320,192,81423,1,2,0:0:0:0:
448,192,81423,1,0,0:0:0:0:
64,192,81637,1,2,0:0:0:0:
192,192,81637,1,0,0:0:0:0:
320,192,81780,1,2,0:0:0:0:
448,192,81780,1,0,0:0:0:0:
320,192,81994,1,2,0:0:0:0:
448,192,81994,1,0,0:0:0:0:
64,192,82208,1,2,0:0:0:0:
192,192,82208,1,0,0:0:0:0:
320,192,82351,1,2,0:0:0:0:
448,192,82351,1,0,0:0:0:0:
320,192,82566,1,2,0:0:0:0:
448,192,82566,1,0,0:0:0:0:
64,192,82780,1,2,0:0:0:0:
192,192,82780,1,0,0:0:0:0:
320,192,82923,1,2,0:0:0:0:
448,192,82923,1,0,0:0:0:0:
320,192,83137,1,2,0:0:0:0:
448,192,83137,1,0,0:0:0:0:
64,192,83208,1,2,0:0:0:0:
192,192,83208,1,0,0:0:0:0:
320,192,83280,1,2,0:0:0:0:
448,192,83280,1,0,0:0:0:0:
64,192,83351,1,2,0:0:0:0:
192,192,83351,1,0,0:0:0:0:
320,192,83494,1,2,0:0:0:0:
448,192,83494,1,0,0:0:0:0:
320,192,83708,1,2,0:0:0:0:
448,192,83708,1,0,0:0:0:0:
64,192,83923,1,2,0:0:0:0:
192,192,83923,1,0,0:0:0:0:
320,192,84066,1,2,0:0:0:0:
448,192,84066,1,0,0:0:0:0:
320,192,84280,1,2,0:0:0:0:
448,192,84280,1,0,0:0:0:0:
64,192,84494,1,2,0:0:0:0:
192,192,84494,1,0,0:0:0:0:
320,192,84637,1,2,0:0:0:0:
448,192,84637,1,0,0:0:0:0:
192,192,84851,1,2,0:0:0:0:
448,192,84851,1,0,0:0:0:0:
64,192,85066,1,2,0:0:0:0:
320,192,85066,1,0,0:0:0:0:
64,192,85208,1,2,0:0:0:0:
448,192,85208,1,0,0:0:0:0:
192,192,85423,1,2,0:0:0:0:
448,192,85423,1,0,0:0:0:0:
64,192,85637,1,2,0:0:0:0:
192,192,85637,1,0,0:0:0:0:
320,192,85780,1,2,0:0:0:0:
448,192,85780,1,0,0:0:0:0:
64,192,85923,1,2,0:0:0:0:
192,192,85923,1,0,0:0:0:0:
320,192,86066,1,2,0:0:0:0:
448,192,86066,1,0,0:0:0:0:
64,192,86208,1,2,0:0:0:0:
192,192,86208,1,0,0:0:0:0:
320,192,86351,1,2,0:0:0:0:
448,192,86351,1,0,0:0:0:0:
64,192,86494,1,2,0:0:0:0:
192,192,86494,1,0,0:0:0:0:
320,192,86637,1,2,0:0:0:0:
448,192,86637,1,0,0:0:0:0:
64,192,86780,1,2,0:0:0:0:
192,192,86780,1,0,0:0:0:0:
320,192,86923,1,2,0:0:0:0:
448,192,86923,1,0,0:0:0:0:
320,192,87066,1,2,0:0:0:0:
448,192,87066,1,0,0:0:0:0:
64,192,87208,1,2,0:0:0:0:
192,192,87208,1,0,0:0:0:0:
64,192,87351,1,2,0:0:0:0:
192,192,87351,1,0,0:0:0:0:
320,192,87494,1,2,0:0:0:0:
448,192,87494,1,0,0:0:0:0:
320,192,87637,1,2,0:0:0:0:
448,192,87637,1,0,0:0:0:0:
64,192,87780,1,2,0:0:0:0:
192,192,87780,1,0,0:0:0:0:
64,192,87923,1,2,0:0:0:0:
192,192,87923,1,0,0:0:0:0:
320,192,88066,1,2,0:0:0:0:
448,192,88066,1,0,0:0:0:0:
192,192,88137,1,2,0:0:0:0:
64,192,88208,1,2,0:0:0:0:
448,192,88208,1,0,0:0:0:0:
320,192,88280,1,2,0:0:0:0:
64,192,88351,1,2,0:0:0:0:
192,192,88351,1,0,0:0:0:0:
320,192,88423,1,2,0:0:0:0:
64,192,88494,1,2,0:0:0:0:
448,192,88494,1,0,0:0:0:0:
192,192,88566,1,2,0:0:0:0:
320,192,88637,1,2,0:0:0:0:
448,192,88637,1,0,0:0:0:0:
64,192,88708,1,2,0:0:0:0:
192,192,88780,1,2,0:0:0:0:
448,192,88780,1,0,0:0:0:0:
320,192,88851,1,2,0:0:0:0:
192,192,88923,1,2,0:0:0:0:
64,192,88923,1,0,0:0:0:0:
448,192,88994,1,2,0:0:0:0:
64,192,89066,1,2,0:0:0:0:
320,192,89066,1,0,0:0:0:0:
192,192,89137,1,2,0:0:0:0:
320,192,89208,128,2,89280:0:0:0:0:
448,192,89208,1,0,0:0:0:0:
192,192,89280,128,0,89351:0:0:0:0:
64,192,89351,128,0,89423:0:0:0:0:
320,192,89423,128,0,89494:0:0:0:0:
192,192,89494,128,0,89566:0:0:0:0:
448,192,89566,128,0,89637:0:0:0:0:
320,192,89637,128,0,89708:0:0:0:0:
64,192,89708,128,0,89780:0:0:0:0:
192,192,89780,128,0,89851:0:0:0:0:
320,192,89851,128,0,89923:0:0:0:0:
64,192,89923,1,0,0:0:0:0:
448,192,89923,1,0,0:0:0:0:
192,192,90066,1,4,0:0:0:0:
320,192,90066,1,8,0:0:0:0:
64,192,90351,1,4,0:0:0:0:
320,192,90351,1,2,0:0:0:0:
448,192,90351,1,0,0:0:0:0:
64,192,90637,1,8,0:0:0:0:
192,192,90637,1,0,0:0:0:0:
448,192,90637,1,0,0:0:0:0:
320,192,90780,1,0,0:0:0:0:
192,192,90851,1,0,0:0:0:0:
320,192,90923,1,2,0:0:0:0:
448,192,90923,1,0,0:0:0:0:
64,192,91066,1,0,0:0:0:0:
192,192,91208,1,8,0:0:0:0:
320,192,91208,1,0,0:0:0:0:
448,192,91208,1,0,0:0:0:0:
64,192,91351,1,0,0:0:0:0:
192,192,91423,1,0,0:0:0:0:
320,192,91494,1,2,0:0:0:0:
448,192,91494,1,0,0:0:0:0:
64,192,91780,1,8,0:0:0:0:
192,192,91780,1,0,0:0:0:0:
448,192,91780,1,0,0:0:0:0:
320,192,91923,1,0,0:0:0:0:
448,192,91994,1,0,0:0:0:0:
64,192,92066,1,2,0:0:0:0:
192,192,92066,1,0,0:0:0:0:
320,192,92208,1,0,0:0:0:0:
64,192,92351,1,8,0:0:0:0:
192,192,92351,1,0,0:0:0:0:
448,192,92351,1,0,0:0:0:0:
320,192,92423,1,0,0:0:0:0:
448,192,92494,1,0,0:0:0:0:
192,192,92637,1,2,0:0:0:0:
320,192,92637,1,0,0:0:0:0:
64,192,92923,1,8,0:0:0:0:
192,192,92923,1,0,0:0:0:0:
448,192,92923,1,0,0:0:0:0:
320,192,93066,1,0,0:0:0:0:
64,192,93208,1,2,0:0:0:0:
448,192,93208,1,0,0:0:0:0:
192,192,93280,1,2,0:0:0:0:
320,192,93351,1,2,0:0:0:0:
448,192,93351,1,0,0:0:0:0:
64,192,93423,1,2,0:0:0:0:
192,192,93494,1,2,0:0:0:0:
320,192,93494,1,0,0:0:0:0:
448,192,93566,1,2,0:0:0:0:
64,192,93637,1,2,0:0:0:0:
192,192,93637,1,0,0:0:0:0:
320,192,93708,1,2,0:0:0:0:
64,192,93780,1,2,0:0:0:0:
448,192,93780,1,0,0:0:0:0:
192,192,93994,1,2,0:0:0:0:
320,192,93994,1,0,0:0:0:0:
64,192,94066,1,8,0:0:0:0:
448,192,94066,1,0,0:0:0:0:
192,192,94208,1,2,0:0:0:0:
320,192,94208,1,0,0:0:0:0:
192,192,94423,1,2,0:0:0:0:
320,192,94423,1,0,0:0:0:0:
64,192,94637,1,8,0:0:0:0:
192,192,94637,1,0,0:0:0:0:
448,192,94637,1,0,0:0:0:0:
320,192,94780,1,2,0:0:0:0:
448,192,94780,1,0,0:0:0:0:
64,192,94923,1,2,0:0:0:0:
448,192,94923,1,4,0:0:0:0:
192,192,94994,1,0,0:0:0:0:
320,192,95066,1,0,0:0:0:0:
64,192,95137,1,0,0:0:0:0:
192,192,95208,1,8,0:0:0:0:
320,192,95208,1,0,0:0:0:0:
448,192,95208,1,0,0:0:0:0:
64,192,95351,1,0,0:0:0:0:
192,192,95423,1,0,0:0:0:0:
320,192,95494,1,2,0:0:0:0:
448,192,95494,1,0,0:0:0:0:
192,192,95637,1,0,0:0:0:0:
64,192,95780,1,8,0:0:0:0:
320,192,95780,1,0,0:0:0:0:
448,192,95780,1,0,0:0:0:0:
192,192,95923,1,0,0:0:0:0:
320,192,95994,1,0,0:0:0:0:
64,192,96066,1,2,0:0:0:0:
448,192,96066,1,0,0:0:0:0:
192,192,96208,1,0,0:0:0:0:
64,192,96351,1,8,0:0:0:0:
320,192,96351,1,0,0:0:0:0:
448,192,96351,1,0,0:0:0:0:
192,192,96494,1,0,0:0:0:0:
64,192,96566,1,0,0:0:0:0:
320,192,96637,1,2,0:0:0:0:
448,192,96637,1,0,0:0:0:0:
192,192,96780,1,0,0:0:0:0:
64,192,96923,1,8,0:0:0:0:
320,192,96923,1,0,0:0:0:0:
448,192,96923,1,0,0:0:0:0:
192,192,96994,1,0,0:0:0:0:
64,192,97066,1,0,0:0:0:0:
192,192,97208,1,2,0:0:0:0:
320,192,97208,1,0,0:0:0:0:
64,192,97494,1,8,0:0:0:0:
192,192,97494,1,0,0:0:0:0:
448,192,97494,1,0,0:0:0:0:
320,192,97637,1,0,0:0:0:0:
192,192,97708,1,0,0:0:0:0:
64,192,97780,1,2,0:0:0:0:
448,192,97780,1,0,0:0:0:0:
320,192,97923,1,0,0:0:0:0:
64,192,98066,1,8,0:0:0:0:
192,192,98066,1,0,0:0:0:0:
448,192,98066,1,0,0:0:0:0:
320,192,98208,1,0,0:0:0:0:
192,192,98280,1,0,0:0:0:0:
64,192,98351,1,8,1:0:0:0:
448,192,98351,1,0,0:0:0:0:
64,192,98494,1,8,1:0:0:0:
64,192,98637,1,8,1:0:0:0:
448,192,98780,1,8,1:0:0:0:
320,192,98851,1,8,1:0:0:0:
64,192,98923,1,8,1:0:0:0:
192,192,98994,1,8,1:0:0:0:
320,192,99066,1,2,0:0:0:0:
448,192,99066,1,0,0:0:0:0:
64,192,99208,128,4,99494:0:0:0:0:
192,192,99208,1,2,0:0:0:0:
320,192,99208,1,0,0:0:0:0:
192,192,99494,1,2,0:0:0:0:
448,192,99494,128,0,99637:0:0:0:0:
320,192,99637,128,0,99780:0:0:0:0:
192,192,99780,128,0,99923:0:0:0:0:
64,192,100066,1,8,0:0:0:0:
448,192,100066,128,0,100208:0:0:0:0:
64,192,100280,1,0,0:0:0:0:
448,192,100280,128,0,100423:0:0:0:0:
192,192,100494,1,2,0:0:0:0:
320,192,100494,128,0,100637:0:0:0:0:
64,192,100637,128,2,100780:0:0:0:0:
448,192,100637,1,0,0:0:0:0:
64,192,100923,128,2,101066:0:0:0:0:
448,192,100923,1,0,0:0:0:0:
192,192,101208,1,8,0:0:0:0:
448,192,101208,128,0,101351:0:0:0:0:
448,192,101423,128,0,101566:0:0:0:0:
192,192,101494,1,0,0:0:0:0:
448,192,101637,128,0,101780:0:0:0:0:
192,192,101780,128,2,101923:0:0:0:0:
320,192,101780,128,0,101923:0:0:0:0:
64,192,102066,128,0,102208:0:0:0:0:
320,192,102208,1,0,0:0:0:0:
448,192,102280,128,0,102423:0:0:0:0:
64,192,102351,1,8,0:0:0:0:
192,192,102351,1,0,0:0:0:0:
320,192,102494,128,0,102637:0:0:0:0:
192,192,102708,1,0,0:0:0:0:
320,192,102780,1,2,0:0:0:0:
448,192,102780,1,0,0:0:0:0:
64,192,102851,1,0,0:0:0:0:
320,192,102923,1,2,0:0:0:0:
448,192,102923,128,0,103066:0:0:0:0:
64,192,103137,128,0,103280:0:0:0:0:
320,192,103208,1,2,0:0:0:0:
448,192,103208,1,0,0:0:0:0:
192,192,103351,1,2,0:0:0:0:
64,192,103351,1,0,0:0:0:0:
448,192,103423,1,2,0:0:0:0:
320,192,103423,1,0,0:0:0:0:
192,192,103494,1,8,0:0:0:0:
64,192,103494,1,0,0:0:0:0:
320,192,103542,1,0,0:0:0:0:
448,192,103589,1,0,0:0:0:0:
64,192,103637,1,0,0:0:0:0:
192,192,103685,1,0,0:0:0:0:
320,192,103732,1,0,0:0:0:0:
448,192,103780,1,0,0:0:0:0:
192,192,103827,1,0,0:0:0:0:
64,192,103875,1,0,0:0:0:0:
448,192,103923,1,0,0:0:0:0:
320,192,103970,1,0,0:0:0:0:
192,192,104018,1,0,0:0:0:0:
448,192,104066,1,2,0:0:0:0:
64,192,104066,1,4,0:0:0:0:
192,192,104208,1,0,0:0:0:0:
448,192,104351,1,8,0:0:0:0:
64,192,104351,128,0,104423:0:0:0:0:
320,192,104494,1,0,0:0:0:0:
192,192,104637,1,0,0:0:0:0:
320,192,104780,1,2,0:0:0:0:
448,192,104780,1,0,0:0:0:0:
192,192,104851,1,0,0:0:0:0:
448,192,104923,1,8,0:0:0:0:
64,192,104923,128,0,104994:0:0:0:0:
320,192,105066,1,0,0:0:0:0:
64,192,105208,1,2,0:0:0:0:
192,192,105208,1,0,0:0:0:0:
320,192,105351,1,0,0:0:0:0:
448,192,105494,1,8,0:0:0:0:
64,192,105494,128,0,105566:0:0:0:0:
192,192,105637,1,0,0:0:0:0:
320,192,105780,1,0,0:0:0:0:
64,192,105923,1,2,0:0:0:0:
192,192,105923,1,0,0:0:0:0:
320,192,105994,1,0,0:0:0:0:
448,192,106066,1,8,0:0:0:0:
64,192,106066,128,0,106137:0:0:0:0:
192,192,106208,1,0,0:0:0:0:
320,192,106351,1,2,0:0:0:0:
448,192,106351,1,0,0:0:0:0:
192,192,106494,1,0,0:0:0:0:
448,192,106637,1,8,0:0:0:0:
64,192,106637,128,0,106708:0:0:0:0:
320,192,106780,1,0,0:0:0:0:
192,192,106923,1,0,0:0:0:0:
320,192,107066,1,2,0:0:0:0:
448,192,107066,1,0,0:0:0:0:
192,192,107137,1,0,0:0:0:0:
448,192,107208,1,8,0:0:0:0:
64,192,107208,128,0,107280:0:0:0:0:
192,192,107351,1,2,0:0:0:0:
320,192,107351,1,0,0:0:0:0:
64,192,107423,1,2,0:0:0:0:
448,192,107423,1,0,0:0:0:0:
192,192,107494,1,2,0:0:0:0:
320,192,107494,1,0,0:0:0:0:
448,192,107637,1,8,1:0:0:0:
320,192,107708,1,8,1:0:0:0:
192,192,107780,1,8,1:0:0:0:
64,192,107851,1,8,1:0:0:0:
320,192,107923,1,8,1:0:0:0:
448,192,107994,1,8,1:0:0:0:
64,192,108066,1,8,1:0:0:0:
192,192,108137,1,8,1:0:0:0:
320,192,108208,1,2,0:0:0:0:
448,192,108208,1,0,0:0:0:0:
64,192,108351,1,4,0:0:0:0:
192,192,108351,1,8,0:0:0:0:
448,192,108351,1,0,0:0:0:0:
64,192,108637,1,4,0:0:0:0:
320,192,108637,1,2,0:0:0:0:
448,192,108637,1,0,0:0:0:0:
192,192,108780,1,0,0:0:0:0:
64,192,108923,1,8,0:0:0:0:
320,192,108923,1,0,0:0:0:0:
448,192,108923,1,0,0:0:0:0:
192,192,109066,1,0,0:0:0:0:
64,192,109208,1,2,0:0:0:0:
448,192,109208,1,0,0:0:0:0:
320,192,109351,1,0,0:0:0:0:
192,192,109423,1,0,0:0:0:0:
64,192,109494,1,8,0:0:0:0:
320,192,109494,1,0,0:0:0:0:
448,192,109494,1,0,0:0:0:0:
448,192,109637,1,0,0:0:0:0:
64,192,109780,1,2,0:0:0:0:
192,192,109780,1,0,0:0:0:0:
320,192,109851,1,0,0:0:0:0:
448,192,109923,1,0,0:0:0:0:
64,192,110066,1,8,0:0:0:0:
320,192,110066,1,0,0:0:0:0:
448,192,110066,1,0,0:0:0:0:
192,192,110137,1,0,0:0:0:0:
64,192,110208,1,0,0:0:0:0:
192,192,110351,1,2,0:0:0:0:
320,192,110351,1,0,0:0:0:0:
448,192,110494,1,0,0:0:0:0:
320,192,110566,1,0,0:0:0:0:
64,192,110637,1,8,0:0:0:0:
192,192,110637,1,0,0:0:0:0:
448,192,110637,1,0,0:0:0:0:
320,192,110780,1,0,0:0:0:0:
64,192,110923,1,2,0:0:0:0:
448,192,110923,1,0,0:0:0:0:
192,192,110994,1,0,0:0:0:0:
320,192,111066,1,0,0:0:0:0:
64,192,111208,1,8,0:0:0:0:
192,192,111208,1,0,0:0:0:0:
448,192,111208,1,0,0:0:0:0:
320,192,111280,1,0,0:0:0:0:
448,192,111351,1,0,0:0:0:0:
64,192,111494,1,2,0:0:0:0:
320,192,111494,1,0,0:0:0:0:
192,192,111566,1,0,0:0:0:0:
448,192,111637,1,0,0:0:0:0:
320,192,111708,1,0,0:0:0:0:
64,192,111780,1,8,0:0:0:0:
192,192,111780,1,0,0:0:0:0:
448,192,111780,1,0,0:0:0:0:
320,192,111851,1,0,0:0:0:0:
192,192,111923,1,0,0:0:0:0:
64,192,112066,1,2,0:0:0:0:
448,192,112066,1,0,0:0:0:0:
192,192,112137,1,0,0:0:0:0:
320,192,112208,1,0,0:0:0:0:
192,192,112351,1,8,0:0:0:0:
64,192,112351,1,0,0:0:0:0:
448,192,112351,1,0,0:0:0:0:
320,192,112494,1,0,0:0:0:0:
64,192,112637,1,2,0:0:0:0:
448,192,112637,1,0,0:0:0:0:
192,192,112780,1,0,0:0:0:0:
320,192,112851,1,0,0:0:0:0:
64,192,112923,1,8,0:0:0:0:
192,192,112923,1,0,0:0:0:0:
448,192,112923,1,0,0:0:0:0:
320,192,113066,1,0,0:0:0:0:
64,192,113208,1,2,0:0:0:0:
448,192,113208,1,0,0:0:0:0:
192,192,113351,1,0,0:0:0:0:
64,192,113494,1,8,0:0:0:0:
192,192,113494,1,0,0:0:0:0:
448,192,113494,1,0,0:0:0:0:
320,192,113637,1,0,0:0:0:0:
64,192,113780,1,2,0:0:0:0:
448,192,113780,1,0,0:0:0:0:
192,192,113923,1,0,0:0:0:0:
64,192,114066,1,8,0:0:0:0:
320,192,114066,1,0,0:0:0:0:
448,192,114066,1,0,0:0:0:0:
320,192,114208,1,0,0:0:0:0:
64,192,114351,1,2,0:0:0:0:
448,192,114351,1,0,0:0:0:0:
192,192,114423,1,0,0:0:0:0:
320,192,114494,1,0,0:0:0:0:
64,192,114637,1,8,0:0:0:0:
192,192,114637,1,0,0:0:0:0:
448,192,114637,1,0,0:0:0:0:
320,192,114708,1,0,0:0:0:0:
448,192,114780,1,0,0:0:0:0:
64,192,114923,1,2,0:0:0:0:
192,192,114923,1,0,0:0:0:0:
320,192,115066,1,0,0:0:0:0:
192,192,115137,1,0,0:0:0:0:
64,192,115208,1,8,0:0:0:0:
320,192,115208,1,0,0:0:0:0:
448,192,115208,1,0,0:0:0:0:
448,192,115351,1,0,0:0:0:0:
64,192,115494,1,2,0:0:0:0:
192,192,115494,1,0,0:0:0:0:
320,192,115566,1,0,0:0:0:0:
448,192,115637,1,0,0:0:0:0:
192,192,115708,1,0,0:0:0:0:
320,192,115780,1,8,0:0:0:0:
448,192,115780,1,0,0:0:0:0:
64,192,115851,1,0,0:0:0:0:
192,192,115923,1,0,0:0:0:0:
448,192,115994,1,0,0:0:0:0:
64,192,116066,1,2,0:0:0:0:
320,192,116066,1,0,0:0:0:0:
192,192,116137,1,0,0:0:0:0:
448,192,116208,1,0,0:0:0:0:
320,192,116280,1,0,0:0:0:0:
64,192,116351,1,8,0:0:0:0:
192,192,116351,1,0,0:0:0:0:
448,192,116423,1,0,0:0:0:0:
320,192,116494,1,0,0:0:0:0:
64,192,116637,1,2,0:0:0:0:
192,192,116637,1,4,0:0:0:0:
448,192,116637,1,0,0:0:0:0:
64,192,116780,1,8,1:0:0:0:
64,192,116923,1,8,1:0:0:0:
320,192,117066,1,8,1:0:0:0:
192,192,117137,1,8,1:0:0:0:
448,192,117208,1,8,1:0:0:0:
320,192,117280,1,8,1:0:0:0:
64,192,117351,1,8,1:0:0:0:
192,192,117423,1,8,1:0:0:0:
320,192,117494,1,0,0:0:0:0:
448,192,117494,1,0,0:0:0:0:
64,192,117637,1,0,0:0:0:0:
64,192,117780,1,2,0:0:0:0:
192,192,117780,1,4,0:0:0:0:
448,192,117780,128,0,117994:0:0:0:0:
320,192,117923,128,0,117994:0:0:0:0:
64,192,118066,1,8,0:0:0:0:
320,192,118066,1,0,0:0:0:0:
448,192,118066,1,0,0:0:0:0:
192,192,118208,128,0,118423:0:0:0:0:
320,192,118351,128,2,118423:0:0:0:0:
448,192,118351,1,0,0:0:0:0:
64,192,118494,1,0,0:0:0:0:
192,192,118566,1,0,0:0:0:0:
64,192,118637,1,8,0:0:0:0:
320,192,118637,1,0,0:0:0:0:
448,192,118637,1,0,0:0:0:0:
192,192,118780,1,0,0:0:0:0:
64,192,118923,1,2,0:0:0:0:
448,192,118923,1,0,0:0:0:0:
320,192,118994,1,0,0:0:0:0:
192,192,119066,1,0,0:0:0:0:
64,192,119208,1,8,0:0:0:0:
320,192,119208,1,0,0:0:0:0:
448,192,119208,1,0,0:0:0:0:
192,192,119280,1,0,0:0:0:0:
320,192,119351,1,0,0:0:0:0:
64,192,119494,1,2,0:0:0:0:
192,192,119494,1,0,0:0:0:0:
320,192,119566,1,0,0:0:0:0:
448,192,119637,1,0,0:0:0:0:
192,192,119708,1,0,0:0:0:0:
64,192,119780,1,8,0:0:0:0:
320,192,119780,1,0,0:0:0:0:
448,192,119780,1,0,0:0:0:0:
192,192,119851,1,0,0:0:0:0:
320,192,119923,1,0,0:0:0:0:
64,192,120066,128,2,120280:0:0:0:0:
448,192,120066,1,0,0:0:0:0:
192,192,120208,128,0,120280:0:0:0:0:
64,192,120351,1,8,0:0:0:0:
320,192,120351,1,0,0:0:0:0:
448,192,120351,1,0,0:0:0:0:
192,192,120494,1,0,0:0:0:0:
64,192,120637,1,2,0:0:0:0:
448,192,120637,128,0,120851:0:0:0:0:
320,192,120780,128,0,120851:0:0:0:0:
192,192,120851,1,0,0:0:0:0:
64,192,120923,1,8,0:0:0:0:
320,192,120923,1,0,0:0:0:0:
448,192,120923,1,0,0:0:0:0:
192,192,121066,1,0,0:0:0:0:
64,192,121208,1,2,0:0:0:0:
448,192,121208,1,0,0:0:0:0:
320,192,121351,1,0,0:0:0:0:
192,192,121423,1,0,0:0:0:0:
64,192,121494,1,8,0:0:0:0:
320,192,121494,1,0,0:0:0:0:
448,192,121494,1,0,0:0:0:0:
192,192,121566,1,0,0:0:0:0:
448,192,121637,1,0,0:0:0:0:
320,192,121708,1,0,0:0:0:0:
64,192,121780,1,2,0:0:0:0:
192,192,121780,1,0,0:0:0:0:
320,192,121923,1,0,0:0:0:0:
192,192,121994,1,0,0:0:0:0:
64,192,122066,1,8,0:0:0:0:
320,192,122066,1,0,0:0:0:0:
448,192,122066,1,0,0:0:0:0:
192,192,122208,1,0,0:0:0:0:
64,192,122351,1,2,0:0:0:0:
448,192,122351,1,0,0:0:0:0:
320,192,122423,1,0,0:0:0:0:
192,192,122494,1,0,0:0:0:0:
320,192,122566,1,0,0:0:0:0:
64,192,122637,1,8,0:0:0:0:
448,192,122637,1,0,0:0:0:0:
192,192,122708,1,0,0:0:0:0:
320,192,122780,1,0,0:0:0:0:
192,192,122851,1,0,0:0:0:0:
64,192,122923,1,2,0:0:0:0:
448,192,122923,1,0,0:0:0:0:
320,192,122994,1,2,0:0:0:0:
192,192,123066,1,2,0:0:0:0:
448,192,123066,1,0,0:0:0:0:
320,192,123137,1,2,0:0:0:0:
64,192,123208,1,2,0:0:0:0:
192,192,123208,1,0,0:0:0:0:
448,192,123280,1,2,0:0:0:0:
64,192,123351,1,2,0:0:0:0:
320,192,123351,1,0,0:0:0:0:
192,192,123423,1,2,0:0:0:0:
320,192,123494,1,2,0:0:0:0:
448,192,123494,1,0,0:0:0:0:
64,192,123566,1,0,0:0:0:0:
192,192,123637,1,0,0:0:0:0:
320,192,123708,1,2,0:0:0:0:
448,192,123708,1,0,0:0:0:0:
64,192,123780,1,8,0:0:0:0:
192,192,123780,1,0,0:0:0:0:
320,192,123851,1,0,0:0:0:0:
64,192,123923,1,2,0:0:0:0:
448,192,123923,1,0,0:0:0:0:
192,192,123994,1,0,0:0:0:0:
320,192,124066,1,0,0:0:0:0:
64,192,124137,1,2,0:0:0:0:
448,192,124137,1,0,0:0:0:0:
192,192,124208,1,0,0:0:0:0:
320,192,124280,1,0,0:0:0:0:
64,192,124351,1,8,0:0:0:0:
448,192,124351,1,0,0:0:0:0:
192,192,124423,1,0,0:0:0:0:
320,192,124494,1,2,0:0:0:0:
448,192,124494,1,0,0:0:0:0:
192,192,124566,1,0,0:0:0:0:
64,192,124637,1,2,0:0:0:0:
448,192,124637,1,0,0:0:0:0:
320,192,124708,1,0,0:0:0:0:
192,192,124780,1,0,0:0:0:0:
320,192,124923,1,0,0:0:0:0:
448,192,124994,1,0,0:0:0:0:
64,192,125066,1,0,0:0:0:0:
192,192,125137,1,0,0:0:0:0:
448,192,125208,1,8,0:0:0:0:
320,192,125208,1,0,0:0:0:0:
192,192,125351,1,0,0:0:0:0:
320,192,125423,1,0,0:0:0:0:
448,192,125494,1,0,0:0:0:0:
64,192,125566,1,0,0:0:0:0:
192,192,125637,1,2,0:0:0:0:
320,192,125637,1,0,0:0:0:0:
64,192,125780,1,2,0:0:0:0:
448,192,125780,1,0,0:0:0:0:
320,192,125851,1,0,0:0:0:0:
192,192,125923,1,0,0:0:0:0:
320,192,126066,1,0,0:0:0:0:
448,192,126066,1,8,1:0:0:0:
192,192,126137,1,0,0:0:0:0:
320,192,126208,1,0,0:0:0:0:
64,192,126280,1,0,0:0:0:0:
192,192,126351,1,8,0:0:0:0:
448,192,126351,1,0,0:0:0:0:
320,192,126423,1,8,0:0:0:0:
448,192,126494,1,8,0:0:0:0:
64,192,126494,1,0,0:0:0:0:
192,192,126566,1,8,0:0:0:0:
64,192,126637,1,4,0:0:0:0:
320,192,126637,1,8,0:0:0:0:
192,192,126923,1,4,0:0:0:0:
320,192,126923,1,2,0:0:0:0:
448,192,126923,1,0,0:0:0:0:
192,192,127137,1,2,0:0:0:0:
320,192,127137,1,0,0:0:0:0:
448,192,127137,1,0,0:0:0:0:
64,192,127351,1,2,0:0:0:0:
448,192,127351,1,0,0:0:0:0:
64,192,127494,1,2,0:0:0:0:
192,192,127494,1,0,0:0:0:0:
320,192,127494,1,0,0:0:0:0:
64,192,127708,1,2,0:0:0:0:
192,192,127708,1,0,0:0:0:0:
320,192,127708,1,0,0:0:0:0:
64,192,127923,1,2,0:0:0:0:
448,192,127923,1,0,0:0:0:0:
192,192,128066,1,2,0:0:0:0:
320,192,128066,1,0,0:0:0:0:
448,192,128066,1,0,0:0:0:0:
192,192,128280,1,2,0:0:0:0:
320,192,128280,1,0,0:0:0:0:
448,192,128280,1,0,0:0:0:0:
64,192,128494,1,2,0:0:0:0:
448,192,128494,1,0,0:0:0:0:
64,192,128637,1,2,0:0:0:0:
192,192,128637,1,0,0:0:0:0:
320,192,128637,1,0,0:0:0:0:
64,192,128851,1,2,0:0:0:0:
192,192,128851,1,0,0:0:0:0:
320,192,128923,1,2,0:0:0:0:
448,192,128923,1,0,0:0:0:0:
64,192,128994,1,2,0:0:0:0:
192,192,128994,1,0,0:0:0:0:
320,192,129066,1,2,0:0:0:0:
448,192,129066,1,0,0:0:0:0:
64,192,129208,1,2,0:0:0:0:
192,192,129208,1,0,0:0:0:0:
320,192,129208,1,0,0:0:0:0:
64,192,129423,1,2,0:0:0:0:
192,192,129423,1,0,0:0:0:0:
320,192,129423,1,0,0:0:0:0:
64,192,129637,1,2,0:0:0:0:
448,192,129637,1,0,0:0:0:0:
192,192,129780,1,2,0:0:0:0:
320,192,129780,1,0,0:0:0:0:
448,192,129780,1,0,0:0:0:0:
192,192,129994,1,2,0:0:0:0:
320,192,129994,1,0,0:0:0:0:
448,192,129994,1,0,0:0:0:0:
64,192,130208,1,2,0:0:0:0:
448,192,130208,1,0,0:0:0:0:
64,192,130351,1,2,0:0:0:0:
192,192,130351,1,0,0:0:0:0:
320,192,130351,1,0,0:0:0:0:
64,192,130566,1,2,0:0:0:0:
192,192,130566,1,0,0:0:0:0:
320,192,130566,1,0,0:0:0:0:
64,192,130780,1,2,0:0:0:0:
448,192,130780,1,0,0:0:0:0:
192,192,130923,1,2,0:0:0:0:
320,192,130923,1,0,0:0:0:0:
448,192,130923,1,0,0:0:0:0:
192,192,131137,1,2,0:0:0:0:
320,192,131137,1,0,0:0:0:0:
448,192,131137,1,0,0:0:0:0:
64,192,131351,1,2,0:0:0:0:
192,192,131351,1,0,0:0:0:0:
64,192,131494,1,2,0:0:0:0:
320,192,131494,1,0,0:0:0:0:
448,192,131494,1,0,0:0:0:0:
192,192,131637,1,2,0:0:0:0:
320,192,131637,1,0,0:0:0:0:
64,192,131780,1,2,0:0:0:0:
448,192,131780,1,0,0:0:0:0:
192,192,131923,1,2,0:0:0:0:
320,192,131923,1,0,0:0:0:0:
64,192,132066,1,2,0:0:0:0:
448,192,132066,1,0,0:0:0:0:
320,192,132208,1,2,0:0:0:0:
192,192,132208,1,0,0:0:0:0:
64,192,132351,1,2,0:0:0:0:
448,192,132351,1,0,0:0:0:0:
192,192,132494,1,2,0:0:0:0:
320,192,132494,1,0,0:0:0:0:
64,192,132637,1,2,0:0:0:0:
320,192,132637,1,0,0:0:0:0:
448,192,132637,1,0,0:0:0:0:
64,192,132780,1,2,0:0:0:0:
192,192,132780,1,0,0:0:0:0:
320,192,132923,1,2,0:0:0:0:
448,192,132923,1,0,0:0:0:0:
64,192,133066,1,2,0:0:0:0:
192,192,133066,1,0,0:0:0:0:
320,192,133208,1,2,0:0:0:0:
448,192,133208,1,0,0:0:0:0:
64,192,133351,1,2,0:0:0:0:
192,192,133351,1,0,0:0:0:0:
320,192,133494,1,2,0:0:0:0:
448,192,133494,1,0,0:0:0:0:
64,192,133637,1,2,0:0:0:0:
192,192,133637,1,0,0:0:0:0:
320,192,133780,1,2,0:0:0:0:
448,192,133780,1,0,0:0:0:0:
192,192,133851,1,2,0:0:0:0:
64,192,133923,1,2,0:0:0:0:
448,192,133923,1,0,0:0:0:0:
320,192,133994,1,2,0:0:0:0:
64,192,134066,1,2,0:0:0:0:
192,192,134066,1,0,0:0:0:0:
320,192,134137,1,2,0:0:0:0:
64,192,134208,1,2,0:0:0:0:
448,192,134208,1,0,0:0:0:0:
192,192,134280,1,2,0:0:0:0:
320,192,134351,1,2,0:0:0:0:
448,192,134351,1,0,0:0:0:0:
192,192,134423,1,2,0:0:0:0:
64,192,134494,1,2,0:0:0:0:
448,192,134494,1,0,0:0:0:0:
320,192,134566,1,2,0:0:0:0:
192,192,134637,1,2,0:0:0:0:
64,192,134637,1,0,0:0:0:0:
320,192,134708,1,2,0:0:0:0:
64,192,134780,1,2,0:0:0:0:
448,192,134780,1,0,0:0:0:0:
192,192,134851,1,2,0:0:0:0:
320,192,134923,1,2,0:0:0:0:
448,192,134923,1,0,0:0:0:0:
192,192,135066,1,0,0:0:0:0:
320,192,135137,1,0,0:0:0:0:
64,192,135208,1,8,0:0:0:0:
448,192,135208,1,0,0:0:0:0:
192,192,135280,1,0,0:0:0:0:
320,192,135351,1,0,0:0:0:0:
192,192,135423,1,0,0:0:0:0:
448,192,135494,1,0,0:0:0:0:
320,192,135566,1,0,0:0:0:0:
64,192,135637,1,8,0:0:0:0:
192,192,135637,1,0,0:0:0:0:
320,192,135780,1,2,0:0:0:0:
448,192,135780,128,0,136066:0:0:0:0:
64,192,136066,128,4,136494:0:0:0:0:
192,192,136066,128,2,136423:0:0:0:0:
320,192,136066,128,0,136351:0:0:0:0:
