osu file format v14

[General]
AudioFilename: audio.mp3
AudioLeadIn: 0
PreviewTime: -1
Countdown: 0
SampleSet: None
StackLeniency: 0.7
Mode: 0
LetterboxInBreaks: 0
WidescreenStoryboard: 0

[Editor]
DistanceSpacing: 1.2
BeatDivisor: 4
GridSize: 8
TimelineZoom: 1.7

[Metadata]
Title:Knight Rider
TitleUnicode:Knight Rider
Artist:USAO
ArtistUnicode:USAO
Creator:taifun
Version:taifun
Source:WACCA
Tags:
BeatmapID:4537692
BeatmapSetID:2153559

[Difficulty]
HPDrainRate:5
CircleSize:5
OverallDifficulty:5
ApproachRate:9
SliderMultiplier:1.2
SliderTickRate:1

[Events]
//Background and Video events
//Break Periods
2,34429,89054
//Storyboard Layer 0 (Background)
//Storyboard Layer 1 (Fail)
//Storyboard Layer 2 (Pass)
//Storyboard Layer 3 (Foreground)
//Storyboard Layer 4 (Overlay)
//Storyboard Sound Samples

[TimingPoints]
1304,300,4,3,0,100,1,0

[HitObjects]
448,326,1304,6,0,L|343:325,1,90
304,267,1604,2,0,L|385:252,1,60
211,304,1904,2,0,L|265:340,1,60
124,317,2204,2,0,L|112:384,1,60
59,274,2504,2,0,L|-8:285,1,60
101,214,2804,6,0,L|90:186,1,30
154,170,2954,1,0,0:0:0:0:
211,216,3030,2,0,L|189:236,1,30
113,376,3704,6,0,L|124:317,1,60
165,86,4004,1,0,0:0:0:0:
165,86,4154,1,0,0:0:0:0:
125,276,4304,6,0,L|135:335,1,60
235,139,4604,1,0,0:0:0:0:
84,121,4754,1,0,0:0:0:0:
490,325,4904,6,0,L|354:346,1,120
82,384,5354,1,0,0:0:0:0:
63,316,5504,1,0,0:0:0:0:
135,335,5654,1,0,0:0:0:0:
388,263,5804,2,0,L|374:336,1,60
107,191,6104,6,0,L|95:132,1,60
124,267,6404,1,0,0:0:0:0:
124,267,6554,1,0,0:0:0:0:
1,173,6704,2,0,L|125:198,1,120
406,190,7154,6,0,L|352:200,1,30
51,225,7304,1,0,0:0:0:0:
51,225,8204,6,0,L|38:141,1,60
471,22,8504,5,0,0:0:0:0:
292,86,8654,1,0,0:0:0:0:
268,15,8804,1,0,0:0:0:0:
490,88,8954,1,0,0:0:0:0:
245,140,9104,6,0,L|370:118,1,120
413,75,9554,1,0,0:0:0:0:
471,362,9704,5,0,0:0:0:0:
292,298,9854,1,0,0:0:0:0:
268,369,10004,1,0,0:0:0:0:
490,296,10154,1,0,0:0:0:0:
245,244,10304,6,0,L|370:266,1,120
413,309,10754,1,0,0:0:0:0:
211,125,10904,6,0,L|335:110,1,120
269,183,11354,1,0,0:0:0:0:
157,247,11504,6,0,L|288:258,1,120
128,188,11879,1,0,0:0:0:0:
85,177,11954,1,0,0:0:0:0:
47,170,12029,1,0,0:0:0:0:
11,160,12104,6,0,L|116:159,1,90
155,101,12404,2,0,L|74:86,1,60
335,151,12704,2,0,L|347:218,1,60
400,108,13004,6,0,L|454:116,1,30
248,138,13154,2,0,L|205:166,1,30
358,48,13304,6,0,L|372:12,1,30
305,4,13454,5,0,0:0:0:0:
248,50,13529,6,0,L|279:79,1,30
512,252,13754,2,0,L|423:238,1,90
361,281,14054,1,0,0:0:0:0:
233,351,14204,1,0,0:0:0:0:
174,227,14354,1,0,0:0:0:0:
286,295,14504,6,0,L|219:274,1,60
298,162,14804,2,0,L|276:227,1,60
351,0,15104,5,0,0:0:0:0:
373,137,15254,1,0,0:0:0:0:
139,247,15404,5,0,0:0:0:0:
161,384,15554,1,0,0:0:0:0:
111,179,15704,6,0,L|97:143,1,30
164,135,15854,5,0,0:0:0:0:
221,181,15929,6,0,L|190:210,1,30
0,317,16154,2,0,L|89:303,1,90
374,261,16454,5,0,0:0:0:0:
94,303,16754,5,0,0:0:0:0:
176,292,16904,6,0,L|165:351,1,60
315,272,17204,2,0,L|374:261,1,60
272,279,17429,1,0,0:0:0:0:
235,283,17503,2,0,L|175:293,1,60
464,181,17804,5,0,0:0:0:0:
440,171,17879,1,0,0:0:0:0:
369,139,17954,1,0,0:0:0:0:
340,126,18029,1,0,0:0:0:0:
269,92,18104,6,0,L|251:184,1,90
245,215,18404,2,0,L|258:162,1,30
282,21,18554,1,0,0:0:0:0:
373,47,18704,6,0,L|320:60,1,30
129,94,18854,1,0,0:0:0:0:
254,243,19004,6,0,L|239:197,1,30
175,16,19154,1,0,0:0:0:0:
327,233,19304,6,0,L|345:297,1,60
485,327,19604,2,0,L|503:391,1,60
443,92,19904,5,0,0:0:0:0:
413,252,20054,1,0,0:0:0:0:
244,214,20204,5,0,0:0:0:0:
208,367,20354,1,0,0:0:0:0:
0,0,20504,5,0,0:0:0:0:
64,0,21104,1,0,0:0:0:0:
128,0,21704,5,0,0:0:0:0:
64,0,21854,1,0,0:0:0:0:
0,0,22004,1,0,0:0:0:0:
34,62,22154,1,0,0:0:0:0:
224,64,22304,5,0,0:0:0:0:
180,65,22379,1,0,0:0:0:0:
148,65,22454,1,0,0:0:0:0:
108,65,22529,1,0,0:0:0:0:
34,62,22604,5,0,0:0:0:0:
412,142,22904,6,2,L|468:54,1,90
412,142,23204,2,0,L|443:215,1,60
412,142,23504,2,0,L|358:134,1,30
278,123,23654,1,0,0:0:0:0:
489,149,23804,1,0,0:0:0:0:
314,24,23954,5,0,0:0:0:0:
320,48,24029,1,0,0:0:0:0:
326,72,24104,1,0,0:0:0:0:
355,359,24254,5,0,0:0:0:0:
325,184,24404,1,0,0:0:0:0:
295,9,24554,1,0,0:0:0:0:
500,214,24704,5,0,0:0:0:0:
504,190,24704,1,2,0:0:0:0:
439,241,24854,5,0,0:0:0:0:
421,228,24854,1,0,0:0:0:0:
429,163,25004,5,0,0:0:0:0:
449,153,25004,1,0,0:0:0:0:
512,309,25154,6,0,L|466:306,1,30
93,203,25304,2,0,L|124:300,1,90
81,334,25604,2,0,L|127:279,1,60
149,292,25904,2,0,L|103:285,1,30
28,269,26054,1,0,0:0:0:0:
282,334,26204,6,0,L|313:304,2,30
192,370,26429,1,0,0:0:0:0:
208,359,26504,2,0,L|229:220,1,120
28,269,26954,1,0,0:0:0:0:
306,232,27104,2,0,L|365:221,1,60
161,203,27329,5,0,0:0:0:0:
129,207,27404,2,0,L|182:228,1,30
446,228,27554,2,0,L|467:190,1,30
313,43,27704,5,0,0:0:0:0:
426,93,27854,5,0,0:0:0:0:
509,141,28004,6,0,L|422:118,1,90
416,136,28304,2,0,L|405:76,2,60
352,311,28754,5,0,0:0:0:0:
350,333,28829,1,0,0:0:0:0:
305,361,28904,6,0,L|394:344,1,90
422,266,29204,2,0,L|393:214,1,60
469,336,29504,2,0,L|467:407,1,60
475,200,29804,2,0,L|503:129,1,60
322,262,30104,2,0,L|248:292,1,60
13,298,30404,5,0,0:0:0:0:
58,288,30479,1,0,0:0:0:0:
109,276,30554,1,0,0:0:0:0:
150,265,30629,1,0,0:0:0:0:
200,250,30704,1,0,0:0:0:0:
239,237,30779,1,0,0:0:0:0:
273,227,30854,1,0,0:0:0:0:
300,216,30929,1,0,0:0:0:0:
325,208,31004,1,0,0:0:0:0:
346,200,31079,1,0,0:0:0:0:
367,189,31154,2,0,L|360:245,2,30
461,70,31454,1,0,0:0:0:0:
446,59,31529,1,0,0:0:0:0:
431,38,31604,2,0,L|427:91,1,30
501,230,31754,2,0,L|539:210,1,30
286,68,31904,6,0,L|269:19,1,30
211,51,32054,2,0,L|194:2,1,30
126,5,32204,6,0,L|136:34,1,30
104,263,32504,6,0,L|119:308,1,30
158,290,32654,2,0,L|47:271,1,90
199,346,32954,2,0,L|228:318,1,30
133,125,33104,2,0,L|147:167,1,30
14,346,33254,1,0,0:0:0:0:
12,334,33329,1,0,0:0:0:0:
10,325,33404,2,0,L|-1:228,1,90
86,66,33704,5,0,0:0:0:0:
186,218,33779,1,0,0:0:0:0:
172,236,33854,2,0,L|246:216,1,60
320,257,34154,6,0,L|288:229,1,30
18,65,89654,5,0,0:0:0:0:
53,61,89729,1,0,0:0:0:0:
88,57,89804,5,0,0:0:0:0:
123,53,89879,1,0,0:0:0:0:
158,49,89954,5,0,0:0:0:0:
298,33,90254,5,0,0:0:0:0:
