osu file format v14

[General]
AudioFilename: audio.mp3
AudioLeadIn: 0
PreviewTime: 98688
Countdown: 0
SampleSet: Soft
StackLeniency: 0.3
Mode: 0
LetterboxInBreaks: 0
WidescreenStoryboard: 0

[Editor]
Bookmarks: 12888,22788,43788,45888,50688,69888,79488,86688,89088,96288,96888,98688,116388,118188
DistanceSpacing: 0.3
BeatDivisor: 8
GridSize: 32
TimelineZoom: 2.799999

[Metadata]
Title:Knight Rider
TitleUnicode:Knight Rider
Artist:USAO
ArtistUnicode:USAO
Creator:thexo
Version:Night sky
Source:WACCA
Tags:
BeatmapID:2113864
BeatmapSetID:1009781

[Difficulty]
HPDrainRate:5
CircleSize:4.2
OverallDifficulty:8.6
ApproachRate:9.5
SliderMultiplier:1.87
SliderTickRate:1

[Events]
//Background and Video events
0,0,"68858597_p0.jpg",0,0
//Break Periods
//Storyboard Layer 0 (Background)
//Storyboard Layer 1 (Fail)
//Storyboard Layer 2 (Pass)
//Storyboard Layer 3 (Foreground)
//Storyboard Layer 4 (Overlay)
//Storyboard Sound Samples

[TimingPoints]
288,300,4,2,0,71,1,0
288,-66.6666666666667,4,2,0,71,0,0
7188,-133.333333333333,4,2,0,71,0,0
7488,-80,4,2,0,71,0,0
11088,-66.6666666666667,4,2,0,71,0,0
12588,-80,4,2,0,71,0,0
13488,-133.333333333333,4,2,0,71,0,0
13788,-80,4,2,0,71,0,0
15888,-133.333333333333,4,2,0,71,0,0
17088,-80,4,2,0,71,0,0
18288,-133.333333333333,4,2,0,71,0,0
18888,-80,4,2,0,71,0,0
19788,-100,4,2,0,71,0,0
21588,-50,4,2,0,71,0,0
21888,-66.6666666666667,4,2,0,71,0,0
31038,-400,4,2,0,71,0,0
31488,-66.6666666666667,4,2,0,71,0,1
31788,-50,4,2,0,71,0,1
32688,-66.6666666666667,4,2,0,71,0,1
33288,-33.3333333333333,4,2,0,71,0,1
33588,-76.9230769230769,4,2,0,71,0,1
33888,-50,4,2,0,71,0,1
35238,-100,4,2,0,71,0,1
35388,-50,4,2,0,71,0,1
35538,-100,4,2,0,71,0,1
36888,-76.9230769230769,4,2,0,71,0,1
37488,-66.6666666666667,4,2,0,71,0,1
38988,-50,4,2,0,71,0,1
41088,-200,4,2,0,71,0,0
41388,-66.6666666666667,4,2,0,71,0,0
44988,-100,4,2,0,71,0,0
47688,-66.6666666666667,4,2,0,71,0,0
48288,-80,4,2,0,71,0,0
49488,-100,4,2,0,71,0,0
49788,-50,4,2,0,71,0,0
50088,-133.333333333333,4,2,0,71,0,0
50388,-200,4,2,0,71,0,0
51888,-80,4,2,0,71,0,0
53688,-133.333333333333,4,2,0,71,0,0
53988,-100,4,2,0,71,0,0
55488,-66.6666666666667,4,2,0,71,0,0
58488,-80,4,2,0,71,0,0
60288,-200,4,2,0,71,0,0
60588,-80,4,2,0,71,0,0
63288,-100,4,2,0,71,0,0
65088,-80,4,2,0,71,0,0
74688,-133.333333333333,4,2,0,71,0,0
79488,-100,4,2,0,71,0,0
96288,-66.6666666666667,4,2,0,71,0,0
97788,-133.333333333333,4,2,0,71,0,0
98688,-80,4,2,0,71,0,0
107088,-100,4,2,0,71,0,0
108288,-66.6666666666667,4,2,0,71,0,0
108588,-80,4,2,0,71,0,0
115488,-66.6666666666667,4,2,0,71,0,0
115788,-50,4,2,0,71,0,0
117888,-200,4,2,0,71,0,0

[Colours]
Combo1 : 58,63,231
Combo2 : 3,214,231
Combo3 : 18,124,255
Combo4 : 120,190,214

[HitObjects]
0,27,288,6,0,B|107:42|107:42|148:68|148:68|270:84,1,280.500010700226,2|0,0:0|0:0,0:0:0:0:
257,200,2688,6,0,P|370:223|426:299,1,210.37500802517,4|0,0:0|0:0,0:0:0:0:
464,363,2988,2,0,B|447:286|447:286|479:249|479:249|458:169,1,210.37500802517,2|0,0:0|0:0,0:0:0:0:
413,97,3288,6,0,P|446:83|483:89,1,70.1250026750566,2|0,0:0|0:0,0:0:0:0:
342,61,3438,2,0,P|356:28|385:5,1,70.1250026750566,2|0,0:0|0:0,0:0:0:0:
266,85,3588,2,0,P|252:51|258:15,1,70.1250026750566,2|0,0:0|0:0,0:0:0:0:
229,155,3738,2,0,P|196:140|173:111,1,70.1250026750566,2|0,0:0|0:0,0:0:0:0:
346,205,3888,6,0,P|378:219|400:246,1,70.1250026750566,6|0,0:0|0:0,0:0:0:0:
309,275,4038,2,0,P|323:308|319:342,1,70.1250026750566,2|0,0:0|0:0,0:0:0:0:
234,299,4188,2,0,P|220:331|193:353,1,70.1250026750566,2|0,0:0|0:0,0:0:0:0:
163,263,4338,2,0,P|130:277|96:273,1,70.1250026750566,2|0,0:0|0:0,0:0:0:0:
138,187,4488,2,0,P|106:173|84:146,1,70.1250026750566,2|0,0:0|0:0,0:0:0:0:
174,114,4638,2,0,P|160:81|164:47,1,70.1250026750566,2|0,0:0|0:0,0:0:0:0:
251,87,4788,2,0,P|264:55|291:33,1,70.1250026750566,2|0,0:0|0:0,0:0:0:0:
324,122,4938,2,0,P|356:108|390:112,1,70.1250026750566,2|0,0:0|0:0,0:0:0:0:
472,231,5088,6,0,L|455:322,1,70.1250026750566,6|0,0:0|0:0,0:0:0:0:
352,277,5238,2,0,L|369:368,1,70.1250026750566,2|0,0:0|0:0,0:0:0:0:
256,230,5388,2,0,L|244:299,1,70.1250026750566,2|0,0:0|0:0,0:0:0:0:
136,276,5538,2,0,L|153:367,1,70.1250026750566,2|0,0:0|0:0,0:0:0:0:
40,229,5688,2,0,L|27:297,1,70.1250026750566,2|0,0:0|0:0,0:0:0:0:
136,276,5838,2,0,L|153:367,1,70.1250026750566,2|0,0:0|0:0,0:0:0:0:
256,230,5988,2,0,L|244:299,1,70.1250026750566,2|0,0:0|0:0,0:0:0:0:
352,277,6138,2,0,L|369:368,1,70.1250026750566,2|0,0:0|0:0,0:0:0:0:
437,135,6288,6,0,L|537:145,1,70.1250026750566,6|0,0:0|0:0,0:0:0:0:
361,11,6438,2,0,L|461:1,1,70.1250026750566,2|0,0:0|0:0,0:0:0:0:
285,135,6588,2,0,L|385:145,1,70.1250026750566,2|0,0:0|0:0,0:0:0:0:
209,11,6738,2,0,L|309:1,1,70.1250026750566,2|0,0:0|0:0,0:0:0:0:
133,135,6888,2,0,L|233:145,1,70.1250026750566,2|0,0:0|0:0,0:0:0:0:
57,11,7038,2,0,L|157:1,1,70.1250026750566,2|0,0:0|0:0,0:0:0:0:
285,135,7188,6,0,B|270:185|270:185|281:247,1,105.187504012585,4|0,0:0|0:0,0:0:0:0:
487,223,7488,6,0,P|435:196|377:187,1,116.875,4|0,0:0|0:0,0:0:0:0:
279,237,7788,1,2,0:0:0:0:
357,318,7938,1,0,0:0:0:0:
72,143,8088,6,0,P|123:116|181:107,1,116.875,4|0,0:0|0:0,0:0:0:0:
280,157,8388,1,2,0:0:0:0:
202,238,8538,1,2,0:0:0:0:
487,63,8688,6,0,P|435:36|377:27,1,116.875,4|0,0:0|0:0,0:0:0:0:
279,77,8988,1,2,0:0:0:0:
357,158,9138,1,2,0:0:0:0:
100,50,9288,6,0,L|94:108,1,58.4375,2|0,0:0|0:0,0:0:0:0:
173,75,9438,2,0,L|179:17,1,58.4375,4|0,0:0|0:0,0:0:0:0:
221,198,9588,1,2,0:0:0:0:
134,262,9738,1,2,0:0:0:0:
34,220,9888,6,0,P|29:286|59:341,1,116.875,4|0,0:0|0:0,0:0:0:0:
221,198,10188,2,0,P|241:260|226:322,1,116.875,4|0,0:0|0:0,0:0:0:0:
134,262,10488,1,4,0:0:0:0:
264,100,10638,1,4,0:0:0:0:
360,277,10788,1,6,0:0:0:0:
364,248,10863,1,2,0:0:0:0:
369,219,10938,1,2,0:0:0:0:
374,190,11013,1,2,0:0:0:0:
378,161,11088,6,0,B|373:92|373:92|377:95|377:95|367:16,1,140.250005350113,4|0,0:0|0:0,0:0:0:0:
368,29,11988,6,0,L|289:32,1,70.1250026750566,2|0,0:0|0:0,0:0:0:0:
373,25,12138,2,0,L|302:27,1,70.1250026750566,2|0,0:0|0:0,0:0:0:0:
180,192,12288,5,2,0:0:0:0:
251,106,12438,1,0,0:0:0:0:
90,146,12588,2,0,B|82:202|82:202|105:259,1,116.875,8|0,0:0|0:0,0:0:0:0:
251,273,12888,2,0,B|258:329|258:329|235:384,1,116.875,2|0,0:0|0:0,0:0:0:0:
59,379,13188,2,0,L|-12:386,1,58.4375,8|0,0:0|0:0,0:0:0:0:
104,257,13338,2,0,L|175:264,1,58.4375
251,273,13488,6,0,L|372:285,1,105.187504012585,2|0,0:0|0:0,0:0:0:0:
467,189,13788,6,0,L|396:196,1,58.4375,8|0,0:0|0:0,0:0:0:0:
388,361,13938,2,0,L|447:367,1,58.4375
355,265,14088,6,0,L|239:253,1,116.875,2|0,0:0|0:0,0:0:0:0:
512,104,14388,2,0,L|395:93,1,116.875,8|0,0:0|0:0,0:0:0:0:
186,168,14688,5,2,0:0:0:0:
164,50,14838,1,0,0:0:0:0:
313,119,14988,2,0,B|330:164|330:164|319:252,1,116.875,8|0,0:0|0:0,0:0:0:0:
160,384,15288,2,0,B|143:339|143:339|151:270,1,116.875,2|0,0:0|0:0,0:0:0:0:
48,129,15588,6,0,P|76:122|106:122,1,58.4375,8|0,0:0|0:0,0:0:0:0:
228,206,15738,2,0,P|210:184|186:168,1,58.4375
38,235,15888,6,0,L|41:342,1,105.187504012585,2|0,0:0|0:0,0:0:0:0:
40,340,16188,1,8,0:0:0:0:
252,313,16338,1,0,0:0:0:0:
270,308,16413,1,0,0:0:0:0:
288,303,16488,2,0,L|341:312,1,35.0625013375283,2|0,0:0|0:0,0:0:0:0:
469,272,16638,2,0,L|435:267,1,35.0625013375283
468,364,16788,5,8,0:0:0:0:
441,319,16863,1,0,0:0:0:0:
435,267,16938,1,0,0:0:0:0:
452,218,17013,1,0,0:0:0:0:
489,180,17088,6,0,B|503:126|503:126|481:42,1,116.875,2|0,0:0|0:0,0:0:0:0:
304,110,17388,2,0,B|288:169|288:169|302:223,1,116.875,8|0,0:0|0:0,0:0:0:0:
396,80,17688,1,2,0:0:0:0:
287,17,17838,1,0,0:0:0:0:
205,165,17988,2,0,L|213:244,1,58.4375,8|0,0:0|0:0,0:0:0:0:
224,309,18138,2,0,L|232:388,1,58.4375
96,326,18288,6,0,L|106:221,1,105.187504012585,2|0,0:0|0:0,0:0:0:0:
205,165,18588,2,0,L|263:159,1,35.0625013375283,8|0,0:0|0:0,0:0:0:0:
106,222,18738,2,0,L|71:225,1,35.0625013375283,8|0,0:0|0:0,0:0:0:0:
10,15,18888,6,0,L|22:135,1,116.875,2|0,0:0|0:0,0:0:0:0:
194,281,19188,2,0,L|205:164,1,116.875,8|0,0:0|0:0,0:0:0:0:
115,13,19488,5,2,0:0:0:0:
261,105,19638,1,0,0:0:0:0:
204,164,19788,2,0,P|158:153|111:149,1,93.5,8|0,0:0|0:0,0:0:0:0:
480,219,20088,2,0,P|424:225|379:236,1,93.5,2|0,0:0|0:0,0:0:0:0:
297,307,20388,1,8,0:0:0:0:
297,307,20538,1,0,0:0:0:0:
380,334,20688,6,0,L|389:386,1,46.75,8|0,0:0|0:0,0:0:0:0:
305,261,20838,2,0,L|296:313,1,46.75,2|0,0:0|0:0,0:0:0:0:
380,188,20988,2,0,L|389:240,1,46.75,8|0,0:0|0:0,0:0:0:0:
305,115,21138,2,2,L|296:167,1,46.75,0|0,0:0|0:0,0:0:0:0:
395,34,21288,5,8,0:0:0:0:
360,28,21363,1,8,0:0:0:0:
325,23,21438,1,8,0:0:0:0:
291,17,21513,1,8,0:0:0:0:
256,12,21588,2,0,B|187:17|187:17|146:33,1,93.5,4|0,0:0|0:0,0:0:0:0:
164,25,21888,6,0,B|139:91|139:91|169:162,1,140.250005350113,8|0,0:0|0:0,0:0:0:0:
297,307,22188,1,2,0:0:0:0:
289,330,22263,1,0,0:0:0:0:
281,353,22338,1,0,0:0:0:0:
139,236,22488,2,0,L|-19:252,1,140.250005350113,8|0,0:0|0:0,0:0:0:0:
258,100,22788,2,0,L|416:116,1,140.250005350113,2|0,0:0|0:0,0:0:0:0:
471,358,23088,6,0,L|487:205,1,140.250005350113,8|0,0:0|0:0,0:0:0:0:
343,384,23388,2,0,L|359:231,1,140.250005350113,2|0,0:0|0:0,0:0:0:0:
380,31,23688,1,8,0:0:0:0:
485,218,23838,1,0,0:0:0:0:
191,184,23988,2,0,L|210:105,1,70.1250026750566,2|0,0:0|0:0,0:0:0:0:
175,268,24138,1,2,0:0:0:0:
175,268,24213,1,2,0:0:0:0:
175,268,24288,6,0,P|253:326|310:322,1,140.250005350113,8|0,0:0|0:0,0:0:0:0:
208,116,24588,2,0,P|130:58|73:62,1,140.250005350113,2|0,0:0|0:0,0:0:0:0:
82,218,24888,1,8,0:0:0:0:
208,116,25038,1,0,0:0:0:0:
5,28,25188,1,2,0:0:0:0:
7,54,25263,1,0,0:0:0:0:
9,80,25338,1,0,0:0:0:0:
12,106,25413,1,0,0:0:0:0:
14,132,25488,5,8,0:0:0:0:
110,37,25638,1,2,0:0:0:0:
157,236,25788,5,8,0:0:0:0:
202,108,25938,1,2,0:0:0:0:
355,236,26088,5,8,0:0:0:0:
310,108,26238,1,2,0:0:0:0:
487,138,26388,5,8,0:0:0:0:
477,104,26463,1,0,0:0:0:0:
468,70,26538,1,0,0:0:0:0:
459,36,26613,1,0,0:0:0:0:
451,13,26688,5,8,0:0:0:0:
250,62,26838,1,8,0:0:0:0:
300,262,26988,1,8,0:0:0:0:
496,213,27138,1,2,0:0:0:0:
250,62,27288,2,0,P|169:52|101:98,1,140.250005350113,2|0,0:0|0:0,0:0:0:0:
169,278,27588,2,0,P|250:288|318:242,1,140.250005350113,8|0,0:0|0:0,0:0:0:0:
361,149,27888,6,0,L|342:-2,1,140.250005350113,2|0,0:0|0:0,0:0:0:0:
54,245,28188,2,0,L|73:396,1,140.250005350113,8|0,0:0|0:0,0:0:0:0:
432,292,28488,6,0,P|337:258|292:264,1,140.250005350113,2|0,0:0|0:0,0:0:0:0:
56,152,28788,2,0,P|125:152|188:121,1,140.250005350113,10|0,0:0|0:0,0:0:0:0:
445,190,29088,5,2,0:0:0:0:
469,196,29163,1,0,0:0:0:0:
493,202,29238,1,0,0:0:0:0:
375,84,29388,5,8,0:0:0:0:
336,48,29463,1,0,0:0:0:0:
289,27,29538,1,0,0:0:0:0:
236,23,29613,1,0,0:0:0:0:
190,49,29688,5,2,0:0:0:0:
212,75,29763,1,0,0:0:0:0:
224,107,29838,1,0,0:0:0:0:
228,142,29913,1,0,0:0:0:0:
224,177,29988,5,8,0:0:0:0:
184,226,30063,1,0,0:0:0:0:
163,284,30138,1,0,0:0:0:0:
173,346,30213,1,0,0:0:0:0:
223,384,30288,2,0,L|268:379,6,35.0625013375283,8|0|0|0|0|0|0,0:0|0:0|0:0|0:0|0:0|0:0|0:0,0:0:0:0:
329,347,30588,2,0,L|374:352,6,35.0625013375283
447,384,30888,5,8,0:0:0:0:
447,384,31188,6,0,L|453:347,1,35.0625,0|0,1:0|0:1,0:1:0:0:
465,210,31488,6,2,B|402:148|311:169|311:169|334:233,1,210.37500802517,6|0,0:1|0:0,0:0:0:0:
364,351,31788,2,0,B|388:312|388:312|383:264,1,93.5
227,154,31938,1,2,0:1:0:0:
227,154,32013,1,0,0:0:0:0:
227,154,32088,2,0,P|257:109|301:83,1,93.5,14|0,0:1|0:0,0:0:0:0:
137,210,32238,2,0,P|127:157|140:107,1,93.5,2|0,0:1|0:0,0:0:0:0:
112,313,32388,2,0,P|67:282|41:238,1,93.5,2|0,0:1|0:0,0:0:0:0:
244,298,32538,1,2,0:1:0:0:
244,298,32613,1,0,0:0:0:0:
244,298,32688,6,0,P|324:306|384:348,1,140.250005350113,2|0,0:0|0:0,0:0:0:0:
437,209,32988,2,0,P|459:260|456:285,1,70.1250026750566,2|0,0:1|0:0,0:0:0:0:
331,193,33138,2,0,L|326:158,1,35.0625013375283
339,186,33213,2,0,L|334:151,1,35.0625013375283
346,178,33288,6,0,B|386:139|386:139|233:75|233:75|234:149,1,280.500010700226,10|0,0:1|0:0,0:0:0:0:
17,357,33588,6,0,B|4:382|4:382|52:368|52:368|57:373|57:373|168:351,1,182.324991653824,2|0,0:1|0:0,0:0:0:0:
196,211,33888,6,2,L|5:233,1,187,2|2,0:1|0:0,0:0:0:0:
324,13,34188,2,2,L|509:34,1,187,2|2,0:1|0:0,0:1:0:0:
512,300,34488,6,0,B|517:223|517:223|499:198|499:198|505:119,1,187,10|0,0:0|0:0,0:0:0:0:
224,82,34788,5,2,0:1:0:0:
227,128,34863,1,0,0:0:0:0:
231,175,34938,1,0,0:0:0:0:
235,221,35013,1,0,0:0:0:0:
239,268,35088,6,0,P|217:292|148:311,1,93.5,2|0,0:1|0:0,0:0:0:0:
54,243,35238,2,0,L|109:247,1,46.75,2|0,0:0|0:0,0:0:0:0:
231,175,35388,2,0,P|198:175|136:140,1,93.5,2|0,0:1|0:0,0:0:0:0:
117,25,35538,2,0,L|153:66,1,46.75,2|0,0:0|0:0,0:0:0:0:
289,100,35688,6,0,P|299:93|310:89,1,23.375,10|0,0:1|0:0,0:0:0:0:
311,74,35763,2,0,P|322:72|334:73,1,23.375
341,59,35838,2,0,P|352:62|362:68,1,23.375
247,267,35988,1,10,0:1:0:0:
257,324,36063,1,0,0:0:0:0:
301,360,36138,1,8,0:0:0:0:
359,360,36213,1,0,0:0:0:0:
403,324,36288,5,6,0:0:0:0:
214,161,36438,1,2,0:0:0:0:
410,329,36588,1,2,0:0:0:0:
208,157,36738,2,0,L|203:208,1,46.75
17,357,36888,6,0,B|4:382|4:382|52:368|52:368|57:373|57:373|168:351,1,182.324991653824,10|0,0:1|0:0,0:0:0:0:
490,261,37188,1,2,0:0:0:0:
428,189,37338,1,0,0:0:0:0:
428,189,37413,1,0,0:0:0:0:
428,189,37488,6,0,B|380:175|380:175|287:191,1,140.250005350113,2|2,0:0|0:0,0:0:0:0:
92,321,37788,2,0,L|167:317,1,70.1250026750566,4|0,0:0|0:0,0:0:0:0:
215,282,37938,2,0,L|140:278,1,70.1250026750566,2|0,0:0|0:0,0:0:0:0:
0,69,38088,6,0,P|50:79|65:99,1,70.1250026750566,12|0,0:0|0:0,0:0:0:0:
198,91,38238,2,0,P|163:129|139:132,1,70.1250026750566,2|0,0:0|0:0,0:0:0:0:
79,251,38388,2,0,P|63:201|72:179,1,70.1250026750566,2|0,0:0|0:0,0:0:0:0:
3,59,38538,2,0,P|53:69|68:89,1,70.1250026750566,4|0,0:0|0:0,0:0:0:0:
213,201,38688,6,0,L|378:193,1,140.250005350113,4|0,0:0|0:0,0:0:0:0:
457,240,38913,1,0,0:0:0:0:
463,260,38988,2,0,B|475:302|475:302|426:275,1,93.5,2|0,0:0|0:0,0:0:0:0:
434,142,39138,2,0,P|442:102|468:53,1,93.5,4|0,0:0|0:0,0:0:0:0:
328,1,39288,6,0,L|350:106,1,93.5,12|0,0:0|0:0,0:0:0:0:
268,231,39438,2,0,L|288:140,1,93.5,4|0,0:0|0:0,0:0:0:0:
208,0,39588,2,0,L|227:91,1,93.5,4|0,0:0|0:0,0:0:0:0:
78,171,39738,1,0,0:0:0:0:
149,153,39813,1,0,0:0:0:0:
213,117,39888,6,0,B|264:113|264:113|289:96|289:96|353:93,1,140.250005350113,4|2,0:0|0:0,0:0:0:0:
377,385,40188,2,0,B|428:381|428:381|453:364|453:364|512:362,1,140.250005350113,4|2,0:0|0:0,0:0:0:0:
87,340,40488,1,12,0:0:0:0:
87,340,40563,1,0,0:0:0:0:
87,340,40638,2,0,L|161:354,1,70.1250026750566
239,164,40788,2,0,L|189:221,1,70.1250026750566,14|0,0:0|0:0,0:0:0:0:
315,383,40938,2,0,L|290:311,1,70.1250026750566,2|0,0:0|0:0,0:0:0:0:
195,40,41088,6,0,B|159:46|159:46|158:43|158:43|128:50,1,70.125
53,71,41388,5,2,0:1:0:0:
53,71,41463,1,0,0:0:0:0:
53,71,41538,1,0,0:0:0:0:
110,230,41688,2,0,L|41:240,1,70.1250026750566,8|0,0:0|0:0,0:0:0:0:
162,288,41838,2,0,L|172:357,1,70.1250026750566
245,372,41988,2,0,L|383:353,1,140.250005350113,2|0,0:0|0:0,0:0:0:0:
375,192,42288,6,0,P|444:198|512:216,1,140.250005350113,10|0,0:1|0:0,0:0:0:0:
293,54,42588,2,0,P|223:60|155:78,1,140.250005350113,2|0,0:1|0:0,0:0:0:0:
261,229,42888,2,0,L|278:310,1,70.1250026750566,8|0,0:0|0:0,0:0:0:0:
181,231,43038,2,0,L|167:163,1,70.1250026750566
73,97,43188,1,2,0:0:0:0:
70,131,43263,1,0,0:0:0:0:
67,166,43338,1,0,0:0:0:0:
64,201,43413,1,0,0:0:0:0:
61,236,43488,6,0,L|122:374,1,140.250005350113,10|0,0:1|0:0,0:0:0:0:
451,236,43788,2,0,L|390:374,1,140.250005350113,2|0,0:1|0:0,0:0:0:0:
209,280,44088,2,0,L|197:212,1,70.1250026750566,8|0,0:0|0:0,0:0:0:0:
315,212,44238,2,0,L|302:280,1,70.1250026750566
355,103,44388,1,2,0:0:0:0:
311,66,44463,1,0,0:0:0:0:
256,51,44538,1,0,0:0:0:0:
200,61,44613,1,0,0:0:0:0:
153,93,44688,6,0,B|118:137|118:137|131:312,1,210.37500802517,10|0,0:1|0:0,0:0:0:0:
129,290,44988,2,0,P|62:272|0:300,1,140.25,2|0,0:1|0:0,0:0:0:0:
4,298,45288,6,0,L|0:275,1,23.375,10|0,0:1|0:0,0:0:0:0:
20,277,45363,2,0,L|15:254,1,23.375
36,256,45438,2,0,L|31:233,1,23.375
103,6,45588,2,0,L|98:28,1,23.375,2|0,0:1|0:0,0:0:0:0:
119,27,45663,2,0,L|114:49,1,23.375
135,48,45738,2,0,L|130:70,1,23.375,2|0,0:0|0:0,0:0:0:0:
151,69,45813,2,0,L|146:91,1,23.375
167,90,45888,6,0,P|219:90|275:65,1,93.5,8|0,0:0|0:0,0:0:0:0:
356,0,46188,1,2,0:0:0:0:
356,0,46338,1,0,0:0:0:0:
365,135,46488,2,8,L|372:248,1,93.5,8|0,0:0|0:0,0:0:0:0:
264,384,46788,2,0,L|258:290,1,93.5,2|0,0:0|0:0,0:0:0:0:
218,168,47088,6,0,P|184:190|172:212,1,46.75,8|0,0:0|0:0,0:0:0:0:
111,202,47238,2,0,P|102:241|109:265,1,46.75
240,88,47388,6,0,P|274:110|286:132,1,46.75,2|0,0:0|0:0,0:0:0:0:
347,122,47538,2,0,P|355:161|348:185,1,46.75
232,308,47688,6,0,L|310:320,1,70.1250026750566,8|0,0:0|0:0,0:0:0:0:
139,104,47838,2,0,L|61:116,1,70.1250026750566
343,236,47988,6,0,L|353:166,1,70.1250026750566,2|0,0:0|0:0,0:0:0:0:
32,275,48138,2,0,L|42:344,1,70.1250026750566
221,218,48288,6,0,L|157:237,3,58.4375,8|0|0|0,0:0|0:0|0:0|0:0,0:0:0:0:
224,135,48588,2,0,L|288:154,3,58.4375,2|0|0|0,0:0|0:0|0:0|0:0,0:0:0:0:
319,44,48888,5,8,0:0:0:0:
347,37,48963,1,0,0:0:0:0:
375,40,49038,1,0,0:0:0:0:
401,55,49113,1,0,0:0:0:0:
420,78,49188,2,0,L|415:139,1,58.4375,2|0,0:0|0:0,0:0:0:0:
477,191,49338,2,0,L|456:248,1,58.4375,2|0,0:0|0:0,0:0:0:0:
314,348,49488,6,0,P|310:301|302:256,1,93.5,8|2,0:0|0:0,0:0:0:0:
108,259,49788,6,0,B|156:244|197:257|219:273|219:273|210:230|245:186,1,187,2|8,0:0|0:0,0:0:0:0:
302,256,50088,6,0,L|371:263,1,70.1250026750566,8|2,0:0|0:0,0:0:0:0:
154,124,50388,6,0,L|161:169,1,23.375,2|0,0:0|0:0,0:0:0:0:
146,113,50538,2,0,L|153:158,1,23.375,2|0,0:0|0:0,0:0:0:0:
200,34,50688,5,4,0:0:0:0:
159,336,50838,1,2,0:0:0:0:
389,140,50988,5,2,0:0:0:0:
238,119,51138,1,2,0:0:0:0:
295,260,51288,5,0,0:0:0:0:
238,119,51438,1,0,0:0:0:0:
404,48,51588,1,8,0:0:0:0:
450,69,51663,1,0,0:0:0:0:
478,114,51738,1,0,0:0:0:0:
476,165,51813,1,0,0:0:0:0:
446,208,51888,6,0,P|427:268|441:329,1,116.875,2|0,0:0|0:0,0:0:0:0:
268,276,52188,2,0,P|296:331|349:365,1,116.875,8|0,0:0|0:0,0:0:0:0:
346,233,52413,1,0,0:0:0:0:
346,233,52488,6,0,L|331:99,1,116.875
10,214,52788,2,0,L|23:330,1,116.875,8|0,0:0|0:0,0:0:0:0:
46,0,53088,5,6,0:0:0:0:
24,331,53238,1,2,0:0:0:0:
197,239,53388,5,8,0:0:0:0:
59,146,53538,1,2,0:0:0:0:
208,72,53688,6,0,P|217:86|221:103,1,35.0625013375283,2|0,0:0|0:0,0:0:0:0:
285,152,53838,2,0,P|280:169|272:184,1,35.0625013375283
114,272,53988,6,0,P|105:303|107:330,1,46.75,8|0,0:0|0:0,0:0:0:0:
176,346,54138,2,0,P|191:374|212:391,1,46.75
313,304,54288,5,2,0:0:0:0:
150,155,54438,1,2,0:0:0:0:
360,88,54588,5,10,0:0:0:0:
150,155,54738,1,2,0:0:0:0:
366,202,54888,5,8,0:0:0:0:
258,178,55038,1,8,0:0:0:0:
150,155,55188,1,8,0:0:0:0:
366,202,55338,1,8,0:0:0:0:
379,246,55413,1,0,0:0:0:0:
392,291,55488,6,0,L|381:370,1,70.1250026750566,6|0,0:0|0:0,0:0:0:0:
101,260,55638,6,0,L|39:211,1,70.1250026750566,2|0,0:0|0:0,0:0:0:0:
273,23,55788,6,0,L|347:-5,1,70.1250026750566,10|0,0:0|0:0,0:0:0:0:
415,82,55938,1,2,0:0:0:0:
258,178,56088,5,0,0:0:0:0:
415,82,56238,1,0,0:0:0:0:
499,194,56388,1,10,0:0:0:0:
495,228,56463,1,0,0:0:0:0:
492,263,56538,1,0,0:0:0:0:
489,298,56613,1,0,0:0:0:0:
486,333,56688,5,8,0:0:0:0:
249,259,56838,1,0,0:0:0:0:
455,152,56988,1,10,0:0:0:0:
461,196,57063,1,0,0:0:0:0:
469,242,57138,1,0,0:0:0:0:
478,288,57213,1,0,0:0:0:0:
486,333,57288,5,8,0:0:0:0:
242,252,57438,1,0,0:0:0:0:
510,127,57588,1,10,0:0:0:0:
500,176,57663,1,0,0:0:0:0:
495,229,57738,1,8,0:0:0:0:
490,281,57813,1,0,0:0:0:0:
486,333,57888,5,12,0:0:0:0:
327,28,58038,1,2,0:0:0:0:
428,146,58188,5,2,0:0:0:0:
273,170,58338,1,2,0:0:0:0:
118,194,58488,2,0,L|2:210,1,116.875,8|0,0:0|0:0,0:0:0:0:
321,279,58788,2,0,L|205:262,1,116.875,2|0,0:0|0:0,0:0:0:0:
154,51,59088,5,8,0:0:0:0:
154,51,59238,1,0,0:0:0:0:
123,313,59388,1,2,0:0:0:0:
366,209,59538,1,2,0:0:0:0:
366,209,59613,1,0,0:0:0:0:
366,209,59688,2,0,L|437:222,1,58.4375,8|0,0:0|0:0,0:0:0:0:
211,40,59838,2,0,L|140:53,1,58.4375,8|0,0:0|0:0,0:0:0:0:
17,361,59988,1,4,0:0:0:0:
17,361,60288,6,0,B|52:367|52:367|53:364|53:364|83:371,1,70.125
271,189,60588,6,0,B|212:178|212:178|160:203,1,116.875,8|0,0:0|0:0,0:0:0:0:
299,384,60888,2,0,L|308:259,1,116.875,2|0,0:0|0:0,0:0:0:0:
208,134,61188,1,8,0:0:0:0:
205,295,61338,1,0,0:0:0:0:
361,197,61488,6,0,L|495:213,1,116.875,2|0,0:0|0:0,0:0:0:0:
321,34,61788,2,0,L|187:50,1,116.875,8|0,0:0|0:0,0:0:0:0:
77,121,62088,1,2,0:0:0:0:
77,121,62238,1,0,0:0:0:0:
151,245,62388,1,8,0:0:0:0:
148,266,62463,1,0,0:0:0:0:
145,288,62538,1,0,0:0:0:0:
143,310,62613,1,0,0:0:0:0:
140,332,62688,6,0,L|70:339,1,58.4375,6|0,0:0|0:0,0:0:0:0:
77,121,62838,2,0,L|105:56,1,58.4375,2|0,0:0|0:0,0:0:0:0:
291,171,62988,2,0,L|332:228,1,58.4375,10|0,0:0|0:0,0:0:0:0:
289,182,63138,2,0,L|330:239,1,58.4375,2|0,0:0|0:0,0:0:0:0:
293,376,63288,6,0,L|199:384,1,93.5
357,313,63588,2,0,L|450:321,1,93.5,10|0,0:0|0:0,0:0:0:0:
227,257,63888,5,8,0:0:0:0:
435,190,64038,1,2,0:0:0:0:
273,44,64188,5,8,0:0:0:0:
435,190,64338,1,2,0:0:0:0:
222,145,64488,5,8,0:0:0:0:
328,167,64638,1,8,0:0:0:0:
435,190,64788,1,8,0:0:0:0:
436,166,64863,1,0,0:0:0:0:
437,143,64938,1,0,0:0:0:0:
439,120,65013,1,0,0:0:0:0:
440,96,65088,6,0,L|507:81,1,58.4375,12|0,0:0|0:0,0:0:0:0:
366,248,65238,2,0,L|345:313,1,58.4375,2|0,0:0|0:0,0:0:0:0:
271,107,65388,2,0,L|224:56,1,58.4375,2|0,0:0|0:0,0:0:0:0:
173,0,65538,1,2,0:0:0:0:
198,276,65688,5,8,0:0:0:0:
176,13,65838,1,0,0:0:0:0:
45,240,65988,1,2,0:0:0:0:
48,261,66063,1,0,0:0:0:0:
51,283,66138,1,0,0:0:0:0:
54,305,66213,1,0,0:0:0:0:
57,326,66288,5,8,0:0:0:0:
150,96,66438,1,2,0:0:0:0:
252,338,66588,5,8,0:0:0:0:
235,98,66738,1,2,0:0:0:0:
440,301,66888,5,8,0:0:0:0:
320,100,67038,1,8,0:0:0:0:
252,338,67188,1,8,0:0:0:0:
436,181,67338,1,8,0:0:0:0:
457,176,67413,1,0,0:0:0:0:
478,171,67488,6,0,L|485:110,1,58.4375,2|0,0:0|0:0,0:0:0:0:
266,208,67638,2,0,L|259:269,1,58.4375
40,361,67788,2,0,L|47:303,1,58.4375,8|0,0:0|0:0,0:0:0:0:
58,192,67938,1,0,0:0:0:0:
144,275,68088,5,2,0:0:0:0:
171,223,68163,1,0,0:0:0:0:
172,165,68238,1,0,0:0:0:0:
146,114,68313,1,0,0:0:0:0:
100,79,68388,1,8,0:0:0:0:
142,119,68463,1,0,0:0:0:0:
197,137,68538,1,0,0:0:0:0:
254,129,68613,1,0,0:0:0:0:
303,98,68688,6,0,L|347:110,6,29.21875,2|0|0|0|0|0|0,0:0|0:0|0:0|0:0|0:0|0:0|0:0,0:0:0:0:
228,38,68988,2,0,L|184:49,7,29.21875
399,384,69888,5,6,0:0:0:0:
407,297,70038,1,0,0:0:0:0:
478,354,70338,1,0,0:0:0:0:
321,329,70638,1,0,0:0:0:0:
407,297,70788,1,0,0:0:0:0:
336,239,70938,1,0,0:0:0:0:
437,117,71088,5,2,0:0:0:0:
352,149,71238,1,0,0:0:0:0:
422,207,71388,1,0,0:0:0:0:
336,239,71538,1,0,0:0:0:0:
265,181,71838,1,0,0:0:0:0:
251,271,71988,1,0,0:0:0:0:
249,290,72063,1,0,0:0:0:0:
248,310,72138,1,0,0:0:0:0:
247,330,72213,1,0,0:0:0:0:
246,350,72288,5,2,0:0:0:0:
162,384,72438,1,0,0:0:0:0:
176,294,72738,1,0,0:0:0:0:
92,327,72888,1,0,0:0:0:0:
162,384,73038,1,0,0:0:0:0:
176,294,73188,1,0,0:0:0:0:
105,236,73338,1,0,0:0:0:0:
205,113,73488,5,2,0:0:0:0:
191,204,73638,1,0,0:0:0:0:
120,146,73938,1,0,0:0:0:0:
191,204,74088,1,2,0:0:0:0:
205,113,74238,1,0,0:0:0:0:
277,171,74388,1,0,0:0:0:0:
295,161,74463,1,0,0:0:0:0:
313,152,74538,1,0,0:0:0:0:
332,143,74613,1,0,0:0:0:0:
349,135,74688,6,0,L|339:215,1,70.1250026750566,2|0,0:0|0:0,0:0:0:0:
422,216,74988,2,0,L|412:296,1,70.1250026750566,2|0,0:0|0:0,0:0:0:0:
495,297,75288,2,0,L|485:377,1,70.1250026750566,2|0,0:0|0:0,0:0:0:0:
422,216,75588,1,2,0:0:0:0:
400,367,75738,1,0,0:0:0:0:
289,272,75888,6,0,L|219:290,1,70.1250026750566,2|0,0:0|0:0,0:0:0:0:
111,181,76188,2,0,L|161:232,1,70.1250026750566,2|0,0:0|0:0,0:0:0:0:
121,380,76488,2,0,L|140:310,1,70.1250026750566,2|0,0:0|0:0,0:0:0:0:
243,193,76788,1,0,0:0:0:0:
241,171,76863,1,0,0:0:0:0:
239,149,76938,1,0,0:0:0:0:
237,127,77013,1,0,0:0:0:0:
236,105,77088,5,2,0:0:0:0:
189,37,77238,1,0,0:0:0:0:
154,112,77388,1,2,0:0:0:0:
318,98,77538,1,2,0:0:0:0:
271,30,77688,1,0,0:0:0:0:
236,105,77838,1,2,0:0:0:0:
400,91,77988,1,2,0:0:0:0:
353,23,78138,1,0,0:0:0:0:
318,98,78288,5,2,0:0:0:0:
400,91,78438,1,0,0:0:0:0:
236,105,78588,1,2,0:0:0:0:
400,91,78738,1,0,0:0:0:0:
154,112,78888,1,2,0:0:0:0:
155,129,78963,1,0,0:0:0:0:
157,146,79038,1,0,0:0:0:0:
159,164,79113,1,0,0:0:0:0:
161,181,79188,1,2,0:0:0:0:
162,213,79263,1,0,0:0:0:0:
166,245,79338,1,0,0:0:0:0:
170,279,79413,1,0,0:0:0:0:
174,312,79488,6,0,B|216:332|216:332|268:323,1,93.5,8|0,0:0|0:0,0:0:0:0:
306,252,79788,1,2,0:0:0:0:
385,358,79938,2,0,P|388:264|387:171,1,187
306,252,80388,1,2,0:0:0:0:
470,135,80538,1,0,0:0:0:0:
470,135,80613,1,0,0:0:0:0:
470,135,80688,6,0,P|437:102|391:83,1,93.5,8|0,0:0|0:0,0:0:0:0:
312,127,80988,1,2,0:0:0:0:
71,64,81138,2,0,P|164:60|257:61,1,187
236,188,81588,1,2,0:0:0:0:
234,211,81663,1,0,0:0:0:0:
232,234,81738,1,0,0:0:0:0:
230,257,81813,1,0,0:0:0:0:
228,281,81888,6,0,B|186:301|186:301|134:292,1,93.5,8|0,0:0|0:0,0:0:0:0:
110,205,82188,1,2,0:0:0:0:
22,378,82338,2,0,P|18:284|19:191,1,187
110,205,82788,1,2,0:0:0:0:
72,119,82938,1,0,0:0:0:0:
19,191,83088,6,0,P|18:284|22:327,1,93.5,8|0,0:0|0:0,0:0:0:0:
156,128,83388,1,2,0:0:0:0:
201,219,83538,2,0,P|294:222|387:221,1,187
477,50,83988,1,2,0:0:0:0:
474,73,84063,1,0,0:0:0:0:
472,96,84138,1,0,0:0:0:0:
470,119,84213,1,0,0:0:0:0:
468,145,84288,6,0,L|357:138,1,93.5,8|0,0:0|0:0,0:0:0:0:
316,73,84588,1,2,0:0:0:0:
316,73,84738,1,2,0:0:0:0:
44,145,84888,6,0,L|155:138,1,93.5,8|0,0:0|0:0,0:0:0:0:
196,73,85188,1,2,0:0:0:0:
196,73,85338,1,2,0:0:0:0:
370,239,85488,6,0,L|377:350,1,93.5,8|0,0:0|0:0,0:0:0:0:
297,192,85788,1,2,0:0:0:0:
297,192,85938,1,2,0:0:0:0:
142,239,86088,6,0,L|135:350,1,93.5,8|0,0:0|0:0,0:0:0:0:
215,192,86388,1,2,0:0:0:0:
215,192,86538,1,2,0:0:0:0:
388,157,86688,5,8,0:0:0:0:
388,157,86763,1,0,0:0:0:0:
388,157,86838,2,0,L|436:170,1,46.75,2|0,0:0|0:0,0:0:0:0:
124,157,86988,5,8,0:0:0:0:
124,157,87063,1,0,0:0:0:0:
124,157,87138,2,0,L|76:170,1,46.75,2|0,0:0|0:0,0:0:0:0:
341,80,87288,6,0,L|398:67,1,46.75,8|0,0:0|0:0,0:0:0:0:
171,80,87438,2,0,L|114:67,1,46.75,8|0,0:0|0:0,0:0:0:0:
256,0,87588,1,2,0:0:0:0:
256,35,87663,1,2,0:0:0:0:
256,70,87738,1,2,0:0:0:0:
256,105,87813,1,2,0:0:0:0:
256,140,87888,1,10,0:0:0:0:
220,317,88488,6,0,P|186:333|173:341,3,46.75
172,369,88788,1,0,0:0:0:0:
139,382,88863,1,0,0:0:0:0:
105,382,88938,1,0,0:0:0:0:
72,370,89013,1,0,0:0:0:0:
47,345,89088,6,0,B|34:303|34:303|47:256,1,93.5,2|0,0:0|0:0,0:0:0:0:
160,169,89388,2,0,B|172:210|172:210|159:257,1,93.5,8|0,0:0|0:0,0:0:0:0:
65,160,89688,1,2,0:0:0:0:
65,160,89838,1,0,0:0:0:0:
201,77,89988,1,8,0:0:0:0:
201,77,90138,1,0,0:0:0:0:
337,160,90288,6,0,P|333:214|320:269,1,93.5,2|0,0:0|0:0,0:0:0:0:
430,232,90588,2,0,P|434:286|447:341,1,93.5,8|0,0:0|0:0,0:0:0:0:
427,136,90888,2,0,P|403:95|355:66,1,93.5,2|0,0:0|0:0,0:0:0:0:
264,19,91188,1,8,0:0:0:0:
240,16,91263,1,0,0:0:0:0:
217,13,91338,1,0,0:0:0:0:
194,10,91413,1,0,0:0:0:0:
171,8,91488,6,0,B|162:53|162:53|181:108,1,93.5,2|0,0:0|0:0,0:0:0:0:
231,190,91788,2,0,B|240:235|240:235|221:290,1,93.5,8|0,0:0|0:0,0:0:0:0:
141,228,92088,1,2,0:0:0:0:
264,108,92238,1,0,0:0:0:0:
307,275,92388,1,8,0:0:0:0:
310,291,92463,1,0,0:0:0:0:
314,307,92538,1,0,0:0:0:0:
189,365,92688,6,0,P|126:355|64:358,1,93.5,2|0,0:0|0:0,0:0:0:0:
314,307,92988,1,8,0:0:0:0:
329,311,93063,1,0,0:0:0:0:
345,316,93138,1,0,0:0:0:0:
420,223,93288,2,0,P|483:213|545:216,1,93.5,2|0,0:0|0:0,0:0:0:0:
386,22,93588,1,8,0:0:0:0:
386,22,93888,6,0,P|353:18|310:19,1,46.75,10|0,0:0|0:0,0:0:0:0:
251,113,94038,2,0,P|230:86|199:57,1,46.75,8|0,0:0|0:0,0:0:0:0:
90,81,94188,2,0,P|94:57|95:34,1,46.75,8|0,0:0|0:0,0:0:0:0:
163,197,94338,1,0,0:0:0:0:
163,197,94488,2,0,P|164:227|158:318,1,93.5,2|0,0:0|0:0,0:0:0:0:
41,354,94788,2,0,P|40:324|46:233,1,93.5,8|0,0:0|0:0,0:0:0:0:
91,161,95088,5,2,0:0:0:0:
91,161,95238,1,0,0:0:0:0:
251,113,95388,1,8,0:0:0:0:
251,113,95538,1,0,0:0:0:0:
299,273,95688,1,2,0:0:0:0:
299,273,95838,1,0,0:0:0:0:
139,320,95988,1,8,0:0:0:0:
139,320,96138,1,0,0:0:0:0:
375,168,96288,6,0,B|384:131|384:131|391:228|391:228|394:234|394:234|395:319,1,210.37500802517,4|0,0:0|0:0,0:0:0:0:
394,302,96588,2,0,L|461:326,1,70.1250026750566,2|0,0:0|0:0,0:0:0:0:
248,208,96738,2,0,L|181:231,1,70.1250026750566,8|0,0:0|0:0,0:0:0:0:
440,81,96888,6,0,B|470:84|470:84|475:82|475:82|516:86,1,70.1250026750566,2|0,0:0|0:0,0:0:0:0:
321,64,97038,2,0,B|344:44|344:44|346:39|346:39|378:13,1,70.1250026750566,2|0,0:0|0:0,0:0:0:0:
224,136,97188,2,0,B|227:105|227:105|224:101|224:101|228:60,1,70.1250026750566,2|0,0:0|0:0,0:0:0:0:
206,255,97338,1,0,0:0:0:0:
204,275,97413,1,0,0:0:0:0:
202,295,97488,2,0,B|188:325|188:325|103:339|103:339|93:337|93:337|-13:352,1,210.37500802517,8|0,0:0|0:0,0:0:0:0:
1,335,97788,6,0,L|127:318,1,105.187504012585,8|0,0:0|0:0,0:0:0:0:
95,316,98088,1,0,0:0:0:0:
85,311,98163,1,0,0:0:0:0:
75,306,98238,1,0,0:0:0:0:
7,176,98388,6,0,L|50:174,1,35.0625013375283,2|0,0:0|0:0,0:0:0:0:
0,167,98538,2,0,L|43:165,1,35.0625013375283,2|0,0:0|0:0,0:0:0:0:
159,114,98688,6,0,P|171:41|160:-10,1,116.875,2|0,0:0|0:0,0:0:0:0:
282,96,98988,2,0,P|270:169|281:220,1,116.875,8|0,0:0|0:0,0:0:0:0:
268,0,99288,1,2,0:0:0:0:
268,0,99438,1,0,0:0:0:0:
378,41,99588,2,0,L|508:31,1,116.875,8|0,0:0|0:0,0:0:0:0:
368,136,99888,5,2,0:0:0:0:
378,41,100038,1,0,0:0:0:0:
452,186,100188,2,0,P|408:227|321:224,1,116.875,8|0,0:0|0:0,0:0:0:0:
121,99,100488,1,2,0:0:0:0:
208,60,100638,1,0,0:0:0:0:
299,292,100788,1,8,0:0:0:0:
222,236,100938,1,0,0:0:0:0:
112,313,101088,6,0,P|104:357|103:382,1,58.4375,2|0,0:0|0:0,0:0:0:0:
75,190,101238,2,0,P|38:215|19:232,1,58.4375,2|0,0:0|0:0,0:0:0:0:
216,46,101388,2,0,L|203:170,1,116.875,8|0,0:0|0:0,0:0:0:0:
362,380,101688,5,2,0:0:0:0:
213,331,101838,1,0,0:0:0:0:
458,284,101988,1,8,0:0:0:0:
465,248,102062,1,0,0:0:0:0:
470,212,102137,1,0,0:0:0:0:
470,175,102212,1,0,0:0:0:0:
462,139,102288,5,2,0:0:0:0:
327,202,102438,1,0,0:0:0:0:
354,12,102588,5,8,0:0:0:0:
327,202,102738,1,0,0:0:0:0:
251,70,102888,5,2,0:0:0:0:
341,105,103038,1,0,0:0:0:0:
248,246,103188,6,0,P|214:256|176:275,1,58.4375,8|0,0:0|0:0,0:0:0:0:
46,328,103338,2,0,P|80:338|118:357,1,58.4375,8|0,0:0|0:0,0:0:0:0:
142,137,103488,6,0,B|157:83|157:83|147:22,1,116.875,2|0,0:0|0:0,0:0:0:0:
0,147,103788,2,0,B|-9:207|-9:207|5:261,1,116.875,8|0,0:0|0:0,0:0:0:0:
39,39,104088,1,2,0:0:0:0:
79,203,104238,1,0,0:0:0:0:
202,87,104388,2,0,L|338:93,1,116.875,8|0,0:0|0:0,0:0:0:0:
486,253,104688,5,2,0:0:0:0:
445,78,104838,1,0,0:0:0:0:
325,289,104988,5,8,0:0:0:0:
330,109,105138,1,0,0:0:0:0:
187,289,105288,5,2,0:0:0:0:
182,109,105438,1,0,0:0:0:0:
26,253,105588,5,8,0:0:0:0:
67,78,105738,1,0,0:0:0:0:
60,49,105813,1,0,0:0:0:0:
53,21,105888,5,4,0:0:0:0:
53,21,106188,5,0,0:0:0:0:
110,157,106338,2,0,P|118:200|118:234,1,58.4375,8|0,0:0|0:0,0:0:0:0:
118,303,106488,1,4,0:0:0:0:
235,215,106638,2,0,P|210:231|189:251,1,58.4375,8|0,0:0|0:0,0:0:0:0:
118,303,106788,1,4,0:0:0:0:
207,121,106938,1,0,0:0:0:0:
207,121,107013,1,0,0:0:0:0:
207,121,107088,6,0,P|275:115|359:119,1,140.25,2|0,0:0|0:0,0:0:0:0:
356,121,107388,2,0,P|352:161|345:175,1,46.75,2|0,0:0|0:0,0:0:0:0:
433,338,107538,1,2,0:0:0:0:
427,329,107613,1,0,0:0:0:0:
418,324,107688,5,2,0:0:0:0:
371,321,107763,1,0,0:0:0:0:
324,323,107838,1,2,0:0:0:0:
278,331,107913,1,0,0:0:0:0:
233,343,107988,1,4,0:0:0:0:
233,343,108288,6,0,B|282:243|183:243|233:143,1,210.37500802517,8|0,0:0|0:0,0:0:0:0:
352,168,108588,6,0,P|312:184|286:199,1,58.4375,8|0,0:0|0:0,0:0:0:0:
114,317,108738,2,0,P|154:301|180:286,1,58.4375
233,142,108888,2,0,L|112:148,1,116.875
332,66,109188,2,0,L|453:60,1,116.875,8|0,0:0|0:0,0:0:0:0:
497,203,109488,5,2,0:0:0:0:
286,326,109638,1,0,0:0:0:0:
330,159,109788,1,8,0:0:0:0:
453,370,109938,1,0,0:0:0:0:
262,225,110088,2,0,L|146:241,1,116.875,2|0,0:0|0:0,0:0:0:0:
0,329,110388,2,0,L|116:345,1,116.875,8|0,0:0|0:0,0:0:0:0:
68,131,110688,6,0,P|15:144|-1:157,1,58.4375,2|0,0:0|0:0,0:0:0:0:
0,58,110838,2,0,P|53:45|69:32,1,58.4375,2|0,0:0|0:0,0:0:0:0:
126,75,110988,2,2,L|251:87,1,116.875
376,0,111288,1,2,0:0:0:0:
376,0,111438,1,0,0:0:0:0:
430,155,111588,1,8,0:0:0:0:
433,191,111663,1,0,0:0:0:0:
435,227,111738,1,0,0:0:0:0:
435,264,111813,1,0,0:0:0:0:
433,300,111888,6,0,L|316:316,1,116.875,2|0,0:0|0:0,0:0:0:0:
78,300,112188,2,0,L|196:316,1,116.875,8|0,0:0|0:0,0:0:0:0:
342,186,112488,1,8,0:0:0:0:
204,170,112638,1,8,0:0:0:0:
351,188,112788,1,8,0:0:0:0:
156,89,112938,1,2,0:0:0:0:
139,93,113013,1,0,0:0:0:0:
121,97,113088,6,2,L|116:165,1,58.4375,8|0,0:0|0:0,0:0:0:0:
233,31,113238,2,0,L|238:99,1,58.4375,8|0,0:0|0:0,0:0:0:0:
114,104,113388,2,0,L|105:219,1,116.875,8|0,0:0|0:0,0:0:0:0:
243,384,113688,2,0,L|251:268,1,116.875,2|0,0:0|0:0,0:0:0:0:
114,104,113988,2,0,L|105:219,1,116.875,8|0,0:0|0:0,0:0:0:0:
306,181,114288,6,0,P|359:196|403:253,1,116.875,2|0,0:0|0:0,0:0:0:0:
344,327,114588,2,0,P|291:312|247:255,1,116.875,8|0,0:0|0:0,0:0:0:0:
223,178,114813,1,0,0:0:0:0:
223,178,114888,2,0,P|218:124|224:53,1,116.875
398,124,115188,2,0,P|403:178|397:249,1,116.875,8|0,0:0|0:0,0:0:0:0:
8,68,115488,5,6,0:0:0:0:
55,265,115638,1,0,0:0:0:0:
8,68,115788,2,0,L|222:50,1,187,8|0,0:0|0:0,0:0:0:0:
512,185,116088,5,6,0:0:0:0:
465,382,116238,1,0,0:0:0:0:
512,185,116388,2,0,L|298:167,1,187,8|0,0:0|0:0,0:0:0:0:
336,375,116688,6,0,P|336:308|347:258,1,93.5,4|0,0:0|0:0,0:0:0:0:
339,60,116838,1,0,0:0:0:0:
339,60,116913,1,0,0:0:0:0:
339,60,116988,2,0,P|280:93|243:128,1,93.5,4|0,0:0|0:0,0:0:0:0:
198,337,117138,1,0,0:0:0:0:
198,337,117213,1,0,0:0:0:0:
198,337,117288,2,0,P|198:269|187:219,1,93.5,4|0,0:0|0:0,0:0:0:0:
28,76,117438,2,0,P|86:110|134:125,1,93.5,4|0,0:0|0:0,0:0:0:0:
6,336,117588,5,2,0:0:0:0:
17,268,117663,1,2,0:0:0:0:
67,220,117738,1,2,0:0:0:0:
135,211,117813,1,2,0:0:0:0:
195,245,117888,1,2,0:0:0:0:
195,245,118188,5,6,0:0:0:0:
