osu file format v14

[General]
AudioFilename: audio.mp3
AudioLeadIn: 0
PreviewTime: 99704
Countdown: 0
SampleSet: Soft
StackLeniency: 0.5
Mode: 0
LetterboxInBreaks: 0
WidescreenStoryboard: 0

[Editor]
Bookmarks: 12329,41129,50729,60329,69929,79529,89129,98729,117929,125729
DistanceSpacing: 0.6
BeatDivisor: 4
GridSize: 4
TimelineZoom: 1.600001

[Metadata]
Title:Knight Rider
TitleUnicode:Knight Rider
Artist:USAO
ArtistUnicode:USAO
Creator:Nakano Itsuki
Version:Hanori's Extra
Source:WACCA
Tags:starrstyx hanori yokespai flask Mimilie Suzuhara Lulu Hitsukuya Hojo Karen Mimiliaa ajt co2021 corsace open ro32 fm1 electronic instrumental hardcore tano*c english d4dj groovy mix グルミク xtreme tcdr-0019
BeatmapID:3182347
BeatmapSetID:1550327

[Difficulty]
HPDrainRate:5
CircleSize:4
OverallDifficulty:8.5
ApproachRate:9.4
SliderMultiplier:2.2
SliderTickRate:1

[Events]
//Background and Video events
0,0,"ganqing.jpg",0,0
//Break Periods
2,1653,2984
2,71104,79934
//Storyboard Layer 0 (Background)
//Storyboard Layer 1 (Fail)
//Storyboard Layer 2 (Pass)
//Storyboard Layer 3 (Foreground)
//Storyboard Layer 4 (Overlay)
//Storyboard Sound Samples

[TimingPoints]
1304,300,4,2,1,70,1,0
1304,-100,4,2,1,70,0,0
3704,-133.333333333333,4,2,1,70,0,0
8204,-80,4,2,1,70,0,0
8504,-100,4,2,1,80,0,0
10904,-100,4,2,1,90,0,0
12104,-149.253731343284,4,2,1,70,0,0
12329,-149.253731343284,4,2,1,5,0,0
12404,-149.253731343284,4,2,1,70,0,0
12629,-149.253731343284,4,2,1,5,0,0
12704,-149.253731343284,4,2,1,70,0,0
13004,-100,4,2,1,70,0,0
13304,-100,4,2,1,80,0,0
20504,-133.333333333333,4,2,1,80,0,0
21704,-100,4,2,1,80,0,0
32204,-66.6666666666667,4,2,1,80,0,0
32504,-133.333333333333,4,2,1,80,0,1
32804,-80,4,2,1,80,0,1
34304,-66.6666666666667,4,2,1,80,0,1
34904,-133.333333333333,4,2,1,80,0,1
35504,-80,4,2,1,80,0,1
42104,-100,4,2,1,80,0,0
51704,-100,4,2,1,90,0,1
61304,-200,4,2,1,80,0,1
61604,-100,4,2,1,90,0,1
69704,-133.333333333333,4,2,1,90,0,0
70154,-200,4,2,1,90,0,0
70829,-200,4,2,1,5,0,0
70904,-200,4,2,1,90,0,0
80504,-133.333333333333,4,2,1,70,0,0
82904,-133.333333333333,4,2,1,70,0,0
85304,-133.333333333333,4,2,1,80,0,0
87704,-133.333333333333,4,2,1,90,0,0
89129,-133.333333333333,4,2,1,5,0,0
89204,-133.333333333333,4,2,1,90,0,0
90104,-100,4,2,1,90,0,1
94604,-66.6666666666667,4,2,1,90,0,1
94904,-100,4,2,1,90,0,1
97304,-133.333333333333,4,2,1,90,0,1
99404,-100,4,2,1,90,0,1
109304,-66.6666666666667,4,2,1,90,0,1
109604,-100,4,2,1,90,0,1
117104,-80,4,2,1,90,0,1
117704,-100,4,2,1,90,0,1
118904,-100,4,2,1,90,0,0
119204,-100,4,2,1,80,0,0
128204,-80,4,2,1,80,0,0

[Colours]
Combo1 : 55,210,255
Combo2 : 186,29,33
Combo3 : 6,106,255
Combo4 : 217,190,0

[HitObjects]
19,367,1304,6,0,B|61:352|61:352|25:297,1,110,4|0,0:3|0:0,0:0:0:0:
19,367,3554,6,0,L|74:360,1,55
196,334,3704,2,0,P|160:301|140:259,1,82.5000031471254,8|0,0:0|0:0,0:0:0:0:
69,180,4004,2,0,P|58:227|32:265,1,82.5000031471254,2|0,0:0|0:0,0:0:0:0:
302,227,4304,6,0,B|277:229|277:229|257:227,1,41.2500015735627,2|0,0:0|0:0,0:0:0:0:
318,221,4454,2,0,B|294:227|294:227|274:228,1,41.2500015735627
332,213,4604,2,0,B|310:223|310:223|290:228,1,41.2500015735627,2|0,0:0|0:0,0:0:0:0:
346,205,4754,2,0,B|324:215|324:215|304:220,1,41.2500015735627
391,331,4904,1,8,0:0:0:0:
234,356,5054,6,0,B|259:358|259:358|279:356,1,41.2500015735627
218,350,5204,2,0,B|242:356|242:356|262:357,1,41.2500015735627,2|0,0:0|0:0,0:0:0:0:
204,342,5354,2,0,B|226:352|226:352|246:357,1,41.2500015735627
190,334,5504,2,0,B|212:344|212:344|232:349,1,41.2500015735627,2|0,0:0|0:0,0:0:0:0:
177,324,5654,2,0,B|197:338|197:338|215:346,1,41.2500015735627
165,314,5804,2,0,B|185:328|185:328|203:336,1,41.2500015735627,2|0,0:0|0:0,0:0:0:0:
154,302,5954,2,0,B|171:319|171:319|188:330,1,41.2500015735627
58,378,6104,1,8,0:0:0:0:
64,195,6254,6,0,B|43:209|43:209|25:217,1,41.2500015735627
74,181,6404,2,0,B|56:198|56:198|39:209,1,41.2500015735627,2|0,0:0|0:0,0:0:0:0:
82,167,6554,2,0,B|67:187|67:187|53:201,1,41.2500015735627
91,153,6704,2,0,B|76:173|76:173|62:187,1,41.2500015735627,2|0,0:0|0:0,0:0:0:0:
97,138,6854,2,0,B|86:160|86:160|74:176,1,41.2500015735627
102,124,7004,2,0,B|91:146|91:146|79:162,1,41.2500015735627,2|0,0:0|0:0,0:0:0:0:
106,108,7154,2,0,B|99:132|99:132|90:150,1,41.2500015735627
196,234,7304,1,8,0:0:0:0:
239,64,7454,6,0,B|253:84|253:84|264:95,1,41.2500015735627
230,50,7604,2,0,B|244:70|244:70|258:84,1,41.2500015735627,2|0,0:0|0:0,0:0:0:0:
224,35,7754,2,0,B|234:57|234:57|246:73,1,41.2500015735627
219,21,7904,2,0,B|229:43|229:43|241:59,1,41.2500015735627,2|0,0:0|0:0,0:0:0:0:
215,5,8054,2,0,B|221:29|221:29|230:47,1,41.2500015735627
349,145,8204,2,0,P|306:185|210:175,1,137.5,6|0,0:0|0:0,0:0:0:0:
355,38,8504,6,0,P|410:59|452:119,1,110,8|0,0:0|0:0,0:0:0:0:
403,242,8804,1,2,0:0:0:0:
466,182,8954,1,2,0:0:0:0:
318,372,9104,1,8,0:0:0:0:
318,372,9254,6,0,L|308:317,1,55
216,206,9404,2,0,L|206:260,1,55,2|0,0:0|0:0,0:0:0:0:
187,364,9554,1,2,0:0:0:0:
3,280,9704,6,0,P|55:302|106:293,1,110,8|0,0:0|0:0,0:0:0:0:
66,199,10004,1,2,0:0:0:0:
66,199,10154,1,2,0:0:0:0:
244,37,10304,1,8,0:0:0:0:
244,37,10454,6,0,L|188:49,1,55
216,206,10604,2,0,L|231:121,1,55,2|0,0:0|0:0,0:0:0:0:
314,184,10754,2,0,L|329:99,1,55,2|0,0:0|0:0,0:0:0:0:
289,322,10904,5,10,0:0:0:0:
191,344,11054,1,0,0:0:0:0:
106,289,11204,1,10,0:0:0:0:
191,344,11354,1,0,0:0:0:0:
216,206,11504,5,10,0:0:0:0:
216,206,11654,1,8,0:0:0:0:
74,102,11804,1,10,0:0:0:0:
100,121,11879,1,8,0:0:0:0:
132,126,11954,1,8,0:0:0:0:
164,119,12029,1,8,0:0:0:0:
194,108,12104,6,0,P|185:161|215:205,1,110.549994770737,10|0,0:0|0:0,0:0:0:0:
261,145,12404,2,0,P|311:125|334:76,1,110.549994770737
259,71,12704,1,0,0:0:0:0:
425,23,13004,6,0,L|429:78,1,55,2|0,0:0|0:0,0:0:0:0:
506,90,13154,2,0,L|490:143,1,55,2|0,0:0|0:0,0:0:0:0:
494,300,13304,6,0,P|440:290|385:298,1,110,6|0,0:3|0:0,0:0:0:0:
304,354,13604,1,4,0:0:0:0:
392,206,13754,1,2,0:0:0:0:
202,260,13904,2,0,P|256:270|311:262,1,110,8|2,0:0|0:0,0:0:0:0:
113,208,14204,2,0,P|106:263|116:317,1,110,4|2,0:0|0:0,0:0:0:0:
207,355,14504,5,8,0:0:0:0:
314,207,14654,2,0,L|308:279,1,55,2|0,0:0|0:0,0:0:0:0:
304,354,14804,1,4,0:0:0:0:
189,108,14954,2,0,L|195:180,1,55,2|0,0:0|0:0,0:0:0:0:
202,260,15104,1,8,0:0:0:0:
327,59,15254,2,0,L|321:131,1,55,2|0,0:0|0:0,0:0:0:0:
314,207,15404,1,4,0:0:0:0:
478,30,15554,2,0,L|459:99,1,55,2|0,0:0|0:0,0:0:0:0:
510,218,15704,6,0,P|463:196|404:200,1,110,6|0,0:3|0:0,0:0:0:0:
448,284,16004,1,4,0:0:0:0:
448,284,16154,1,2,0:0:0:0:
503,380,16304,1,8,0:0:0:0:
355,369,16454,2,0,L|440:377,1,55,2|0,0:0|0:0,0:0:0:0:
448,284,16604,1,4,0:0:0:0:
299,285,16754,2,0,L|384:285,1,55,2|0,0:0|0:0,0:0:0:0:
122,374,16904,6,0,P|131:320|124:266,1,110,8|0,0:0|0:0,0:0:0:0:
191,198,17204,1,4,0:0:0:0:
39,244,17354,1,2,0:0:0:0:
39,244,17429,1,0,0:0:0:0:
39,244,17504,1,8,0:0:0:0:
124,266,17654,1,2,0:0:0:0:
0,76,17804,6,0,L|61:81,1,55,4|0,0:0|0:0,0:0:0:0:
121,125,17954,2,0,L|181:119,1,55,2|0,0:0|0:0,0:0:0:0:
308,15,18104,6,0,P|302:66|314:149,1,110,6|0,0:3|0:0,0:0:0:0:
481,190,18404,2,0,P|430:196|347:184,1,110,4|2,0:0|0:0,0:0:0:0:
425,72,18704,1,8,0:0:0:0:
372,191,18854,1,2,0:0:0:0:
308,15,19004,1,4,0:0:0:0:
279,217,19154,1,2,0:0:0:0:
157,41,19304,5,8,0:0:0:0:
157,41,19454,2,0,L|245:28,1,55,2|0,0:0|0:0,0:0:0:0:
307,124,19604,1,4,0:0:0:0:
307,124,19754,2,0,L|219:111,1,55,2|0,0:0|0:0,0:0:0:0:
58,82,19904,1,8,0:0:0:0:
58,82,20054,2,0,L|51:140,1,55,2|0,0:0|0:0,0:0:0:0:
30,318,20204,1,4,0:0:0:0:
30,318,20354,2,0,L|87:309,1,55,2|0,0:0|0:0,0:0:0:0:
312,327,20504,6,0,B|279:357|279:357|297:218,1,165.000006294251,8|2,0:0|0:0,0:0:0:0:
431,327,21104,5,8,0:0:0:0:
431,327,21254,2,0,B|464:357|464:357|446:218,1,165.000006294251,2|2,0:0|0:0,0:0:0:0:
428,87,21704,5,8,0:0:0:0:
443,199,21854,1,8,0:0:0:0:
330,29,22004,1,8,0:0:0:0:
300,198,22154,1,8,0:0:0:0:
173,34,22304,5,8,0:0:0:0:
173,34,22379,1,8,0:0:0:0:
173,34,22454,1,8,0:0:0:0:
173,34,22529,1,8,0:0:0:0:
173,34,22604,2,0,B|197:57|197:57|135:189,1,165,12|0,0:0|0:0,0:0:0:0:
78,319,22904,6,0,P|129:299|183:298,1,110,6|2,0:3|0:0,0:0:0:0:
380,326,23204,2,0,P|367:293|368:265,1,55,4|0,0:0|0:0,0:0:0:0:
388,142,23354,1,2,0:0:0:0:
388,142,23504,6,0,P|341:171|288:182,1,110,8|2,0:0|0:0,0:0:0:0:
293,54,23804,1,4,0:0:0:0:
293,54,23954,1,2,0:0:0:0:
188,142,24104,6,0,P|235:172|307:182,1,110,8|0,0:0|0:0,0:0:0:0:
114,53,24404,2,0,P|84:99|74:172,1,110,4|0,0:0|0:0,0:0:0:0:
100,301,24704,1,8,0:0:0:0:
44,235,24854,1,2,0:0:0:0:
126,222,25004,2,0,P|155:222|187:226,1,55,4|0,0:0|0:0,0:0:0:0:
283,344,25154,5,2,0:0:0:0:
283,344,25229,1,0,0:0:0:0:
283,344,25304,2,0,P|225:338|173:344,1,110,8|0,0:0|0:0,0:0:0:0:
366,278,25604,2,0,P|424:284|476:278,1,110,4|0,0:0|0:0,0:0:0:0:
421,181,25904,5,8,0:0:0:0:
421,181,26054,1,2,0:0:0:0:
325,43,26204,2,0,L|333:98,1,55,4|0,0:0|0:0,0:0:0:0:
428,7,26354,2,0,L|416:61,1,55,10|8,0:0|0:0,0:0:0:0:
225,242,26504,6,0,P|242:190|244:136,1,110,8|2,0:0|0:0,0:0:0:0:
45,156,26804,2,0,P|106:159|154:176,1,110,12|2,0:0|0:0,0:0:0:0:
253,325,27104,1,8,0:0:0:0:
253,325,27254,1,2,0:0:0:0:
118,290,27404,5,4,0:0:0:0:
125,299,27479,1,0,0:0:0:0:
132,307,27554,1,2,0:0:0:0:
138,315,27629,1,0,0:0:0:0:
145,325,27704,6,0,P|200:334|264:321,1,110,6|2,0:3|0:0,0:0:0:0:
198,215,28004,1,4,0:0:0:0:
253,325,28154,1,0,0:0:0:0:
213,107,28304,6,0,P|199:160|198:215,1,110,8|2,0:0|0:0,0:0:0:0:
321,177,28604,1,4,0:0:0:0:
78,153,28754,1,2,0:0:0:0:
283,26,28904,6,0,P|224:6|151:12,1,110,8|2,0:0|0:0,0:0:0:0:
146,190,29204,2,0,P|204:209|277:203,1,110,4|0,0:0|0:0,0:0:0:0:
213,107,29504,1,8,0:0:0:0:
172,348,29654,1,2,0:0:0:0:
61,97,29804,1,4,0:0:0:0:
78,344,29954,1,0,0:0:0:0:
78,344,30104,5,8,0:0:0:0:
85,317,30179,1,0,0:0:0:0:
92,290,30254,1,2,0:0:0:0:
99,263,30329,1,0,0:0:0:0:
106,236,30404,5,4,0:0:0:0:
138,256,30479,1,0,0:0:0:0:
176,260,30554,1,2,0:0:0:0:
212,247,30629,1,0,0:0:0:0:
224,210,30704,5,8,0:0:0:0:
256,190,30779,1,0,0:0:0:0:
294,186,30854,1,2,0:0:0:0:
330,199,30929,1,0,0:0:0:0:
351,230,31004,6,0,P|359:265|355:308,1,55,4|0,0:0|0:0,0:0:0:0:
227,371,31154,2,0,P|219:336|223:293,1,55,2|0,0:0|0:0,0:0:0:0:
452,328,31304,2,0,P|403:375|362:385,1,110,8|0,0:0|0:0,0:0:0:0:
473,147,31604,6,0,P|472:120|465:94,1,55,8|0,0:0|0:0,0:0:0:0:
312,117,31754,2,0,P|312:144|320:171,1,55
499,11,31904,1,8,0:0:0:0:
499,11,32054,1,0,0:0:0:0:
172,55,32204,6,0,B|267:49|267:49|320:17|320:17|415:13,1,247.500009441376,10|0,0:0|0:0,0:0:0:0:
465,94,32504,6,0,P|413:69|427:13,1,123.750004720688,6|0,0:3|0:0,0:0:0:0:
465,202,32804,2,0,L|396:196,1,68.75
328,123,32954,2,0,L|261:140,1,68.75,8|0,0:0|0:0,0:0:0:0:
259,287,33104,2,0,P|286:368|317:298,1,206.25,4|0,0:0|0:0,0:0:0:0:
307,224,33404,1,8,0:0:0:0:
21,360,33554,5,2,0:0:0:0:
21,360,33629,1,0,0:0:0:0:
21,360,33704,2,0,P|49:290|37:228,1,137.5,8|0,0:0|0:0,0:0:0:0:
167,169,34004,2,0,P|120:109|60:89,1,137.5,8|2,0:0|0:0,0:0:0:0:
50,89,34229,1,0,0:0:0:0:
35,93,34304,6,0,B|126:83|126:83|193:61|193:61|299:51,1,247.500009441376,4|0,0:0|0:0,0:0:0:0:
408,214,34604,2,0,B|315:203|315:203|250:179|250:179|167:169,1,247.500009441376,8|0,0:0|0:0,0:0:0:0:
487,16,34904,6,0,P|479:52|486:123,1,82.5000031471254,6|0,2:3|0:0,0:0:0:0:
374,17,35204,1,8,0:0:0:0:
512,215,35354,1,2,0:0:0:0:
512,215,35504,2,0,B|445:228|445:228|381:204,1,137.5,4|0,0:0|0:0,0:0:0:0:
123,58,35804,5,8,0:0:0:0:
149,49,35879,1,0,0:0:0:0:
176,53,35954,1,2,0:0:0:0:
197,70,36029,1,0,0:0:0:0:
209,94,36104,6,0,L|288:121,1,68.75,8|0,0:0|0:0,0:0:0:0:
274,116,36254,1,2,0:0:0:0:
182,213,36404,2,0,L|264:225,1,68.75,8|0,0:0|0:0,0:0:0:0:
249,223,36554,1,2,0:0:0:0:
181,336,36704,2,0,L|264:334,1,68.75,14|0,0:0|0:0,0:0:0:0:
249,334,36854,1,2,0:0:0:0:
431,353,37004,5,8,0:0:0:0:
431,353,37079,1,0,0:0:0:0:
431,353,37154,1,2,0:0:0:0:
431,353,37229,1,0,0:0:0:0:
431,353,37304,6,0,P|435:318|423:288,1,68.75,8|0,0:0|0:0,0:0:0:0:
301,212,37454,2,0,P|329:232|361:237,1,68.75,2|0,0:0|0:0,0:0:0:0:
438,209,37604,2,0,P|458:180|463:148,1,68.75,8|0,0:0|0:0,0:0:0:0:
276,50,37754,2,0,B|300:114|300:114|364:142,1,137.5,2|4,0:0|0:0,0:0:0:0:
181,18,38054,5,0,0:0:0:0:
371,18,38204,1,0,0:0:0:0:
212,178,38354,1,2,0:0:0:0:
212,178,38429,1,0,0:0:0:0:
212,178,38504,6,0,P|185:199|152:207,1,68.75,8|0,0:0|0:0,0:0:0:0:
54,92,38654,2,0,P|80:70|113:62,1,68.75,2|0,0:0|0:0,0:0:0:0:
59,259,38804,2,0,P|37:230|28:195,1,68.75,8|0,0:0|0:0,0:0:0:0:
121,148,38954,2,0,P|144:173|152:207,1,68.75,2|0,0:0|0:0,0:0:0:0:
33,382,39104,1,4,0:0:0:0:
33,382,39254,6,0,L|125:331,1,68.75,2|0,0:0|0:0,0:0:0:0:
152,207,39404,2,0,L|152:275,1,68.75,8|0,0:0|0:0,0:0:0:0:
275,381,39554,2,0,L|214:347,1,68.75,2|0,0:0|0:0,0:0:0:0:
398,227,39704,6,0,P|329:232|261:224,1,137.5,8|0,0:0|0:0,0:0:0:0:
475,210,40004,1,8,0:0:0:0:
451,286,40154,1,0,0:0:0:0:
354,70,40304,6,0,P|334:97|331:146,1,68.75,4|0,0:0|0:0,0:0:0:0:
409,127,40454,2,0,P|442:129|486:108,1,68.75,2|0,0:0|0:0,0:0:0:0:
433,51,40604,2,0,P|418:20|378:-6,1,68.75,8|0,0:0|0:0,0:0:0:0:
164,9,40754,1,2,0:0:0:0:
164,9,40829,1,0,0:0:0:0:
164,9,40904,6,0,P|237:16|327:9,1,137.5,8|0,0:0|0:0,0:0:0:0:
78,31,41204,1,8,0:0:0:0:
233,100,41354,1,2,0:0:0:0:
151,97,41504,5,8,0:0:0:0:
151,97,41579,1,8,0:0:0:0:
151,97,41654,1,8,0:0:0:0:
301,94,41804,2,0,L|233:100,1,68.75,8|0,0:0|0:0,0:0:0:0:
390,156,41954,2,0,L|324:173,1,68.75,2|0,0:0|0:0,0:0:0:0:
498,97,42104,6,0,P|481:158|482:263,1,165,8|0,0:0|0:0,0:0:0:0:
493,353,42404,6,0,L|383:350,1,110,6|2,0:0|0:0,0:0:0:0:
286,354,42704,1,8,0:0:0:0:
330,276,42854,1,2,0:0:0:0:
383,350,43004,1,4,0:0:0:0:
239,279,43154,1,2,0:0:0:0:
470,220,43304,6,0,P|414:217|361:198,1,110,8|0,0:0|0:0,0:0:0:0:
179,142,43604,2,0,P|235:139|288:120,1,110,4|0,0:0|0:0,0:0:0:0:
335,18,43904,5,8,0:0:0:0:
281,207,44054,1,10,0:0:0:0:
165,19,44204,1,4,0:0:0:0:
138,23,44279,1,0,0:0:0:0:
113,34,44354,1,2,0:0:0:0:
93,53,44429,1,0,0:0:0:0:
80,77,44504,6,0,P|65:132|69:189,1,110,8|0,0:0|0:0,0:0:0:0:
215,324,44804,2,0,P|174:283|123:258,1,110,4|0,0:0|0:0,0:0:0:0:
35,275,45104,5,8,0:0:0:0:
104,379,45254,1,2,0:0:0:0:
207,171,45404,2,0,P|175:173|139:182,1,55,4|0,0:0|0:0,0:0:0:0:
215,324,45554,2,0,P|247:322|283:313,1,55,2|0,0:0|0:0,0:0:0:0:
330,144,45704,6,0,P|326:229|406:224,1,165,8|0,0:0|0:0,0:0:0:0:
426,146,46004,2,0,P|429:60|348:66,1,165,4|0,0:0|0:0,0:0:0:0:
489,234,46304,1,8,0:0:0:0:
489,234,46379,1,0,0:0:0:0:
489,234,46454,1,2,0:0:0:0:
330,144,46604,2,0,P|302:159|286:182,1,55,12|0,0:0|0:0,0:0:0:0:
209,379,46754,5,2,0:0:0:0:
209,379,46829,1,0,0:0:0:0:
209,379,46904,2,0,P|218:318|212:267,1,110,8|2,0:0|0:0,0:0:0:0:
84,318,47204,1,4,0:0:0:0:
28,207,47354,2,0,P|89:216|140:210,1,110,8|0,0:0|0:0,0:0:0:0:
355,64,47654,6,0,L|296:73,1,55,2|0,0:0|0:0,0:0:0:0:
150,32,47804,2,0,L|209:41,1,55,4|0,0:0|0:0,0:0:0:0:
168,126,47954,2,0,L|227:135,1,55,2|0,0:0|0:0,0:0:0:0:
335,270,48104,6,0,P|322:217|331:163,1,110,8|2,0:0|0:0,0:0:0:0:
478,205,48404,2,0,L|423:213,1,55,4|0,0:0|0:0,0:0:0:0:
228,243,48554,2,0,L|173:251,1,55,2|0,0:0|0:0,0:0:0:0:
331,163,48704,1,8,0:0:0:0:
123,58,48854,6,0,P|108:85|111:139,1,55,2|0,0:0|0:0,0:0:0:0:
222,155,49004,2,0,P|206:128|157:104,1,55,4|0,0:0|0:0,0:0:0:0:
211,33,49154,2,0,P|239:49|293:45,1,55,2|0,0:0|0:0,0:0:0:0:
433,30,49304,6,0,L|423:99,3,55,8|0|2|0,0:0|0:0|0:0|0:0,0:0:0:0:
338,108,49604,2,0,L|328:181,1,55,4|0,0:0|0:0,0:0:0:0:
423,212,49754,2,0,L|413:285,1,55,2|0,0:0|0:0,0:0:0:0:
281,363,49904,5,8,0:0:0:0:
283,341,49979,1,0,0:0:0:0:
286,319,50054,1,2,0:0:0:0:
289,297,50129,1,0,0:0:0:0:
292,275,50204,1,4,0:0:0:0:
295,253,50279,1,0,0:0:0:0:
298,232,50354,1,2,0:0:0:0:
301,210,50429,1,0,0:0:0:0:
305,188,50504,6,0,L|245:182,1,55,8|0,0:0|0:0,0:0:0:0:
317,95,50654,2,0,L|377:89,1,55,2|0,0:0|0:0,0:0:0:0:
413,173,50804,2,0,P|405:241|418:347,1,165,8|0,0:0|0:0,0:0:0:0:
468,92,51104,1,8,0:0:0:0:
140,33,51404,5,4,0:0:0:0:
140,33,51554,1,2,0:0:0:0:
31,189,51704,6,0,P|86:182|139:190,1,110,6|0,0:3|0:0,0:0:0:0:
198,256,52004,1,4,0:0:0:0:
86,103,52154,1,2,0:0:0:0:
27,316,52304,2,0,P|82:323|135:315,1,110,8|0,0:0|0:0,0:0:0:0:
360,209,52604,5,4,0:0:0:0:
360,209,52679,1,0,0:0:0:0:
360,209,52754,1,2,0:0:0:0:
360,209,52829,1,0,0:0:0:0:
360,209,52904,2,0,P|306:191|213:192,1,110,8|2,0:0|0:0,0:0:0:0:
436,310,53204,5,4,0:0:0:0:
450,286,53279,1,0,0:0:0:0:
460,260,53354,1,2,0:0:0:0:
467,233,53429,1,0,0:0:0:0:
469,205,53504,2,0,P|457:149|410:69,1,110,8|2,0:0|0:0,0:0:0:0:
192,6,53804,5,4,0:0:0:0:
225,26,53879,1,0,0:0:0:0:
263,31,53954,1,2,0:0:0:0:
301,26,54029,1,0,0:0:0:0:
337,12,54104,2,0,L|325:128,1,110,8|0,0:0|0:0,0:0:0:0:
316,210,54404,1,4,0:0:0:0:
98,368,54554,6,0,L|109:258,1,110,2|8,0:0|0:0,0:0:0:0:
119,170,54854,1,2,0:0:0:0:
222,146,55004,1,4,0:0:0:0:
213,235,55154,1,2,0:0:0:0:
71,59,55304,6,0,P|124:69|182:67,1,110,8|2,0:0|0:0,0:0:0:0:
6,9,55604,1,4,0:0:0:0:
52,140,55754,1,2,0:0:0:0:
242,17,55904,5,8,0:0:0:0:
242,17,56054,1,2,0:0:0:0:
192,145,56204,1,4,0:0:0:0:
482,96,56354,5,2,0:0:0:0:
455,88,56429,1,0,0:0:0:0:
428,80,56504,2,0,L|415:203,1,110,8|2,0:0|0:0,0:0:0:0:
315,343,56804,2,0,L|302:220,1,110,4|0,0:0|0:0,0:0:0:0:
407,276,57104,1,8,0:0:0:0:
293,145,57254,1,2,0:0:0:0:
120,341,57404,5,4,0:0:0:0:
120,341,57479,1,0,0:0:0:0:
120,341,57554,1,2,0:0:0:0:
120,341,57629,1,0,0:0:0:0:
120,341,57704,2,0,L|133:218,1,110,8|2,0:0|0:0,0:0:0:0:
217,37,58004,5,4,0:0:0:0:
210,63,58079,1,0,0:0:0:0:
192,84,58154,1,2,0:0:0:0:
165,92,58229,1,0,0:0:0:0:
138,93,58304,2,0,P|85:81|41:44,1,110,8|2,0:0|0:0,0:0:0:0:
208,211,58604,5,4,0:0:0:0:
232,240,58679,1,0,0:0:0:0:
268,252,58754,1,2,0:0:0:0:
306,252,58829,1,0,0:0:0:0:
342,238,58904,2,0,L|330:347,1,110,8|0,0:0|0:0,0:0:0:0:
512,118,59204,6,0,P|459:126|402:118,1,110,4|0,0:0|0:0,0:0:0:0:
347,19,59504,2,0,P|400:11|457:19,1,110,8|2,0:0|0:0,0:0:0:0:
182,118,59804,2,0,P|235:126|292:118,1,110,4|0,0:0|0:0,0:0:0:0:
485,327,60104,6,0,L|374:307,1,110,8|10,0:0|0:0,0:0:0:0:
289,291,60404,1,12,0:0:0:0:
434,207,60554,1,10,0:0:0:0:
434,207,60629,1,0,0:0:0:0:
434,207,60704,1,8,0:0:0:0:
317,376,60854,1,10,0:0:0:0:
226,146,61004,6,0,L|218:203,1,55,4|0,0:0|0:0,0:0:0:0:
197,345,61154,1,2,0:0:0:0:
36,198,61304,6,0,P|66:204|109:203,1,55,8|0,0:0|0:0,0:0:0:0:
367,120,61604,5,6,0:3:0:0:
293,54,61754,2,0,P|234:39|182:43,1,110,2|8,0:0|0:0,0:0:0:0:
386,20,62054,1,0,0:0:0:0:
431,209,62204,2,0,P|372:224|320:220,1,110,4|2,0:0|0:0,0:0:0:0:
66,142,62504,6,0,L|74:254,1,110,8|2,0:0|0:0,0:0:0:0:
82,349,62804,1,4,0:0:0:0:
210,92,62954,2,0,L|202:204,1,110,2|8,0:0|0:0,0:0:0:0:
194,299,63254,1,2,0:0:0:0:
66,142,63404,1,4,0:0:0:0:
324,150,63554,5,0,0:0:0:0:
322,177,63629,1,0,0:0:0:0:
320,204,63704,2,0,L|431:179,1,110,8|2,0:0|0:0,0:0:0:0:
512,159,64004,1,4,0:0:0:0:
490,341,64154,2,0,L|379:316,1,110,2|8,0:0|0:0,0:0:0:0:
298,296,64454,1,2,0:0:0:0:
106,341,64604,2,0,L|234:312,1,110,4|2,0:0|0:0,0:0:0:0:
203,64,64904,5,8,0:0:0:0:
182,156,65054,1,0,0:0:0:0:
270,126,65204,1,4,0:0:0:0:
3,90,65354,1,0,0:0:0:0:
3,90,65504,2,0,P|57:101|115:97,1,110,8|2,0:0|0:0,0:0:0:0:
291,34,65804,1,4,0:0:0:0:
256,233,65954,5,0,0:0:0:0:
256,233,66029,1,0,0:0:0:0:
256,233,66104,1,8,0:0:0:0:
368,175,66254,1,0,0:0:0:0:
468,345,66404,6,0,L|478:213,1,110,4|0,0:0|0:0,0:0:0:0:
487,145,66704,1,8,0:0:0:0:
487,145,66854,1,2,0:0:0:0:
301,71,67004,6,0,L|361:66,1,55,4|0,0:0|0:0,0:0:0:0:
487,145,67154,2,0,L|427:140,1,55
278,222,67304,2,0,L|405:231,1,110,8|2,0:0|0:0,0:0:0:0:
38,170,67604,6,0,L|94:174,1,55,4|0,0:0|0:0,0:0:0:0:
186,248,67754,2,0,L|130:252,1,55,2|0,0:0|0:0,0:0:0:0:
0,268,67904,1,8,0:0:0:0:
0,268,68054,1,2,0:0:0:0:
46,63,68204,6,0,L|102:67,1,55,4|0,0:0|0:0,0:0:0:0:
192,73,68354,2,0,L|248:77,1,55,2|0,0:0|0:0,0:0:0:0:
339,84,68504,5,8,0:0:0:0:
301,7,68654,1,2,0:0:0:0:
284,157,68804,1,4,0:0:0:0:
428,91,68954,1,0,0:0:0:0:
411,251,69104,5,8,0:0:0:0:
384,242,69179,1,0,0:0:0:0:
356,241,69254,1,2,0:0:0:0:
329,246,69329,1,0,0:0:0:0:
304,258,69404,5,4,0:0:0:0:
277,263,69479,1,0,0:0:0:0:
250,255,69554,1,2,0:0:0:0:
225,242,69629,1,0,0:0:0:0:
206,221,69704,6,0,B|164:233|153:275|153:275|109:257|72:283,1,165.000006294251,8|0,0:0|0:0,0:0:0:0:
57,182,70154,2,0,P|140:128|47:114,1,247.5
45,144,70904,1,6,0:3:0:0:
31,145,80504,5,8,0:0:0:0:
70,227,80654,1,2,0:0:0:0:
122,150,80804,1,0,0:0:0:0:
8,33,80954,2,0,P|83:62|166:42,1,165.000006294251,2|0,0:0|0:0,0:0:0:0:
229,0,81404,1,0,0:0:0:0:
182,234,81554,5,2,0:0:0:0:
182,234,81629,1,0,0:0:0:0:
182,234,81704,1,10,0:0:0:0:
261,190,81854,1,0,0:0:0:0:
254,279,82004,1,0,0:0:0:0:
248,364,82154,2,0,P|330:351|411:360,1,165.000006294251,0|2,0:0|0:0,0:0:0:0:
512,213,82604,6,0,L|469:210,1,41.2500015735627,2|0,0:0|0:0,0:0:0:0:
389,204,82754,2,0,L|346:201,1,41.2500015735627
483,54,82904,5,10,0:0:0:0:
437,128,83054,1,0,0:0:0:0:
396,48,83204,1,0,0:0:0:0:
194,113,83354,2,0,P|265:139|351:124,1,165.000006294251
97,43,83804,2,0,L|93:140,1,82.5000031471254
84,290,84104,5,10,0:0:0:0:
89,208,84254,1,0,0:0:0:0:
8,245,84404,1,2,0:0:0:0:
166,254,84554,2,0,P|196:209|206:68,1,165.000006294251,0|2,0:0|0:0,0:0:0:0:
84,290,85004,1,8,0:0:0:0:
297,303,85154,5,2,0:0:0:0:
299,280,85229,1,0,0:0:0:0:
301,253,85304,2,0,L|386:254,1,82.5000031471254,8|0,0:0|0:0,0:0:0:0:
461,255,85604,1,0,0:0:0:0:
494,125,85754,2,0,P|408:136|315:120,1,165.000006294251,2|2,0:0|0:0,0:0:0:0:
152,25,86204,5,8,0:0:0:0:
152,25,86279,1,0,0:0:0:0:
152,25,86354,1,0,0:0:0:0:
152,25,86429,1,0,0:0:0:0:
152,25,86504,2,0,L|161:108,1,82.5000031471254,8|0,0:0|0:0,0:0:0:0:
177,286,86804,5,0,0:0:0:0:
163,301,86879,1,0,0:0:0:0:
144,309,86954,1,2,0:0:0:0:
123,307,87029,1,0,0:0:0:0:
103,299,87104,2,0,P|87:257|90:212,1,82.5000031471254,8|2,0:0|0:0,0:0:0:0:
255,131,87404,5,0,0:0:0:0:
273,138,87479,1,0,0:0:0:0:
290,154,87554,1,0,0:0:0:0:
300,178,87629,1,0,0:0:0:0:
301,214,87704,1,8,0:0:0:0:
411,103,87854,6,0,L|404:169,1,41.2500015735627,2|0,0:0|0:0,0:0:0:0:
391,289,88004,1,8,0:0:0:0:
494,62,88154,6,0,L|498:128,1,41.2500015735627,2|0,0:0|0:0,0:0:0:0:
506,277,88304,1,8,0:0:0:0:
330,68,88454,1,8,0:0:0:0:
230,277,88604,5,8,0:0:0:0:
241,293,88679,1,8,0:0:0:0:
256,306,88754,1,8,0:0:0:0:
274,315,88829,1,8,0:0:0:0:
293,320,88904,6,0,P|227:328|173:347,1,123.750004720688,8|0,0:0|0:0,0:0:0:0:
158,358,89204,1,8,0:0:0:0:
23,97,89504,5,8,0:0:0:0:
38,110,89579,1,0,0:0:0:0:
58,114,89654,1,0,0:0:0:0:
82,111,89729,1,0,0:0:0:0:
106,95,89804,1,8,0:0:0:0:
134,78,89879,1,0,0:0:0:0:
169,66,89954,1,2,0:0:0:0:
210,69,90029,1,0,0:0:0:0:
257,96,90104,6,0,P|275:147|270:227,1,110,6|0,0:3|0:0,0:0:0:0:
248,284,90404,1,4,0:0:0:0:
397,352,90554,6,0,P|379:300|379:246,1,110,2|0,0:0|0:0,0:0:0:0:
405,149,90854,1,2,0:0:0:0:
477,213,91004,1,4,0:0:0:0:
379,246,91154,1,2,0:0:0:0:
432,46,91304,6,0,L|299:69,1,110,8|2,0:0|0:0,0:0:0:0:
207,91,91604,1,4,0:0:0:0:
83,30,91754,2,0,P|91:81|82:145,1,110,2|8,0:0|0:0,0:0:0:0:
46,234,92054,1,2,0:0:0:0:
179,345,92204,1,4,0:0:0:0:
168,307,92279,1,0,0:0:0:0:
201,287,92354,1,2,0:0:0:0:
226,315,92429,1,0,0:0:0:0:
211,350,92504,6,0,P|262:368|324:359,1,110,8|2,0:0|0:0,0:0:0:0:
402,330,92804,1,4,0:0:0:0:
420,184,92954,2,0,L|413:244,1,55,2|0,0:0|0:0,0:0:0:0:
485,295,93104,1,8,0:0:0:0:
506,60,93254,5,2,0:0:0:0:
429,95,93404,2,0,P|380:108|288:109,1,110,4|2,0:0|0:0,0:0:0:0:
129,23,93704,6,0,P|178:36|270:37,1,110,8|2,0:0|0:0,0:0:0:0:
25,8,94004,1,4,0:0:0:0:
26,35,94079,1,0,0:0:0:0:
28,62,94154,1,2,0:0:0:0:
30,89,94229,1,0,0:0:0:0:
32,116,94304,2,0,L|41:254,1,110,8|2,0:0|0:0,0:0:0:0:
17,349,94604,6,0,P|99:332|218:347,1,165.000006294251,4|0,0:0|0:0,0:0:0:0:
376,367,94904,6,0,L|380:313,1,55,8|0,0:0|0:0,0:0:0:0:
292,187,95054,2,0,L|336:217,1,55,2|0,0:0|0:0,0:0:0:0:
490,204,95204,2,0,L|441:227,1,55,4|0,0:0|0:0,0:0:0:0:
268,307,95354,1,2,0:0:0:0:
268,307,95504,1,0,0:0:0:0:
316,66,95654,5,2,0:0:0:0:
316,66,95804,2,0,P|374:77|428:68,1,110,4|2,0:0|0:0,0:0:0:0:
232,22,96104,2,0,P|174:11|120:20,1,110,8|2,0:0|0:0,0:0:0:0:
43,254,96404,6,0,L|38:200,1,55,4|0,0:0|0:0,0:0:0:0:
28,109,96554,2,0,L|23:55,1,55,2|0,0:0|0:0,0:0:0:0:
175,108,96704,1,8,0:0:0:0:
175,108,96854,6,0,L|180:162,1,55,2|0,0:0|0:0,0:0:0:0:
194,285,97004,2,0,L|199:339,1,55,4|0,0:0|0:0,0:0:0:0:
324,211,97154,2,0,L|319:157,1,55,2|0,0:0|0:0,0:0:0:0:
341,357,97304,6,0,B|399:371|399:371|461:358,1,123.750004720688,8|0,0:0|0:0,0:0:0:0:
490,349,97604,2,0,B|476:306|476:306|479:269,1,82.5000031471254,4|0,0:0|0:0,0:0:0:0:
503,172,97904,1,8,0:0:0:0:
410,201,98054,1,2,0:0:0:0:
479,268,98204,1,4,0:0:0:0:
492,52,98354,5,2,0:0:0:0:
492,52,98429,1,0,0:0:0:0:
492,52,98504,2,0,L|390:45,1,82.5000031471254,8|2,0:0|0:0,0:0:0:0:
219,67,98804,2,0,L|321:60,1,82.5000031471254,4|2,0:0|0:0,0:0:0:0:
319,234,99104,5,8,0:0:0:0:
300,243,99179,1,8,0:0:0:0:
275,247,99254,1,10,0:0:0:0:
246,242,99329,1,0,0:0:0:0:
214,210,99404,2,0,L|187:257,1,55,4|0,0:0|0:0,0:0:0:0:
114,384,99554,2,0,L|87:337,1,55,2|0,0:0|0:0,0:0:0:0:
0,168,99704,6,0,P|53:181|130:175,1,110,6|0,0:3|0:0,0:0:0:0:
187,110,100004,1,4,0:0:0:0:
214,210,100154,1,2,0:0:0:0:
401,152,100304,2,0,P|348:139|271:145,1,110,8|0,0:0|0:0,0:0:0:0:
334,272,100604,1,4,0:0:0:0:
334,272,100754,1,2,0:0:0:0:
489,85,100904,6,0,P|502:138|496:215,1,110,8|2,0:0|0:0,0:0:0:0:
451,302,101204,1,4,0:0:0:0:
500,193,101354,1,2,0:0:0:0:
225,283,101504,2,0,P|279:284|333:271,1,110,8|2,0:0|0:0,0:0:0:0:
261,134,101804,1,4,0:0:0:0:
76,367,101954,5,0,0:0:0:0:
67,335,102029,1,0,0:0:0:0:
57,298,102104,2,0,L|77:170,1,110,8|2,0:0|0:0,0:0:0:0:
243,48,102404,1,4,0:0:0:0:
243,48,102554,2,0,P|180:52|111:37,1,110,2|8,0:0|0:0,0:0:0:0:
59,0,102854,1,2,0:0:0:0:
272,134,103004,6,0,L|189:147,1,55,4|0,0:0|0:0,0:0:0:0:
73,189,103154,2,0,L|156:202,1,55,2|0,0:0|0:0,0:0:0:0:
226,358,103304,2,0,P|217:301|232:239,1,110,8|2,0:0|0:0,0:0:0:0:
435,146,103604,5,4,0:0:0:0:
439,185,103679,1,0,0:0:0:0:
442,224,103754,1,2,0:0:0:0:
445,263,103829,1,0,0:0:0:0:
448,302,103904,2,0,P|391:293|329:308,1,110,8|2,0:0|0:0,0:0:0:0:
139,356,104204,6,0,L|134:282,1,55,4|0,0:0|0:0,0:0:0:0:
127,197,104354,2,0,L|122:123,1,55,2|0,0:0|0:0,0:0:0:0:
48,29,104504,6,0,P|105:36|163:22,1,110,8|2,0:0|0:0,0:0:0:0:
328,110,104804,2,0,P|271:117|213:103,1,110,4|0,0:0|0:0,0:0:0:0:
276,15,105104,1,8,0:0:0:0:
274,215,105254,1,2,0:0:0:0:
442,58,105404,2,0,P|449:112|438:166,1,110,4|2,0:0|0:0,0:0:0:0:
222,310,105704,6,0,P|276:317|330:306,1,110,8|0,0:0|0:0,0:0:0:0:
220,105,106004,5,4,0:0:0:0:
177,97,106079,1,0,0:0:0:0:
134,106,106154,1,2,0:0:0:0:
100,134,106229,1,0,0:0:0:0:
80,173,106304,2,0,P|91:225|104:289,1,110,8|2,0:0|0:0,0:0:0:0:
358,357,106604,5,4,0:0:0:0:
379,325,106679,1,0,0:0:0:0:
390,288,106754,1,10,0:0:0:0:
393,249,106829,1,8,0:0:0:0:
386,211,106904,2,0,P|444:207|496:196,1,110,8|2,0:0|0:0,0:0:0:0:
286,143,107354,5,2,0:0:0:0:
386,211,107504,2,0,P|444:207|496:196,1,110,8|2,0:0|0:0,0:0:0:0:
456,325,107804,1,8,0:0:0:0:
428,65,107954,5,0,0:0:0:0:
428,65,108029,1,0,0:0:0:0:
428,65,108104,2,0,P|370:61|318:50,1,110,8|10,0:0|0:0,0:0:0:0:
240,0,108404,1,12,0:0:0:0:
177,197,108554,5,10,0:0:0:0:
185,170,108629,1,0,0:0:0:0:
194,144,108704,1,8,0:0:0:0:
202,118,108779,1,8,0:0:0:0:
211,92,108854,1,10,0:0:0:0:
42,19,109004,2,0,L|83:142,1,110,4|2,0:0|0:0,0:0:0:0:
173,349,109304,6,0,B|97:323|97:323|12:329,1,165.000006294251,8|0,0:0|0:0,0:0:0:0:
280,213,109604,6,0,L|258:283,1,55,6|0,0:3|0:0,0:0:0:0:
349,354,109754,2,0,L|371:284,1,55,2|0,0:0|0:0,0:0:0:0:
512,221,109904,2,0,L|471:344,1,110,8|0,0:0|0:0,0:0:0:0:
397,210,110204,1,4,0:0:0:0:
466,103,110354,1,2,0:0:0:0:
466,103,110504,6,0,P|412:109|357:102,1,110,8|2,0:0|0:0,0:0:0:0:
276,71,110804,1,4,0:0:0:0:
290,158,110954,1,2,0:0:0:0:
144,19,111104,5,8,0:0:0:0:
144,19,111254,1,2,0:0:0:0:
93,216,111404,1,4,0:0:0:0:
290,158,111554,5,0,0:0:0:0:
282,185,111629,1,0,0:0:0:0:
273,216,111704,2,0,P|333:216|382:231,1,110,8|2,0:0|0:0,0:0:0:0:
475,292,112004,1,4,0:0:0:0:
390,110,112154,2,0,P|442:125|497:124,1,110,0|8,0:0|0:0,0:0:0:0:
248,19,112454,5,2,0:0:0:0:
248,19,112604,2,0,L|238:95,1,55,4|0,0:0|0:0,0:0:0:0:
155,188,112754,2,0,L|145:112,1,55,2|0,0:0|0:0,0:0:0:0:
24,26,112904,2,0,P|78:35|132:34,1,110,8|0,0:0|0:0,0:0:0:0:
328,17,113204,6,0,L|318:93,1,55,4|0,0:0|0:0,0:0:0:0:
309,150,113354,2,0,L|299:226,1,55
294,287,113504,1,8,0:0:0:0:
294,287,113654,1,2,0:0:0:0:
35,350,113804,6,0,L|89:340,1,55,4|0,0:0|0:0,0:0:0:0:
227,235,113954,5,10,0:0:0:0:
192,226,114029,1,8,0:0:0:0:
156,220,114104,2,0,L|102:210,1,55,8|0,0:0|0:0,0:0:0:0:
24,127,114254,2,0,L|78:117,1,55,2|0,0:0|0:0,0:0:0:0:
204,1,114404,6,0,P|198:47|201:132,1,110,4|2,0:0|0:0,0:0:0:0:
82,0,114704,1,8,0:0:0:0:
82,0,114854,1,2,0:0:0:0:
307,116,115004,6,0,P|252:108|198:110,1,110,4|2,0:0|0:0,0:0:0:0:
402,139,115304,1,8,0:0:0:0:
402,139,115454,1,2,0:0:0:0:
401,365,115604,6,0,L|408:310,1,55,4|0,0:0|0:0,0:0:0:0:
285,195,115754,2,0,L|292:250,1,55,2|0,0:0|0:0,0:0:0:0:
309,360,115904,2,0,P|260:344|194:339,1,110,8|2,0:0|0:0,0:0:0:0:
52,356,116204,6,0,L|54:297,1,55,4|0,0:0|0:0,0:0:0:0:
57,216,116354,2,0,L|59:157,1,55,2|0,0:0|0:0,0:0:0:0:
65,54,116504,6,0,B|109:71|149:41|197:22|197:22|170:109|170:109|221:96|244:121|244:121|274:24,1,385,8|0,0:0|0:0,0:0:0:0:
477,75,117104,2,0,B|445:25|412:7|412:7|386:93|386:93|437:157|437:157|419:218|419:218|441:285|441:285|419:374,1,481.25,8|0,0:0|0:0,0:0:0:0:
418,378,117704,1,8,0:0:0:0:
328,238,117854,1,0,0:0:0:0:
228,371,118004,1,8,0:0:0:0:
328,238,118154,1,0,0:0:0:0:
137,231,118304,6,0,L|204:234,1,55,8|0,0:0|0:0,0:0:0:0:
264,130,118454,2,0,L|197:127,1,55,8|0,0:0|0:0,0:0:0:0:
36,114,118604,1,8,0:0:0:0:
69,94,118679,1,8,0:0:0:0:
88,67,118754,1,10,0:0:0:0:
96,40,118829,1,8,0:0:0:0:
96,18,118904,2,0,L|215:23,1,110,8|0,0:0|0:0,0:0:0:0:
464,18,119204,5,4,0:0:0:0:
464,18,119354,2,0,P|455:74|459:129,1,110,2|8,0:0|0:0,0:0:0:0:
494,270,119654,1,2,0:0:0:0:
494,270,119804,2,0,P|438:261|383:265,1,110,4|2,0:0|0:0,0:0:0:0:
182,229,120104,6,0,P|238:220|293:224,1,110,8|2,0:0|0:0,0:0:0:0:
343,103,120404,1,4,0:0:0:0:
343,103,120554,2,0,P|287:112|232:108,1,110,2|8,0:0|0:0,0:0:0:0:
282,14,120854,1,2,0:0:0:0:
450,0,121004,5,4,0:0:0:0:
460,25,121079,1,0,0:0:0:0:
466,51,121154,1,2,0:0:0:0:
462,78,121229,1,0,0:0:0:0:
450,102,121304,6,0,P|390:94|330:108,1,110,8|2,0:0|0:0,0:0:0:0:
400,180,121604,1,4,0:0:0:0:
330,352,121754,2,0,P|338:292|324:232,1,110,2|8,0:0|0:0,0:0:0:0:
99,296,122054,2,0,L|176:300,1,55,2|0,0:0|0:0,0:0:0:0:
246,300,122204,1,4,0:0:0:0:
53,213,122354,2,0,L|130:217,1,55,2|0,0:0|0:0,0:0:0:0:
200,217,122504,6,0,P|193:144|216:88,1,110,8|0,0:0|0:0,0:0:0:0:
46,36,122804,2,0,P|119:43|175:20,1,110,4|0,0:0|0:0,0:0:0:0:
240,26,123104,1,8,0:0:0:0:
240,26,123254,1,0,0:0:0:0:
391,49,123404,2,0,L|333:42,1,55,4|0,0:0|0:0,0:0:0:0:
287,168,123554,2,0,L|345:161,1,55,2|0,0:0|0:0,0:0:0:0:
477,137,123704,6,0,P|468:193|473:253,1,110,8|0,0:0|0:0,0:0:0:0:
349,246,124004,1,4,0:0:0:0:
349,246,124154,2,0,P|358:302|353:362,1,110,2|8,0:0|0:0,0:0:0:0:
253,299,124454,1,2,0:0:0:0:
52,342,124604,2,0,P|106:345|160:336,1,110,4|2,0:0|0:0,0:0:0:0:
154,150,124904,6,0,P|123:195|104:247,1,110,8|2,0:0|0:0,0:0:0:0:
38,134,125204,1,4,0:0:0:0:
38,134,125354,1,2,0:0:0:0:
118,47,125504,1,8,0:0:0:0:
118,47,125579,1,0,0:0:0:0:
118,47,125654,1,2,0:0:0:0:
154,150,125804,2,0,P|205:162|277:149,1,110,4|2,0:0|0:0,0:0:0:0:
430,43,126104,5,8,0:0:0:0:
413,65,126179,1,0,0:0:0:0:
408,92,126254,1,2,0:0:0:0:
412,119,126329,1,0,0:0:0:0:
424,143,126404,1,4,0:0:0:0:
438,166,126479,1,0,0:0:0:0:
446,192,126554,1,2,0:0:0:0:
444,219,126629,1,0,0:0:0:0:
434,261,126704,5,8,0:0:0:0:
393,244,126779,1,0,0:0:0:0:
349,240,126854,1,2,0:0:0:0:
306,252,126929,1,0,0:0:0:0:
272,280,127004,5,4,0:0:0:0:
231,297,127079,1,0,0:0:0:0:
187,301,127154,1,2,0:0:0:0:
144,289,127229,1,0,0:0:0:0:
111,259,127304,6,0,L|96:207,1,55,8|0,0:0|0:0,0:0:0:0:
227,107,127454,2,0,L|212:159,1,55,2|0,0:0|0:0,0:0:0:0:
17,38,127604,2,0,P|70:49|128:45,1,110,8|2,0:0|0:0,0:0:0:0:
347,60,127904,6,0,P|379:122|414:61,1,165,8|0,0:0|0:0,0:0:0:0:
388,1,128204,2,4,P|374:99|436:228,1,206.25,4|0,0:0|0:0,0:0:0:0:
227,107,128504,1,6,0:3:0:0:
