osu file format v14

[General]
AudioFilename: Knight Rider.mp3
AudioLeadIn: 0
PreviewTime: 88410
Countdown: 0
SampleSet: Soft
StackLeniency: 0.7
Mode: 3
LetterboxInBreaks: 0
SpecialStyle: 0
WidescreenStoryboard: 0

[Editor]
DistanceSpacing: 0.7
BeatDivisor: 4
GridSize: 4
TimelineZoom: 2.600001

[Metadata]
Title:Knight Rider
TitleUnicode:Knight Rider
Artist:USAO
ArtistUnicode:USAO
Creator:Kuo Kyoka
Version:Hard
Source:WACCA
Tags:HARDCORE TANO*C Arcade Marvelous Rhythm D4DJ Groovy Mix グルミク XTREME Video Game Instrumental Electronic English TCDR-0019 Akasha Critical_Star DoNotMess
BeatmapID:2110660
BeatmapSetID:1008095

[Difficulty]
HPDrainRate:7.5
CircleSize:4
OverallDifficulty:7.5
ApproachRate:5
SliderMultiplier:1.4
SliderTickRate:1

[Events]
//Background and Video events
0,0,"BG-I.jpg",0,0
//Break Periods
//Storyboard Layer 0 (Background)
//Storyboard Layer 1 (Fail)
//Storyboard Layer 2 (Pass)
//Storyboard Layer 3 (Foreground)
//Storyboard Layer 4 (Overlay)
//Storyboard Sound Samples
Sample,24360,0,"hihat.wav",30
Sample,24660,0,"hihat.wav",30
Sample,27360,0,"hihat.wav",30
Sample,29760,0,"drum.wav",30
Sample,29910,0,"drum.wav",30
Sample,30060,0,"drum.wav",30
Sample,30210,0,"drum.wav",30
Sample,30360,0,"drum.wav",30
Sample,30510,0,"drum.wav",30
Sample,30660,0,"drum.wav",30
Sample,30810,0,"drum.wav",15
Sample,31260,0,"drum.wav",15
Sample,33060,0,"hihat.wav",30
Sample,37860,0,"hihat.wav",30
Sample,40260,0,"hihat.wav",30
Sample,41160,0,"snare.wav",50
Sample,48810,0,"drum.wav",30
Sample,48960,0,"drum.wav",30
Sample,49110,0,"drum.wav",30
Sample,49260,0,"drum.wav",30
Sample,49410,0,"drum.wav",30
Sample,49560,0,"drum.wav",30
Sample,49710,0,"drum.wav",30
Sample,49860,0,"drum.wav",30
Sample,55860,0,"hihat.wav",30
Sample,67860,0,"hihat.wav",30
Sample,68010,0,"drum.wav",30
Sample,68160,0,"drum.wav",30
Sample,68460,0,"drum.wav",30
Sample,68610,0,"drum.wav",30
Sample,68760,0,"drum.wav",30
Sample,69060,0,"drum.wav",30
Sample,69210,0,"drum.wav",20
Sample,98610,0,"drum.wav",50
Sample,106260,0,"hihat.wav",30
Sample,113460,0,"hihat.wav",30
Sample,125760,0,"drum.wav",30
Sample,126060,0,"drum.wav",30
Sample,126360,0,"drum.wav",30
Sample,126660,0,"drum.wav",30

[TimingPoints]
810,300,4,2,1,40,1,0
89610,-100,4,2,1,40,0,1
96810,-100,4,2,1,40,0,0
99210,-100,4,2,1,40,0,1
103410,-100,4,2,1,40,0,0
104010,-100,4,2,1,40,0,1
106410,-100,4,2,1,40,0,0
109110,-100,4,2,1,40,0,1
116010,-100,4,2,1,40,0,0
118710,-100,4,2,1,40,0,1
119310,-100,4,2,1,40,0,0

[HitObjects]
192,192,810,128,0,1110:0:0:0:50:kick.wav
320,192,810,128,0,1110:0:0:0:0:
64,192,3210,1,0,0:0:0:50:kick.wav
192,192,3210,1,0,0:0:0:50:finish.wav
192,192,3360,128,0,3510:0:0:0:0:
448,192,3510,1,0,0:0:0:0:
320,192,3660,128,0,3810:0:0:0:0:
64,192,3810,1,0,0:0:0:0:
192,192,3960,128,0,4110:0:0:0:0:
448,192,4110,1,0,0:0:0:0:
320,192,4260,128,0,4410:0:0:0:0:
64,192,4410,1,0,0:0:0:50:kick.wav
192,192,4410,1,0,0:0:0:50:finish.wav
64,192,4560,128,0,4710:0:0:0:0:
448,192,4710,1,0,0:0:0:0:
320,192,4860,128,0,5010:0:0:0:0:
64,192,5010,1,0,0:0:0:0:
64,192,5160,128,0,5310:0:0:0:0:
448,192,5310,1,0,0:0:0:0:
320,192,5460,128,0,5610:0:0:0:0:
64,192,5610,1,0,0:0:0:50:kick.wav
192,192,5610,1,0,0:0:0:50:finish.wav
192,192,5760,128,0,5910:0:0:0:0:
320,192,5910,1,0,0:0:0:0:
448,192,6060,128,0,6210:0:0:0:0:
64,192,6210,1,0,0:0:0:0:
192,192,6360,128,0,6510:0:0:0:0:
320,192,6510,1,0,0:0:0:0:
448,192,6660,128,0,6810:0:0:0:0:
64,192,6810,1,0,0:0:0:50:kick.wav
192,192,6810,1,0,0:0:0:50:finish.wav
192,192,6960,128,0,7110:0:0:0:0:
448,192,7110,1,0,0:0:0:0:
320,192,7260,128,0,7410:0:0:0:0:
192,192,7410,1,0,0:0:0:0:
192,192,7560,128,0,7710:0:0:0:0:
320,192,7710,1,0,0:0:0:70:clap.wav
448,192,7710,1,0,0:0:0:0:
320,192,7860,128,0,8010:0:0:0:0:
64,192,8010,1,0,0:0:0:50:kick.wav
192,192,8010,1,0,0:0:0:50:finish.wav
192,192,8160,1,0,0:0:0:0:
320,192,8310,1,0,0:0:0:0:
448,192,8460,1,0,0:0:0:0:
64,192,8610,1,0,0:0:0:50:kick.wav
192,192,8610,1,0,0:0:0:50:finish.wav
192,192,8760,128,0,8910:0:0:0:0:
320,192,8910,128,0,9060:0:0:0:0:
320,192,9210,1,0,0:0:0:50:kick.wav
448,192,9210,1,0,0:0:0:50:finish.wav
320,192,9360,1,0,0:0:0:0:
192,192,9510,1,0,0:0:0:0:
64,192,9660,1,0,0:0:0:0:
320,192,9810,1,0,0:0:0:50:kick.wav
448,192,9810,1,0,0:0:0:50:finish.wav
320,192,9960,128,0,10110:0:0:0:0:
192,192,10110,128,0,10260:0:0:0:0:
64,192,10260,128,0,10410:0:0:0:0:
320,192,10410,1,0,0:0:0:50:kick.wav
448,192,10410,1,0,0:0:0:0:
320,192,10560,1,0,0:0:0:0:
64,192,10710,1,0,0:0:0:50:kick.wav
192,192,10710,1,0,0:0:0:0:
192,192,10860,1,0,0:0:0:0:
320,192,11010,1,0,0:0:0:50:kick.wav
448,192,11010,1,0,0:0:0:0:
192,192,11160,1,0,0:0:0:50:kick.wav
320,192,11160,1,0,0:0:0:0:
64,192,11310,1,0,0:0:0:50:kick.wav
192,192,11310,1,0,0:0:0:0:
448,192,11385,1,0,0:0:0:50:kick.wav
320,192,11460,1,0,0:0:0:50:kick.wav
192,192,11535,1,0,0:0:0:50:kick.wav
64,192,11610,128,0,11910:0:0:0:50:kick.wav
448,192,11610,128,0,11910:0:0:0:0:
192,192,12510,1,0,0:0:0:0:
192,192,12660,1,0,0:0:0:0:
64,192,12810,1,0,0:0:0:50:kick.wav
320,192,12810,1,0,0:0:0:50:finish.wav
448,192,12810,1,0,0:0:0:0:
64,192,12960,1,0,0:0:0:30:hihat.wav
192,192,13110,1,0,0:0:0:50:snare.wav
320,192,13110,1,0,0:0:0:0:
64,192,13260,1,0,0:0:0:30:hihat.wav
320,192,13410,1,0,0:0:0:50:kick.wav
64,192,13560,1,0,0:0:0:30:hihat.wav
192,192,13710,1,0,0:0:0:50:snare.wav
320,192,13710,1,0,0:0:0:0:
64,192,13860,1,0,0:0:0:30:hihat.wav
320,192,14010,1,0,0:0:0:50:kick.wav
64,192,14160,1,0,0:0:0:30:hihat.wav
192,192,14310,1,0,0:0:0:50:snare.wav
448,192,14310,1,0,0:0:0:0:
64,192,14460,1,0,0:0:0:30:hihat.wav
320,192,14610,1,0,0:0:0:50:kick.wav
64,192,14760,1,0,0:0:0:30:hihat.wav
192,192,14910,1,0,0:0:0:50:snare.wav
448,192,14910,1,0,0:0:0:0:
64,192,15060,1,0,0:0:0:30:hihat.wav
320,192,15210,1,0,0:0:0:50:kick.wav
64,192,15360,1,0,0:0:0:30:hihat.wav
320,192,15510,1,0,0:0:0:50:snare.wav
448,192,15510,1,0,0:0:0:0:
64,192,15660,1,0,0:0:0:30:hihat.wav
320,192,15810,1,0,0:0:0:50:kick.wav
64,192,15960,128,0,16110:0:0:0:30:hihat.wav
320,192,16110,1,0,0:0:0:50:snare.wav
448,192,16110,1,0,0:0:0:0:
64,192,16260,128,0,16410:0:0:0:30:hihat.wav
320,192,16410,1,0,0:0:0:50:kick.wav
320,192,16560,1,0,0:0:0:0:
192,192,16635,1,0,0:0:0:0:
64,192,16710,1,0,0:0:0:50:snare.wav
320,192,16860,1,0,0:0:0:50:string.wav
448,192,16935,1,0,0:0:0:50:string.wav
192,192,17010,1,0,0:0:0:50:kick.wav
320,192,17085,1,0,0:0:0:0:
64,192,17160,1,0,0:0:0:50:string.wav
64,192,17310,1,0,0:0:0:70:clap.wav
192,192,17310,1,0,0:0:0:0:
448,192,17385,1,0,0:0:0:0:
320,192,17460,1,0,0:0:0:0:
192,192,17535,1,0,0:0:0:0:
64,192,17610,1,0,0:0:0:50:kick.wav
448,192,17610,1,0,0:0:0:50:finish.wav
448,192,17760,1,0,0:0:0:30:hihat.wav
64,192,17910,1,0,0:0:0:50:snare.wav
320,192,17910,1,0,0:0:0:0:
448,192,18060,1,0,0:0:0:30:hihat.wav
64,192,18210,1,0,0:0:0:50:kick.wav
448,192,18360,1,0,0:0:0:30:hihat.wav
64,192,18510,1,0,0:0:0:50:snare.wav
320,192,18510,1,0,0:0:0:0:
448,192,18660,1,0,0:0:0:30:hihat.wav
192,192,18810,1,0,0:0:0:50:kick.wav
448,192,18960,1,0,0:0:0:30:hihat.wav
192,192,19110,1,0,0:0:0:50:snare.wav
320,192,19110,1,0,0:0:0:0:
448,192,19260,1,0,0:0:0:30:hihat.wav
192,192,19410,1,0,0:0:0:50:kick.wav
448,192,19560,1,0,0:0:0:30:hihat.wav
192,192,19710,1,0,0:0:0:50:snare.wav
320,192,19710,1,0,0:0:0:0:
448,192,19860,1,0,0:0:0:30:hihat.wav
64,192,20010,1,0,0:0:0:50:kick.wav
64,192,20160,128,0,20235:0:0:0:0:
448,192,20310,128,0,20385:0:0:0:0:
192,192,20460,128,0,20535:0:0:0:0:
448,192,20610,1,0,0:0:0:50:kick.wav
320,192,20760,128,0,20835:0:0:0:0:
64,192,20910,128,0,20985:0:0:0:0:
448,192,21060,128,0,21135:0:0:0:0:
64,192,21210,1,0,0:0:0:50:kick.wav
192,192,21210,1,0,0:0:0:0:
320,192,21360,1,0,0:0:0:50:kick.wav
448,192,21360,1,0,0:0:0:0:
64,192,21510,1,0,0:0:0:50:kick.wav
192,192,21510,1,0,0:0:0:0:
320,192,21660,1,0,0:0:0:50:kick.wav
448,192,21660,1,0,0:0:0:0:
64,192,21810,1,0,0:0:0:50:kick.wav
192,192,21810,1,0,0:0:0:0:
448,192,21885,1,0,0:0:0:50:kick.wav
320,192,21960,1,0,0:0:0:50:kick.wav
192,192,22035,1,0,0:0:0:50:kick.wav
64,192,22110,1,0,0:0:0:70:clap.wav
448,192,22110,1,0,0:0:0:0:
64,192,22410,1,0,0:0:0:50:kick.wav
192,192,22410,128,0,22710:0:0:0:50:finish.wav
448,192,22410,1,0,0:0:0:0:
448,192,22560,1,0,0:0:0:30:hihat.wav
64,192,22710,1,0,0:0:0:50:snare.wav
320,192,22710,1,0,0:0:0:0:
192,192,22860,1,0,0:0:0:30:hihat.wav
64,192,23010,1,0,0:0:0:50:kick.wav
320,192,23010,128,0,23310:0:0:0:0:
448,192,23160,1,0,0:0:0:30:hihat.wav
64,192,23310,1,0,0:0:0:50:snare.wav
192,192,23310,1,0,0:0:0:0:
320,192,23460,1,0,0:0:0:30:hihat.wav
64,192,23610,1,0,0:0:0:50:kick.wav
448,192,23610,128,0,23910:0:0:0:0:
192,192,23760,1,0,0:0:0:30:hihat.wav
64,192,23910,1,0,0:0:0:50:snare.wav
320,192,23910,1,0,0:0:0:0:
448,192,24060,1,0,0:0:0:30:hihat.wav
192,192,24210,1,0,0:0:0:50:kick.wav
448,192,24210,1,0,0:0:0:0:
192,192,24360,1,0,0:0:0:50:kick.wav
64,192,24510,1,0,0:0:0:50:kick.wav
320,192,24510,1,0,0:0:0:50:snare.wav
320,192,24660,1,0,0:0:0:50:kick.wav
192,192,24735,1,0,0:0:0:50:kick.wav
64,192,24810,1,0,0:0:0:50:kick.wav
448,192,24810,1,0,0:0:0:0:
192,192,24960,1,0,0:0:0:30:hihat.wav
64,192,25110,1,0,0:0:0:50:snare.wav
320,192,25110,1,0,0:0:0:0:
448,192,25260,1,0,0:0:0:30:hihat.wav
64,192,25410,1,0,0:0:0:50:kick.wav
192,192,25410,1,0,0:0:0:0:
320,192,25560,1,0,0:0:0:30:hihat.wav
64,192,25710,1,0,0:0:0:50:snare.wav
448,192,25710,1,0,0:0:0:0:
192,192,25860,1,0,0:0:0:30:hihat.wav
448,192,26010,1,0,0:0:0:0:
320,192,26010,1,0,0:0:0:50:kick.wav
64,192,26160,1,0,0:0:0:30:hihat.wav
448,192,26310,1,0,0:0:0:0:
192,192,26310,1,0,0:0:0:50:snare.wav
64,192,26460,1,0,0:0:0:30:hihat.wav
448,192,26610,1,0,0:0:0:0:
320,192,26610,1,0,0:0:0:50:kick.wav
64,192,26760,1,0,0:0:0:30:hihat.wav
448,192,26910,1,0,0:0:0:0:
192,192,26910,1,0,0:0:0:50:snare.wav
64,192,27060,1,0,0:0:0:30:hihat.wav
320,192,27210,128,0,27510:0:0:0:50:kick.wav
448,192,27210,1,0,0:0:0:50:finish.wav
64,192,27360,1,0,0:0:0:50:kick.wav
192,192,27510,1,0,0:0:0:50:kick.wav
448,192,27510,1,0,0:0:0:50:snare.wav
320,192,27660,1,0,0:0:0:30:hihat.wav
192,192,27810,128,0,28110:0:0:0:50:kick.wav
448,192,27810,1,0,0:0:0:0:
64,192,27960,1,0,0:0:0:30:hihat.wav
320,192,28110,1,0,0:0:0:50:snare.wav
448,192,28110,1,0,0:0:0:0:
64,192,28260,1,0,0:0:0:30:hihat.wav
64,192,28410,128,0,28710:0:0:0:50:kick.wav
448,192,28410,1,0,0:0:0:0:
192,192,28560,1,0,0:0:0:30:hihat.wav
320,192,28710,1,0,0:0:0:50:snare.wav
448,192,28710,1,0,0:0:0:0:
192,192,28860,1,0,0:0:0:30:hihat.wav
64,192,29010,1,0,0:0:0:50:kick.wav
448,192,29010,1,0,0:0:0:0:
448,192,29160,1,0,0:0:0:30:hihat.wav
64,192,29310,1,0,0:0:0:50:snare.wav
320,192,29310,1,0,0:0:0:0:
192,192,29460,1,0,0:0:0:30:hihat.wav
64,192,29610,1,0,0:0:0:50:kick.wav
448,192,29610,1,0,0:0:0:30:drum.wav
192,192,29685,1,0,0:0:0:30:drum.wav
320,192,29760,1,0,0:0:0:30:hihat.wav
448,192,29835,1,0,0:0:0:30:drum.wav
192,192,29910,1,0,0:0:0:50:snare.wav
320,192,29985,1,0,0:0:0:30:drum.wav
64,192,30060,1,0,0:0:0:30:hihat.wav
192,192,30135,1,0,0:0:0:30:drum.wav
320,192,30210,1,0,0:0:0:50:kick.wav
448,192,30285,1,0,0:0:0:30:drum.wav
320,192,30360,1,0,0:0:0:30:hihat.wav
192,192,30435,1,0,0:0:0:30:drum.wav
64,192,30510,1,0,0:0:0:50:snare.wav
448,192,30585,1,0,0:0:0:30:drum.wav
192,192,30660,1,0,0:0:0:30:hihat.wav
320,192,30735,1,0,0:0:0:30:drum.wav
448,192,30810,1,0,0:0:0:50:kick.wav
64,192,30885,1,0,0:0:0:15:drum.wav
192,192,30960,1,0,0:0:0:15:drum.wav
320,192,31035,1,0,0:0:0:15:drum.wav
64,192,31110,1,0,0:0:0:15:drum.wav
448,192,31185,1,0,0:0:0:15:drum.wav
192,192,31260,1,0,0:0:0:50:kick.wav
320,192,31335,1,0,0:0:0:15:drum.wav
64,192,31410,1,0,0:0:0:50:kick.wav
448,192,31410,1,0,0:0:0:0:
64,192,32010,1,0,0:0:0:50:kick.wav
320,192,32010,1,0,0:0:0:50:finish.wav
448,192,32010,1,0,0:0:0:0:
192,192,32160,1,0,0:0:0:30:hihat.wav
320,192,32235,1,0,0:0:0:0:
448,192,32310,1,0,0:0:0:0:
64,192,32460,1,0,0:0:0:50:kick.wav
192,192,32460,1,0,0:0:0:30:hihat.wav
320,192,32610,1,0,0:0:0:50:snare.wav
448,192,32610,1,0,0:0:0:0:
192,192,32760,1,0,0:0:0:30:hihat.wav
320,192,32910,1,0,0:0:0:0:
64,192,33060,1,0,0:0:0:50:kick.wav
192,192,33135,1,0,0:0:0:50:kick.wav
320,192,33210,1,0,0:0:0:50:kick.wav
448,192,33210,1,0,0:0:0:0:
320,192,33360,1,0,0:0:0:30:hihat.wav
448,192,33435,1,0,0:0:0:0:
64,192,33510,1,0,0:0:0:50:kick.wav
192,192,33510,1,0,0:0:0:0:
192,192,33660,1,0,0:0:0:30:hihat.wav
64,192,33735,1,0,0:0:0:0:
320,192,33810,1,0,0:0:0:50:snare.wav
448,192,33810,128,0,33960:0:0:0:0:
64,192,34110,128,0,34410:0:0:0:0:
320,192,34110,1,0,0:0:0:0:
320,192,34410,128,0,34560:0:0:0:50:kick.wav
448,192,34410,1,0,0:0:0:0:
320,192,34710,128,0,34860:0:0:0:0:
64,192,34860,1,0,0:0:0:50:kick.wav
192,192,34860,1,0,0:0:0:30:hihat.wav
320,192,35010,1,0,0:0:0:50:snare.wav
448,192,35010,1,0,0:0:0:0:
192,192,35160,1,0,0:0:0:30:hihat.wav
320,192,35310,1,0,0:0:0:0:
192,192,35385,1,0,0:0:0:0:
64,192,35460,1,0,0:0:0:50:kick.wav
448,192,35460,1,0,0:0:0:30:hihat.wav
192,192,35535,1,0,0:0:0:50:kick.wav
64,192,35610,1,0,0:0:0:50:kick.wav
320,192,35610,1,0,0:0:0:0:
64,192,35910,1,0,0:0:0:50:kick.wav
448,192,35910,1,0,0:0:0:0:
320,192,35985,1,0,0:0:0:0:
192,192,36060,1,0,0:0:0:30:hihat.wav
320,192,36135,1,0,0:0:0:0:
192,192,36210,1,0,0:0:0:50:snare.wav
448,192,36210,1,0,0:0:0:50:string.wav
64,192,36510,1,0,0:0:0:50:string.wav
448,192,36510,1,0,0:0:0:70:clap.wav
192,192,36585,1,0,0:0:0:0:
320,192,36660,1,0,0:0:0:50:kick.wav
448,192,36735,1,0,0:0:0:50:kick.wav
64,192,36810,1,0,0:0:0:50:kick.wav
192,192,36810,1,0,0:0:0:50:finish.wav
192,192,36960,1,0,0:0:0:30:hihat.wav
320,192,37110,1,0,0:0:0:0:
320,192,37260,1,0,0:0:0:50:kick.wav
448,192,37260,1,0,0:0:0:30:hihat.wav
64,192,37410,1,0,0:0:0:50:snare.wav
192,192,37410,128,0,37710:0:0:0:0:
448,192,37710,1,0,0:0:0:0:
320,192,37860,1,0,0:0:0:50:kick.wav
192,192,37935,1,0,0:0:0:50:kick.wav
64,192,38010,1,0,0:0:0:50:kick.wav
320,192,38010,128,0,38160:0:0:0:0:
448,192,38160,1,0,0:0:0:30:hihat.wav
64,192,38310,1,0,0:0:0:50:kick.wav
192,192,38310,128,0,38460:0:0:0:0:
448,192,38460,1,0,0:0:0:30:hihat.wav
64,192,38610,128,0,38760:0:0:0:50:snare.wav
320,192,38610,1,0,0:0:0:0:
192,192,38760,1,0,0:0:0:30:hihat.wav
64,192,38910,1,0,0:0:0:0:
448,192,38910,128,0,39210:0:0:0:0:
320,192,39060,1,0,0:0:0:30:hihat.wav
64,192,39210,1,0,0:0:0:50:kick.wav
192,192,39210,1,0,0:0:0:0:
64,192,39360,1,0,0:0:0:30:hihat.wav
448,192,39510,1,0,0:0:0:0:
192,192,39660,1,0,0:0:0:50:kick.wav
448,192,39660,1,0,0:0:0:30:hihat.wav
64,192,39810,1,0,0:0:0:50:snare.wav
320,192,39810,1,0,0:0:0:0:
320,192,39960,1,0,0:0:0:30:hihat.wav
320,192,40110,1,0,0:0:0:0:
192,192,40260,1,0,0:0:0:50:kick.wav
320,192,40335,1,0,0:0:0:50:kick.wav
64,192,40410,1,0,0:0:0:50:kick.wav
448,192,40410,1,0,0:0:0:0:
448,192,40560,1,0,0:0:0:30:hihat.wav
64,192,40710,1,0,0:0:0:50:snare.wav
192,192,40710,1,0,0:0:0:0:
64,192,40860,1,0,0:0:0:30:hihat.wav
448,192,41010,1,0,0:0:0:50:kick.wav
320,192,41085,1,0,0:0:0:50:kick.wav
192,192,41160,1,0,0:0:0:50:kick.wav
64,192,41310,1,0,0:0:0:70:clap.wav
320,192,41310,1,0,0:0:0:0:
448,192,41310,1,0,0:0:0:0:
448,192,41460,1,0,0:0:0:0:
64,192,41610,1,0,0:0:0:50:kick.wav
192,192,41610,1,0,0:0:0:0:
64,192,41910,1,0,0:0:0:50:snare.wav
320,192,41910,1,0,0:0:0:50:finish.wav
448,192,41910,1,0,0:0:0:0:
192,192,42060,1,0,0:0:0:30:hihat.wav
64,192,42210,1,0,0:0:0:50:kick.wav
320,192,42210,1,0,0:0:0:0:
192,192,42360,1,0,0:0:0:30:hihat.wav
320,192,42510,1,0,0:0:0:50:snare.wav
448,192,42510,1,0,0:0:0:0:
192,192,42660,1,0,0:0:0:30:hihat.wav
64,192,42810,1,0,0:0:0:50:kick.wav
320,192,42810,128,0,42960:0:0:0:0:
448,192,42960,1,0,0:0:0:30:hihat.wav
192,192,43110,1,0,0:0:0:50:snare.wav
320,192,43110,128,0,43260:0:0:0:0:
448,192,43260,1,0,0:0:0:30:hihat.wav
64,192,43410,1,0,0:0:0:50:kick.wav
320,192,43410,1,0,0:0:0:0:
448,192,43560,1,0,0:0:0:30:hihat.wav
192,192,43710,1,0,0:0:0:50:snare.wav
320,192,43710,1,0,0:0:0:0:
64,192,43860,1,0,0:0:0:30:hihat.wav
192,192,44010,128,0,44160:0:0:0:50:kick.wav
448,192,44010,1,0,0:0:0:0:
64,192,44160,1,0,0:0:0:30:hihat.wav
192,192,44310,128,0,44460:0:0:0:50:snare.wav
320,192,44310,1,0,0:0:0:0:
64,192,44460,1,0,0:0:0:30:hihat.wav
192,192,44610,1,0,0:0:0:50:kick.wav
448,192,44610,1,0,0:0:0:0:
64,192,44760,1,0,0:0:0:30:hihat.wav
192,192,44910,128,0,45060:0:0:0:50:snare.wav
448,192,44910,1,0,0:0:0:0:
320,192,45060,128,0,45210:0:0:0:30:hihat.wav
64,192,45210,1,0,0:0:0:50:kick.wav
448,192,45210,128,0,45360:0:0:0:0:
64,192,45510,128,0,45660:0:0:0:0:
192,192,45660,128,0,45810:0:0:0:0:
320,192,45810,128,0,45960:0:0:0:50:kick.wav
448,192,45810,1,0,0:0:0:50:string.wav
64,192,46110,1,0,0:0:0:50:string.wav
320,192,46110,1,0,0:0:0:70:clap.wav
192,192,46260,1,0,0:0:0:50:kick.wav
320,192,46335,1,0,0:0:0:50:kick.wav
64,192,46410,1,0,0:0:0:50:kick.wav
448,192,46410,1,0,0:0:0:50:finish.wav
320,192,46560,1,0,0:0:0:30:hihat.wav
64,192,46710,1,0,0:0:0:50:snare.wav
192,192,46710,1,0,0:0:0:0:
64,192,46860,1,0,0:0:0:30:hihat.wav
320,192,47010,1,0,0:0:0:50:kick.wav
448,192,47010,1,0,0:0:0:0:
320,192,47160,128,0,47310:0:0:0:30:hihat.wav
64,192,47310,1,0,0:0:0:50:snare.wav
192,192,47310,128,0,47460:0:0:0:0:
448,192,47460,1,0,0:0:0:30:hihat.wav
64,192,47610,1,0,0:0:0:50:kick.wav
448,192,47610,1,0,0:0:0:0:
320,192,47760,1,0,0:0:0:30:hihat.wav
64,192,47910,1,0,0:0:0:50:snare.wav
192,192,47910,1,0,0:0:0:0:
64,192,48060,1,0,0:0:0:30:hihat.wav
320,192,48210,1,0,0:0:0:50:kick.wav
448,192,48210,1,0,0:0:0:0:
320,192,48360,128,0,48510:0:0:0:30:hihat.wav
192,192,48510,128,0,48660:0:0:0:50:snare.wav
448,192,48510,1,0,0:0:0:0:
64,192,48660,128,0,48810:0:0:0:30:hihat.wav
320,192,48810,1,0,0:0:0:50:kick.wav
448,192,48885,1,0,0:0:0:30:drum.wav
192,192,48960,1,0,0:0:0:30:hihat.wav
64,192,49035,1,0,0:0:0:30:drum.wav
320,192,49110,1,0,0:0:0:50:snare.wav
192,192,49185,1,0,0:0:0:30:drum.wav
448,192,49260,1,0,0:0:0:30:hihat.wav
320,192,49335,1,0,0:0:0:30:drum.wav
64,192,49410,1,0,0:0:0:50:kick.wav
192,192,49485,1,0,0:0:0:30:drum.wav
448,192,49560,1,0,0:0:0:30:hihat.wav
320,192,49635,1,0,0:0:0:30:drum.wav
192,192,49710,1,0,0:0:0:50:snare.wav
64,192,49785,1,0,0:0:0:30:drum.wav
192,192,49860,1,0,0:0:0:30:hihat.wav
320,192,49935,1,0,0:0:0:30:drum.wav
64,192,50010,1,0,0:0:0:50:kick.wav
448,192,50010,1,0,0:0:0:0:
64,192,50310,128,0,50610:0:0:0:0:
320,192,50610,1,0,0:0:0:50:kick.wav
448,192,50610,1,0,0:0:0:0:
320,192,50910,1,0,0:0:0:0:
320,192,51060,1,0,0:0:0:0:
64,192,51210,1,0,0:0:0:50:kick.wav
192,192,51210,1,0,0:0:0:50:finish.wav
448,192,51210,1,0,0:0:0:0:
448,192,51360,1,0,0:0:0:30:hihat.wav
64,192,51510,1,0,0:0:0:50:snare.wav
320,192,51510,1,0,0:0:0:0:
448,192,51660,1,0,0:0:0:30:hihat.wav
64,192,51810,1,0,0:0:0:50:kick.wav
192,192,51810,1,0,0:0:0:0:
448,192,51960,1,0,0:0:0:30:hihat.wav
64,192,52110,1,0,0:0:0:50:snare.wav
320,192,52110,1,0,0:0:0:0:
448,192,52260,128,0,52410:0:0:0:30:hihat.wav
64,192,52410,1,0,0:0:0:50:kick.wav
192,192,52410,1,0,0:0:0:0:
320,192,52560,1,0,0:0:0:30:hihat.wav
64,192,52710,1,0,0:0:0:50:snare.wav
448,192,52710,1,0,0:0:0:0:
64,192,52860,128,0,53010:0:0:0:30:hihat.wav
320,192,53010,1,0,0:0:0:50:kick.wav
448,192,53010,1,0,0:0:0:0:
448,192,53160,1,0,0:0:0:30:hihat.wav
64,192,53310,1,0,0:0:0:50:snare.wav
192,192,53310,128,0,53460:0:0:0:0:
320,192,53460,128,0,53610:0:0:0:30:hihat.wav
64,192,53610,1,0,0:0:0:50:kick.wav
448,192,53610,1,0,0:0:0:0:
192,192,53760,1,0,0:0:0:30:hihat.wav
320,192,53910,1,0,0:0:0:50:snare.wav
448,192,53910,1,0,0:0:0:0:
192,192,54060,1,0,0:0:0:30:hihat.wav
64,192,54210,1,0,0:0:0:50:kick.wav
448,192,54210,1,0,0:0:0:0:
448,192,54360,1,0,0:0:0:30:hihat.wav
64,192,54510,1,0,0:0:0:50:snare.wav
320,192,54510,1,0,0:0:0:0:
192,192,54660,1,0,0:0:0:30:hihat.wav
64,192,54810,1,0,0:0:0:50:kick.wav
448,192,54810,1,0,0:0:0:0:
320,192,54960,1,0,0:0:0:30:hihat.wav
192,192,55110,1,0,0:0:0:50:snare.wav
448,192,55110,1,0,0:0:0:0:
64,192,55260,1,0,0:0:0:30:hihat.wav
320,192,55410,1,0,0:0:0:50:kick.wav
448,192,55410,1,0,0:0:0:0:
64,192,55560,1,0,0:0:0:50:kick.wav
320,192,55560,1,0,0:0:0:30:hihat.wav
192,192,55710,1,0,0:0:0:50:kick.wav
448,192,55710,1,0,0:0:0:50:snare.wav
192,192,55860,1,0,0:0:0:50:kick.wav
320,192,55935,1,0,0:0:0:50:kick.wav
64,192,56010,1,0,0:0:0:50:kick.wav
448,192,56010,1,0,0:0:0:50:finish.wav
192,192,56160,1,0,0:0:0:50:kick.wav
320,192,56160,1,0,0:0:0:30:hihat.wav
64,192,56310,1,0,0:0:0:50:kick.wav
448,192,56310,1,0,0:0:0:50:snare.wav
192,192,56460,1,0,0:0:0:30:hihat.wav
320,192,56610,1,0,0:0:0:50:kick.wav
448,192,56610,1,0,0:0:0:0:
192,192,56760,1,0,0:0:0:30:hihat.wav
64,192,56910,1,0,0:0:0:50:snare.wav
448,192,56910,1,0,0:0:0:0:
64,192,57060,128,0,57210:0:0:0:30:hihat.wav
320,192,57210,1,0,0:0:0:50:kick.wav
448,192,57210,1,0,0:0:0:0:
192,192,57360,1,0,0:0:0:30:hihat.wav
64,192,57510,1,0,0:0:0:50:snare.wav
448,192,57510,1,0,0:0:0:0:
448,192,57660,128,0,57810:0:0:0:30:hihat.wav
64,192,57810,1,0,0:0:0:50:kick.wav
192,192,57810,1,0,0:0:0:0:
64,192,57960,1,0,0:0:0:30:hihat.wav
320,192,58110,128,0,58260:0:0:0:50:snare.wav
448,192,58110,1,0,0:0:0:0:
192,192,58260,128,0,58410:0:0:0:30:hihat.wav
64,192,58410,1,0,0:0:0:50:kick.wav
448,192,58410,1,0,0:0:0:0:
64,192,58560,1,0,0:0:0:30:hihat.wav
192,192,58710,128,0,59010:0:0:0:50:snare.wav
448,192,58710,1,0,0:0:0:0:
64,192,58860,1,0,0:0:0:30:hihat.wav
320,192,59010,128,0,59310:0:0:0:50:kick.wav
448,192,59010,1,0,0:0:0:0:
64,192,59160,1,0,0:0:0:30:hihat.wav
192,192,59310,1,0,0:0:0:50:snare.wav
448,192,59310,128,0,59610:0:0:0:0:
64,192,59460,1,0,0:0:0:30:hihat.wav
192,192,59610,1,0,0:0:0:50:kick.wav
320,192,59610,1,0,0:0:0:0:
64,192,59760,1,0,0:0:0:0:
64,192,59910,1,0,0:0:0:50:snare.wav
320,192,59910,1,0,0:0:0:0:
320,192,60060,1,0,0:0:0:50:string.wav
448,192,60135,1,0,0:0:0:50:string.wav
192,192,60210,1,0,0:0:0:50:kick.wav
320,192,60285,1,0,0:0:0:50:kick.wav
64,192,60360,1,0,0:0:0:50:string.wav
64,192,60510,1,0,0:0:0:70:clap.wav
320,192,60510,128,0,60660:0:0:0:0:
192,192,60660,128,0,60810:0:0:0:0:
64,192,60810,128,0,60960:0:0:0:50:kick.wav
448,192,60810,1,0,0:0:0:0:
64,192,61110,1,0,0:0:0:50:snare.wav
320,192,61110,1,0,0:0:0:50:finish.wav
448,192,61110,1,0,0:0:0:0:
192,192,61260,1,0,0:0:0:30:hihat.wav
64,192,61410,1,0,0:0:0:50:kick.wav
320,192,61410,1,0,0:0:0:0:
192,192,61560,1,0,0:0:0:30:hihat.wav
320,192,61710,1,0,0:0:0:50:snare.wav
448,192,61710,1,0,0:0:0:0:
192,192,61860,1,0,0:0:0:30:hihat.wav
64,192,62010,1,0,0:0:0:50:kick.wav
192,192,62010,1,0,0:0:0:0:
448,192,62160,1,0,0:0:0:30:hihat.wav
192,192,62310,1,0,0:0:0:50:snare.wav
320,192,62310,1,0,0:0:0:0:
448,192,62460,1,0,0:0:0:30:hihat.wav
64,192,62610,1,0,0:0:0:50:kick.wav
192,192,62610,1,0,0:0:0:0:
448,192,62760,1,0,0:0:0:30:hihat.wav
192,192,62910,1,0,0:0:0:50:snare.wav
320,192,62910,1,0,0:0:0:0:
448,192,63060,1,0,0:0:0:30:hihat.wav
64,192,63210,1,0,0:0:0:50:kick.wav
192,192,63210,1,0,0:0:0:0:
64,192,63360,1,0,0:0:0:30:hihat.wav
320,192,63510,1,0,0:0:0:50:snare.wav
448,192,63510,1,0,0:0:0:0:
448,192,63660,1,0,0:0:0:30:hihat.wav
64,192,63810,1,0,0:0:0:50:kick.wav
320,192,63810,1,0,0:0:0:0:
192,192,63960,1,0,0:0:0:30:hihat.wav
64,192,64110,1,0,0:0:0:50:snare.wav
448,192,64110,1,0,0:0:0:0:
320,192,64260,1,0,0:0:0:30:hihat.wav
192,192,64410,1,0,0:0:0:50:kick.wav
448,192,64410,1,0,0:0:0:0:
64,192,64560,1,0,0:0:0:30:hihat.wav
320,192,64710,1,0,0:0:0:50:snare.wav
448,192,64710,1,0,0:0:0:0:
448,192,64860,1,0,0:0:0:30:hihat.wav
192,192,65010,1,0,0:0:0:50:kick.wav
320,192,65010,1,0,0:0:0:0:
320,192,65160,1,0,0:0:0:30:hihat.wav
64,192,65310,1,0,0:0:0:50:snare.wav
192,192,65310,1,0,0:0:0:0:
192,192,65460,1,0,0:0:0:30:hihat.wav
64,192,65610,1,0,0:0:0:50:kick.wav
320,192,65610,1,0,0:0:0:50:finish.wav
448,192,65610,1,0,0:0:0:0:
64,192,65910,128,0,66060:0:0:0:50:snare.wav
192,192,65910,128,0,66060:0:0:0:0:
320,192,66210,1,0,0:0:0:50:kick.wav
448,192,66210,1,0,0:0:0:0:
192,192,66360,1,0,0:0:0:50:kick.wav
320,192,66360,1,0,0:0:0:30:hihat.wav
64,192,66510,128,0,66660:0:0:0:50:kick.wav
192,192,66510,128,0,66660:0:0:0:50:snare.wav
320,192,66810,1,0,0:0:0:50:kick.wav
448,192,66810,1,0,0:0:0:0:
320,192,67110,128,0,67260:0:0:0:50:snare.wav
448,192,67110,128,0,67260:0:0:0:0:
64,192,67410,1,0,0:0:0:50:kick.wav
192,192,67410,1,0,0:0:0:0:
192,192,67560,1,0,0:0:0:50:kick.wav
320,192,67560,1,0,0:0:0:30:hihat.wav
320,192,67710,128,0,67860:0:0:0:50:kick.wav
448,192,67710,128,0,67860:0:0:0:50:snare.wav
64,192,67860,1,0,0:0:0:50:kick.wav
192,192,67935,1,0,0:0:0:50:kick.wav
320,192,68010,1,0,0:0:0:50:kick.wav
448,192,68010,1,0,0:0:0:50:finish.wav
192,192,68085,1,0,0:0:0:30:drum.wav
64,192,68160,1,0,0:0:0:30:hihat.wav
320,192,68235,1,0,0:0:0:30:drum.wav
64,192,68310,1,0,0:0:0:50:snare.wav
192,192,68310,1,0,0:0:0:30:drum.wav
448,192,68385,1,0,0:0:0:30:drum.wav
320,192,68460,1,0,0:0:0:30:hihat.wav
192,192,68535,1,0,0:0:0:30:drum.wav
64,192,68610,1,0,0:0:0:50:kick.wav
320,192,68685,1,0,0:0:0:30:drum.wav
448,192,68760,1,0,0:0:0:30:hihat.wav
192,192,68835,1,0,0:0:0:30:drum.wav
320,192,68910,1,0,0:0:0:50:snare.wav
448,192,68910,1,0,0:0:0:30:drum.wav
64,192,68985,1,0,0:0:0:30:drum.wav
192,192,69060,1,0,0:0:0:30:hihat.wav
448,192,69135,1,0,0:0:0:30:drum.wav
320,192,69210,1,0,0:0:0:50:kick.wav
192,192,69285,1,0,0:0:0:20:drum.wav
64,192,69360,1,0,0:0:0:20:drum.wav
448,192,69435,1,0,0:0:0:20:drum.wav
192,192,69510,1,0,0:0:0:10:drum.wav
320,192,69585,1,0,0:0:0:10:drum.wav
64,192,69660,1,0,0:0:0:10:drum.wav
448,192,69735,1,0,0:0:0:10:drum.wav
64,192,70410,1,0,0:0:0:50:kick.wav
320,192,70410,1,0,0:0:0:50:finish.wav
448,192,70410,1,0,0:0:0:0:
192,192,70560,1,0,0:0:0:0:
320,192,70860,1,0,0:0:0:0:
448,192,71160,1,0,0:0:0:0:
320,192,71310,1,0,0:0:0:0:
192,192,71460,1,0,0:0:0:0:
64,192,71610,1,0,0:0:0:0:
320,192,71610,1,0,0:0:0:0:
448,192,71760,1,0,0:0:0:0:
64,192,71910,1,0,0:0:0:0:
192,192,72060,1,0,0:0:0:0:
64,192,72360,1,0,0:0:0:0:
320,192,72510,1,0,0:0:0:0:
64,192,72585,1,0,0:0:0:0:
192,192,72660,1,0,0:0:0:0:
320,192,72735,1,0,0:0:0:0:
64,192,72810,1,0,0:0:0:0:
448,192,72810,1,0,0:0:0:0:
320,192,72960,1,0,0:0:0:0:
192,192,73260,1,0,0:0:0:0:
192,192,73560,1,0,0:0:0:0:
64,192,73710,1,0,0:0:0:0:
320,192,73860,1,0,0:0:0:0:
64,192,74010,1,0,0:0:0:0:
192,192,74010,1,0,0:0:0:0:
448,192,74160,1,0,0:0:0:0:
64,192,74460,1,0,0:0:0:0:
320,192,74610,1,0,0:0:0:0:
448,192,74610,1,0,0:0:0:0:
64,192,74760,1,0,0:0:0:0:
320,192,74910,1,0,0:0:0:0:
64,192,74985,1,0,0:0:0:0:
192,192,75060,1,0,0:0:0:0:
320,192,75135,1,0,0:0:0:0:
64,192,75210,1,0,0:0:0:15:hihat.wav
448,192,75210,1,0,0:0:0:0:
320,192,75510,1,0,0:0:0:15:hihat.wav
64,192,75660,1,0,0:0:0:0:
320,192,75810,1,0,0:0:0:15:hihat.wav
192,192,75960,1,0,0:0:0:0:
320,192,76110,1,0,0:0:0:15:hihat.wav
64,192,76260,1,0,0:0:0:0:
192,192,76410,1,0,0:0:0:15:hihat.wav
320,192,76410,1,0,0:0:0:0:
448,192,76560,1,0,0:0:0:0:
192,192,76710,1,0,0:0:0:15:hihat.wav
320,192,76860,1,0,0:0:0:0:
192,192,77010,1,0,0:0:0:15:hihat.wav
448,192,77160,1,0,0:0:0:0:
192,192,77310,1,0,0:0:0:15:hihat.wav
64,192,77385,1,0,0:0:0:0:
320,192,77460,1,0,0:0:0:0:
192,192,77535,1,0,0:0:0:0:
64,192,77610,1,0,0:0:0:15:hihat.wav
448,192,77610,1,0,0:0:0:0:
192,192,77760,1,0,0:0:0:0:
320,192,77910,1,0,0:0:0:15:hihat.wav
64,192,78060,1,0,0:0:0:0:
192,192,78210,1,0,0:0:0:15:hihat.wav
320,192,78360,1,0,0:0:0:0:
64,192,78510,1,0,0:0:0:15:hihat.wav
192,192,78660,1,0,0:0:0:0:
320,192,78810,1,0,0:0:0:15:hihat.wav
448,192,78810,1,0,0:0:0:0:
320,192,78960,1,0,0:0:0:0:
192,192,79260,1,0,0:0:0:0:
64,192,79410,1,0,0:0:0:15:hihat.wav
192,192,79485,1,0,0:0:0:0:
320,192,79560,1,0,0:0:0:0:
448,192,79635,1,0,0:0:0:0:
64,192,79710,1,0,0:0:0:15:hihat.wav
192,192,79785,1,0,0:0:0:0:
320,192,79860,1,0,0:0:0:0:
448,192,79935,1,0,0:0:0:0:
64,192,80010,1,0,0:0:0:50:kick.wav
192,192,80010,1,0,0:0:0:50:finish.wav
192,192,80160,128,0,80310:0:0:0:0:
448,192,80310,1,0,0:0:0:0:
448,192,80460,128,0,80760:0:0:0:0:
64,192,80760,128,0,80910:0:0:0:0:
320,192,80910,128,0,81060:0:0:0:0:
192,192,81060,128,0,81210:0:0:0:0:
64,192,81210,128,0,81360:0:0:0:50:kick.wav
448,192,81210,1,0,0:0:0:50:finish.wav
448,192,81360,128,0,81510:0:0:0:0:
320,192,81510,128,0,81660:0:0:0:0:
192,192,81660,128,0,81960:0:0:0:0:
448,192,81960,1,0,0:0:0:0:
448,192,82110,1,0,0:0:0:0:
320,192,82185,1,0,0:0:0:0:
192,192,82260,1,0,0:0:0:0:
64,192,82335,1,0,0:0:0:0:
320,192,82410,1,0,0:0:0:50:kick.wav
448,192,82410,1,0,0:0:0:50:finish.wav
320,192,82560,128,0,82710:0:0:0:0:
64,192,82710,1,0,0:0:0:0:
64,192,82860,128,0,83160:0:0:0:0:
448,192,83160,128,0,83310:0:0:0:0:
192,192,83310,128,0,83460:0:0:0:0:
320,192,83460,128,0,83610:0:0:0:0:
64,192,83610,1,0,0:0:0:50:kick.wav
448,192,83610,128,0,83760:0:0:0:50:finish.wav
64,192,83760,128,0,83910:0:0:0:0:
192,192,83910,128,0,84060:0:0:0:0:
320,192,84060,128,0,84360:0:0:0:0:
64,192,84360,1,0,0:0:0:0:
64,192,84510,1,0,0:0:0:0:
192,192,84585,1,0,0:0:0:0:
320,192,84660,1,0,0:0:0:0:
448,192,84735,1,0,0:0:0:0:
64,192,84810,1,0,0:0:0:50:kick.wav
192,192,84810,1,0,0:0:0:50:finish.wav
320,192,84960,1,0,0:0:0:0:
192,192,85110,1,0,0:0:0:0:
320,192,85260,1,0,0:0:0:0:
64,192,85410,1,0,0:0:0:50:kick.wav
192,192,85410,1,0,0:0:0:50:finish.wav
448,192,85560,1,0,0:0:0:0:
192,192,85710,1,0,0:0:0:0:
448,192,85860,1,0,0:0:0:0:
320,192,86010,1,0,0:0:0:50:kick.wav
448,192,86010,1,0,0:0:0:50:finish.wav
64,192,86160,1,0,0:0:0:0:
320,192,86310,1,0,0:0:0:0:
64,192,86460,1,0,0:0:0:0:
320,192,86610,1,0,0:0:0:50:kick.wav
448,192,86610,1,0,0:0:0:50:finish.wav
192,192,86760,1,0,0:0:0:0:
320,192,86910,1,0,0:0:0:0:
192,192,87060,1,0,0:0:0:0:
64,192,87210,1,0,0:0:0:50:kick.wav
320,192,87210,1,0,0:0:0:50:finish.wav
448,192,87360,1,0,0:0:0:0:
192,192,87510,1,0,0:0:0:50:kick.wav
320,192,87510,1,0,0:0:0:50:finish.wav
64,192,87660,1,0,0:0:0:0:
192,192,87810,1,0,0:0:0:50:kick.wav
448,192,87810,1,0,0:0:0:50:finish.wav
64,192,87960,1,0,0:0:0:50:kick.wav
320,192,87960,1,0,0:0:0:0:
64,192,88110,1,0,0:0:0:50:kick.wav
448,192,88110,1,0,0:0:0:0:
320,192,88185,1,0,0:0:0:50:kick.wav
192,192,88260,1,0,0:0:0:50:kick.wav
320,192,88335,1,0,0:0:0:50:kick.wav
64,192,88410,128,0,88710:0:0:0:50:kick.wav
448,192,88410,128,0,88710:0:0:0:0:
64,192,89010,1,0,0:0:0:0:
192,192,89085,1,0,0:0:0:0:
320,192,89160,1,0,0:0:0:0:
448,192,89235,1,0,0:0:0:0:
64,192,89310,1,0,0:0:0:0:
192,192,89385,1,0,0:0:0:0:
320,192,89460,1,0,0:0:0:0:
448,192,89535,1,0,0:0:0:0:
64,192,89610,1,0,0:0:0:50:kick.wav
192,192,89610,1,0,0:0:0:50:finish.wav
192,192,89760,128,0,89910:0:0:0:30:hihat.wav
320,192,89910,1,0,0:0:0:50:snare.wav
448,192,89910,1,0,0:0:0:0:
320,192,90060,128,0,90360:0:0:0:30:hihat.wav
192,192,90210,1,0,0:0:0:50:kick.wav
64,192,90360,128,0,90510:0:0:0:30:hihat.wav
320,192,90510,1,0,0:0:0:50:snare.wav
448,192,90510,128,0,90660:0:0:0:0:
192,192,90660,128,0,90810:0:0:0:30:hihat.wav
64,192,90810,1,0,0:0:0:50:kick.wav
320,192,90810,128,0,90960:0:0:0:0:
192,192,90960,128,0,91110:0:0:0:30:hihat.wav
64,192,91110,128,0,91260:0:0:0:50:snare.wav
448,192,91110,1,0,0:0:0:0:
448,192,91260,128,0,91560:0:0:0:30:hihat.wav
192,192,91410,1,0,0:0:0:50:kick.wav
320,192,91560,1,0,0:0:0:30:hihat.wav
64,192,91710,1,0,0:0:0:50:snare.wav
448,192,91710,1,0,0:0:0:0:
192,192,91860,1,0,0:0:0:30:hihat.wav
320,192,92010,1,0,0:0:0:50:kick.wav
448,192,92010,1,0,0:0:0:0:
320,192,92160,128,0,92310:0:0:0:30:hihat.wav
64,192,92310,1,0,0:0:0:50:snare.wav
192,192,92310,1,0,0:0:0:0:
64,192,92460,128,0,92610:0:0:0:30:hihat.wav
320,192,92610,1,0,0:0:0:50:kick.wav
192,192,92760,128,0,92910:0:0:0:30:hihat.wav
64,192,92910,128,0,93060:0:0:0:50:snare.wav
448,192,92910,1,0,0:0:0:0:
320,192,93060,128,0,93210:0:0:0:30:hihat.wav
64,192,93210,1,0,0:0:0:50:kick.wav
192,192,93210,128,0,93360:0:0:0:0:
448,192,93360,128,0,93510:0:0:0:30:hihat.wav
192,192,93510,1,0,0:0:0:50:snare.wav
320,192,93510,128,0,93660:0:0:0:0:
64,192,93660,128,0,93810:0:0:0:30:hihat.wav
448,192,93810,1,0,0:0:0:50:kick.wav
192,192,93960,1,0,0:0:0:30:hihat.wav
448,192,94110,1,0,0:0:0:70:clap.wav
320,192,94110,1,0,0:0:0:0:
64,192,94410,1,0,0:0:0:50:kick.wav
192,192,94410,1,0,0:0:0:50:finish.wav
192,192,94560,1,0,0:0:0:50:kick.wav
448,192,94560,1,0,0:0:0:30:hihat.wav
64,192,94710,1,0,0:0:0:50:kick.wav
320,192,94710,1,0,0:0:0:50:snare.wav
320,192,94860,128,0,95010:0:0:0:30:hihat.wav
64,192,95010,1,0,0:0:0:50:kick.wav
64,192,95160,128,0,95310:0:0:0:30:hihat.wav
192,192,95310,128,0,95460:0:0:0:50:snare.wav
448,192,95310,1,0,0:0:0:0:
320,192,95460,128,0,95610:0:0:0:30:hihat.wav
64,192,95610,1,0,0:0:0:50:kick.wav
448,192,95610,128,0,95760:0:0:0:0:
192,192,95760,128,0,95910:0:0:0:30:hihat.wav
320,192,95910,128,0,96060:0:0:0:50:snare.wav
448,192,95910,1,0,0:0:0:0:
64,192,96060,128,0,96360:0:0:0:30:hihat.wav
192,192,96210,1,0,0:0:0:50:kick.wav
320,192,96360,1,0,0:0:0:30:hihat.wav
64,192,96510,1,0,0:0:0:50:snare.wav
448,192,96510,1,0,0:0:0:0:
192,192,96660,1,0,0:0:0:30:hihat.wav
64,192,96810,1,0,0:0:0:50:kick.wav
320,192,96810,128,0,96960:0:0:0:0:
192,192,97110,128,0,97410:0:0:0:0:
64,192,97260,1,0,0:0:0:0:
448,192,97410,1,0,0:0:0:0:
448,192,97560,1,0,0:0:0:0:
448,192,97710,1,0,0:0:0:0:
64,192,97860,1,0,0:0:0:50:kick.wav
192,192,97935,1,0,0:0:0:50:kick.wav
320,192,98010,1,0,0:0:0:50:kick.wav
448,192,98010,1,0,0:0:0:0:
192,192,98160,1,0,0:0:0:30:hihat.wav
320,192,98235,1,0,0:0:0:0:
64,192,98310,1,0,0:0:0:50:kick.wav
448,192,98310,1,0,0:0:0:0:
64,192,98460,1,0,0:0:0:30:hihat.wav
192,192,98535,1,0,0:0:0:0:
320,192,98610,1,0,0:0:0:50:kick.wav
64,192,98610,1,0,0:0:0:0:
448,192,98685,1,0,0:0:0:50:drum.wav
320,192,98760,1,0,0:0:0:50:drum.wav
192,192,98835,1,0,0:0:0:0:
64,192,98910,1,0,0:0:0:0:
448,192,98985,1,0,0:0:0:0:
192,192,99060,1,0,0:0:0:0:
320,192,99135,1,0,0:0:0:0:
64,192,99210,1,0,0:0:0:50:kick.wav
192,192,99210,1,0,0:0:0:50:finish.wav
448,192,99210,1,0,0:0:0:0:
320,192,99360,128,0,99510:0:0:0:30:hihat.wav
64,192,99510,1,0,0:0:0:50:snare.wav
448,192,99510,1,0,0:0:0:0:
192,192,99660,128,0,99960:0:0:0:30:hihat.wav
320,192,99810,1,0,0:0:0:50:kick.wav
448,192,99960,128,0,100110:0:0:0:30:hihat.wav
64,192,100110,128,0,100260:0:0:0:50:snare.wav
192,192,100110,1,0,0:0:0:0:
320,192,100260,128,0,100410:0:0:0:30:hihat.wav
64,192,100410,1,0,0:0:0:50:kick.wav
448,192,100410,128,0,100560:0:0:0:0:
192,192,100560,128,0,100710:0:0:0:30:hihat.wav
320,192,100710,128,0,100860:0:0:0:50:snare.wav
448,192,100710,1,0,0:0:0:0:
64,192,100860,128,0,101160:0:0:0:30:hihat.wav
192,192,101010,1,0,0:0:0:50:kick.wav
320,192,101160,1,0,0:0:0:30:hihat.wav
64,192,101310,1,0,0:0:0:50:snare.wav
448,192,101310,1,0,0:0:0:0:
192,192,101460,1,0,0:0:0:30:hihat.wav
64,192,101610,1,0,0:0:0:50:kick.wav
320,192,101610,128,0,101760:0:0:0:0:
64,192,101760,128,0,101910:0:0:0:30:hihat.wav
320,192,101910,1,0,0:0:0:50:snare.wav
448,192,101910,128,0,102060:0:0:0:0:
192,192,102060,128,0,102210:0:0:0:30:hihat.wav
64,192,102210,1,0,0:0:0:50:kick.wav
320,192,102360,1,0,0:0:0:30:hihat.wav
320,192,102510,1,0,0:0:0:50:snare.wav
448,192,102510,1,0,0:0:0:0:
192,192,102660,1,0,0:0:0:30:hihat.wav
64,192,102810,1,0,0:0:0:50:kick.wav
192,192,102810,1,0,0:0:0:0:
448,192,102960,1,0,0:0:0:30:hihat.wav
64,192,103110,1,0,0:0:0:50:snare.wav
320,192,103110,1,0,0:0:0:0:
192,192,103260,1,0,0:0:0:30:hihat.wav
64,192,103410,1,0,0:0:0:50:kick.wav
448,192,103410,1,0,0:0:0:0:
320,192,103560,1,0,0:0:0:30:hihat.wav
64,192,103710,1,0,0:0:0:50:kick.wav
448,192,103710,1,0,0:0:0:50:snare.wav
192,192,103860,1,0,0:0:0:50:kick.wav
320,192,103860,1,0,0:0:0:30:hihat.wav
64,192,104010,1,0,0:0:0:50:kick.wav
448,192,104010,1,0,0:0:0:50:finish.wav
64,192,104310,1,0,0:0:0:50:snare.wav
448,192,104310,128,0,104460:0:0:0:0:
192,192,104460,128,0,104760:0:0:0:30:hihat.wav
448,192,104610,1,0,0:0:0:50:kick.wav
448,192,104760,128,0,104910:0:0:0:30:hihat.wav
64,192,104910,1,0,0:0:0:50:snare.wav
192,192,104910,128,0,105060:0:0:0:0:
320,192,105060,128,0,105210:0:0:0:30:hihat.wav
64,192,105210,128,0,105360:0:0:0:50:kick.wav
448,192,105210,1,0,0:0:0:0:
320,192,105360,128,0,105510:0:0:0:30:hihat.wav
64,192,105510,1,0,0:0:0:50:snare.wav
192,192,105510,1,0,0:0:0:0:
64,192,105660,1,0,0:0:0:30:hihat.wav
448,192,105810,1,0,0:0:0:50:kick.wav
448,192,105960,1,0,0:0:0:30:hihat.wav
64,192,106110,1,0,0:0:0:50:snare.wav
320,192,106110,1,0,0:0:0:0:
192,192,106260,1,0,0:0:0:50:kick.wav
320,192,106335,1,0,0:0:0:50:kick.wav
64,192,106410,1,0,0:0:0:50:kick.wav
448,192,106410,1,0,0:0:0:0:
192,192,106710,128,0,107010:0:0:0:0:
448,192,106860,1,0,0:0:0:50:kick.wav
64,192,107010,128,0,107310:0:0:0:50:snare.wav
320,192,107010,1,0,0:0:0:0:
448,192,107310,128,0,107610:0:0:0:0:
192,192,107460,1,0,0:0:0:50:kick.wav
64,192,107610,1,0,0:0:0:50:kick.wav
320,192,107610,128,0,107910:0:0:0:0:
64,192,107910,128,0,108060:0:0:0:50:snare.wav
448,192,107910,1,0,0:0:0:50:drum.wav
448,192,108060,128,0,108510:0:0:0:50:string.wav
64,192,108510,1,0,0:0:0:70:clap.wav
320,192,108510,128,0,108660:0:0:0:0:
192,192,108660,128,0,108810:0:0:0:0:
64,192,108810,128,0,108960:0:0:0:50:kick.wav
320,192,108810,1,0,0:0:0:0:
64,192,109110,1,0,0:0:0:50:snare.wav
320,192,109110,128,0,109260:0:0:0:50:finish.wav
448,192,109110,1,0,0:0:0:0:
64,192,109260,128,0,109560:0:0:0:30:hihat.wav
192,192,109410,1,0,0:0:0:50:kick.wav
320,192,109560,128,0,109710:0:0:0:30:hihat.wav
64,192,109710,1,0,0:0:0:50:snare.wav
448,192,109710,128,0,109860:0:0:0:0:
192,192,109860,128,0,110010:0:0:0:30:hihat.wav
320,192,110010,128,0,110160:0:0:0:50:kick.wav
448,192,110010,1,0,0:0:0:0:
192,192,110160,128,0,110310:0:0:0:30:hihat.wav
64,192,110310,128,0,110460:0:0:0:50:snare.wav
320,192,110310,1,0,0:0:0:0:
448,192,110460,128,0,110760:0:0:0:30:hihat.wav
64,192,110610,1,0,0:0:0:50:kick.wav
64,192,110760,1,0,0:0:0:30:hihat.wav
192,192,110910,1,0,0:0:0:50:snare.wav
448,192,110910,1,0,0:0:0:0:
320,192,111060,1,0,0:0:0:30:hihat.wav
64,192,111210,128,0,111360:0:0:0:50:kick.wav
448,192,111210,1,0,0:0:0:0:
192,192,111360,128,0,111510:0:0:0:30:hihat.wav
64,192,111510,1,0,0:0:0:50:snare.wav
320,192,111510,128,0,111660:0:0:0:0:
448,192,111660,128,0,111810:0:0:0:30:hihat.wav
64,192,111810,1,0,0:0:0:50:kick.wav
192,192,111960,128,0,112110:0:0:0:30:hihat.wav
320,192,112110,128,0,112260:0:0:0:50:snare.wav
448,192,112110,1,0,0:0:0:0:
192,192,112260,128,0,112410:0:0:0:30:hihat.wav
64,192,112410,128,0,113010:0:0:0:50:kick.wav
448,192,112410,1,0,0:0:0:0:
448,192,112560,1,0,0:0:0:30:hihat.wav
192,192,112710,1,0,0:0:0:50:snare.wav
320,192,112710,1,0,0:0:0:0:
320,192,112860,1,0,0:0:0:30:hihat.wav
192,192,113010,1,0,0:0:0:50:kick.wav
448,192,113010,1,0,0:0:0:0:
64,192,113160,1,0,0:0:0:50:kick.wav
192,192,113160,1,0,0:0:0:30:hihat.wav
320,192,113310,1,0,0:0:0:50:kick.wav
448,192,113310,1,0,0:0:0:50:snare.wav
64,192,113460,1,0,0:0:0:50:kick.wav
192,192,113535,1,0,0:0:0:50:kick.wav
320,192,113610,1,0,0:0:0:50:kick.wav
448,192,113610,1,0,0:0:0:50:finish.wav
64,192,113760,1,0,0:0:0:50:kick.wav
448,192,113760,1,0,0:0:0:30:hihat.wav
64,192,113910,128,0,114060:0:0:0:50:snare.wav
192,192,113910,128,0,114060:0:0:0:0:
320,192,114060,1,0,0:0:0:30:hihat.wav
192,192,114210,1,0,0:0:0:50:kick.wav
448,192,114210,1,0,0:0:0:0:
64,192,114360,1,0,0:0:0:30:hihat.wav
320,192,114510,128,0,114660:0:0:0:50:snare.wav
448,192,114510,128,0,114660:0:0:0:0:
192,192,114660,1,0,0:0:0:30:hihat.wav
64,192,114810,1,0,0:0:0:50:kick.wav
320,192,114810,1,0,0:0:0:0:
448,192,114960,1,0,0:0:0:30:hihat.wav
64,192,115110,128,0,115260:0:0:0:50:snare.wav
192,192,115110,128,0,115260:0:0:0:0:
320,192,115260,1,0,0:0:0:30:hihat.wav
192,192,115410,1,0,0:0:0:50:kick.wav
448,192,115410,1,0,0:0:0:0:
64,192,115560,1,0,0:0:0:30:hihat.wav
320,192,115710,128,0,115860:0:0:0:50:snare.wav
448,192,115710,128,0,115860:0:0:0:0:
192,192,115860,1,0,0:0:0:30:hihat.wav
64,192,116010,1,0,0:0:0:50:kick.wav
320,192,116010,1,0,0:0:0:0:
448,192,116160,1,0,0:0:0:0:
64,192,116310,1,0,0:0:0:0:
192,192,116460,1,0,0:0:0:0:
64,192,116610,1,0,0:0:0:50:kick.wav
320,192,116610,1,0,0:0:0:0:
448,192,116760,1,0,0:0:0:0:
64,192,116910,1,0,0:0:0:0:
192,192,117060,1,0,0:0:0:0:
320,192,117210,1,0,0:0:0:50:kick.wav
448,192,117210,1,0,0:0:0:30:drum.wav
192,192,117360,1,0,0:0:0:30:drum.wav
64,192,117510,1,0,0:0:0:50:snare.wav
448,192,117510,1,0,0:0:0:30:drum.wav
320,192,117660,1,0,0:0:0:30:drum.wav
64,192,117810,1,0,0:0:0:50:kick.wav
192,192,117810,1,0,0:0:0:0:
64,192,117960,1,0,0:0:0:50:kick.wav
448,192,117960,1,0,0:0:0:0:
320,192,118110,1,0,0:0:0:50:kick.wav
448,192,118110,1,0,0:0:0:0:
64,192,118185,1,0,0:0:0:50:kick.wav
192,192,118260,1,0,0:0:0:50:kick.wav
320,192,118335,1,0,0:0:0:50:kick.wav
64,192,118410,1,0,0:0:0:50:kick.wav
448,192,118410,1,0,0:0:0:0:
64,192,118710,1,0,0:0:0:50:snare.wav
320,192,118710,1,0,0:0:0:50:finish.wav
448,192,118710,1,0,0:0:0:0:
192,192,118860,128,0,119010:0:0:0:30:hihat.wav
320,192,119010,1,0,0:0:0:50:kick.wav
448,192,119010,1,0,0:0:0:0:
192,192,119160,128,0,119310:0:0:0:30:hihat.wav
64,192,119310,1,0,0:0:0:50:snare.wav
320,192,119310,1,0,0:0:0:0:
192,192,119460,128,0,119610:0:0:0:30:hihat.wav
320,192,119610,1,0,0:0:0:50:kick.wav
448,192,119610,1,0,0:0:0:0:
192,192,119760,128,0,119910:0:0:0:30:hihat.wav
64,192,119910,1,0,0:0:0:50:snare.wav
320,192,119910,1,0,0:0:0:0:
192,192,120060,128,0,120210:0:0:0:30:hihat.wav
320,192,120210,1,0,0:0:0:50:kick.wav
448,192,120210,1,0,0:0:0:0:
192,192,120360,128,0,120510:0:0:0:30:hihat.wav
64,192,120510,1,0,0:0:0:50:snare.wav
448,192,120510,1,0,0:0:0:0:
320,192,120585,1,0,0:0:0:0:
192,192,120660,1,0,0:0:0:30:hihat.wav
320,192,120810,1,0,0:0:0:50:kick.wav
448,192,120810,1,0,0:0:0:0:
448,192,120960,1,0,0:0:0:30:hihat.wav
64,192,121110,1,0,0:0:0:50:snare.wav
192,192,121110,1,0,0:0:0:0:
64,192,121260,1,0,0:0:0:30:hihat.wav
320,192,121410,1,0,0:0:0:50:kick.wav
448,192,121410,1,0,0:0:0:0:
320,192,121560,128,0,121710:0:0:0:30:hihat.wav
64,192,121710,1,0,0:0:0:50:snare.wav
192,192,121710,1,0,0:0:0:0:
192,192,121860,128,0,122010:0:0:0:30:hihat.wav
64,192,122010,1,0,0:0:0:50:kick.wav
448,192,122010,128,0,122310:0:0:0:0:
192,192,122160,1,0,0:0:0:30:hihat.wav
64,192,122310,128,0,122610:0:0:0:50:snare.wav
320,192,122310,1,0,0:0:0:0:
448,192,122460,1,0,0:0:0:30:hihat.wav
192,192,122610,1,0,0:0:0:50:kick.wav
448,192,122610,128,0,122910:0:0:0:0:
320,192,122760,1,0,0:0:0:30:hihat.wav
64,192,122910,128,0,123210:0:0:0:0:
192,192,123210,1,0,0:0:0:50:kick.wav
320,192,123210,1,0,0:0:0:50:finish.wav
448,192,123210,1,0,0:0:0:0:
320,192,123360,128,0,123510:0:0:0:30:hihat.wav
192,192,123510,1,0,0:0:0:50:snare.wav
448,192,123510,1,0,0:0:0:0:
320,192,123660,128,0,123810:0:0:0:30:hihat.wav
64,192,123810,1,0,0:0:0:50:kick.wav
192,192,123810,1,0,0:0:0:0:
320,192,123960,128,0,124110:0:0:0:30:hihat.wav
192,192,124110,1,0,0:0:0:50:snare.wav
448,192,124110,1,0,0:0:0:0:
320,192,124260,128,0,124410:0:0:0:30:hihat.wav
64,192,124410,1,0,0:0:0:50:kick.wav
192,192,124410,1,0,0:0:0:0:
320,192,124560,128,0,124710:0:0:0:30:hihat.wav
192,192,124710,1,0,0:0:0:50:snare.wav
448,192,124710,1,0,0:0:0:0:
320,192,124860,128,0,125010:0:0:0:30:hihat.wav
64,192,125010,1,0,0:0:0:50:kick.wav
448,192,125010,1,0,0:0:0:0:
192,192,125085,1,0,0:0:0:0:
320,192,125160,1,0,0:0:0:30:hihat.wav
64,192,125310,1,0,0:0:0:50:snare.wav
192,192,125310,1,0,0:0:0:0:
320,192,125460,1,0,0:0:0:30:hihat.wav
64,192,125610,1,0,0:0:0:50:kick.wav
448,192,125610,1,0,0:0:0:30:drum.wav
192,192,125685,1,0,0:0:0:30:drum.wav
320,192,125760,1,0,0:0:0:30:hihat.wav
448,192,125835,1,0,0:0:0:30:drum.wav
192,192,125910,1,0,0:0:0:50:snare.wav
320,192,125910,1,0,0:0:0:30:drum.wav
64,192,125985,1,0,0:0:0:30:drum.wav
192,192,126060,1,0,0:0:0:30:hihat.wav
320,192,126135,1,0,0:0:0:30:drum.wav
64,192,126210,1,0,0:0:0:50:kick.wav
448,192,126210,1,0,0:0:0:30:drum.wav
192,192,126285,1,0,0:0:0:30:drum.wav
320,192,126360,1,0,0:0:0:30:hihat.wav
448,192,126435,1,0,0:0:0:30:drum.wav
192,192,126510,1,0,0:0:0:50:snare.wav
320,192,126510,1,0,0:0:0:30:drum.wav
64,192,126585,1,0,0:0:0:30:drum.wav
192,192,126660,1,0,0:0:0:30:hihat.wav
320,192,126735,1,0,0:0:0:30:drum.wav
64,192,126810,1,0,0:0:0:50:kick.wav
448,192,126810,1,0,0:0:0:15:drum.wav
192,192,126885,1,0,0:0:0:15:drum.wav
320,192,126960,1,0,0:0:0:15:drum.wav
192,192,127035,1,0,0:0:0:15:drum.wav
64,192,127110,1,0,0:0:0:50:kick.wav
448,192,127110,1,0,0:0:0:15:drum.wav
320,192,127185,1,0,0:0:0:15:drum.wav
192,192,127260,1,0,0:0:0:15:drum.wav
320,192,127335,1,0,0:0:0:15:drum.wav
64,192,127410,128,0,127860:0:0:0:0:
448,192,127410,128,0,127560:0:0:0:0:
192,192,127560,128,0,127710:0:0:0:0:
448,192,127710,128,0,127860:0:0:0:0:
192,192,128010,128,0,128310:0:0:0:50:kick.wav
320,192,128010,128,0,128310:0:0:0:0:
