osu file format v14

[General]
AudioFilename: Kicks For Liberation 5_218182189_soundcloud.mp3
AudioLeadIn: 0
PreviewTime: 362872
Countdown: 0
SampleSet: None
StackLeniency: 0.4
Mode: 0
LetterboxInBreaks: 0
EpilepsyWarning: 1
WidescreenStoryboard: 1

[Editor]
Bookmarks: 10776,13976,14776,81994,157657,215551,256474,321074,385480,448864,526078,599000,652883,714118
DistanceSpacing: 1.2
BeatDivisor: 4
GridSize: 4
TimelineZoom: 3.299999

[Metadata]
Title:Kicks For Liberation 5
TitleUnicode:Kicks For Liberation 5
Artist:USAO
ArtistUnicode:USAO
Creator:MikasaSerket
Version:12. Extra Mode(DJ Noriken Remix)
Source:
Tags:Hardcore Speedcore Akitoshi BrosephStalin Makyu Choikapo [ drop ] XendoGenesis Zev Frostwich Side Crowie Makyu choikapo Lunicia synderes
BeatmapID:2284877
BeatmapSetID:390364

[Difficulty]
HPDrainRate:5
CircleSize:4
OverallDifficulty:9
ApproachRate:9.5
SliderMultiplier:1.8
SliderTickRate:1

[Events]
//Background and Video events
0,0,"Kancolleshigurewat.jpg",0,0
//Break Periods
//Storyboard Layer 0 (Background)
//Storyboard Layer 1 (Fail)
//Storyboard Layer 2 (Pass)
//Storyboard Layer 3 (Foreground)
//Storyboard Layer 4 (Overlay)
//Storyboard Sound Samples

[TimingPoints]
1176,400,4,1,0,60,1,0
10776,-125,4,2,0,60,0,0
15976,-100,4,2,0,60,0,0
63176,-125,4,2,0,60,0,0
68376,-125,4,1,0,60,0,0
71976,-100,4,1,0,60,0,0
73976,-50,4,1,0,60,0,0
74176,-66.6666666666667,4,1,0,60,0,0
74376,-100,4,1,0,60,0,0
74576,-200,4,1,0,60,0,0
74776,-200,4,3,0,60,0,0
75576,-200,4,1,0,60,0,0
75976,-66.6666666666667,4,1,0,60,0,0
76376,-66.6666666666667,4,1,0,60,0,0
81994,300,4,1,0,60,1,0
82294,-100,4,2,0,5,0,0
85594,-100,4,1,0,60,0,0
104794,-125,4,1,0,60,0,0
105394,-100,4,1,0,60,0,0
106294,-83.3333333333333,4,3,0,60,0,0
106594,-125,4,1,0,60,0,0
106894,-71.4285714285714,4,1,0,60,0,0
107194,-125,4,1,0,60,0,0
107794,-100,4,1,0,60,0,0
109294,-166.666666666667,4,1,0,60,0,0
109594,-125,4,1,0,60,0,0
110194,-100,4,1,0,60,0,0
111094,-83.3333333333333,4,3,0,60,0,0
111394,-125,4,1,0,60,0,0
111694,-71.4285714285714,4,1,0,60,0,0
111994,-125,4,1,0,60,0,0
112594,-100,4,1,0,60,0,0
113794,-83.3333333333333,4,1,0,60,0,0
114094,-125,4,2,0,60,0,0
114394,-125,4,1,0,60,0,0
114994,-100,4,1,0,60,0,0
115894,-83.3333333333333,4,3,0,60,0,0
116194,-125,4,1,0,60,0,0
116494,-71.4285714285714,4,1,0,60,0,0
116794,-125,4,1,0,60,0,0
117394,-100,4,1,0,60,0,0
118894,-166.666666666667,4,1,0,60,0,0
119194,-125,4,1,0,60,0,0
119794,-100,4,1,0,60,0,0
120694,-83.3333333333333,4,3,0,60,0,0
120994,-166.666666666667,4,1,0,60,0,0
121594,-125,4,1,0,60,0,0
122194,-100,4,1,0,60,0,0
123394,-166.666666666667,4,2,0,60,0,0
123994,-133.333333333333,4,1,0,60,0,0
124444,-100,4,1,0,60,0,0
124744,-83.3333333333333,4,1,0,60,0,0
125194,-133.333333333333,4,1,0,60,0,0
125494,-100,4,3,0,60,0,0
125869,-83.3333333333333,4,3,0,60,0,0
126094,-76.9230769230769,4,1,0,60,0,0
126394,-133.333333333333,4,1,0,60,0,0
126844,-100,4,1,0,60,0,0
128194,-100,4,1,0,60,0,0
128494,-83.3333333333333,4,3,0,60,0,0
128794,-133.333333333333,4,1,0,60,0,0
129394,-100,4,1,0,60,0,0
131194,-133.333333333333,4,1,0,60,0,0
131794,-100,4,1,0,60,0,0
132394,-133.333333333333,4,1,0,60,0,0
132994,-133.333333333333,4,1,0,20,0,0
133294,-50,4,1,0,60,0,0
133594,-100,4,1,0,60,0,0
137794,-133.333333333333,4,1,0,60,0,0
138394,-100,4,1,0,60,0,0
143194,-166.666666666667,4,2,0,60,0,0
156394,315.789473684211,4,2,0,60,1,0
157657,-83.3333333333333,4,2,0,60,0,0
162709,315.789473684211,4,1,0,30,1,0
182919,315.789473684211,4,1,0,60,1,0
182919,-90.9090909090909,4,1,0,60,0,0
185445,-86.9565217391304,4,1,0,60,0,0
187971,-83.3333333333333,4,1,0,60,0,0
188603,-80,4,1,0,60,0,0
189234,-76.9230769230769,4,1,0,60,0,0
189866,-74.0740740740741,4,1,0,60,0,0
190497,-71.4285714285714,4,1,0,60,0,0
192076,-100,4,3,0,60,0,0
192471,-100,4,3,0,15,0,0
192550,-100,4,3,0,60,0,0
192629,-100,4,3,0,15,0,0
192708,-100,4,3,0,60,0,0
192787,-100,4,3,0,15,0,0
192866,-100,4,3,0,60,0,0
192945,-100,4,3,0,15,0,0
193024,-66.6666666666667,4,1,0,60,0,0
197761,-125,4,1,0,30,0,0
198076,-66.6666666666667,4,1,0,60,0,0
207866,-125,4,1,0,30,0,0
208182,-66.6666666666667,4,1,0,55,0,0
209445,-66.6666666666667,4,1,0,50,0,0
210708,-66.6666666666667,4,1,0,45,0,0
211971,-66.6666666666667,4,1,0,40,0,0
212287,-66.6666666666667,4,1,0,35,0,0
212603,-66.6666666666667,4,1,0,30,0,0
212919,-50,4,1,0,25,0,0
213234,-100,4,1,0,50,0,0
213795,292.682926829268,4,1,0,60,1,0
215551,292.682926829268,4,1,0,60,1,0
220234,-83.3333333333333,4,1,2,60,0,0
238949,292.682926829268,4,1,2,100,1,0
238949,-86.9565217391304,4,1,2,100,0,0
240119,-80,4,1,2,100,0,0
241290,-86.9565217391304,4,1,2,100,0,0
242461,-80,4,1,2,100,0,0
243631,-86.9565217391304,4,1,2,100,0,0
244802,-80,4,1,2,100,0,0
245973,-86.9565217391304,4,1,2,100,0,0
248900,-80,4,1,2,100,0,0
250070,-100,4,1,2,100,0,0
250363,-133.333333333333,4,1,2,100,0,0
250656,-86.9565217391304,4,1,2,100,0,0
251241,-90.9090909090909,4,1,2,100,0,0
252997,-86.9565217391304,4,1,2,100,0,0
253583,-80,4,1,2,100,0,0
255339,-86.9565217391304,4,1,2,100,0,0
256474,300,4,1,1,60,1,0
265774,-90.9090909090909,4,1,5,90,0,0
265849,-90.9090909090909,4,1,0,60,0,0
268174,-90.9090909090909,4,1,5,90,0,0
268249,-90.9090909090909,4,1,0,60,0,0
270574,-100,4,1,5,90,0,0
270649,-100,4,1,0,60,0,0
271774,-100,4,1,5,90,0,0
271849,-100,4,1,0,60,0,0
272974,-100,4,1,5,90,0,0
273049,-100,4,1,0,60,0,0
273574,-100,4,1,5,90,0,0
273649,-100,4,1,0,60,0,0
274174,-100,4,1,0,90,0,0
274249,-100,4,1,0,90,0,0
275374,-66.6666666666667,4,1,5,90,0,0
275449,-66.6666666666667,4,1,0,60,0,0
275824,-76.9230769230769,4,1,0,60,0,0
275974,-83.3333333333333,4,1,0,60,0,0
277774,-66.6666666666667,4,1,5,90,0,0
277849,-66.6666666666667,4,1,0,60,0,0
278224,-76.9230769230769,4,1,0,60,0,0
278374,-83.3333333333333,4,1,0,60,0,0
280174,-83.3333333333333,4,1,5,90,0,0
280249,-83.3333333333333,4,1,0,60,0,0
282574,-66.6666666666667,4,1,5,90,0,0
282649,-66.6666666666667,4,1,0,60,0,0
283174,-83.3333333333333,4,1,0,60,0,0
284524,-83.3333333333333,4,3,0,60,0,0
284974,-66.6666666666667,4,1,5,90,0,0
285274,-66.6666666666667,4,1,1,60,0,0
285349,-66.6666666666667,4,1,0,60,0,0
285574,-83.3333333333333,4,1,0,60,0,0
287374,-66.6666666666667,4,1,5,90,0,0
287449,-66.6666666666667,4,1,1,60,0,0
287974,-83.3333333333333,4,1,0,60,0,0
292174,-83.3333333333333,4,1,5,90,0,0
292249,-83.3333333333333,4,1,0,60,0,0
293374,-83.3333333333333,4,2,0,40,0,0
294574,-100,4,1,1,60,0,0
303574,-133.333333333333,4,1,0,60,0,0
303874,-133.333333333333,4,3,0,60,0,0
304174,-100,4,1,0,60,0,0
313174,-133.333333333333,4,1,0,60,0,0
318368,337.078651685393,4,1,0,60,1,0
318378,337.078651685393,4,1,0,60,1,0
321064,-125,4,2,0,60,0,0
337244,-100,4,2,0,60,0,0
341289,-125,4,2,0,60,0,0
342300,-66.6666666666667,4,2,0,60,0,0
342637,-100,4,2,0,60,0,0
364210,-71.4285714285714,4,1,0,60,0,0
375634,307.692307692308,4,1,0,60,1,0
385480,-83.3333333333333,4,1,0,60,0,0
390403,-76.9230769230769,4,1,0,60,0,0
391018,-71.4285714285714,4,1,0,60,0,0
391634,-66.6666666666667,4,1,0,60,0,0
392249,-62.5,4,1,0,60,0,0
395941,-83.3333333333333,4,1,0,100,0,0
397787,-100,4,1,0,60,0,0
398403,-83.3333333333333,4,1,0,60,0,0
415018,-133.333333333333,4,2,0,60,0,0
417172,-105.263157894737,4,2,0,60,0,0
417480,-133.333333333333,4,2,0,60,0,0
419634,-105.263157894737,4,2,0,60,0,0
419941,-133.333333333333,4,2,0,60,0,0
422095,-105.263157894737,4,2,0,60,0,0
422403,-133.333333333333,4,2,0,60,0,0
423480,-133.333333333333,4,2,0,65,0,0
423787,-133.333333333333,4,2,0,70,0,0
424095,-105.263157894737,4,2,0,75,0,0
424403,-200,4,2,0,75,0,0
424864,-83.3333333333333,4,2,0,85,0,0
429480,-133.333333333333,4,2,0,85,0,0
429787,-83.3333333333333,4,2,0,85,0,0
434249,-133.333333333333,4,2,0,85,0,0
434710,-83.3333333333333,4,2,0,85,0,0
443326,-100,4,2,0,85,0,0
444249,-133.333333333333,4,2,0,85,0,0
457634,-133.333333333333,4,2,0,10,0,0
458864,-133.333333333333,4,2,69,50,0,0
468557,-133.333333333333,4,2,69,50,0,0
478403,-133.333333333333,4,2,12,50,0,0
487018,-100,4,2,12,60,0,0
517172,-66.6666666666667,4,2,12,100,0,0
517787,-100,4,2,12,100,0,0
518403,-66.6666666666667,4,2,12,100,0,0
519634,-133.333333333333,4,2,12,100,0,0
519941,-200,4,2,12,100,0,0
520249,-100,4,2,12,100,0,0
521172,-66.6666666666667,4,2,12,100,0,0
521787,-100,4,2,12,100,0,0
522249,-85.7143346939055,4,2,12,100,0,0
522403,-75.0000187500047,4,2,12,100,0,0
522557,-66.6666666666667,4,2,12,100,0,0
522710,-100,4,2,12,100,0,0
524540,307.692307692308,4,1,0,60,1,0
535924,307.692307692308,4,1,0,60,1,0
535924,-133.333333333333,4,2,4,85,0,0
555172,-133.333333333333,4,2,12,20,0,0
555634,-133.333333333333,4,2,12,85,0,0
565172,-133.333333333333,4,2,12,85,0,0
585154,-133.333333333333,4,3,12,85,0,0
601222,288.461538461538,4,1,0,60,1,0
601222,-133.333333333333,4,2,0,60,0,0
602375,-181.818181818181,4,2,0,10,0,0
610452,-133.333333333333,4,2,0,60,0,0
611029,-83.3333333333333,4,2,0,65,0,0
611606,-181.818181818181,4,2,0,10,0,0
619683,-133.333333333333,4,2,0,40,0,0
620837,-133.333333333333,4,2,0,60,0,0
624298,-83.3333333333333,4,2,0,20,0,0
624587,-83.3333333333333,4,2,0,60,0,0
625452,-133.333333333333,4,2,0,60,0,0
627327,-133.333333333333,4,2,0,20,0,0
627616,-133.333333333333,4,2,0,60,0,0
629058,-133.333333333333,4,2,0,40,0,0
629779,-133.333333333333,4,2,0,50,0,0
630068,-133.333333333333,4,2,0,60,0,0
631798,-133.333333333333,4,2,0,40,0,0
632375,-133.333333333333,4,2,0,60,0,0
633529,-133.333333333333,4,2,0,20,0,0
633818,-133.333333333333,4,2,0,60,0,0
634683,-83.3333333333333,4,2,0,65,0,0
635548,-83.3333333333333,4,2,0,60,0,0
635981,-83.3333333333333,4,2,0,50,0,0
636558,-83.3333333333333,4,2,0,55,0,0
637423,-83.3333333333333,4,2,0,40,0,0
638289,-66.6666666666667,4,2,0,60,0,0
638722,-66.6666666666667,4,2,0,20,0,0
639010,-66.6666666666667,4,2,0,50,0,0
639298,-83.3333333333333,4,2,0,60,0,0
640308,-83.3333333333333,4,2,0,40,0,0
641029,-133.333333333333,4,2,0,50,0,0
641318,-105.263157894737,4,2,0,60,0,0
641462,-105.263157894737,4,2,0,20,0,0
641750,-105.263157894737,4,2,0,60,0,0
642039,-105.263157894737,4,2,0,10,0,0
642327,-105.263157894737,4,2,0,50,0,0
642760,-105.263157894737,4,2,0,60,0,0
643914,-105.263157894737,4,2,0,65,0,0
644202,-83.3333333333333,4,2,0,60,0,0
645212,-181.818181818182,4,2,0,10,0,0
645789,-100,4,2,0,60,0,0
646510,-181.818181818182,4,2,0,10,0,0
646798,-181.818181818182,4,2,0,50,0,0
647375,-133.333333333333,4,2,0,55,0,0
652883,315.789473684211,4,2,0,60,1,0
660461,-100,4,2,0,5,0,0
662988,-200,4,2,2,45,0,0
673093,-200,4,2,69,45,0,0
689514,329.67032967033,4,2,69,45,1,0
690834,375,4,2,69,45,1,0
692337,400,4,2,69,45,1,0
696273,315.789473684211,4,2,8,60,1,0
696273,-76.9230769230769,4,2,8,60,0,0
698483,-66.6666666666667,4,2,8,60,0,0
698799,-76.9230769230769,4,2,8,60,0,0
700694,-76.9230769230769,4,2,8,5,0,0
700851,-50,4,2,8,60,0,0
706118,307.692307692308,4,1,0,5,1,0
713810,-133.333333333333,4,2,0,60,0,0
714118,307.692307692308,4,1,0,60,1,0
723964,-55.5555555555556,4,1,0,59,0,0
724041,-90.9090909090909,4,1,0,59,0,0
733810,-82.6446280991736,4,1,0,59,0,0
743041,-50,4,1,0,59,0,0

[Colours]
Combo1 : 78,5,211
Combo2 : 111,111,255
Combo3 : 2,87,244
Combo4 : 192,192,192
Combo5 : 2,193,215

[HitObjects]
147,317,714118,6,0,L|45:279,1,90
365,317,714425,2,0,L|467:279,1,90
316,227,714733,1,0,0:0:0:0:
306,370,714887,1,0,0:0:0:0:
392,246,715041,1,0,0:0:0:0:
251,272,715194,1,0,0:0:0:0:
114,316,715348,5,0,0:0:0:0:
5,168,715502,1,0,0:0:0:0:
86,275,715656,1,0,0:0:0:0:
19,103,715810,2,0,L|-16:8,1,90
110,96,716118,1,0,0:0:0:0:
110,96,716271,2,0,L|145:191,1,90
365,20,716579,6,0,L|330:115,1,90
141,180,716887,2,0,L|176:275,1,90
312,297,717194,1,0,0:0:0:0:
270,158,717348,1,0,0:0:0:0:
236,308,717502,1,0,0:0:0:0:
336,204,717656,1,0,0:0:0:0:
130,303,717810,5,0,0:0:0:0:
270,158,717964,1,0,0:0:0:0:
141,180,718118,1,0,0:0:0:0:
313,76,718271,2,0,L|403:21,1,90
138,158,718579,5,0,0:0:0:0:
138,158,718733,2,0,L|48:213,1,90
130,303,719041,6,0,L|28:341,1,90
337,203,719348,2,0,L|439:165,1,90
300,90,719656,1,0,0:0:0:0:
259,228,719810,1,0,0:0:0:0:
368,133,719964,1,0,0:0:0:0:
318,275,720118,1,0,0:0:0:0:
223,62,720271,5,0,0:0:0:0:
337,203,720425,1,0,0:0:0:0:
207,136,720579,1,0,0:0:0:0:
318,275,720733,2,0,L|388:365,1,90
130,303,721041,1,0,0:0:0:0:
130,303,721194,2,0,L|60:213,1,90
223,62,721502,6,0,L|188:157,1,90
43,316,721810,2,0,L|78:221,1,90
191,146,722118,1,0,0:0:0:0:
229,284,722271,1,0,0:0:0:0:
125,184,722425,1,0,0:0:0:0:
265,215,722579,1,0,0:0:0:0:
43,316,722733,5,0,0:0:0:0:
265,215,722887,1,0,0:0:0:0:
125,184,723041,1,0,0:0:0:0:
229,284,723194,2,0,L|302:358,1,90
125,184,723502,1,0,0:0:0:0:
215,71,723656,1,0,0:0:0:0:
125,184,723810,1,0,0:0:0:0:
294,87,723964,54,0,L|193:66,1,80.9999975280763
265,215,724271,21,0,0:0:0:0:
265,215,724425,1,0,0:0:0:0:
401,134,724579,5,0,0:0:0:0:
401,134,724733,1,0,0:0:0:0:
391,287,724887,53,0,0:0:0:0:
391,287,725041,1,0,0:0:0:0:
267,192,725194,21,0,0:0:0:0:
419,149,725348,1,0,0:0:0:0:
371,295,725502,2,0,L|340:394,1,99.0000030212403
144,321,725810,21,0,0:0:0:0:
136,315,725964,1,0,0:0:0:0:
128,309,726118,1,0,0:0:0:0:
128,309,726425,1,0,0:0:0:0:
39,93,726733,5,0,0:0:0:0:
39,93,726887,1,0,0:0:0:0:
220,128,727041,5,0,0:0:0:0:
220,128,727194,1,0,0:0:0:0:
165,226,727348,53,0,0:0:0:0:
165,226,727502,1,0,0:0:0:0:
56,68,727656,21,0,0:0:0:0:
222,149,727810,1,0,0:0:0:0:
142,229,727964,2,0,L|62:298,1,99.0000030212403
222,373,728271,21,0,0:0:0:0:
230,367,728425,1,0,0:0:0:0:
238,361,728579,1,0,0:0:0:0:
463,328,728887,21,0,0:0:0:0:
463,328,729041,1,0,0:0:0:0:
370,254,729194,1,0,0:0:0:0:
252,275,729348,1,0,0:0:0:0:
134,257,729502,1,0,0:0:0:0:
46,176,729656,1,0,0:0:0:0:
62,58,729810,1,0,0:0:0:0:
177,29,729964,1,0,0:0:0:0:
284,78,730118,53,0,0:0:0:0:
284,78,730271,1,0,0:0:0:0:
284,78,730425,1,0,0:0:0:0:
384,142,730579,1,0,0:0:0:0:
498,110,730733,1,0,0:0:0:0:
284,78,730887,21,0,0:0:0:0:
384,142,731041,2,0,L|476:197,1,99.0000030212403
418,330,731348,21,0,0:0:0:0:
400,305,731425,1,0,0:0:0:0:
382,281,731502,1,0,0:0:0:0:
364,256,731579,1,0,0:0:0:0:
340,237,731656,1,0,0:0:0:0:
311,227,731733,1,0,0:0:0:0:
281,223,731810,1,0,0:0:0:0:
251,226,731887,1,0,0:0:0:0:
225,240,731964,1,0,0:0:0:0:
201,257,732041,1,0,0:0:0:0:
173,267,732118,1,0,0:0:0:0:
143,270,732194,1,0,0:0:0:0:
113,268,732271,6,0,P|189:247|278:302,1,148.50000453186
271,294,732579,1,0,0:0:0:0:
261,144,733502,5,0,0:0:0:0:
143,202,733810,54,0,B|88:209|88:209|-4:186,1,108.899996925888
26,153,734041,1,0,0:0:0:0:
55,120,734118,2,0,P|89:107|159:39,1,108.899996925888
354,146,734425,6,0,B|376:190|376:190|347:277,1,108.899996925888
299,297,734656,1,0,0:0:0:0:
248,354,734733,2,0,B|292:332|292:332|379:361,1,108.899996925888
435,218,735041,6,0,L|339:133,1,108.899996925888
326,111,735271,1,0,0:0:0:0:
282,109,735348,2,0,B|227:116|227:116|135:93,1,108.899996925888
16,160,735656,6,0,L|51:292,1,108.899996925888
121,267,735887,1,0,0:0:0:0:
201,269,735964,2,0,L|236:401,1,108.899996925888
435,218,736271,6,0,B|380:211|380:211|288:234,1,108.899996925888
77,166,736579,6,0,B|132:173|132:173|224:150,1,108.899996925888
399,212,736887,6,0,B|355:207|355:207|281:225,1,108.899996925888
112,171,737194,6,0,B|156:176|156:176|230:158,1,108.899996925888
292,222,737502,5,0,0:0:0:0:
219,161,737579,1,0,0:0:0:0:
117,93,737810,21,0,0:0:0:0:
190,32,737887,1,0,0:0:0:0:
309,58,738118,21,0,0:0:0:0:
380,142,738194,1,0,0:0:0:0:
292,222,738425,21,0,0:0:0:0:
219,283,738502,1,0,0:0:0:0:
73,329,738733,6,0,L|42:205,1,108.899996925888
62,186,738964,1,0,0:0:0:0:
117,93,739041,2,0,L|148:217,1,108.899996925888
291,221,739348,5,0,0:0:0:0:
309,58,739502,1,0,0:0:0:0:
62,186,739656,1,0,0:0:0:0:
291,221,739810,1,0,0:0:0:0:
392,218,739964,6,0,B|348:240|348:240|261:211,1,108.899996925888
340,158,740194,1,0,0:0:0:0:
289,101,740271,2,0,B|333:79|333:79|420:108,1,108.899996925888
399,297,740579,2,0,B|352:316|352:316|273:293,1,108.899996925888
280,23,740887,2,0,B|327:4|327:4|406:27,1,108.899996925888
340,158,741194,21,0,0:0:0:0:
309,170,741271,1,0,0:0:0:0:
278,182,741348,1,0,0:0:0:0:
247,194,741425,1,0,0:0:0:0:
210,267,741502,21,0,0:0:0:0:
183,265,741579,1,0,0:0:0:0:
156,265,741656,1,0,0:0:0:0:
129,264,741733,1,0,0:0:0:0:
69,320,741810,21,0,0:0:0:0:
60,306,741887,1,0,0:0:0:0:
52,293,741964,1,0,0:0:0:0:
45,280,742041,1,0,0:0:0:0:
5,197,742118,6,0,L|-34:207,8,27.224999231472
399,248,743041,6,0,L|418:207,1,45
88,100,743656,5,0,0:0:0:0:
