osu file format v14

[General]
AudioFilename: Kicks For Liberation 5_218182189_soundcloud.mp3
AudioLeadIn: 0
PreviewTime: 362872
Countdown: 0
SampleSet: None
StackLeniency: 0.4
Mode: 0
LetterboxInBreaks: 0
EpilepsyWarning: 1
WidescreenStoryboard: 1

[Editor]
Bookmarks: 10776,13976,14776,81994,157657,215551,256474,321074,385480,448864,526078,599000,652883,714118
DistanceSpacing: 1.2
BeatDivisor: 4
GridSize: 4
TimelineZoom: 3.299999

[Metadata]
Title:Kicks For Liberation 5
TitleUnicode:Kicks For Liberation 5
Artist:USAO
ArtistUnicode:USAO
Creator:MikasaSerket
Version:11. Extra Mode(DJ Myosuke Remix)
Source:
Tags:Hardcore Speedcore Akitoshi BrosephStalin Makyu Choikapo [ drop ] XendoGenesis Zev Frostwich Side Crowie Makyu choikapo Lunicia synderes
BeatmapID:2284876
BeatmapSetID:390364

[Difficulty]
HPDrainRate:5
CircleSize:4
OverallDifficulty:9
ApproachRate:9.5
SliderMultiplier:1.8
SliderTickRate:1

[Events]
//Background and Video events
0,0,"Kancolleshigurewat.jpg",0,0
//Break Periods
2,693337,695748
//Storyboard Layer 0 (Background)
//Storyboard Layer 1 (Fail)
//Storyboard Layer 2 (Pass)
//Storyboard Layer 3 (Foreground)
//Storyboard Layer 4 (Overlay)
//Storyboard Sound Samples

[TimingPoints]
1176,400,4,1,0,60,1,0
10776,-125,4,2,0,60,0,0
15976,-100,4,2,0,60,0,0
63176,-125,4,2,0,60,0,0
68376,-125,4,1,0,60,0,0
71976,-100,4,1,0,60,0,0
73976,-50,4,1,0,60,0,0
74176,-66.6666666666667,4,1,0,60,0,0
74376,-100,4,1,0,60,0,0
74576,-200,4,1,0,60,0,0
74776,-200,4,3,0,60,0,0
75576,-200,4,1,0,60,0,0
75976,-66.6666666666667,4,1,0,60,0,0
76376,-66.6666666666667,4,1,0,60,0,0
81994,300,4,1,0,60,1,0
82294,-100,4,2,0,5,0,0
85594,-100,4,1,0,60,0,0
104794,-125,4,1,0,60,0,0
105394,-100,4,1,0,60,0,0
106294,-83.3333333333333,4,3,0,60,0,0
106594,-125,4,1,0,60,0,0
106894,-71.4285714285714,4,1,0,60,0,0
107194,-125,4,1,0,60,0,0
107794,-100,4,1,0,60,0,0
109294,-166.666666666667,4,1,0,60,0,0
109594,-125,4,1,0,60,0,0
110194,-100,4,1,0,60,0,0
111094,-83.3333333333333,4,3,0,60,0,0
111394,-125,4,1,0,60,0,0
111694,-71.4285714285714,4,1,0,60,0,0
111994,-125,4,1,0,60,0,0
112594,-100,4,1,0,60,0,0
113794,-83.3333333333333,4,1,0,60,0,0
114094,-125,4,2,0,60,0,0
114394,-125,4,1,0,60,0,0
114994,-100,4,1,0,60,0,0
115894,-83.3333333333333,4,3,0,60,0,0
116194,-125,4,1,0,60,0,0
116494,-71.4285714285714,4,1,0,60,0,0
116794,-125,4,1,0,60,0,0
117394,-100,4,1,0,60,0,0
118894,-166.666666666667,4,1,0,60,0,0
119194,-125,4,1,0,60,0,0
119794,-100,4,1,0,60,0,0
120694,-83.3333333333333,4,3,0,60,0,0
120994,-166.666666666667,4,1,0,60,0,0
121594,-125,4,1,0,60,0,0
122194,-100,4,1,0,60,0,0
123394,-166.666666666667,4,2,0,60,0,0
123994,-133.333333333333,4,1,0,60,0,0
124444,-100,4,1,0,60,0,0
124744,-83.3333333333333,4,1,0,60,0,0
125194,-133.333333333333,4,1,0,60,0,0
125494,-100,4,3,0,60,0,0
125869,-83.3333333333333,4,3,0,60,0,0
126094,-76.9230769230769,4,1,0,60,0,0
126394,-133.333333333333,4,1,0,60,0,0
126844,-100,4,1,0,60,0,0
128194,-100,4,1,0,60,0,0
128494,-83.3333333333333,4,3,0,60,0,0
128794,-133.333333333333,4,1,0,60,0,0
129394,-100,4,1,0,60,0,0
131194,-133.333333333333,4,1,0,60,0,0
131794,-100,4,1,0,60,0,0
132394,-133.333333333333,4,1,0,60,0,0
132994,-133.333333333333,4,1,0,20,0,0
133294,-50,4,1,0,60,0,0
133594,-100,4,1,0,60,0,0
137794,-133.333333333333,4,1,0,60,0,0
138394,-100,4,1,0,60,0,0
143194,-166.666666666667,4,2,0,60,0,0
156394,315.789473684211,4,2,0,60,1,0
157657,-83.3333333333333,4,2,0,60,0,0
162709,315.789473684211,4,1,0,30,1,0
182919,315.789473684211,4,1,0,60,1,0
182919,-90.9090909090909,4,1,0,60,0,0
185445,-86.9565217391304,4,1,0,60,0,0
187971,-83.3333333333333,4,1,0,60,0,0
188603,-80,4,1,0,60,0,0
189234,-76.9230769230769,4,1,0,60,0,0
189866,-74.0740740740741,4,1,0,60,0,0
190497,-71.4285714285714,4,1,0,60,0,0
192076,-100,4,3,0,60,0,0
192471,-100,4,3,0,15,0,0
192550,-100,4,3,0,60,0,0
192629,-100,4,3,0,15,0,0
192708,-100,4,3,0,60,0,0
192787,-100,4,3,0,15,0,0
192866,-100,4,3,0,60,0,0
192945,-100,4,3,0,15,0,0
193024,-66.6666666666667,4,1,0,60,0,0
197761,-125,4,1,0,30,0,0
198076,-66.6666666666667,4,1,0,60,0,0
207866,-125,4,1,0,30,0,0
208182,-66.6666666666667,4,1,0,55,0,0
209445,-66.6666666666667,4,1,0,50,0,0
210708,-66.6666666666667,4,1,0,45,0,0
211971,-66.6666666666667,4,1,0,40,0,0
212287,-66.6666666666667,4,1,0,35,0,0
212603,-66.6666666666667,4,1,0,30,0,0
212919,-50,4,1,0,25,0,0
213234,-100,4,1,0,50,0,0
213795,292.682926829268,4,1,0,60,1,0
215551,292.682926829268,4,1,0,60,1,0
220234,-83.3333333333333,4,1,2,60,0,0
238949,292.682926829268,4,1,2,100,1,0
238949,-86.9565217391304,4,1,2,100,0,0
240119,-80,4,1,2,100,0,0
241290,-86.9565217391304,4,1,2,100,0,0
242461,-80,4,1,2,100,0,0
243631,-86.9565217391304,4,1,2,100,0,0
244802,-80,4,1,2,100,0,0
245973,-86.9565217391304,4,1,2,100,0,0
248900,-80,4,1,2,100,0,0
250070,-100,4,1,2,100,0,0
250363,-133.333333333333,4,1,2,100,0,0
250656,-86.9565217391304,4,1,2,100,0,0
251241,-90.9090909090909,4,1,2,100,0,0
252997,-86.9565217391304,4,1,2,100,0,0
253583,-80,4,1,2,100,0,0
255339,-86.9565217391304,4,1,2,100,0,0
256474,300,4,1,1,60,1,0
265774,-90.9090909090909,4,1,5,90,0,0
265849,-90.9090909090909,4,1,0,60,0,0
268174,-90.9090909090909,4,1,5,90,0,0
268249,-90.9090909090909,4,1,0,60,0,0
270574,-100,4,1,5,90,0,0
270649,-100,4,1,0,60,0,0
271774,-100,4,1,5,90,0,0
271849,-100,4,1,0,60,0,0
272974,-100,4,1,5,90,0,0
273049,-100,4,1,0,60,0,0
273574,-100,4,1,5,90,0,0
273649,-100,4,1,0,60,0,0
274174,-100,4,1,0,90,0,0
274249,-100,4,1,0,90,0,0
275374,-66.6666666666667,4,1,5,90,0,0
275449,-66.6666666666667,4,1,0,60,0,0
275824,-76.9230769230769,4,1,0,60,0,0
275974,-83.3333333333333,4,1,0,60,0,0
277774,-66.6666666666667,4,1,5,90,0,0
277849,-66.6666666666667,4,1,0,60,0,0
278224,-76.9230769230769,4,1,0,60,0,0
278374,-83.3333333333333,4,1,0,60,0,0
280174,-83.3333333333333,4,1,5,90,0,0
280249,-83.3333333333333,4,1,0,60,0,0
282574,-66.6666666666667,4,1,5,90,0,0
282649,-66.6666666666667,4,1,0,60,0,0
283174,-83.3333333333333,4,1,0,60,0,0
284524,-83.3333333333333,4,3,0,60,0,0
284974,-66.6666666666667,4,1,5,90,0,0
285274,-66.6666666666667,4,1,1,60,0,0
285349,-66.6666666666667,4,1,0,60,0,0
285574,-83.3333333333333,4,1,0,60,0,0
287374,-66.6666666666667,4,1,5,90,0,0
287449,-66.6666666666667,4,1,1,60,0,0
287974,-83.3333333333333,4,1,0,60,0,0
292174,-83.3333333333333,4,1,5,90,0,0
292249,-83.3333333333333,4,1,0,60,0,0
293374,-83.3333333333333,4,2,0,40,0,0
294574,-100,4,1,1,60,0,0
303574,-133.333333333333,4,1,0,60,0,0
303874,-133.333333333333,4,3,0,60,0,0
304174,-100,4,1,0,60,0,0
313174,-133.333333333333,4,1,0,60,0,0
318368,337.078651685393,4,1,0,60,1,0
318378,337.078651685393,4,1,0,60,1,0
321064,-125,4,2,0,60,0,0
337244,-100,4,2,0,60,0,0
341289,-125,4,2,0,60,0,0
342300,-66.6666666666667,4,2,0,60,0,0
342637,-100,4,2,0,60,0,0
364210,-71.4285714285714,4,1,0,60,0,0
375634,307.692307692308,4,1,0,60,1,0
385480,-83.3333333333333,4,1,0,60,0,0
390403,-76.9230769230769,4,1,0,60,0,0
391018,-71.4285714285714,4,1,0,60,0,0
391634,-66.6666666666667,4,1,0,60,0,0
392249,-62.5,4,1,0,60,0,0
395941,-83.3333333333333,4,1,0,100,0,0
397787,-100,4,1,0,60,0,0
398403,-83.3333333333333,4,1,0,60,0,0
415018,-133.333333333333,4,2,0,60,0,0
417172,-105.263157894737,4,2,0,60,0,0
417480,-133.333333333333,4,2,0,60,0,0
419634,-105.263157894737,4,2,0,60,0,0
419941,-133.333333333333,4,2,0,60,0,0
422095,-105.263157894737,4,2,0,60,0,0
422403,-133.333333333333,4,2,0,60,0,0
423480,-133.333333333333,4,2,0,65,0,0
423787,-133.333333333333,4,2,0,70,0,0
424095,-105.263157894737,4,2,0,75,0,0
424403,-200,4,2,0,75,0,0
424864,-83.3333333333333,4,2,0,85,0,0
429480,-133.333333333333,4,2,0,85,0,0
429787,-83.3333333333333,4,2,0,85,0,0
434249,-133.333333333333,4,2,0,85,0,0
434710,-83.3333333333333,4,2,0,85,0,0
443326,-100,4,2,0,85,0,0
444249,-133.333333333333,4,2,0,85,0,0
457634,-133.333333333333,4,2,0,10,0,0
458864,-133.333333333333,4,2,69,50,0,0
468557,-133.333333333333,4,2,69,50,0,0
478403,-133.333333333333,4,2,12,50,0,0
487018,-100,4,2,12,60,0,0
517172,-66.6666666666667,4,2,12,100,0,0
517787,-100,4,2,12,100,0,0
518403,-66.6666666666667,4,2,12,100,0,0
519634,-133.333333333333,4,2,12,100,0,0
519941,-200,4,2,12,100,0,0
520249,-100,4,2,12,100,0,0
521172,-66.6666666666667,4,2,12,100,0,0
521787,-100,4,2,12,100,0,0
522249,-85.7143346939055,4,2,12,100,0,0
522403,-75.0000187500047,4,2,12,100,0,0
522557,-66.6666666666667,4,2,12,100,0,0
522710,-100,4,2,12,100,0,0
524540,307.692307692308,4,1,0,60,1,0
535924,307.692307692308,4,1,0,60,1,0
535924,-133.333333333333,4,2,4,85,0,0
555172,-133.333333333333,4,2,12,20,0,0
555634,-133.333333333333,4,2,12,85,0,0
565172,-133.333333333333,4,2,12,85,0,0
585154,-133.333333333333,4,3,12,85,0,0
601222,288.461538461538,4,1,0,60,1,0
601222,-133.333333333333,4,2,0,60,0,0
602375,-181.818181818181,4,2,0,10,0,0
610452,-133.333333333333,4,2,0,60,0,0
611029,-83.3333333333333,4,2,0,65,0,0
611606,-181.818181818181,4,2,0,10,0,0
619683,-133.333333333333,4,2,0,40,0,0
620837,-133.333333333333,4,2,0,60,0,0
624298,-83.3333333333333,4,2,0,20,0,0
624587,-83.3333333333333,4,2,0,60,0,0
625452,-133.333333333333,4,2,0,60,0,0
627327,-133.333333333333,4,2,0,20,0,0
627616,-133.333333333333,4,2,0,60,0,0
629058,-133.333333333333,4,2,0,40,0,0
629779,-133.333333333333,4,2,0,50,0,0
630068,-133.333333333333,4,2,0,60,0,0
631798,-133.333333333333,4,2,0,40,0,0
632375,-133.333333333333,4,2,0,60,0,0
633529,-133.333333333333,4,2,0,20,0,0
633818,-133.333333333333,4,2,0,60,0,0
634683,-83.3333333333333,4,2,0,65,0,0
635548,-83.3333333333333,4,2,0,60,0,0
635981,-83.3333333333333,4,2,0,50,0,0
636558,-83.3333333333333,4,2,0,55,0,0
637423,-83.3333333333333,4,2,0,40,0,0
638289,-66.6666666666667,4,2,0,60,0,0
638722,-66.6666666666667,4,2,0,20,0,0
639010,-66.6666666666667,4,2,0,50,0,0
639298,-83.3333333333333,4,2,0,60,0,0
640308,-83.3333333333333,4,2,0,40,0,0
641029,-133.333333333333,4,2,0,50,0,0
641318,-105.263157894737,4,2,0,60,0,0
641462,-105.263157894737,4,2,0,20,0,0
641750,-105.263157894737,4,2,0,60,0,0
642039,-105.263157894737,4,2,0,10,0,0
642327,-105.263157894737,4,2,0,50,0,0
642760,-105.263157894737,4,2,0,60,0,0
643914,-105.263157894737,4,2,0,65,0,0
644202,-83.3333333333333,4,2,0,60,0,0
645212,-181.818181818182,4,2,0,10,0,0
645789,-100,4,2,0,60,0,0
646510,-181.818181818182,4,2,0,10,0,0
646798,-181.818181818182,4,2,0,50,0,0
647375,-133.333333333333,4,2,0,55,0,0
652883,315.789473684211,4,2,0,60,1,0
660461,-100,4,2,0,5,0,0
662988,-200,4,2,2,45,0,0
673093,-200,4,2,69,45,0,0
689514,329.67032967033,4,2,69,45,1,0
690834,375,4,2,69,45,1,0
692337,400,4,2,69,45,1,0
696273,315.789473684211,4,2,8,60,1,0
696273,-76.9230769230769,4,2,8,60,0,0
698483,-66.6666666666667,4,2,8,60,0,0
698799,-76.9230769230769,4,2,8,60,0,0
700694,-76.9230769230769,4,2,8,5,0,0
700851,-50,4,2,8,60,0,0
706118,307.692307692308,4,1,0,5,1,0
713810,-133.333333333333,4,2,0,60,0,0
714118,307.692307692308,4,1,0,60,1,0
723964,-55.5555555555556,4,1,0,59,0,0
724041,-90.9090909090909,4,1,0,59,0,0
733810,-82.6446280991736,4,1,0,59,0,0
743041,-50,4,1,0,59,0,0

[Colours]
Combo1 : 78,5,211
Combo2 : 111,111,255
Combo3 : 2,87,244
Combo4 : 192,192,192
Combo5 : 2,193,215

[HitObjects]
256,192,652883,5,4,0:0:0:0:
256,192,652961,12,0,660461,0:0:0:0:
48,120,662988,5,0,0:0:0:0:
48,120,663619,1,0,0:0:0:0:
168,56,664251,2,0,P|208:48|272:64,1,90
320,168,664883,2,0,P|280:176|216:160,1,90
112,232,665514,1,0,0:0:0:0:
256,336,666146,1,0,0:0:0:0:
256,336,666461,5,0,0:0:0:0:
400,232,667093,5,0,0:0:0:0:
400,232,667725,1,0,0:0:0:0:
280,200,668040,2,0,P|264:160|304:80,1,135
360,152,668672,1,0,0:0:0:0:
320,272,669304,1,0,0:0:0:0:
320,264,669619,1,0,0:0:0:0:
320,256,669935,1,0,0:0:0:0:
320,248,670251,1,0,0:0:0:0:
320,240,670567,6,0,P|272:232|216:240,1,90
152,336,671198,2,0,P|200:344|256:336,1,90
96,184,672146,1,0,0:0:0:0:
88,216,672304,1,0,0:0:0:0:
80,248,672461,1,4,0:0:0:0:
480,312,673093,6,0,P|424:336|384:320,1,90,2|0,0:0|0:0,0:0:0:0:
296,256,673725,2,0,P|352:232|392:248,1,90
264,360,674356,1,0,0:0:0:0:
112,304,674672,1,0,0:0:0:0:
112,144,674988,1,0,0:0:0:0:
256,80,675304,1,0,0:0:0:0:
376,192,675619,6,0,L|472:192,1,90,2|0,0:0|0:0,0:0:0:0:
384,48,676251,2,0,L|288:48,1,90
374,212,676883,6,0,L|468:229,1,90
407,72,677514,2,0,L|312:55,1,90
368,233,678146,5,2,0:0:0:0:
368,233,678304,1,0,0:0:0:0:
328,368,678777,1,0,0:0:0:0:
192,280,679093,1,0,0:0:0:0:
48,352,679409,2,0,P|8:312|8:264,1,90
88,144,680040,2,0,P|128:184|128:232,1,90
0,160,680672,5,2,0:0:0:0:
0,160,680830,1,0,0:0:0:0:
88,24,680988,1,0,0:0:0:0:
248,24,681304,1,2,0:0:0:0:
248,24,681935,5,2,0:0:0:0:
248,24,682567,5,2,0:0:0:0:
376,320,683198,6,0,L|456:248,1,90,2|0,0:0|0:0,0:0:0:0:
280,256,683830,2,0,L|200:328,1,90
368,184,684461,2,0,P|336:136|288:128,2,90
248,288,685409,1,0,0:0:0:0:
112,200,685725,6,0,L|112:96,1,90,2|0,0:0|0:0,0:0:0:0:
240,208,686356,2,0,L|240:312,1,90
80,288,686988,2,0,P|32:272|0:224,2,90
216,200,687935,1,0,0:0:0:0:
352,304,688251,5,2,0:0:0:0:
352,304,688409,1,0,0:0:0:0:
472,200,688883,1,2,0:0:0:0:
368,48,689514,1,2,0:0:0:0:
368,48,690173,1,0,0:0:0:0:
0,192,690832,6,0,P|88:216|200:184,1,180,2|0,0:0|0:0,0:0:0:0:
512,192,691584,2,0,P|424:216|312:184,1,180,2|0,0:0|0:0,0:0:0:0:
256,16,692337,2,0,L|256:232,1,180,2|0,0:0|0:0,0:0:0:0:
256,352,693137,1,2,0:0:0:0:
388,168,696273,5,4,0:2:0:0:
440,280,696378,1,0,0:0:0:0:
440,280,696483,1,0,0:0:0:0:
440,280,696588,2,0,L|252:264,1,155.999992858887
160,364,696904,2,0,P|156:332|160:280,1,77.9999964294435
176,188,697115,2,0,P|180:156|172:92,1,77.9999964294435
80,164,697325,2,0,L|-12:156,2,77.9999964294435
284,176,697641,1,0,0:0:0:0:
284,176,697746,1,0,0:0:0:0:
284,176,697851,6,0,L|428:188,1,77.9999964294435
432,236,698062,2,0,L|576:248,1,77.9999964294435
236,224,698325,1,0,0:0:0:0:
428,192,698483,6,0,B|484:184|540:204|540:204|500:176|476:140,1,180.000006866455,4|0,0:0|0:0,0:0:0:0:
432,72,698799,1,2,0:0:0:0:
328,192,698904,1,0,0:0:0:0:
328,192,699009,1,0,0:0:0:0:
208,116,699115,2,0,L|220:16,1,77.9999964294435
180,308,699325,2,0,L|192:208,1,77.9999964294435
96,168,699536,2,0,P|30:162|-2:138,2,77.9999964294435
312,280,699851,2,0,P|377:285|410:309,2,77.9999964294435
180,368,700220,1,0,0:0:0:0:
180,368,700378,6,0,L|204:192,1,155.999992858887,8|0,0:0|0:0,0:0:0:0:
216,104,700694,1,0,0:0:0:0:
216,104,700904,1,0,0:0:0:0:
60,364,701009,2,0,L|100:116,1,240
68,88,701325,5,0,0:0:0:0:
192,28,701430,1,0,0:0:0:0:
192,28,701536,1,0,0:0:0:0:
312,124,701641,2,0,L|444:120,1,120
420,44,701851,1,0,0:0:0:0:
256,192,701957,2,0,B|208:168|208:168|124:188,2,120
372,260,702273,2,0,B|420:284|420:284|504:264,2,120
256,276,702588,6,0,P|260:348|316:400,2,120
352,148,702904,2,0,P|348:76|292:24,2,120
228,192,703220,6,0,B|132:248|116:104|-12:208,1,240
160,328,703536,2,0,B|256:272|272:416|400:312,1,240
256,192,703851,12,0,706118,0:0:0:0:
