osu file format v14

[General]
AudioFilename: Kicks For Liberation 5_218182189_soundcloud.mp3
AudioLeadIn: 0
PreviewTime: 362872
Countdown: 0
SampleSet: None
StackLeniency: 0.4
Mode: 0
LetterboxInBreaks: 0
EpilepsyWarning: 1
WidescreenStoryboard: 1

[Editor]
Bookmarks: 10776,13976,14776,81994,157657,215551,256474,321074,385480,448864,526078
DistanceSpacing: 1.2
BeatDivisor: 4
GridSize: 4
TimelineZoom: 3.299999

[Metadata]
Title:Kicks For Liberation 5
TitleUnicode:Kicks For Liberation 5
Artist:USAO
ArtistUnicode:USAO
Creator:MikasaSerket
Version:05. Smoker
Source:
Tags:Hardcore Speedcore Akitoshi BrosephStalin Makyu Choikapo [ drop ] XendoGenesis Zev Frostwich Side Crowie Makyu choikapo Lunicia synderes
BeatmapID:2284870
BeatmapSetID:390364

[Difficulty]
HPDrainRate:5
CircleSize:4
OverallDifficulty:9
ApproachRate:9.5
SliderMultiplier:1.8
SliderTickRate:1

[Events]
//Background and Video events
0,0,"Kancolleshigurewat.jpg",0,0
//Break Periods
//Storyboard Layer 0 (Background)
//Storyboard Layer 1 (Fail)
//Storyboard Layer 2 (Pass)
//Storyboard Layer 3 (Foreground)
//Storyboard Layer 4 (Overlay)
//Storyboard Sound Samples

[TimingPoints]
1176,400,4,1,0,60,1,0
10776,-125,4,2,0,60,0,0
15976,-100,4,2,0,60,0,0
63176,-125,4,2,0,60,0,0
68376,-125,4,1,0,60,0,0
71976,-100,4,1,0,60,0,0
73976,-50,4,1,0,60,0,0
74176,-66.6666666666667,4,1,0,60,0,0
74376,-100,4,1,0,60,0,0
74576,-200,4,1,0,60,0,0
74776,-200,4,3,0,60,0,0
75576,-200,4,1,0,60,0,0
75976,-66.6666666666667,4,1,0,60,0,0
76376,-66.6666666666667,4,1,0,60,0,0
81994,300,4,1,0,60,1,0
82294,-100,4,2,0,5,0,0
85594,-100,4,1,0,60,0,0
104794,-125,4,1,0,60,0,0
105394,-100,4,1,0,60,0,0
106294,-83.3333333333333,4,3,0,60,0,0
106594,-125,4,1,0,60,0,0
106894,-71.4285714285714,4,1,0,60,0,0
107194,-125,4,1,0,60,0,0
107794,-100,4,1,0,60,0,0
109294,-166.666666666667,4,1,0,60,0,0
109594,-125,4,1,0,60,0,0
110194,-100,4,1,0,60,0,0
111094,-83.3333333333333,4,3,0,60,0,0
111394,-125,4,1,0,60,0,0
111694,-71.4285714285714,4,1,0,60,0,0
111994,-125,4,1,0,60,0,0
112594,-100,4,1,0,60,0,0
113794,-83.3333333333333,4,1,0,60,0,0
114094,-125,4,2,0,60,0,0
114394,-125,4,1,0,60,0,0
114994,-100,4,1,0,60,0,0
115894,-83.3333333333333,4,3,0,60,0,0
116194,-125,4,1,0,60,0,0
116494,-71.4285714285714,4,1,0,60,0,0
116794,-125,4,1,0,60,0,0
117394,-100,4,1,0,60,0,0
118894,-166.666666666667,4,1,0,60,0,0
119194,-125,4,1,0,60,0,0
119794,-100,4,1,0,60,0,0
120694,-83.3333333333333,4,3,0,60,0,0
120994,-166.666666666667,4,1,0,60,0,0
121594,-125,4,1,0,60,0,0
122194,-100,4,1,0,60,0,0
123394,-166.666666666667,4,2,0,60,0,0
123994,-133.333333333333,4,1,0,60,0,0
124444,-100,4,1,0,60,0,0
124744,-83.3333333333333,4,1,0,60,0,0
125194,-133.333333333333,4,1,0,60,0,0
125494,-100,4,3,0,60,0,0
125869,-83.3333333333333,4,3,0,60,0,0
126094,-76.9230769230769,4,1,0,60,0,0
126394,-133.333333333333,4,1,0,60,0,0
126844,-100,4,1,0,60,0,0
128194,-100,4,1,0,60,0,0
128494,-83.3333333333333,4,3,0,60,0,0
128794,-133.333333333333,4,1,0,60,0,0
129394,-100,4,1,0,60,0,0
131194,-133.333333333333,4,1,0,60,0,0
131794,-100,4,1,0,60,0,0
132394,-133.333333333333,4,1,0,60,0,0
132994,-133.333333333333,4,1,0,20,0,0
133294,-50,4,1,0,60,0,0
133594,-100,4,1,0,60,0,0
137794,-133.333333333333,4,1,0,60,0,0
138394,-100,4,1,0,60,0,0
143194,-166.666666666667,4,2,0,60,0,0
156394,315.789473684211,4,2,0,60,1,0
157657,-83.3333333333333,4,2,0,60,0,0
162709,315.789473684211,4,1,0,30,1,0
182919,315.789473684211,4,1,0,60,1,0
182919,-90.9090909090909,4,1,0,60,0,0
185445,-86.9565217391304,4,1,0,60,0,0
187971,-83.3333333333333,4,1,0,60,0,0
188603,-80,4,1,0,60,0,0
189234,-76.9230769230769,4,1,0,60,0,0
189866,-74.0740740740741,4,1,0,60,0,0
190497,-71.4285714285714,4,1,0,60,0,0
192076,-100,4,3,0,60,0,0
192471,-100,4,3,0,15,0,0
192550,-100,4,3,0,60,0,0
192629,-100,4,3,0,15,0,0
192708,-100,4,3,0,60,0,0
192787,-100,4,3,0,15,0,0
192866,-100,4,3,0,60,0,0
192945,-100,4,3,0,15,0,0
193024,-66.6666666666667,4,1,0,60,0,0
197761,-125,4,1,0,30,0,0
198076,-66.6666666666667,4,1,0,60,0,0
207866,-125,4,1,0,30,0,0
208182,-66.6666666666667,4,1,0,55,0,0
209445,-66.6666666666667,4,1,0,50,0,0
210708,-66.6666666666667,4,1,0,45,0,0
211971,-66.6666666666667,4,1,0,40,0,0
212287,-66.6666666666667,4,1,0,35,0,0
212603,-66.6666666666667,4,1,0,30,0,0
212919,-50,4,1,0,25,0,0
213234,-100,4,1,0,50,0,0
213795,292.682926829268,4,1,0,60,1,0
215551,292.682926829268,4,1,0,60,1,0
220234,-83.3333333333333,4,1,2,60,0,0
238949,292.682926829268,4,1,2,100,1,0
238949,-86.9565217391304,4,1,2,100,0,0
240119,-80,4,1,2,100,0,0
241290,-86.9565217391304,4,1,2,100,0,0
242461,-80,4,1,2,100,0,0
243631,-86.9565217391304,4,1,2,100,0,0
244802,-80,4,1,2,100,0,0
245973,-86.9565217391304,4,1,2,100,0,0
248900,-80,4,1,2,100,0,0
250070,-100,4,1,2,100,0,0
250363,-133.333333333333,4,1,2,100,0,0
250656,-86.9565217391304,4,1,2,100,0,0
251241,-90.9090909090909,4,1,2,100,0,0
252997,-86.9565217391304,4,1,2,100,0,0
253583,-80,4,1,2,100,0,0
255339,-86.9565217391304,4,1,2,100,0,0
256474,300,4,1,1,60,1,0
265774,-90.9090909090909,4,1,5,90,0,0
265849,-90.9090909090909,4,1,0,60,0,0
268174,-90.9090909090909,4,1,5,90,0,0
268249,-90.9090909090909,4,1,0,60,0,0
270574,-100,4,1,5,90,0,0
270649,-100,4,1,0,60,0,0
271774,-100,4,1,5,90,0,0
271849,-100,4,1,0,60,0,0
272974,-100,4,1,5,90,0,0
273049,-100,4,1,0,60,0,0
273574,-100,4,1,5,90,0,0
273649,-100,4,1,0,60,0,0
274174,-100,4,1,0,90,0,0
274249,-100,4,1,0,90,0,0
275374,-66.6666666666667,4,1,5,90,0,0
275449,-66.6666666666667,4,1,0,60,0,0
275824,-76.9230769230769,4,1,0,60,0,0
275974,-83.3333333333333,4,1,0,60,0,0
277774,-66.6666666666667,4,1,5,90,0,0
277849,-66.6666666666667,4,1,0,60,0,0
278224,-76.9230769230769,4,1,0,60,0,0
278374,-83.3333333333333,4,1,0,60,0,0
280174,-83.3333333333333,4,1,5,90,0,0
280249,-83.3333333333333,4,1,0,60,0,0
282574,-66.6666666666667,4,1,5,90,0,0
282649,-66.6666666666667,4,1,0,60,0,0
283174,-83.3333333333333,4,1,0,60,0,0
284524,-83.3333333333333,4,3,0,60,0,0
284974,-66.6666666666667,4,1,5,90,0,0
285274,-66.6666666666667,4,1,1,60,0,0
285349,-66.6666666666667,4,1,0,60,0,0
285574,-83.3333333333333,4,1,0,60,0,0
287374,-66.6666666666667,4,1,5,90,0,0
287449,-66.6666666666667,4,1,1,60,0,0
287974,-83.3333333333333,4,1,0,60,0,0
292174,-83.3333333333333,4,1,5,90,0,0
292249,-83.3333333333333,4,1,0,60,0,0
293374,-83.3333333333333,4,2,0,40,0,0
294574,-100,4,1,1,60,0,0
303574,-133.333333333333,4,1,0,60,0,0
303874,-133.333333333333,4,3,0,60,0,0
304174,-100,4,1,0,60,0,0
313174,-133.333333333333,4,1,0,60,0,0
318368,337.078651685393,4,1,0,60,1,0
318378,337.078651685393,4,1,0,60,1,0
321064,-125,4,2,0,60,0,0
337244,-100,4,2,0,60,0,0
341289,-125,4,2,0,60,0,0
342300,-66.6666666666667,4,2,0,60,0,0
342637,-100,4,2,0,60,0,0
364210,-71.4285714285714,4,1,0,60,0,0
375634,307.692307692308,4,1,0,60,1,0
385480,-83.3333333333333,4,1,0,60,0,0
390403,-76.9230769230769,4,1,0,60,0,0
391018,-71.4285714285714,4,1,0,60,0,0
391634,-66.6666666666667,4,1,0,60,0,0
392249,-62.5,4,1,0,60,0,0
395941,-83.3333333333333,4,1,0,100,0,0
397787,-100,4,1,0,60,0,0
398403,-83.3333333333333,4,1,0,60,0,0
415018,-133.333333333333,4,2,0,60,0,0
417172,-105.263157894737,4,2,0,60,0,0
417480,-133.333333333333,4,2,0,60,0,0
419634,-105.263157894737,4,2,0,60,0,0
419941,-133.333333333333,4,2,0,60,0,0
422095,-105.263157894737,4,2,0,60,0,0
422403,-133.333333333333,4,2,0,60,0,0
423480,-133.333333333333,4,2,0,65,0,0
423787,-133.333333333333,4,2,0,70,0,0
424095,-105.263157894737,4,2,0,75,0,0
424403,-200,4,2,0,75,0,0
424864,-83.3333333333333,4,2,0,85,0,0
429480,-133.333333333333,4,2,0,85,0,0
429787,-83.3333333333333,4,2,0,85,0,0
434249,-133.333333333333,4,2,0,85,0,0
434710,-83.3333333333333,4,2,0,85,0,0
443326,-100,4,2,0,85,0,0
444249,-133.333333333333,4,2,0,85,0,0
457634,-133.333333333333,4,2,0,10,0,0
458864,-133.333333333333,4,2,69,50,0,0
468557,-133.333333333333,4,2,69,50,0,0
478403,-133.333333333333,4,2,12,50,0,0
487018,-100,4,2,12,60,0,0
517172,-66.6666666666667,4,2,12,100,0,0
517787,-100,4,2,12,100,0,0
518403,-66.6666666666667,4,2,12,100,0,0
519634,-133.333333333333,4,2,12,100,0,0
519941,-200,4,2,12,100,0,0
520249,-100,4,2,12,100,0,0
521172,-66.6666666666667,4,2,12,100,0,0
521787,-100,4,2,12,100,0,0
522249,-85.7143346939055,4,2,12,100,0,0
522403,-75.0000187500047,4,2,12,100,0,0
522557,-66.6666666666667,4,2,12,100,0,0
522710,-100,4,2,12,100,0,0
524540,307.692307692308,4,1,0,60,1,0
535924,307.692307692308,4,1,0,60,1,0
535924,-133.333333333333,4,2,4,85,0,0
555172,-133.333333333333,4,2,12,20,0,0
555634,-133.333333333333,4,2,12,85,0,0
565172,-133.333333333333,4,2,12,85,0,0
585154,-133.333333333333,4,3,12,85,0,0
601222,288.461538461538,4,1,0,60,1,0
601222,-133.333333333333,4,2,0,60,0,0
602375,-181.818181818181,4,2,0,10,0,0
610452,-133.333333333333,4,2,0,60,0,0
611029,-83.3333333333333,4,2,0,65,0,0
611606,-181.818181818181,4,2,0,10,0,0
619683,-133.333333333333,4,2,0,40,0,0
620837,-133.333333333333,4,2,0,60,0,0
624298,-83.3333333333333,4,2,0,20,0,0
624587,-83.3333333333333,4,2,0,60,0,0
625452,-133.333333333333,4,2,0,60,0,0
627327,-133.333333333333,4,2,0,20,0,0
627616,-133.333333333333,4,2,0,60,0,0
629058,-133.333333333333,4,2,0,40,0,0
629779,-133.333333333333,4,2,0,50,0,0
630068,-133.333333333333,4,2,0,60,0,0
631798,-133.333333333333,4,2,0,40,0,0
632375,-133.333333333333,4,2,0,60,0,0
633529,-133.333333333333,4,2,0,20,0,0
633818,-133.333333333333,4,2,0,60,0,0
634683,-83.3333333333333,4,2,0,65,0,0
635548,-83.3333333333333,4,2,0,60,0,0
635981,-83.3333333333333,4,2,0,50,0,0
636558,-83.3333333333333,4,2,0,55,0,0
637423,-83.3333333333333,4,2,0,40,0,0
638289,-66.6666666666667,4,2,0,60,0,0
638722,-66.6666666666667,4,2,0,20,0,0
639010,-66.6666666666667,4,2,0,50,0,0
639298,-83.3333333333333,4,2,0,60,0,0
640308,-83.3333333333333,4,2,0,40,0,0
641029,-133.333333333333,4,2,0,50,0,0
641318,-105.263157894737,4,2,0,60,0,0
641462,-105.263157894737,4,2,0,20,0,0
641750,-105.263157894737,4,2,0,60,0,0
642039,-105.263157894737,4,2,0,10,0,0
642327,-105.263157894737,4,2,0,50,0,0
642760,-105.263157894737,4,2,0,60,0,0
643914,-105.263157894737,4,2,0,65,0,0
644202,-83.3333333333333,4,2,0,60,0,0
645212,-181.818181818182,4,2,0,10,0,0
645789,-100,4,2,0,60,0,0
646510,-181.818181818182,4,2,0,10,0,0
646798,-181.818181818182,4,2,0,50,0,0
647375,-133.333333333333,4,2,0,55,0,0
652883,315.789473684211,4,2,0,60,1,0
660461,-100,4,2,0,5,0,0
662988,-200,4,2,2,45,0,0
673093,-200,4,2,69,45,0,0
689514,329.67032967033,4,2,69,45,1,0
690834,375,4,2,69,45,1,0
692337,400,4,2,69,45,1,0
696273,315.789473684211,4,2,8,60,1,0
696273,-76.9230769230769,4,2,8,60,0,0
698483,-66.6666666666667,4,2,8,60,0,0
698799,-76.9230769230769,4,2,8,60,0,0
700694,-76.9230769230769,4,2,8,5,0,0
700851,-50,4,2,8,60,0,0
706118,307.692307692308,4,1,0,5,1,0
713810,-133.333333333333,4,2,0,60,0,0
714118,307.692307692308,4,1,0,60,1,0
723964,-55.5555555555556,4,1,0,59,0,0
724041,-90.9090909090909,4,1,0,59,0,0
733810,-82.6446280991736,4,1,0,59,0,0
743041,-50,4,1,0,59,0,0

[Colours]
Combo1 : 78,5,211
Combo2 : 111,111,255
Combo3 : 2,87,244
Combo4 : 192,192,192
Combo5 : 2,193,215

[HitObjects]
256,188,256473,5,8,0:0:0:0:
460,128,256624,1,0,0:0:0:0:
324,32,256774,2,0,B|320:80|320:80|336:120|336:120|332:180,1,135,2|0,0:0|0:0,0:0:0:0:
324,192,257074,1,8,0:0:0:0:
336,24,257224,1,0,0:0:0:0:
200,120,257374,1,2,0:0:0:0:
368,108,257524,1,0,0:0:0:0:
140,64,257674,6,0,P|122:110|128:161,1,90,8|0,0:0|0:0,0:0:0:0:
208,324,257974,1,0,0:0:0:0:
285,135,258124,2,0,P|239:117|188:123,1,90,2|8,0:0|0:0,0:0:0:0:
20,188,258424,1,0,0:0:0:0:
228,196,258574,5,2,0:0:0:0:
116,36,258724,2,0,L|120:132,1,90,0|8,0:0|0:0,0:0:0:0:
136,336,259024,1,0,0:0:0:0:
296,260,259174,2,0,P|249:225|147:244,1,135
133,291,259474,2,0,L|137:355,1,45,8|0,0:0|0:0,0:0:0:0:
252,144,259624,2,0,L|254:99,1,45
371,291,259774,6,0,L|488:288,1,90,2|0,0:0|0:0,0:0:0:0:
288,368,260074,1,8,0:0:0:0:
236,252,260224,1,0,0:0:0:0:
376,192,260374,1,0,0:0:0:0:
301,295,260524,1,2,0:0:0:0:
180,204,260674,1,8,0:0:0:0:
306,216,260824,1,0,0:0:0:0:
288,368,260974,6,0,L|184:364,1,90,2|0,0:0|0:0,0:0:0:0:
24,268,261274,2,0,L|128:264,1,90,8|0,0:0|0:0,0:0:0:0:
228,108,261574,2,0,P|263:167|224:248,1,135
144,188,261874,2,0,P|181:177|205:177,1,45,8|0,0:0|0:0,0:0:0:0:
340,200,262024,2,0,P|372:221|387:239,1,45
252,332,262174,5,2,0:0:0:0:
248,117,262324,1,0,0:0:0:0:
379,292,262474,1,8,0:0:0:0:
170,228,262624,1,0,0:0:0:0:
377,157,262774,2,0,L|496:160,1,90,0|2,0:0|0:0,0:0:0:0:
280,264,263074,1,8,0:0:0:0:
336,68,263224,6,0,L|448:68,1,90,0|2,0:0|0:0,0:0:0:0:
500,28,263524,1,0,0:0:0:0:
284,148,263674,2,0,B|256:112|256:112|248:64,1,90,8|0,0:0|0:0,0:0:0:0:
377,157,263974,2,0,L|365:301,1,135
296,352,264274,2,0,L|289:306,1,45,8|0,0:0|0:0,0:0:0:0:
196,160,264424,2,0,L|189:204,1,45
96,352,264574,6,0,L|208:344,1,90,2|0,0:0|0:0,0:0:0:0:
368,232,264874,2,0,L|256:224,1,90,8|0,0:0|0:0,0:0:0:0:
96,112,265174,1,0,0:0:0:0:
176,244,265324,5,2,0:0:0:0:
200,52,265474,1,8,0:0:0:0:
22,128,265624,1,2,0:0:0:0:
264,168,265774,6,0,B|283:176|283:176|300:156|300:156|432:164,1,148.50000453186,4|0,0:0|0:0,0:0:0:0:
472,88,266074,2,0,L|474:9,1,49.5000015106202,2|0,0:0|0:0,0:0:0:0:
448,96,266224,2,0,L|450:17,1,49.5000015106202
352,244,266374,2,0,L|354:323,1,49.5000015106202,2|0,0:0|0:0,0:0:0:0:
328,236,266524,2,0,L|330:315,1,49.5000015106202,2|0,0:0|0:0,0:0:0:0:
240,88,266674,6,0,B|219:81|219:81|190:94|190:94|168:80|168:80|36:76,1,198.000006042481,2|0,0:0|0:0,0:0:0:0:
152,224,267124,2,0,B|156:198|156:198|153:153,1,49.5000015106202
24,60,267274,2,0,B|20:86|20:86|23:131,1,49.5000015106202,2|0,0:0|0:0,0:0:0:0:
180,204,267424,2,0,B|184:178|184:178|181:133,1,49.5000015106202
52,40,267574,2,0,L|60:200,1,148.50000453186,2|0,0:0|0:0,0:0:0:0:
72,24,267874,2,0,L|79:172,1,148.50000453186,2|0,0:0|0:0,0:0:0:0:
52,264,268174,6,0,B|45:253|45:253|62:258|62:258|188:252,1,148.50000453186,4|0,0:0|0:0,0:0:0:0:
258,290,268474,2,0,L|256:352,1,49.5000015106202,2|0,0:0|0:0,0:0:0:0:
288,272,268624,2,0,L|286:334,1,49.5000015106202
364,156,268774,2,0,L|362:94,1,49.5000015106202,2|0,0:0|0:0,0:0:0:0:
394,174,268924,2,0,L|392:112,1,49.5000015106202,2|0,0:0|0:0,0:0:0:0:
468,288,269074,6,0,P|481:361|406:318,1,198.000006042481,2|0,0:0|0:0,0:0:0:0:
428,228,269524,2,0,P|464:216|494:221,1,49.5000015106202
304,328,269674,2,0,P|279:326|256:316,1,49.5000015106202,2|0,0:0|0:0,0:0:0:0:
336,196,269824,2,0,L|348:272,1,49.5000015106202
184,344,269974,2,0,P|186:289|272:244,1,148.50000453186,2|0,0:0|0:0,0:0:0:0:
176,336,270274,2,0,P|178:281|264:236,1,148.50000453186,2|0,0:0|0:0,0:0:0:0:
184,344,270574,6,0,L|72:340,1,90,4|0,0:0|0:0,0:0:0:0:
0,188,270874,1,2,0:0:0:0:
84,316,271024,1,0,0:0:0:0:
152,152,271174,1,2,0:0:0:0:
84,324,271324,1,0,0:0:0:0:
48,112,271474,2,0,L|56:12,1,90,2|0,0:0|0:0,0:0:0:0:
144,241,271774,6,0,L|152:141,1,90,4|0,0:0|0:0,0:0:0:0:
200,40,272074,1,2,0:0:0:0:
54,135,272224,1,0,0:0:0:0:
240,212,272374,1,2,0:0:0:0:
45,135,272524,1,0,0:0:0:0:
286,94,272674,5,2,0:0:0:0:
321,121,272749,1,0,0:0:0:0:
365,129,272824,1,0,0:0:0:0:
407,115,272899,1,0,0:0:0:0:
438,83,272974,2,0,L|440:32,1,45,4|0,0:0|0:0,0:0:0:0:
476,192,273124,2,0,L|474:243,1,45
336,304,273274,6,0,P|361:300|398:304,1,45,2|0,0:0|0:0,0:0:0:0:
232,240,273424,2,0,P|207:244|170:240,1,45
352,184,273574,2,0,P|374:187|396:187,1,45,4|0,0:0|0:0,0:0:0:0:
264,308,273724,2,0,P|249:325|238:344,1,45
201,170,273874,2,0,P|193:148|181:129,1,45,2|0,0:0|0:0,0:0:0:0:
96,32,274024,2,0,P|84:51|76:72,1,45
0,212,274174,5,4,0:0:0:0:
40,193,274249,1,0,0:0:0:0:
84,193,274324,1,0,0:0:0:0:
124,213,274399,1,0,0:0:0:0:
152,248,274474,1,2,0:0:0:0:
177,283,274549,1,0,0:0:0:0:
218,303,274624,1,0,0:0:0:0:
262,303,274699,1,0,0:0:0:0:
302,284,274774,5,0,3:0:0:0:
444,172,274924,1,0,3:0:0:0:
232,36,275074,1,0,3:0:0:0:
232,80,275149,1,0,3:0:0:0:
233,125,275224,1,0,3:0:0:0:
233,170,275299,1,0,3:0:0:0:
234,215,275374,6,0,B|304:212|304:212|344:264|344:264|420:260,1,202.500007724762,4|0,0:0|0:0,0:0:0:0:
272,360,275674,2,0,P|272:320|261:273,1,67.5000025749208,8|0,0:0|0:0,0:0:0:0:
388,116,275824,2,0,P|382:147|384:180,1,58.4999973220826,2|0,0:0|0:0,0:0:0:0:
420,336,275974,6,0,L|500:332,1,53.9999983520508
412,360,276124,2,0,L|492:356,1,53.9999983520508,2|0,0:0|0:0,0:0:0:0:
304,224,276274,2,0,L|224:228,1,53.9999983520508,8|0,0:0|0:0,0:0:0:0:
312,200,276424,2,0,L|232:204,1,53.9999983520508,2|0,0:0|0:0,0:0:0:0:
428,88,276574,5,0,0:0:0:0:
184,76,276724,1,2,0:0:0:0:
344,8,276874,1,8,0:0:0:0:
334,88,276949,1,0,0:0:0:0:
324,168,277024,1,2,0:0:0:0:
360,0,277174,6,0,L|352:64,1,53.9999983520508
244,216,277324,2,0,L|237:162,1,53.9999983520508
104,48,277474,2,0,B|160:44|160:44|208:68|208:68|288:60,1,161.999995056153,8|0,0:0|0:0,0:0:0:0:
56,120,277774,6,0,B|20:164|20:164|24:-16,1,202.500007724762,4|0,0:0|0:0,0:0:0:0:
136,156,278074,2,0,B|140:196|140:196|132:248,1,67.5000025749208,8|0,0:0|0:0,0:0:0:0:
236,352,278224,2,0,B|232:312|232:312|240:280,1,58.4999973220826,2|0,0:0|0:0,0:0:0:0:
336,156,278374,6,0,L|340:232,1,53.9999983520508
364,144,278524,2,0,L|368:220,1,53.9999983520508,2|0,0:0|0:0,0:0:0:0:
456,344,278674,2,0,L|452:268,1,53.9999983520508,8|0,0:0|0:0,0:0:0:0:
428,356,278824,2,0,L|424:280,1,53.9999983520508,2|0,0:0|0:0,0:0:0:0:
460,84,278974,5,0,0:0:0:0:
340,280,279124,1,2,0:0:0:0:
168,68,279274,1,8,0:0:0:0:
248,65,279349,1,0,0:0:0:0:
329,62,279424,1,2,0:0:0:0:
124,92,279574,2,0,L|208:88,1,53.9999983520508
316,80,279724,2,0,L|400:76,1,53.9999983520508,2|0,0:0|0:0,0:0:0:0:
108,172,279874,2,0,L|212:167,1,53.9999983520508,8|0,0:0|0:0,0:0:0:0:
346,157,280024,2,0,L|450:152,1,53.9999983520508,2|0,0:0|0:0,0:0:0:0:
228,248,280174,5,4,0:0:0:0:
280,24,280324,1,0,0:0:0:0:
344,300,280474,1,8,0:0:0:0:
152,208,280624,1,2,0:0:0:0:
384,136,280774,6,0,L|462:137,1,53.9999983520508
364,104,280924,2,0,L|442:105,1,53.9999983520508,2|0,0:0|0:0,0:0:0:0:
288,232,281074,2,0,L|210:231,1,53.9999983520508,8|0,0:0|0:0,0:0:0:0:
308,264,281224,2,0,L|230:263,1,53.9999983520508,2|0,0:0|0:0,0:0:0:0:
448,224,281374,1,0,0:0:0:0:
332,368,281524,1,2,0:0:0:0:
196,180,281674,1,8,0:0:0:0:
198,99,281749,1,0,0:0:0:0:
200,18,281824,1,2,0:0:0:0:
212,188,281974,6,0,L|216:20,1,161.999995056153,2|0,0:0|0:0,0:0:0:0:
348,200,282274,2,0,B|295:197|295:197|243:213|243:213|176:208,1,161.999995056153,2|0,0:0|0:0,0:0:0:0:
40,184,282574,6,0,P|46:108|98:182,1,202.500007724762,4|0,0:0|0:0,0:0:0:0:
88,244,282874,2,0,P|43:259|8:256,1,67.5000025749208,8|0,0:0|0:0,0:0:0:0:
64,32,283024,2,0,P|97:34|128:46,1,67.5000025749208,2|0,0:0|0:0,0:0:0:0:
192,140,283174,6,0,P|189:172|176:203,1,53.9999983520508
120,324,283324,2,0,P|149:309|182:305,1,53.9999983520508,2|0,0:0|0:0,0:0:0:0:
315,294,283474,2,0,P|287:275|267:249,1,53.9999983520508,8|0,0:0|0:0,0:0:0:0:
192,140,283624,2,0,P|183:108|184:74,1,53.9999983520508,2|0,0:0|0:0,0:0:0:0:
308,64,283774,6,0,P|284:87|255:103,1,53.9999983520508
104,120,283924,2,0,P|71:117|40:104,1,53.9999983520508,2|0,0:0|0:0,0:0:0:0:
184,16,284074,2,0,P|187:48|180:81,1,53.9999983520508,8|0,0:0|0:0,0:0:0:0:
95,208,284224,2,0,P|71:231|42:247,1,53.9999983520508,2|0,0:0|0:0,0:0:0:0:
208,184,284374,5,8,0:0:0:0:
16,108,284524,1,0,0:0:0:0:
64,129,284599,1,0,0:0:0:0:
116,120,284674,1,0,0:0:0:0:
155,83,284749,1,0,0:0:0:0:
194,47,284824,1,0,0:0:0:0:
247,39,284899,1,0,0:0:0:0:
295,62,284974,6,0,B|316:53|316:53|334:63|334:63|360:56|390:61|390:61|421:52|421:52|460:72|512:56,1,202.500007724762,4|0,0:0|0:0,0:0:0:0:
284,147,285274,2,0,L|212:144,1,67.5000025749208,12|0,0:0|0:0,0:0:0:0:
436,224,285424,2,0,L|508:221,1,67.5000025749208,2|0,0:0|0:0,0:0:0:0:
340,316,285574,5,0,0:0:0:0:
156,280,285724,2,0,L|96:292,1,53.9999983520508
335,331,285874,5,4,0:0:0:0:
160,264,286024,2,0,L|99:265,1,53.9999983520508
328,346,286174,5,0,0:0:0:0:
167,249,286324,2,0,L|107:240,1,53.9999983520508
318,359,286474,5,4,0:0:0:0:
177,236,286624,2,0,L|119:216,1,53.9999983520508
306,370,286774,6,0,L|368:360,1,53.9999983520508
448,256,286924,2,0,L|501:264,1,53.9999983520508
320,284,287074,2,0,B|311:159|311:159|339:195,1,161.999995056153
244,328,287374,6,0,B|201:316|201:316|161:337|161:337|116:328|116:328|77:345|77:345|25:337,1,202.500007724762,4|0,0:0|0:0,0:0:0:0:
208,184,287674,2,0,P|234:217|240:273,1,67.5000025749208,8|0,0:0|0:0,0:0:0:0:
55,253,287824,2,0,P|66:222|89:197,1,67.5000025749208
328,224,287974,5,0,0:0:0:0:
192,336,288124,2,0,L|107:330,1,53.9999983520508
336,236,288274,5,4,0:0:0:0:
183,323,288424,2,0,L|101:303,1,53.9999983520508
343,250,288574,5,0,0:0:0:0:
176,309,288724,2,0,L|99:275,1,53.9999983520508
346,265,288874,5,4,0:0:0:0:
173,294,289024,2,0,L|102:247,1,53.9999983520508
348,280,289174,5,0,0:0:0:0:
171,279,289324,2,0,L|110:221,1,53.9999983520508
346,296,289474,5,4,0:0:0:0:
173,263,289624,2,0,L|123:196,1,53.9999983520508
298,141,289774,2,0,L|381:131,1,53.9999983520508
342,310,289924,2,0,L|308:387,1,53.9999983520508
268,232,290074,5,4,0:0:0:0:
148,100,290224,2,0,L|144:24,1,53.9999983520508
255,241,290374,5,0,0:0:0:0:
160,90,290524,2,0,L|169:15,1,53.9999983520508
241,248,290674,5,4,0:0:0:0:
174,83,290824,2,0,L|196:10,1,53.9999983520508
226,253,290974,5,0,0:0:0:0:
189,78,291124,2,0,L|223:11,1,53.9999983520508
211,255,291274,5,4,0:0:0:0:
204,76,291424,2,0,L|250:16,1,53.9999983520508
196,254,291574,6,0,B|160:248|160:248|132:252|132:252|104:232|104:232|32:212,1,161.999995056153
196,254,291874,2,0,P|167:296|177:232,1,161.999995056153,4|0,0:0|0:0,0:0:0:0:
248,168,292174,6,0,B|277:166|277:166|292:156|292:156|408:152,1,161.999995056153,4|0,0:0|0:0,0:0:0:0:
272,80,292474,5,4,0:0:0:0:
336,236,292624,2,0,P|337:259|332:300,1,53.9999983520508
286,75,292774,5,0,0:0:0:0:
321,240,292924,2,0,P|318:263|306:302,1,53.9999983520508
300,73,293074,5,4,0:0:0:0:
307,242,293224,2,0,P|300:264|281:301,1,53.9999983520508
315,74,293374,6,0,L|440:72,1,107.999996704102
460,172,293674,1,0,0:0:0:0:
300,56,293824,1,0,0:0:0:0:
184,196,293974,1,0,0:0:0:0:
363,226,294124,6,0,L|368:164,1,53.9999983520508
440,280,294274,1,0,0:0:0:0:
394,309,294349,1,0,0:0:0:0:
341,309,294424,1,0,0:0:0:0:
296,280,294499,1,0,0:0:0:0:
274,232,294574,6,0,L|288:384,1,135,4|0,0:0|0:0,0:0:0:0:
300,376,294874,5,8,0:0:0:0:
156,264,295024,1,0,0:0:0:0:
352,152,295174,2,0,P|408:137|488:201,1,135,2|0,0:0|0:0,0:0:0:0:
448,336,295474,2,0,P|407:295|422:193,1,135,8|0,0:0|0:0,0:0:0:0:
440,140,295774,6,0,P|481:181|466:283,1,135,2|0,0:0|0:0,0:0:0:0:
464,272,296074,5,8,0:0:0:0:
272,160,296224,1,0,0:0:0:0:
392,64,296374,2,0,P|442:59|484:59,1,90,2|0,0:0|0:0,0:0:0:0:
272,160,296674,2,0,P|227:159|182:154,1,90,8|0,0:0|0:0,0:0:0:0:
36,44,296974,6,0,P|29:111|36:178,1,135,4|0,0:0|0:0,0:0:0:0:
46,202,297274,1,8,0:0:0:0:
148,56,297424,1,0,0:0:0:0:
232,276,297574,2,0,P|171:246|76:277,1,135,2|0,0:0|0:0,0:0:0:0:
184,352,297874,2,0,P|249:361|309:331,1,135,8|0,0:0|0:0,0:0:0:0:
284,192,298174,6,0,P|218:182|158:212,1,135,2|0,0:0|0:0,0:0:0:0:
144,240,298474,1,8,0:0:0:0:
264,92,298624,1,0,0:0:0:0:
152,264,298774,1,2,0:0:0:0:
186,37,298924,1,0,0:0:0:0:
160,288,299074,2,0,L|176:384,1,90,8|0,0:0|0:0,0:0:0:0:
280,240,299374,5,6,0:0:0:0:
32,280,299524,1,2,0:0:0:0:
400,332,299674,2,0,P|410:282|401:220,1,90,8|0,0:0|0:0,0:0:0:0:
318,127,299974,6,0,B|368:124|368:124|404:144|404:144|456:140,1,135,2|0,0:0|0:0,0:0:0:0:
336,48,300274,2,0,B|286:45|286:45|250:65|250:65|198:61,1,135,8|0,0:0|0:0,0:0:0:0:
84,8,300574,6,0,B|106:42|106:42|110:150,1,135,2|0,0:0|0:0,0:0:0:0:
92,168,300874,1,8,0:0:0:0:
0,96,301024,1,0,0:0:0:0:
232,16,301174,6,0,L|236:132,1,90,2|0,0:0|0:0,0:0:0:0:
95,257,301474,2,0,L|91:141,1,90,8|0,0:0|0:0,0:0:0:0:
312,348,301774,2,0,P|236:334|184:392,1,135,4|0,0:0|0:0,0:0:0:0:
56,324,302074,2,0,P|92:330|152:304,1,90,8|0,0:0|0:0,0:0:0:0:
91,123,302374,6,0,B|83:167|83:167|99:295,1,135,2|0,0:0|0:0,0:0:0:0:
236,208,302674,2,0,B|244:252|244:252|228:380,1,135,8|0,0:0|0:0,0:0:0:0:
160,176,302974,2,0,P|220:130|296:153,1,135,2|0,0:0|0:0,0:0:0:0:
292,152,303274,5,8,0:0:0:0:
52,88,303424,1,0,0:0:0:0:
308,8,303574,6,0,P|313:45|308:80,1,67.5000025749208,2|0,0:0|0:0,0:0:0:0:
176,168,303874,1,0,0:0:0:0:
226,166,303949,1,0,0:0:0:0:
277,164,304024,1,0,0:0:0:0:
327,162,304099,1,0,0:0:0:0:
378,160,304174,6,0,B|443:95|443:95|364:24,1,180,4|0,0:0|0:0,0:0:0:0:
256,16,304624,1,0,0:0:0:0:
256,16,304774,2,0,B|248:76|248:76|264:136|264:136|256:212,1,180
176,272,305224,1,0,0:0:0:0:
176,272,305374,6,0,P|108:260|60:376,1,180
232,332,305824,1,0,0:0:0:0:
232,332,305974,2,0,P|255:281|240:220,1,90
148,100,306274,2,0,P|125:151|140:212,1,90
312,348,306574,6,0,B|356:346|356:346|392:376|452:376|488:340,1,180,4|0,0:0|0:0,0:0:0:0:
412,108,307024,1,0,0:0:0:0:
412,108,307174,2,0,B|398:171|398:171|420:296,1,180
284,148,307624,1,0,0:0:0:0:
284,148,307774,2,0,L|304:56,1,90,4|0,0:0|0:0,0:0:0:0:
228,248,308074,2,0,L|247:335,1,90
344,264,308374,5,0,0:0:0:0:
104,236,308524,1,0,0:0:0:0:
311,168,308674,1,0,0:0:0:0:
135,333,308824,1,0,0:0:0:0:
24,116,308974,6,0,P|52:74|188:92,1,180,4|0,0:0|0:0,0:0:0:0:
240,156,309424,1,0,0:0:0:0:
128,220,309574,2,0,P|108:175|114:124,1,90
296,88,309874,1,0,0:0:0:0:
296,88,310024,1,0,0:0:0:0:
264,284,310174,6,0,B|196:280|196:280|156:296|156:296|52:292,1,180,4|0,0:0|0:0,0:0:0:0:
328,360,310624,1,0,0:0:0:0:
292,192,310774,2,0,L|280:128,3,45
360,56,311074,2,0,L|351:100,1,45
380,44,311224,2,0,L|371:88,1,45
216,72,311374,6,0,L|291:65,3,45,4|0|0|0,0:0|0:0|0:0|0:0,0:0:0:0:
140,132,311674,2,0,L|65:125,3,45
216,192,311974,2,0,L|291:185,3,45
140,252,312274,2,0,L|65:245,3,45
216,312,312574,5,4,0:0:0:0:
217,266,312649,1,0,0:0:0:0:
243,229,312724,1,0,0:0:0:0:
284,210,312799,1,0,0:0:0:0:
328,211,312874,1,0,0:0:0:0:
371,213,312949,1,0,0:0:0:0:
413,193,313024,1,0,0:0:0:0:
438,157,313099,1,0,0:0:0:0:
442,112,313174,6,0,P|430:161|456:216,1,101.250003862381
460,196,313474,2,0,P|472:244|454:290,1,101.250003862381
444,280,313774,5,4,0:0:0:0:
