osu file format v14

[General]
AudioFilename: Kicks For Liberation 5_218182189_soundcloud.mp3
AudioLeadIn: 0
PreviewTime: 362872
Countdown: 0
SampleSet: None
StackLeniency: 0.4
Mode: 0
LetterboxInBreaks: 0
EpilepsyWarning: 1
WidescreenStoryboard: 1

[Editor]
Bookmarks: 10776,13976,14776,81994,157657,215551,256474,321074,385480,448864,526078
DistanceSpacing: 1.2
BeatDivisor: 4
GridSize: 4
TimelineZoom: 3.299999

[Metadata]
Title:Kicks For Liberation 5
TitleUnicode:Kicks For Liberation 5
Artist:USAO
ArtistUnicode:USAO
Creator:MikasaSerket
Version:04. 50000DPS
Source:
Tags:Hardcore Speedcore Akitoshi BrosephStalin Makyu Choikapo [ drop ] XendoGenesis Zev Frostwich Side Crowie Makyu choikapo Lunicia synderes
BeatmapID:2284869
BeatmapSetID:390364

[Difficulty]
HPDrainRate:5
CircleSize:4
OverallDifficulty:9
ApproachRate:9.5
SliderMultiplier:1.8
SliderTickRate:1

[Events]
//Background and Video events
0,0,"Kancolleshigurewat.jpg",0,0
//Break Periods
//Storyboard Layer 0 (Background)
//Storyboard Layer 1 (Fail)
//Storyboard Layer 2 (Pass)
//Storyboard Layer 3 (Foreground)
//Storyboard Layer 4 (Overlay)
//Storyboard Sound Samples

[TimingPoints]
1176,400,4,1,0,60,1,0
10776,-125,4,2,0,60,0,0
15976,-100,4,2,0,60,0,0
63176,-125,4,2,0,60,0,0
68376,-125,4,1,0,60,0,0
71976,-100,4,1,0,60,0,0
73976,-50,4,1,0,60,0,0
74176,-66.6666666666667,4,1,0,60,0,0
74376,-100,4,1,0,60,0,0
74576,-200,4,1,0,60,0,0
74776,-200,4,3,0,60,0,0
75576,-200,4,1,0,60,0,0
75976,-66.6666666666667,4,1,0,60,0,0
76376,-66.6666666666667,4,1,0,60,0,0
81994,300,4,1,0,60,1,0
82294,-100,4,2,0,5,0,0
85594,-100,4,1,0,60,0,0
104794,-125,4,1,0,60,0,0
105394,-100,4,1,0,60,0,0
106294,-83.3333333333333,4,3,0,60,0,0
106594,-125,4,1,0,60,0,0
106894,-71.4285714285714,4,1,0,60,0,0
107194,-125,4,1,0,60,0,0
107794,-100,4,1,0,60,0,0
109294,-166.666666666667,4,1,0,60,0,0
109594,-125,4,1,0,60,0,0
110194,-100,4,1,0,60,0,0
111094,-83.3333333333333,4,3,0,60,0,0
111394,-125,4,1,0,60,0,0
111694,-71.4285714285714,4,1,0,60,0,0
111994,-125,4,1,0,60,0,0
112594,-100,4,1,0,60,0,0
113794,-83.3333333333333,4,1,0,60,0,0
114094,-125,4,2,0,60,0,0
114394,-125,4,1,0,60,0,0
114994,-100,4,1,0,60,0,0
115894,-83.3333333333333,4,3,0,60,0,0
116194,-125,4,1,0,60,0,0
116494,-71.4285714285714,4,1,0,60,0,0
116794,-125,4,1,0,60,0,0
117394,-100,4,1,0,60,0,0
118894,-166.666666666667,4,1,0,60,0,0
119194,-125,4,1,0,60,0,0
119794,-100,4,1,0,60,0,0
120694,-83.3333333333333,4,3,0,60,0,0
120994,-166.666666666667,4,1,0,60,0,0
121594,-125,4,1,0,60,0,0
122194,-100,4,1,0,60,0,0
123394,-166.666666666667,4,2,0,60,0,0
123994,-133.333333333333,4,1,0,60,0,0
124444,-100,4,1,0,60,0,0
124744,-83.3333333333333,4,1,0,60,0,0
125194,-133.333333333333,4,1,0,60,0,0
125494,-100,4,3,0,60,0,0
125869,-83.3333333333333,4,3,0,60,0,0
126094,-76.9230769230769,4,1,0,60,0,0
126394,-133.333333333333,4,1,0,60,0,0
126844,-100,4,1,0,60,0,0
128194,-100,4,1,0,60,0,0
128494,-83.3333333333333,4,3,0,60,0,0
128794,-133.333333333333,4,1,0,60,0,0
129394,-100,4,1,0,60,0,0
131194,-133.333333333333,4,1,0,60,0,0
131794,-100,4,1,0,60,0,0
132394,-133.333333333333,4,1,0,60,0,0
132994,-133.333333333333,4,1,0,20,0,0
133294,-50,4,1,0,60,0,0
133594,-100,4,1,0,60,0,0
137794,-133.333333333333,4,1,0,60,0,0
138394,-100,4,1,0,60,0,0
143194,-166.666666666667,4,2,0,60,0,0
156394,315.789473684211,4,2,0,60,1,0
157657,-83.3333333333333,4,2,0,60,0,0
162709,315.789473684211,4,1,0,30,1,0
182919,315.789473684211,4,1,0,60,1,0
182919,-90.9090909090909,4,1,0,60,0,0
185445,-86.9565217391304,4,1,0,60,0,0
187971,-83.3333333333333,4,1,0,60,0,0
188603,-80,4,1,0,60,0,0
189234,-76.9230769230769,4,1,0,60,0,0
189866,-74.0740740740741,4,1,0,60,0,0
190497,-71.4285714285714,4,1,0,60,0,0
192076,-100,4,3,0,60,0,0
192471,-100,4,3,0,15,0,0
192550,-100,4,3,0,60,0,0
192629,-100,4,3,0,15,0,0
192708,-100,4,3,0,60,0,0
192787,-100,4,3,0,15,0,0
192866,-100,4,3,0,60,0,0
192945,-100,4,3,0,15,0,0
193024,-66.6666666666667,4,1,0,60,0,0
197761,-125,4,1,0,30,0,0
198076,-66.6666666666667,4,1,0,60,0,0
207866,-125,4,1,0,30,0,0
208182,-66.6666666666667,4,1,0,55,0,0
209445,-66.6666666666667,4,1,0,50,0,0
210708,-66.6666666666667,4,1,0,45,0,0
211971,-66.6666666666667,4,1,0,40,0,0
212287,-66.6666666666667,4,1,0,35,0,0
212603,-66.6666666666667,4,1,0,30,0,0
212919,-50,4,1,0,25,0,0
213234,-100,4,1,0,50,0,0
213795,292.682926829268,4,1,0,60,1,0
215551,292.682926829268,4,1,0,60,1,0
220234,-83.3333333333333,4,1,2,60,0,0
238949,292.682926829268,4,1,2,100,1,0
238949,-86.9565217391304,4,1,2,100,0,0
240119,-80,4,1,2,100,0,0
241290,-86.9565217391304,4,1,2,100,0,0
242461,-80,4,1,2,100,0,0
243631,-86.9565217391304,4,1,2,100,0,0
244802,-80,4,1,2,100,0,0
245973,-86.9565217391304,4,1,2,100,0,0
248900,-80,4,1,2,100,0,0
250070,-100,4,1,2,100,0,0
250363,-133.333333333333,4,1,2,100,0,0
250656,-86.9565217391304,4,1,2,100,0,0
251241,-90.9090909090909,4,1,2,100,0,0
252997,-86.9565217391304,4,1,2,100,0,0
253583,-80,4,1,2,100,0,0
255339,-86.9565217391304,4,1,2,100,0,0
256474,300,4,1,1,60,1,0
265774,-90.9090909090909,4,1,5,90,0,0
265849,-90.9090909090909,4,1,0,60,0,0
268174,-90.9090909090909,4,1,5,90,0,0
268249,-90.9090909090909,4,1,0,60,0,0
270574,-100,4,1,5,90,0,0
270649,-100,4,1,0,60,0,0
271774,-100,4,1,5,90,0,0
271849,-100,4,1,0,60,0,0
272974,-100,4,1,5,90,0,0
273049,-100,4,1,0,60,0,0
273574,-100,4,1,5,90,0,0
273649,-100,4,1,0,60,0,0
274174,-100,4,1,0,90,0,0
274249,-100,4,1,0,90,0,0
275374,-66.6666666666667,4,1,5,90,0,0
275449,-66.6666666666667,4,1,0,60,0,0
275824,-76.9230769230769,4,1,0,60,0,0
275974,-83.3333333333333,4,1,0,60,0,0
277774,-66.6666666666667,4,1,5,90,0,0
277849,-66.6666666666667,4,1,0,60,0,0
278224,-76.9230769230769,4,1,0,60,0,0
278374,-83.3333333333333,4,1,0,60,0,0
280174,-83.3333333333333,4,1,5,90,0,0
280249,-83.3333333333333,4,1,0,60,0,0
282574,-66.6666666666667,4,1,5,90,0,0
282649,-66.6666666666667,4,1,0,60,0,0
283174,-83.3333333333333,4,1,0,60,0,0
284524,-83.3333333333333,4,3,0,60,0,0
284974,-66.6666666666667,4,1,5,90,0,0
285274,-66.6666666666667,4,1,1,60,0,0
285349,-66.6666666666667,4,1,0,60,0,0
285574,-83.3333333333333,4,1,0,60,0,0
287374,-66.6666666666667,4,1,5,90,0,0
287449,-66.6666666666667,4,1,1,60,0,0
287974,-83.3333333333333,4,1,0,60,0,0
292174,-83.3333333333333,4,1,5,90,0,0
292249,-83.3333333333333,4,1,0,60,0,0
293374,-83.3333333333333,4,2,0,40,0,0
294574,-100,4,1,1,60,0,0
303574,-133.333333333333,4,1,0,60,0,0
303874,-133.333333333333,4,3,0,60,0,0
304174,-100,4,1,0,60,0,0
313174,-133.333333333333,4,1,0,60,0,0
318368,337.078651685393,4,1,0,60,1,0
318378,337.078651685393,4,1,0,60,1,0
321064,-125,4,2,0,60,0,0
337244,-100,4,2,0,60,0,0
341289,-125,4,2,0,60,0,0
342300,-66.6666666666667,4,2,0,60,0,0
342637,-100,4,2,0,60,0,0
364210,-71.4285714285714,4,1,0,60,0,0
375634,307.692307692308,4,1,0,60,1,0
385480,-83.3333333333333,4,1,0,60,0,0
390403,-76.9230769230769,4,1,0,60,0,0
391018,-71.4285714285714,4,1,0,60,0,0
391634,-66.6666666666667,4,1,0,60,0,0
392249,-62.5,4,1,0,60,0,0
395941,-83.3333333333333,4,1,0,100,0,0
397787,-100,4,1,0,60,0,0
398403,-83.3333333333333,4,1,0,60,0,0
415018,-133.333333333333,4,2,0,60,0,0
417172,-105.263157894737,4,2,0,60,0,0
417480,-133.333333333333,4,2,0,60,0,0
419634,-105.263157894737,4,2,0,60,0,0
419941,-133.333333333333,4,2,0,60,0,0
422095,-105.263157894737,4,2,0,60,0,0
422403,-133.333333333333,4,2,0,60,0,0
423480,-133.333333333333,4,2,0,65,0,0
423787,-133.333333333333,4,2,0,70,0,0
424095,-105.263157894737,4,2,0,75,0,0
424403,-200,4,2,0,75,0,0
424864,-83.3333333333333,4,2,0,85,0,0
429480,-133.333333333333,4,2,0,85,0,0
429787,-83.3333333333333,4,2,0,85,0,0
434249,-133.333333333333,4,2,0,85,0,0
434710,-83.3333333333333,4,2,0,85,0,0
443326,-100,4,2,0,85,0,0
444249,-133.333333333333,4,2,0,85,0,0
457634,-133.333333333333,4,2,0,10,0,0
458864,-133.333333333333,4,2,69,50,0,0
468557,-133.333333333333,4,2,69,50,0,0
478403,-133.333333333333,4,2,12,50,0,0
487018,-100,4,2,12,60,0,0
517172,-66.6666666666667,4,2,12,100,0,0
517787,-100,4,2,12,100,0,0
518403,-66.6666666666667,4,2,12,100,0,0
519634,-133.333333333333,4,2,12,100,0,0
519941,-200,4,2,12,100,0,0
520249,-100,4,2,12,100,0,0
521172,-66.6666666666667,4,2,12,100,0,0
521787,-100,4,2,12,100,0,0
522249,-85.7143346939055,4,2,12,100,0,0
522403,-75.0000187500047,4,2,12,100,0,0
522557,-66.6666666666667,4,2,12,100,0,0
522710,-100,4,2,12,100,0,0
524540,307.692307692308,4,1,0,60,1,0
535924,307.692307692308,4,1,0,60,1,0
535924,-133.333333333333,4,2,4,85,0,0
555172,-133.333333333333,4,2,12,20,0,0
555634,-133.333333333333,4,2,12,85,0,0
565172,-133.333333333333,4,2,12,85,0,0
585154,-133.333333333333,4,3,12,85,0,0
601222,288.461538461538,4,1,0,60,1,0
601222,-133.333333333333,4,2,0,60,0,0
602375,-181.818181818181,4,2,0,10,0,0
610452,-133.333333333333,4,2,0,60,0,0
611029,-83.3333333333333,4,2,0,65,0,0
611606,-181.818181818181,4,2,0,10,0,0
619683,-133.333333333333,4,2,0,40,0,0
620837,-133.333333333333,4,2,0,60,0,0
624298,-83.3333333333333,4,2,0,20,0,0
624587,-83.3333333333333,4,2,0,60,0,0
625452,-133.333333333333,4,2,0,60,0,0
627327,-133.333333333333,4,2,0,20,0,0
627616,-133.333333333333,4,2,0,60,0,0
629058,-133.333333333333,4,2,0,40,0,0
629779,-133.333333333333,4,2,0,50,0,0
630068,-133.333333333333,4,2,0,60,0,0
631798,-133.333333333333,4,2,0,40,0,0
632375,-133.333333333333,4,2,0,60,0,0
633529,-133.333333333333,4,2,0,20,0,0
633818,-133.333333333333,4,2,0,60,0,0
634683,-83.3333333333333,4,2,0,65,0,0
635548,-83.3333333333333,4,2,0,60,0,0
635981,-83.3333333333333,4,2,0,50,0,0
636558,-83.3333333333333,4,2,0,55,0,0
637423,-83.3333333333333,4,2,0,40,0,0
638289,-66.6666666666667,4,2,0,60,0,0
638722,-66.6666666666667,4,2,0,20,0,0
639010,-66.6666666666667,4,2,0,50,0,0
639298,-83.3333333333333,4,2,0,60,0,0
640308,-83.3333333333333,4,2,0,40,0,0
641029,-133.333333333333,4,2,0,50,0,0
641318,-105.263157894737,4,2,0,60,0,0
641462,-105.263157894737,4,2,0,20,0,0
641750,-105.263157894737,4,2,0,60,0,0
642039,-105.263157894737,4,2,0,10,0,0
642327,-105.263157894737,4,2,0,50,0,0
642760,-105.263157894737,4,2,0,60,0,0
643914,-105.263157894737,4,2,0,65,0,0
644202,-83.3333333333333,4,2,0,60,0,0
645212,-181.818181818182,4,2,0,10,0,0
645789,-100,4,2,0,60,0,0
646510,-181.818181818182,4,2,0,10,0,0
646798,-181.818181818182,4,2,0,50,0,0
647375,-133.333333333333,4,2,0,55,0,0
652883,315.789473684211,4,2,0,60,1,0
660461,-100,4,2,0,5,0,0
662988,-200,4,2,2,45,0,0
673093,-200,4,2,69,45,0,0
689514,329.67032967033,4,2,69,45,1,0
690834,375,4,2,69,45,1,0
692337,400,4,2,69,45,1,0
696273,315.789473684211,4,2,8,60,1,0
696273,-76.9230769230769,4,2,8,60,0,0
698483,-66.6666666666667,4,2,8,60,0,0
698799,-76.9230769230769,4,2,8,60,0,0
700694,-76.9230769230769,4,2,8,5,0,0
700851,-50,4,2,8,60,0,0
706118,307.692307692308,4,1,0,5,1,0
713810,-133.333333333333,4,2,0,60,0,0
714118,307.692307692308,4,1,0,60,1,0
723964,-55.5555555555556,4,1,0,59,0,0
724041,-90.9090909090909,4,1,0,59,0,0
733810,-82.6446280991736,4,1,0,59,0,0
743041,-50,4,1,0,59,0,0

[Colours]
Combo1 : 78,5,211
Combo2 : 111,111,255
Combo3 : 2,87,244
Combo4 : 192,192,192
Combo5 : 2,193,215

[HitObjects]
256,192,215551,12,0,219063,0:0:0:0:
126,320,220233,5,4,0:0:0:0:
248,222,220526,1,8,0:0:0:0:
93,134,220819,1,0,0:0:0:0:
138,197,220965,5,0,0:0:0:0:
77,112,221111,1,8,0:0:0:0:
215,153,221258,5,0,0:0:0:0:
204,48,221404,1,0,0:0:0:0:
297,157,221551,5,0,0:0:0:0:
339,60,221697,1,8,0:0:0:0:
360,203,221843,5,0,0:0:0:0:
444,139,221990,2,0,L|488:123,4,26.9999991760254
272,145,222282,1,8,0:0:0:0:
336,335,222429,1,0,0:0:0:0:
397,279,222575,5,0,0:0:0:0:
248,222,222868,1,8,0:0:0:0:
348,359,223160,1,0,0:0:0:0:
274,217,223307,5,0,0:0:0:0:
135,257,223453,1,8,0:0:0:0:
211,155,223599,5,0,0:0:0:0:
350,195,223746,1,0,0:0:0:0:
268,96,223892,5,0,0:0:0:0:
129,136,224038,1,8,0:0:0:0:
213,39,224185,5,0,0:0:0:0:
352,79,224331,2,0,L|384:100,1,26.9999991760254
387,73,224404,2,0,L|425:75,1,26.9999991760254
403,54,224477,2,0,L|437:36,2,26.9999991760254
330,63,224624,1,8,0:0:0:0:
357,221,224770,1,0,0:0:0:0:
425,179,224916,5,4,0:0:0:0:
265,269,225209,1,8,0:0:0:0:
412,292,225502,1,0,0:0:0:0:
250,266,225648,5,0,0:0:0:0:
426,294,225794,1,8,0:0:0:0:
259,175,225941,5,0,0:0:0:0:
231,351,226087,1,0,0:0:0:0:
347,184,226233,5,0,0:0:0:0:
171,156,226380,1,8,0:0:0:0:
338,272,226526,5,0,0:0:0:0:
366,96,226672,2,0,L|369:60,4,26.9999991760254
317,289,226965,1,8,0:0:0:0:
384,115,227111,1,0,0:0:0:0:
322,195,227258,5,0,0:0:0:0:
451,45,227551,1,8,0:0:0:0:
281,103,227843,1,0,0:0:0:0:
310,12,227990,5,0,0:0:0:0:
280,129,228136,1,8,0:0:0:0:
178,36,228282,5,0,0:0:0:0:
281,155,228429,1,0,0:0:0:0:
123,225,228575,5,0,0:0:0:0:
282,181,228721,1,8,0:0:0:0:
239,383,228868,5,0,0:0:0:0:
281,207,228941,2,0,L|270:168,1,26.9999991760254
309,249,229014,2,0,L|328:213,1,26.9999991760254
297,298,229087,2,0,L|336:287,2,26.9999991760254
280,154,229307,1,8,0:0:0:0:
265,376,229453,1,0,0:0:0:0:
191,317,229599,5,4,0:0:0:0:
342,207,229892,1,8,0:0:0:0:
176,229,230185,1,0,0:0:0:0:
343,308,230331,5,0,0:0:0:0:
151,225,230477,1,0,0:0:0:0:
361,225,230624,5,0,0:0:0:0:
169,308,230770,1,0,0:0:0:0:
141,220,230916,5,0,0:0:0:0:
352,312,231063,1,0,0:0:0:0:
370,220,231209,5,0,0:0:0:0:
159,312,231355,2,0,L|122:331,3,26.9999991760254
266,267,231648,1,0,0:0:0:0:
403,294,231794,1,0,0:0:0:0:
370,220,231941,5,0,0:0:0:0:
278,87,232233,1,0,0:0:0:0:
415,60,232526,1,0,0:0:0:0:
382,134,232672,5,0,0:0:0:0:
253,76,232819,1,8,0:0:0:0:
342,207,232965,5,0,0:0:0:0:
226,154,233111,1,0,0:0:0:0:
299,274,233258,5,0,0:0:0:0:
206,231,233404,1,8,0:0:0:0:
250,336,233624,5,0,0:0:0:0:
184,305,233697,2,0,L|142:309,1,26.9999991760254
157,262,233770,2,0,L|130:294,1,26.9999991760254
106,244,233843,2,0,L|109:286,2,26.9999991760254
141,329,233990,1,0,0:0:0:0:
226,154,234136,1,0,0:0:0:0:
137,159,234282,5,0,0:0:0:0:
277,246,234575,1,0,0:0:0:0:
219,41,234868,1,0,0:0:0:0:
226,154,235014,5,0,0:0:0:0:
338,93,235160,1,0,0:0:0:0:
201,164,235307,5,0,0:0:0:0:
328,167,235453,1,0,0:0:0:0:
175,171,235599,5,0,0:0:0:0:
277,246,235746,1,0,0:0:0:0:
148,174,235892,5,0,0:0:0:0:
188,293,236038,2,0,L|200:332,3,26.9999991760254
138,148,236331,1,0,0:0:0:0:
362,228,236477,1,0,0:0:0:0:
254,231,236624,5,0,0:0:0:0:
388,109,236916,1,0,0:0:0:0:
390,334,237209,1,0,0:0:0:0:
347,205,237355,5,0,0:0:0:0:
382,307,237502,1,0,0:0:0:0:
374,158,237648,5,0,0:0:0:0:
272,328,237794,1,0,0:0:0:0:
302,304,238949,6,0,B|293:268|293:268|316:242|287:230|287:230|264:144,1,155.250002961159,4|0,0:0|0:0,0:0:0:0:
268,320,239241,2,0,P|352:356|424:300,1,155.250002961159,8|0,0:0|0:0,0:0:0:0:
452,224,239534,2,0,P|496:240|524:296,1,103.500001974106
380,128,239753,1,0,0:0:0:0:
396,112,239827,2,0,P|464:100|552:148,1,155.250002961159,8|0,0:0|0:0,0:0:0:0:
281,252,240119,6,0,B|272:229|272:229|276:132,1,112.5
197,53,240339,1,0,0:0:0:0:
160,76,240412,2,0,B|169:99|169:99|165:196,1,112.5,8|0,0:0|0:0,0:0:0:0:
77,267,240631,1,0,0:0:0:0:
56,248,240705,2,0,B|47:225|47:225|51:128,1,112.5
144,256,240924,1,0,0:0:0:0:
157,281,240997,6,0,P|81:349|14:308,1,168.75,8|0,0:0|0:0,0:0:0:0:
204,384,241290,6,0,B|240:360|244:312|244:312|292:324|338:316,1,155.250002961159
464,300,241583,2,0,P|448:356|480:304,1,155.250002961159,8|0,0:0|0:0,0:0:0:0:
452,228,241875,2,0,P|406:240|364:316,1,103.500001974106
308,164,242095,1,0,0:0:0:0:
308,164,242168,2,0,B|256:152|256:152|124:152,1,155.250002961159,8|0,0:0|0:0,0:0:0:0:
332,56,242461,6,0,B|366:64|366:64|458:64,1,112.5
504,152,242680,1,0,0:0:0:0:
504,152,242753,6,0,B|470:160|470:160|378:160,1,112.5,8|0,0:0|0:0,0:0:0:0:
328,252,242973,1,0,0:0:0:0:
328,252,243046,6,0,B|362:260|362:260|454:260,1,112.5
500,336,243266,1,0,0:0:0:0:
500,336,243339,2,0,B|449:357|449:357|305:357,1,168.75,8|0,0:0|0:0,0:0:0:0:
268,368,243631,6,0,P|204:330|133:386,1,155.250002961159
292,356,243924,2,0,B|284:313|284:313|284:313|294:247|294:247|280:160,1,155.250002961159,8|0,0:0|0:0,0:0:0:0:
352,88,244217,2,0,P|408:76|472:104,1,103.500001974106
176,152,244436,1,0,0:0:0:0:
200,144,244509,2,0,P|116:128|24:164,1,155.250002961159,8|0,0:0|0:0,0:0:0:0:
296,216,244802,6,0,L|300:136,2,56.25
192,316,245095,6,0,L|184:232,2,56.25
364,376,245388,6,0,L|368:296,2,56.25
99,366,245680,2,0,P|93:286|106:195,1,150,8|0,0:0|0:0,0:0:0:0:
96,99,245973,6,0,P|164:140|250:83,1,155.250002961159
297,32,246266,2,0,B|191:23|191:23|184:48|164:72,1,155.250002961159,8|0,0:0|0:0,0:0:0:0:
240,208,246558,2,0,P|264:172|224:100,1,103.500001974106
158,231,246778,1,0,0:0:0:0:
156,208,246851,2,0,P|192:288|288:280,1,155.250002961159,8|0,0:0|0:0,0:0:0:0:
336,196,247144,6,0,L|355:76,1,103.500001974106
388,286,247363,1,0,0:0:0:0:
388,286,247436,6,0,L|376:400,1,103.500001974106,8|0,0:0|0:0,0:0:0:0:
316,192,247656,1,0,0:0:0:0:
316,192,247729,6,0,L|328:78,1,103.500001974106,8|0,0:0|0:0,0:0:0:0:
404,304,247949,1,0,0:0:0:0:
404,304,248022,6,0,P|324:328|272:252,1,155.250002961159,8|0,0:0|0:0,0:0:0:0:
228,320,248314,6,0,B|212:271|212:271|212:152,1,155.250002961159,4|0,0:0|0:0,0:0:0:0:
32,108,248607,2,0,B|48:157|48:157|48:296,1,155.250002961159,8|0,0:0|0:0,0:0:0:0:
144,120,248900,2,0,P|204:161|320:104,1,168.75
372,288,249192,2,0,P|312:247|196:304,1,168.75,8|0,0:0|0:0,0:0:0:0:
368,148,249485,6,0,P|385:120|380:36,1,112.5
304,86,249705,1,0,0:0:0:0:
364,168,249778,2,0,P|428:160|467:62,1,168.75,8|0,0:0|0:0,0:0:0:0:
304,86,250070,6,0,B|267:83|267:83|208:100|208:100|136:100,1,135
200,192,250363,6,0,B|226:194|226:194|269:177|269:177|309:177,1,101.250003862381,8|0,0:0|0:0,0:0:0:0:
320,276,250656,6,0,B|280:276|280:276|225:297|225:297|144:296,1,155.250002961159
356,296,250949,2,0,P|388:252|380:148,1,155.250002961159,8|0,0:0|0:0,0:0:0:0:
187,103,251241,2,0,L|89:107,1,99.0000030212403
300,32,251461,2,0,L|376:28,1,49.5000015106202
274,171,251607,1,0,0:0:0:0:
274,171,251753,1,0,0:0:0:0:
274,171,251827,6,0,P|200:177|152:264,1,148.50000453186
148,356,252119,2,0,L|136:196,1,148.50000453186,8|0,0:0|0:0,0:0:0:0:
123,125,252412,2,0,L|116:36,2,49.5000015106202
171,220,252705,2,0,P|230:245|312:180,1,148.50000453186,8|0,0:0|0:0,0:0:0:0:
360,296,252997,6,0,B|356:262|356:262|400:228|384:156|332:136,1,155.250002961159
218,132,253290,2,0,P|262:142|216:120,1,155.250002961159,8|0,0:0|0:0,0:0:0:0:
176,48,253583,2,0,P|140:133|208:216,1,168.75
340,208,253875,2,0,L|364:8,1,168.75,8|0,0:0|0:0,0:0:0:0:
432,188,254168,2,0,L|408:388,1,168.75
307,302,254461,2,0,P|193:248|152:288,1,168.75,8|0,0:0|0:0,0:0:0:0:
332,282,254753,6,0,L|336:184,2,56.25
340,308,255046,6,0,L|360:256,2,56.25,8|0|0,0:0|0:0|0:0,0:0:0:0:
337,333,255339,5,4,0:0:0:0:
327,357,255631,1,0,0:0:0:0:
