osu file format v14

[General]
AudioFilename: audio.mp3
AudioLeadIn: 0
PreviewTime: -1
Countdown: 0
SampleSet: Normal
StackLeniency: 0
Mode: 0
LetterboxInBreaks: 0
WidescreenStoryboard: 0

[Editor]
DistanceSpacing: 1
BeatDivisor: 8
GridSize: 4
TimelineZoom: 2.2

[Metadata]
Title:Hastur
TitleUnicode:Hastur
Artist:USAO
ArtistUnicode:USAO
Creator:fanzhen0019
Version:Experimental
Source:REFLEC BEAT VOLZZA
Tags:rbv electronic instrumental ultimate survival moombahcore DANCERUSH STARDOM DRS ULTIMATE HYPER BEST UOM Records
BeatmapID:1415466
BeatmapSetID:669191

[Difficulty]
HPDrainRate:5
CircleSize:5
OverallDifficulty:9
ApproachRate:9.8
SliderMultiplier:3.19999990463257
SliderTickRate:1

[Events]
//Background and Video events
0,0,"randomanimegirl.jpg",0,0
//Break Periods
2,58183,65639
//Storyboard Layer 0 (Background)
//Storyboard Layer 1 (Fail)
//Storyboard Layer 2 (Pass)
//Storyboard Layer 3 (Foreground)
//Storyboard Layer 4 (Overlay)
//Storyboard Sound Samples

[TimingPoints]
1034,508.474576271186,4,1,0,60,1,0
5101,-200,4,1,0,60,0,0
9169,-200,4,1,0,60,0,0
21372,-133.333333333333,4,1,0,60,0,0
25440,-25,4,1,0,60,0,1
33576,-25,4,1,0,60,0,0
66118,-100,4,1,0,60,0,0
82389,-25,4,1,0,60,0,1
88491,-100,4,1,0,60,0,0
90525,-25,4,1,0,60,0,1
96627,-100,4,1,0,60,0,0
98406,-50,4,1,0,60,0,1
98661,-25,4,1,0,60,0,1
100695,-100,4,1,0,60,0,1
102728,-25,4,1,0,60,0,1
102983,-25,4,1,0,60,0,1
104762,-100,4,1,0,60,0,1
106796,-25,4,1,0,60,0,1
108830,-100,4,1,0,60,0,1
110864,-25,4,1,0,60,0,1
114423,-25,4,1,0,60,0,0

[Colours]
Combo1 : 238,238,238
Combo2 : 163,163,163

[HitObjects]
256,192,1034,5,4,0:0:0:0:
256,192,1034,12,0,5101,0:0:0:0:
32,328,5356,5,2,0:0:0:0:
112,328,5483,2,0,L|16:328,1,79.9999976158142,2|2,0:0|0:0,0:0:0:0:
112,328,5864,1,2,0:0:0:0:
32,328,5991,2,0,L|112:328,2,79.9999976158142,2|2|2,0:0|0:0|0:0,0:0:0:0:
152,256,6627,1,2,0:0:0:0:
296,304,6754,2,0,L|216:304,1,79.9999976158142
360,256,7135,1,4,0:0:0:0:
480,328,7389,5,2,0:0:0:0:
400,328,7516,2,0,L|496:328,1,79.9999976158142,2|2,0:0|0:0,0:0:0:0:
400,328,7897,1,2,0:0:0:0:
480,328,8025,1,2,0:0:0:0:
480,328,9169,6,0,P|500:296|488:252,1,79.9999976158142
408,244,9550,2,0,P|388:276|400:320,1,79.9999976158142
444,284,9932,1,0,0:0:0:0:
444,284,10059,1,0,0:0:0:0:
264,332,10313,6,0,B|232:328|232:328|212:336|212:336|176:332,1,79.9999976158142,2|2,0:2|0:2,0:0:0:0:
92,280,10695,1,0,0:0:0:0:
172,328,10822,1,2,0:2:0:0:
0,272,10949,2,0,B|32:276|32:276|52:268|52:268|88:272,1,79.9999976158142,2|4,0:2|0:0,0:0:0:0:
88,76,11584,1,2,0:2:0:0:
80,4,11711,1,0,0:0:0:0:
4,88,11839,5,0,0:0:0:0:
92,96,11966,1,0,0:0:0:0:
180,104,12093,1,0,0:0:0:0:
288,48,12220,6,0,P|320:28|364:40,1,79.9999976158142,2|2,0:2|0:2,0:0:0:0:
372,120,12601,2,0,P|340:140|296:128,1,79.9999976158142,2|2,0:2|0:2,0:0:0:0:
332,84,12983,1,2,0:2:0:0:
332,84,13110,1,0,0:0:0:0:
408,268,13237,6,0,L|416:176,1,79.9999976158142,4|0,0:0|0:0,0:0:0:0:
480,284,13618,2,0,L|472:376,1,79.9999976158142
408,268,14000,1,0,0:0:0:0:
480,284,14127,1,0,0:0:0:0:
112,296,14381,6,0,B|48:292|48:292|64:300,1,79.9999976158142,2|2,0:2|0:2,0:0:0:0:
248,288,14762,1,0,0:2:0:0:
112,280,14889,1,2,0:2:0:0:
248,272,15017,2,0,B|312:276|312:276|296:268,1,79.9999976158142,2|4,0:2|0:0,0:0:0:0:
424,88,15652,5,0,0:0:0:0:
416,0,15779,1,0,0:0:0:0:
504,120,15906,5,0,0:0:0:0:
416,112,16033,1,0,0:0:0:0:
328,104,16161,1,0,0:0:0:0:
248,40,16288,6,0,P|215:62|176:59,1,79.9999976158142,2|2,0:2|0:2,0:0:0:0:
132,124,16669,2,0,P|99:101|60:104,1,79.9999976158142,2|2,0:2|0:2,0:0:0:0:
4,156,17050,1,2,0:2:0:0:
4,156,17178,1,0,0:0:0:0:
48,336,17305,6,0,L|136:336,1,79.9999976158142,4|8,0:0|0:0,0:0:0:0:
128,336,17686,2,0,L|48:336,1,79.9999976158142,2|2,0:0|0:0,0:0:0:0:
48,336,18067,1,8,0:0:0:0:
128,336,18195,2,0,L|48:336,2,79.9999976158142,2|2|2,0:0|0:0|0:0,0:0:0:0:
48,336,18830,1,2,0:0:0:0:
128,336,18957,1,2,0:0:0:0:
208,336,19084,1,8,0:0:0:0:
464,336,19339,6,0,L|376:336,1,79.9999976158142,0|8,0:0|0:0,0:0:0:0:
384,336,19720,2,0,L|464:336,1,79.9999976158142,2|2,0:0|0:0,0:0:0:0:
464,336,20101,1,8,0:0:0:0:
384,336,20229,2,0,L|464:336,2,79.9999976158142,2|2|2,0:0|0:0|0:0,0:0:0:0:
464,336,20864,1,2,0:0:0:0:
384,336,20991,1,2,0:0:0:0:
304,336,21118,1,8,0:0:0:0:
200,192,21372,6,0,L|80:192,1,120.000001001358,4|8,0:0|0:0,0:0:0:0:
320,192,21754,2,0,L|440:192,1,120.000001001358,2|2,0:0|0:0,0:0:0:0:
200,192,22135,1,8,0:0:0:0:
320,192,22262,1,2,0:0:0:0:
256,112,22389,5,4,0:0:0:0:
200,336,22644,1,2,0:0:0:0:
320,336,22771,2,0,L|176:336,1,120.000001001358,2|2,0:0|0:0,0:0:0:0:
320,336,23152,1,2,0:0:0:0:
200,336,23279,1,2,0:0:0:0:
288,68,23406,6,0,L|320:64,2,30.0000002503395
336,128,23661,2,0,L|368:124,2,30.0000002503395
200,132,23915,6,0,L|232:128,1,30.0000002503395
248,192,24042,2,0,L|280:188,1,30.0000002503395
296,256,24169,2,0,L|328:252,1,30.0000002503395
344,316,24296,2,0,L|376:312,1,30.0000002503395
116,192,24423,5,0,0:0:0:0:
139,190,24487,1,0,0:0:0:0:
164,252,24550,1,0,0:0:0:0:
187,250,24614,1,0,0:0:0:0:
212,316,24678,1,0,0:0:0:0:
235,314,24742,1,0,0:0:0:0:
260,376,24805,1,0,0:0:0:0:
283,374,24869,1,0,0:0:0:0:
436,360,24932,5,0,0:0:0:0:
348,88,25440,6,0,L|440:80,1,79.9999976158142
427,81,25695,2,0,B|424:120|388:152|388:152|404:92|364:36|280:32|248:72|248:72|304:76|340:128|324:180|281:209,1,479.999985694885,0|0,0:0|2:0,0:0:0:0:
248,144,25949,5,0,0:0:0:0:
512,232,26076,6,0,L|336:240,1,159.999995231628,0|0,0:0|2:0,0:0:0:0:
352,304,26203,2,0,L|511:296,1,159.999995231628,0|0,0:0|2:0,0:0:0:0:
512,364,26330,2,0,L|352:371,1,159.999995231628,0|0,0:0|2:0,0:0:0:0:
272,376,26457,1,0,0:0:0:0:
176,272,26584,6,0,L|0:264,1,159.999995231628,0|0,0:0|2:0,0:0:0:0:
16,200,26711,2,0,L|175:207,1,159.999995231628,0|0,0:0|2:0,0:0:0:0:
176,140,26838,2,0,L|16:132,1,159.999995231628,0|0,0:0|2:0,0:0:0:0:
16,64,26966,2,0,L|175:71,1,159.999995231628,0|0,0:0|2:0,0:0:0:0:
248,76,27093,2,0,L|407:83,1,159.999995231628,0|0,0:0|2:0,0:0:0:0:
480,88,27220,2,0,B|440:104|408:84|408:84|408:112|392:152|392:152|364:100|332:80|332:80|340:128|308:188|308:188|288:116|248:76,1,479.999985694885,0|0,0:0|2:0,0:0:0:0:
175,71,27474,6,0,B|164:96|128:100|113:87|104:44|133:27|173:30|175:71|175:71|170:102|112:90|104:60|112:24|160:24|183:40|175:71|175:71|157:106|130:99|88:80|104:24|160:20|188:34|175:71|175:71,1,479.999985694885,0|0,0:0|2:0,0:0:0:0:
208,136,27728,6,0,P|232:28|140:157,1,479.999985694885,0|0,0:0|2:0,0:0:0:0:
176,204,27983,5,0,0:0:0:0:
276,368,28110,2,0,L|440:364,1,159.999995231628,0|0,0:0|2:0,0:0:0:0:
448,292,28237,2,0,L|284:288,1,159.999995231628,0|0,0:0|2:0,0:0:0:0:
304,212,28364,2,0,L|468:208,1,159.999995231628,0|0,0:0|2:0,0:0:0:0:
476,132,28491,1,0,0:0:0:0:
216,28,28618,2,0,L|52:32,1,159.999995231628,0|0,0:0|2:0,0:0:0:0:
44,104,28745,2,0,L|208:108,1,159.999995231628,0|0,0:0|2:0,0:0:0:0:
188,184,28872,2,0,L|24:188,1,159.999995231628,0|0,0:0|2:0,0:0:0:0:
8,264,29000,6,0,B|24:280|52:280|52:280|24:280|8:264|8:264|24:280|52:280|52:280|24:280|8:264|8:264|24:280|52:280|52:280|24:280|8:264|8:264|24:280|52:280|52:280|24:280|8:264|8:264|24:280|52:280|52:280|24:280|8:264|8:264|-8:312|36:372|112:356|128:276|128:276|152:272|168:256|168:256|184:196|272:188|304:264|272:304|228:316,1,959.999971389771,0|0,0:0|2:0,0:0:0:0:
300,352,29508,6,0,B|370:368|370:368|315:355|315:355|345:333|343:304|343:304|417:321|417:321|359:308|359:308|388:290|379:255|379:255|484:279,1,479.999985694885,4|0,0:0|2:0,0:0:0:0:
471,276,29762,6,0,B|305:237|305:237|278:231|244:215|242:173|268:130|300:134|327:140|327:140|503:180,1,479.999985694885,0|0,0:0|2:0,0:0:0:0:
504,72,30017,5,0,0:0:0:0:
504,72,30144,2,0,P|428:48|348:64,1,159.999995231628,0|0,0:0|2:0,0:0:0:0:
350,62,30271,2,0,P|274:38|194:54,1,159.999995231628,0|0,0:0|2:0,0:0:0:0:
196,52,30398,2,0,P|120:28|40:44,1,159.999995231628,0|0,0:0|2:0,0:0:0:0:
120,180,30525,5,0,0:0:0:0:
42,42,30652,6,0,P|120:28|196:52,1,159.999995231628,0|0,0:0|2:0,0:0:0:0:
195,51,30779,2,0,P|252:105|277:180,1,159.999995231628,0|0,0:0|2:0,0:0:0:0:
277,180,30906,2,0,P|266:258|220:322,1,159.999995231628,0|0,0:0|2:0,0:0:0:0:
222,322,31033,2,0,P|152:360|73:360,1,159.999995231628,0|0,0:0|2:0,0:0:0:0:
64,356,31161,2,0,P|143:355|212:317,1,159.999995231628,0|0,0:0|2:0,0:0:0:0:
200,312,31288,2,0,B|142:362|58:350|58:350|50:350|50:350|58:350|58:350|50:350|50:350|58:350|58:350|50:350|50:350|58:350|58:350|50:350|50:350|58:350|58:350|50:350|50:350|58:350|58:350|50:350|50:350|58:350|58:350|50:350|50:350|58:350|58:350|50:350|50:350|58:350|58:350|50:350|50:350|58:350|58:350|50:350|50:350|58:350|58:350|50:350|50:350|58:350|58:350|50:350|50:350|58:350|58:350|50:350|50:350|58:350|58:350|50:350|50:350|58:350|58:350|50:350|50:350|58:350|58:350|50:350|50:350|58:350|58:350|50:350|50:350|58:350|58:350|50:350|50:350|58:350|58:350|50:350|50:350|58:350|58:350|50:350|50:350|58:350|58:350|50:350,1,479.999985694885,0|0,0:0|2:0,0:0:0:0:
50,350,31542,6,0,B|58:350|58:350|50:350|50:350|58:350|58:350|50:350|50:350|58:350|58:350|50:350|50:350|58:350|58:350|50:350|50:350|58:350|58:350|50:350|50:350|58:350|58:350|50:350|50:350|58:350|58:350|50:350|50:350|58:350|58:350|50:350|50:350|58:350|58:350|50:350|50:350|58:350|58:350|50:350|50:350|58:350|58:350|50:350|50:350|58:350|58:350|50:350|50:350|58:350|58:350|50:350|50:350|58:350|58:350|50:350|50:350|58:350|58:350|50:350|50:350|58:350|58:350|50:350|50:350|58:350|58:350|50:350|50:350|58:350|58:350|50:350|50:350|58:350|58:350|50:350|50:350|58:350|58:350|50:350|50:350|58:350|58:350|116:300|192:320|192:320|200:312|200:312|192:320|192:320|200:312|200:312|192:320|192:320|200:312|200:312|192:320|192:320|200:312|200:312|192:320|192:320|200:312|200:312|192:320|192:320|200:312|200:312|192:320|192:320|200:312|200:312|192:320|192:320|200:312|200:312|192:320|192:320|200:312|200:312|192:320|192:320|200:312|200:312|192:320|192:320|200:312|200:312|192:320|192:320|200:312|200:312|192:320|192:320|200:312|200:312|192:320|192:320|200:312|200:312|192:320|192:320|200:312|200:312|136:304|136:304|112:280|112:280|40:272,1,959.999971389771
24,200,32050,5,0,0:0:0:0:
168,184,32178,1,0,0:0:0:0:
24,200,32305,1,0,0:0:0:0:
44,128,32432,6,0,B|56:101|56:101|44:128|44:128|59:95|59:95|44:128|44:128|59:95|59:95|44:128|44:128|59:95|59:95|44:128|44:128|59:95|59:95|44:128|44:128|59:95|59:95|44:128|44:128|59:95|59:95|44:128|44:128|59:95|59:95|44:128|44:128|59:95|59:95|44:128,1,639.999980926514
128,148,32813,2,0,B|158:91|158:91|128:148|128:148|158:91|158:91|128:148|128:148|158:91|158:91,1,319.999990463257
212,172,33067,2,0,B|261:77|261:77|212:172|212:172|261:77,1,319.999990463257
304,200,33322,2,0,L|384:52,1,159.999995231628,0|0,0:0|2:0,0:0:0:0:
512,268,33576,6,0,B|520:268|520:268|512:260|512:260|504:268|504:268|512:276|512:276|520:268|520:268|512:260|512:260|504:268|504:268|512:276|512:276|520:268|520:268|512:260|512:260|504:268|504:268|512:276|512:276|520:268|520:268|512:260|512:260|504:268|504:268|512:276|512:276|520:268|520:268|512:260|512:260|504:268|504:268|512:276|512:276|520:268|520:268|512:260|512:260|504:268|504:268|512:276|512:276|520:268|520:268|512:260|512:260|504:268|504:268|512:276|512:276|520:268|520:268|512:260|512:260|504:268|504:268|512:276|512:276|520:268|520:268|512:260|512:260|504:268|504:268|512:276|512:276|520:268|520:268|456:268|456:268|396:132|396:132|392:128|392:128|396:124|396:124|400:128|400:128|396:132|396:132|400:128|400:128|396:124|396:124|392:128|392:128|396:132|396:132|400:128|400:128|396:124|396:124|392:128|392:128|396:132|396:132|400:128|400:128|396:124|396:124|392:128|392:128|396:132|396:132|280:348|280:348|268:352|268:352|264:364|264:364|268:376|268:376|280:380|280:380|292:376|292:376|296:364|296:364|292:352|292:352|280:348|280:348|268:352|268:352|264:364|264:364|268:376|268:376|280:380|280:380|292:376|292:376|296:364|296:364|292:352|292:352|280:348|280:348|268:352|268:352|264:364|264:364|268:376|268:376|280:380|280:380|292:376|292:376|296:364|296:364|292:352|292:352|280:348|280:348|268:352|268:352|264:364|264:364|268:376|268:376|280:380|280:380|292:376|292:376|296:364|296:364|292:352|292:352|280:348|280:348|268:352|268:352|264:364|264:364|268:376|268:376|280:380|280:380|292:376|292:376|296:364|296:364|292:352|292:352|280:348|280:348|220:256|220:256|216:252|216:252|220:248|220:248|224:252|224:252|220:256|220:256|216:252|216:252|220:248|220:248|224:252|224:252|220:256|220:256|216:252|216:252|220:248|220:248|224:252|224:252|220:256|220:256|200:288|200:288|20:288|20:288|4:256|4:256|0:252|0:252|4:248|4:248|8:252|8:252|4:256|4:256|0:252|0:252|4:248|4:248|8:252|8:252|4:256|4:256|0:252|0:252|4:248|4:248|8:252|8:252|4:256|4:256|0:252|0:252|4:248|4:248|8:252|8:252|4:256|4:256|0:252|0:252|4:248|4:248|8:252|8:252|4:256|4:256|0:252|0:252|4:248|4:248|8:252|8:252|4:256|4:256|0:252|0:252|4:248|4:248|20:212|20:212|88:212|88:212|158:211|158:211|140:236,1,2239.9999332428
150,222,34593,5,0,0:0:0:0:
0,96,34720,2,0,B|0:103|0:103|-7:96|-7:96|0:88|0:88|7:96|7:96|0:103|0:103|-7:96|-7:96|0:88|0:88|7:96|7:96|0:103|0:103|-7:96|-7:96|0:88|0:88|7:96|7:96|0:103|0:103|-7:96|-7:96|0:88|0:88|7:96|7:96|0:103|0:103|-7:96|-7:96|0:88|0:88|7:96|7:96|0:103|0:103|-7:96|-7:96|0:88|0:88|7:96|7:96|0:103|0:103|-7:96|-7:96|0:88|0:88|7:96|7:96|0:103|0:103|-7:96|-7:96|0:88|0:88|7:96|7:96|0:103|0:103|-7:96|-7:96|0:88|0:88|7:96|7:96|195:96|195:96|202:88|202:88|210:96|210:96|202:103|202:103|195:96|195:96|204:96,1,639.999980926514
200,96,35101,6,0,B|254:84|254:84|216:47|216:47|200:96,1,159.999995231628,0|0,0:0|2:0,0:0:0:0:
199,96,35228,2,0,B|183:145|183:145|236:134|236:134|199:96,1,159.999995231628,0|0,0:0|2:0,0:0:0:0:
198,95,35356,2,0,B|129:18|129:18|90:118|90:118|198:95,1,319.999990463257
452,216,35610,6,0,B|456:220|456:220|447:220|447:220|447:211|447:211|456:211|456:211|456:220|456:220|447:220|447:220|447:211|447:211|456:211|456:211|456:220|456:220|447:220|447:220|447:211|447:211|456:211|456:211|456:220|456:220|447:220|447:220|447:211|447:211|456:211|456:211|456:220|456:220|452:220|452:220|447:220|447:220|447:211|447:211|456:211|456:211|456:220|456:220|447:220|447:220|447:211|447:211|456:211|456:211|456:220|456:220|447:220|447:220|447:211|447:211|456:211|456:211|456:220|456:220|447:220|447:220|447:211|447:211|456:211|456:211|456:220|456:220|447:220|447:220|447:211|447:211|456:211|456:211|456:220|456:220|447:220|447:220|447:211|447:211|456:211|456:211|456:220|456:220|447:220|447:220|447:211|447:211|456:211|456:211|452:216,1,399.999988079071,0|0,0:0|2:0,0:0:0:0:
452,216,35864,6,0,B|396:80|396:80|392:76|392:76|396:72|396:72|400:76|400:76|396:80|396:80|392:76|392:76|396:72|396:72|400:76|400:76|396:80|396:80|392:76|392:76|396:72|396:72|400:76|400:76|396:80|396:80|392:76|392:76|396:72|396:72|400:76|400:76|396:80|396:80|392:76|392:76|396:72|396:72|400:76|400:76|396:80|396:80|320:264|320:264|308:268|308:268|304:280|304:280|308:292|308:292|320:296|320:296|332:292|332:292|336:280|336:280|332:268|332:268|320:264|320:264|308:268|308:268|304:280|304:280|308:292|308:292|320:296|320:296|332:292|332:292|336:280|336:280|332:268|332:268|320:264|320:264|308:268|308:268|304:280|304:280|308:292|308:292|320:296|320:296|332:292|332:292|336:280|336:280|332:268|332:268|320:264|320:264|304:260|304:260|240:260|240:260|192:260|192:260|184:260|184:260|188:256|188:256|184:260|184:260|188:264|188:264|184:260|184:260|188:264|188:264|192:260|192:260|188:256|188:256|188:264|188:264|192:260|192:260|188:256|188:256|184:260|184:260|188:264|188:264|184:260|184:260|188:264|188:264|192:260|192:260|188:256|188:256|184:260|184:260|188:256|188:256|192:260|192:260|188:264|188:264|184:260|184:260|188:256|188:256|192:260|192:260|188:264|188:264|184:260|184:260|120:260|120:260|72:208|72:208|8:208|8:208|4:204|4:204|0:208|0:208|4:212|4:212|8:208|8:208|4:204|4:204|0:208|0:208|4:212|4:212|8:208|8:208|4:204|4:204|0:208|0:208|4:212|4:212|8:208|8:208|4:204|4:204|0:208|0:208|4:212|4:212|8:208|8:208|4:204|4:204|0:208|0:208|4:212|4:212|8:208|8:208|4:204|4:204|0:208|0:208|4:212|4:212|8:208|8:208|4:204|4:204|0:208|0:208|4:212|4:212|8:208|8:208|4:204|4:204|0:208|0:208|4:204|4:204|8:208|8:208|4:212|4:212|0:208|0:208|4:204|4:204|8:208|8:208|4:212|4:212|0:208|0:208|4:204|4:204|8:208|8:208|72:208|72:208|124:164,1,1599.99995231628
128,56,36627,6,0,B|132:52|132:52|124:60|124:60|124:52|124:52|132:52|132:52|132:60|132:60|124:60|124:60|124:52|124:52|132:60|132:60|132:52|132:52|132:60|132:60|124:60|124:60|124:52|124:52|132:52|132:52|132:60|132:60|124:60|124:60|124:52|124:52|132:60|132:60|124:60|124:60|180:60|180:60|236:116|236:116|260:116|260:116|264:112|264:112|268:116|268:116|264:112|264:112|272:112|272:112|272:120|272:120|264:120|264:120|264:112|264:112|272:112|272:112|272:120|272:120|264:120|264:120|264:112|264:112|272:112|272:112|272:120|272:120|264:120|264:120|264:112|264:112|272:112|272:112|272:120|272:120|264:120|264:120|264:112|264:112|272:112|272:112|272:120|272:120|264:120|264:120|264:112|264:112|272:112|272:112|272:120|272:120|264:120|264:120|264:112|264:112|272:112|272:112|272:120|272:120|264:120|264:120|264:112|264:112|272:112|272:112|272:120|272:120|264:120|264:120|264:112|264:112|272:112|272:112|272:120|272:120|264:120|264:120|264:112|264:112|272:112|272:112|272:120|272:120|264:120|264:120|264:112|264:112|272:112|272:112|272:120|272:120|264:120|264:120|264:112|264:112|272:112|272:112|272:120|272:120|264:120|264:120|264:112|264:112|272:112|272:112|272:120|272:120|264:120|264:120|264:112|264:112|272:112|272:112|272:120|272:120|264:120|264:120|264:112|264:112|272:112|272:112|272:120|272:120|264:120|264:120|260:116|260:116|236:116|236:116|180:164|180:164|112:164,1,959.999971389771
112,288,37135,6,0,B|112:304|128:304|128:304|144:304|144:288|144:288|160:288|160:304|160:304|176:304|176:288|176:288|192:288|192:304|192:304|208:304|208:288|208:288|224:288|224:304|224:304|240:304|240:288|240:288|256:288|256:304|256:304|272:304|272:288|272:288|288:288|288:304|288:304|304:304|304:288|304:288|320:288|320:304|320:304|336:304|336:288|336:288|352:288|352:304|352:304|368:304|368:288|368:288|384:288|384:304|384:304|400:304|400:288|400:288|416:288|416:304|416:304|432:304|432:288|432:288|448:288|448:304|448:304|464:304|464:288|464:288|480:288|480:304|480:304|496:304|496:288|496:288|512:288|512:304,2,639.999980926514
48,8,37898,6,0,B|168:8|168:8|212:48|212:48|212:40|212:40|220:48|220:48|212:56|212:56|204:48|204:48|212:40|212:40|220:48|220:48|212:56|212:56|212:112|212:112|224:116|224:116|228:128|228:128|224:140|224:140|212:144|212:144|200:140|200:140|196:128|196:128|200:116|200:116|212:112|212:112|224:116|224:116|228:128|228:128|224:140|224:140|212:144|212:144|200:140|200:140|196:128|196:128|200:116|200:116|212:112|212:112|224:116|224:116|228:128|228:128|224:140|224:140|212:144|212:144|200:140|200:140|196:128|196:128|200:116|200:116|212:112|212:112|224:116|224:116|228:128|228:128|224:140|224:140|212:144|212:144|200:140|200:140|196:128|196:128|200:116|200:116|212:112|212:112|224:116|224:116|228:128|228:128|224:140|224:140|212:144|212:144|200:140|200:140|196:128|196:128|200:116|200:116|212:112|212:112|304:112|304:112|312:104|312:104|320:112|320:112|312:120|312:120|304:112|304:112|312:104|312:104|320:112|320:112|312:120|312:120|304:112|304:112|312:104|312:104|320:112|320:112|312:120|312:120|304:112|304:112|312:104|312:104|320:112|320:112|312:120|312:120|304:112|304:112|312:104|312:104|320:112|320:112|376:52|376:52|428:52|428:52|436:44|436:44|444:52|444:52|436:60|436:60|428:52|428:52|436:44|436:44|444:52|444:52|436:60|436:60|428:52|428:52|436:44|436:44|444:52|444:52|436:60|436:60|428:52|428:52|436:44|436:44|444:52|444:52|436:60|436:60|428:52|428:52|436:44|436:44|444:52|444:52|436:60|436:60|428:52|428:52|436:44|436:44|444:52|444:52|488:52|488:52|528:96,1,1599.99995231628
408,319,38661,6,0,B|412:323|412:323|404:323|404:323|404:315|404:315|412:315|412:315|412:323|412:323|404:323|404:323|404:315|404:315|412:315|412:315|412:323|412:323|404:315|404:315|404:323|404:323|404:315|404:315|412:315|412:315|412:323|412:323|404:323|404:323|404:315|404:315|412:315|412:315|412:323|412:323|404:315|404:315|412:315|412:315|323:314|323:314|268:259|268:259|272:263|272:263|264:263|264:263|264:255|264:255|272:255|272:255|272:263|272:263|264:263|264:263|264:255|264:255|272:255|272:255|272:263|272:263|264:263|264:263|264:255|264:255|272:255|272:255|272:263|272:263|264:263|264:263|264:255|264:255|272:255|272:255|272:263|272:263|264:263|264:263|264:255|264:255|272:255|272:255|272:263|272:263|264:263|264:263|264:255|264:255|272:255|272:255|272:263|272:263|264:263|264:263|264:255|264:255|272:255|272:255|272:263|272:263|264:263|264:263|264:255|264:255|272:255|272:255|272:263|272:263|264:263|264:263|264:255|264:255|272:255|272:255|272:263|272:263|264:263|264:263|264:255|264:255|272:255|272:255|272:263|272:263|264:263|264:263|264:255|264:255|272:255|272:255|272:263|272:263|264:263|264:263|264:255|264:255|272:255|272:255|272:263|272:263|264:263|264:263|264:255|264:255|272:255|272:255|272:263|272:263|264:263|264:263|264:255|264:255|272:255|272:255|272:263|272:263|264:263|264:263|264:255|264:255|272:255|272:255|348:256|348:256|408:196,1,959.999971389771
476,208,39169,6,0,B|476:92|476:92|476:40,1,159.999995231628,0|0,0:0|2:0,0:0:0:0:
404,206,39296,2,0,B|404:92|404:92|404:40,1,159.999995231628,0|0,0:0|2:0,0:0:0:0:
332,208,39423,2,0,B|332:96|332:96|264:96|264:96|264:212|264:212|192:212|192:212|192:56,1,479.999985694885
92,60,39678,5,0,0:0:0:0:
52,112,39805,1,0,0:0:0:0:
12,164,39932,1,0,0:0:0:0:
64,204,40059,1,0,0:0:0:0:
116,244,40186,1,0,0:0:0:0:
156,192,40313,1,0,0:0:0:0:
196,140,40440,1,0,0:0:0:0:
144,100,40567,1,0,0:0:0:0:
52,112,40695,5,0,0:0:0:0:
64,204,40822,1,0,0:0:0:0:
156,192,40949,1,0,0:0:0:0:
144,100,41076,1,0,0:0:0:0:
104,152,41203,6,0,B|108:156|108:156|100:156|100:156|100:148|100:148|108:148|108:148|108:156|108:156|100:156|100:156|100:148|100:148|108:148|108:148|108:156|108:156|100:156|100:156|100:148|100:148|108:148|108:148|108:156|108:156|100:156|100:156|100:148|100:148|108:148|108:148|108:156|108:156|100:156|100:156|100:148|100:148|108:148|108:148|108:156|108:156|100:156|100:156|100:148|100:148|108:148|108:148|108:156|108:156|100:156|100:156|100:148|100:148|108:148|108:148|108:156|108:156|100:156|100:156|100:148|100:148|108:148|108:148|108:156|108:156|100:156|100:156|100:148|100:148|108:148|108:148|108:156|108:156|100:156|100:156|104:152|104:152|100:148|100:148|108:148|108:148|108:156|108:156|100:156|100:156|100:148|100:148|108:148|108:148|108:156|108:156|100:156|100:156|100:148|100:148|108:148|108:148|108:156|108:156|104:152|104:152|436:152,1,639.999980926514
496,304,41711,6,0,B|464:304|464:304|432:304|432:272|432:272|432:224|432:224|432:192|400:192|400:192|368:192|368:224|368:224|368:272|368:272|368:304|336:304|336:304|304:304|304:272|304:272|304:224|304:224|304:192|272:192|272:192|240:192|240:224|240:224|240:272|240:272|240:304|208:304|208:304|192:288|192:288|192:304|192:304|176:288|176:288|176:304|176:304|160:288|160:288|160:304|160:304|144:288|144:288|144:304|144:304|128:288|128:288|128:304|128:304|112:288|112:288|112:304|112:304|96:288|96:288|96:304|96:304|80:288|80:288|80:304|80:304|64:288|64:288|64:304|64:304|32:304,1,959.999971389771
16,208,42220,6,0,B|-12:208|-12:208|-12:198|-12:198|44:198|44:198|44:189|44:189|16:189|16:189|16:132|16:132|-12:132|-12:132|-12:123|-12:123|44:123|44:123|44:113|44:113|16:113|16:113|16:104,1,319.999990463257,0|8,0:0|0:0,0:0:0:0:
144,176,42474,2,0,B|115:176|115:176|115:185|115:185|172:185|172:185|172:194|172:194|144:194|144:194|144:251|144:251|115:251|115:251|115:260|115:260|172:260|172:260|172:270|172:270|144:270|144:270|144:279,1,319.999990463257,0|8,0:0|0:0,0:0:0:0:
288,208,42728,1,0,0:0:0:0:
288,208,42856,2,8,B|259:208|259:208|259:198|259:198|316:198|316:198|316:189|316:189|288:189|288:189|288:132|288:132|259:132|259:132|259:123|259:123|316:123|316:123|316:113|316:113|288:113|288:113|288:104,2,319.999990463257
416,176,43237,1,0,0:0:0:0:
416,176,43365,2,8,B|387:176|387:176|387:185|387:185|444:185|444:185|444:194|444:194|416:194|416:194|416:251|416:251|387:251|387:251|387:260|387:260|444:260|444:260|444:270|444:270|416:270|416:270|416:279,1,319.999990463257
320,352,43618,5,0,0:0:0:0:
240,352,43745,2,0,B|192:352|192:352|176:320|176:320|160:384|160:384|144:352|144:352|0:352,2,319.999990463257,8|0|0,0:0|0:0|0:0,0:0:0:0:
390,256,44127,2,0,B|256:256|256:256|240:288|240:288|224:224|224:224|208:256|208:256|160:256,2,319.999990463257,8|0|0,0:0|0:0|0:0,0:0:0:0:
240,160,44508,2,0,B|192:160|192:160|176:128|176:128|160:192|160:192|144:160|144:160|0:160,1,319.999990463257,8|0,0:0|0:0,0:0:0:0:
0,32,44762,6,0,B|29:76|29:76|59:32|59:32|88:76|88:76|118:32|118:32|148:76|148:76|177:32|177:32|207:76|207:76|236:32|236:32|236:17,1,319.999990463257,0|8,0:0|0:0,0:0:0:0:
256,80,45017,2,0,B|285:35|285:35|315:80|315:80|344:35|344:35|374:80|374:80|404:35|404:35|433:80|433:80|463:35|463:35|492:80|492:80|492:94,1,319.999990463257,0|8,0:0|0:0,0:0:0:0:
432,240,45271,6,0,B|432:256|432:256|416:272|416:272|400:272|400:272|384:256|384:256|384:240|384:240|400:224|400:224|416:224|416:224|432:224|432:224|448:240|448:240|448:256|448:256|416:288|416:288|400:288|400:288|368:256|368:256|368:240|368:240|400:208|400:208|416:208|416:208|448:240|448:240|448:256|448:256|432:272|432:272|456:296,1,479.999985694885,8|0,0:0|2:0,0:0:0:0:
416,352,45525,2,0,B|368:352|368:352|304:288|304:288|304:208|304:208|368:144|368:144|448:144|448:144|512:208,1,479.999985694885,8|0,0:0|2:0,0:0:0:0:
512,208,45779,6,0,B|400:96|400:96|288:208|288:208|240:176|240:176|192:176|192:176|160:208|160:208|108:207|108:207|80:176|80:176|32:176|32:176|0:208|0:208|16:208|16:208|0:224|0:224|16:224|16:224|0:240|0:240|16:240|16:240|0:256|0:256|16:256|16:256|0:272|0:272|16:272|16:272|0:288|0:288|16:288|16:288|0:304|0:304|16:304|16:304|0:320|0:320|16:320|16:320|0:336|0:336|16:336,1,959.999971389771
96,368,46288,6,0,B|122:354|122:354|149:368|149:368|122:368|122:368|149:354|149:354|176:368|176:368|149:368|149:368|176:354|176:354|202:368|202:368|176:368|176:368|202:354|202:354|229:368,1,319.999990463257,0|8,0:0|0:0,0:0:0:0:
416,304,46542,2,0,B|389:290|389:290|362:304|362:304|389:304|389:304|362:290|362:290|335:304|335:304|362:304|362:304|335:290|335:290|309:304|309:304|335:304|335:304|309:290|309:290|282:304,1,319.999990463257,0|8,0:0|0:0,0:0:0:0:
96,240,46796,1,0,0:0:0:0:
96,240,46923,2,8,B|122:226|122:226|149:240|149:240|122:240|122:240|149:226|149:226|176:240|176:240|149:240|149:240|176:226|176:226|202:240|202:240|176:240|176:240|202:226|202:226|229:240,2,319.999990463257
281,176,47305,1,0,0:0:0:0:
282,176,47432,2,8,B|309:162|309:162|335:176|335:176|309:176|309:176|335:162|335:162|362:176|362:176|335:176|335:176|362:162|362:162|389:176|389:176|362:176|362:176|389:162|389:162|416:176,1,319.999990463257
496,176,47686,1,0,0:0:0:0:
496,48,47813,6,0,B|448:48|448:48|496:96|496:96|448:96|448:96|336:208,2,319.999990463257,8|0|0,0:0|0:0|0:0,0:0:0:0:
144,48,48195,2,0,B|224:48|224:48|256:80|256:80|256:16|256:16|288:48|288:48|384:48,2,319.999990463257,8|0|0,0:0|0:0|0:0,0:0:0:0:
174,206,48576,2,0,B|64:96|64:96|16:96|16:96|64:48|64:48|16:48,1,319.999990463257,8|0,0:0|0:0,0:0:0:0:
0,304,48830,6,0,B|29:348|29:348|59:304|59:304|88:348|88:348|118:304|118:304|148:348|148:348|177:304|177:304|207:348|207:348|236:304|236:304|236:289,1,319.999990463257,0|8,0:0|0:0,0:0:0:0:
256,352,49085,2,0,B|285:307|285:307|315:352|315:352|344:307|344:307|374:352|374:352|404:307|404:307|433:352|433:352|463:307|463:307|492:352|492:352|492:366,1,319.999990463257,0|8,0:0|0:0,0:0:0:0:
496,304,49339,6,0,B|500:300|500:300|500:308|500:308|492:308|492:308|492:300|492:300|500:300|500:300|500:308|500:308|492:308|492:308|492:300|492:300|500:300|500:300|500:308|500:308|492:308|492:308|492:300|492:300|500:300|500:300|500:308|500:308|492:308|492:308|492:300|492:300|500:300|500:300|500:308|500:308|492:308|492:308|492:300|492:300|500:300|500:300|500:308|500:308|492:308|492:308|492:300|492:300|500:300|500:300|500:308|500:308|492:308|492:308|492:300|492:300|500:300|500:300|500:308|500:308|492:308|492:308|492:300|492:300|500:300|500:300|500:308|500:308|492:308|492:308|492:300|492:300|500:300|500:300|500:308|500:308|496:304|496:304|492:308|492:308|492:300|492:300|500:300|500:300|500:308|500:308|492:308|492:308|492:300|492:300|500:300|500:300|500:308|500:308|492:308|492:308|492:300|492:300|500:300|500:300|496:304|496:304|496:-28,1,639.999980926514,8|8,0:0|0:0,0:0:0:0:
376,64,49847,6,0,B|372:60|372:60|380:60|380:60|380:68|380:68|372:68|372:68|372:60|372:60|380:60|380:60|380:68|380:68|372:68|372:68|372:60|372:60|380:60|380:60|380:68|380:68|372:68|372:68|372:60|372:60|380:60|380:60|380:68|380:68|372:68|372:68|372:60|372:60|380:60|380:60|380:68|380:68|372:68|372:68|372:60|372:60|380:60|380:60|380:68|380:68|372:68|372:68|372:60|372:60|380:60|380:60|380:68|380:68|372:68|372:68|372:60|372:60|380:60|380:60|380:68|380:68|372:68|372:68|372:60|372:60|380:60|380:60|380:68|380:68|372:68|372:68|372:60|372:60|380:60|380:60|376:64|376:64|380:68|380:68|372:68|372:68|372:60|372:60|380:60|380:60|380:68|380:68|372:68|372:68|372:60|372:60|380:60|380:60|380:68|380:68|372:68|372:68|372:60|372:60|376:64|376:64|136:64|136:64|376:64|376:64|376:64|376:64|372:68|372:68|372:60|372:60|380:60|380:60|380:68|380:68|372:68|372:68|372:60|372:60|380:60|380:60|380:68|380:68|372:68|372:68|372:60|372:60|380:60|380:60|380:68|380:68|372:68|372:68|372:60|372:60|380:60|380:60|380:68|380:68|372:68|372:68|372:60|372:60|380:60|380:60|380:68|380:68|372:68|372:68|372:60|372:60|380:60|380:60|380:68|380:68|372:68|372:68|372:60|372:60|380:60|380:60|380:68|380:68|372:68|372:68|372:60|372:60|380:60|380:60|380:68|380:68|372:68|372:68|372:60|372:60|380:60|380:60|380:68|380:68|372:68|372:68|372:60|372:60|380:60|380:60|380:68|380:68|372:68|372:68|372:60|372:60|380:60|380:60|380:68|380:68|372:68|372:68|372:60|372:60|380:60|380:60|380:68|380:68|372:68|372:68|372:60|372:60|380:60|380:60|380:68|380:68|372:68|372:68|372:60|372:60|380:60|380:60|380:68|380:68|372:68|372:68|372:60|372:60|380:60|380:60|380:68|380:68|376:64|376:64|372:68|372:68|372:60|372:60|380:60|380:60|380:68|380:68|372:68|372:68|372:60|372:60|380:60|380:60|380:68|380:68|372:68|372:68|372:60|372:60|380:60|380:60|380:68|380:68|372:68|372:68|372:60|372:60|380:60|380:60|380:68|380:68|372:68|372:68|372:60|372:60|380:60|380:60|380:68|380:68|372:68|372:68|372:60|372:60|380:60|380:60|380:68|380:68|372:68|372:68|372:60|372:60|380:60|380:60|380:68|380:68|372:68|372:68|372:60|372:60|380:60|380:60|380:68|380:68|372:68|372:68|372:60|372:60|380:60|380:60|380:68|380:68|372:68|372:68|372:60|372:60|380:60|380:60|376:64|376:64|136:64|136:64|132:60|132:60|140:60|140:60|140:68|140:68|132:68|132:68|132:60|132:60|140:60|140:60|140:68|140:68|132:68|132:68|132:60|132:60|140:60|140:60|140:68|140:68|132:68|132:68|132:60|132:60|140:60|140:60|140:68|140:68|132:68|132:68|132:60|132:60|140:60|140:60|140:68|140:68|132:68|132:68|132:60|132:60|140:60|140:60|140:68|140:68|132:68|132:68|132:60|132:60|140:60|140:60|140:68|140:68|132:68|132:68|132:60|132:60|140:60|140:60|140:68|140:68|132:68|132:68|132:60|132:60|140:68|140:68|132:68|132:68|132:60|132:60|140:68|140:68|132:68|132:68|132:60|132:60|140:60|140:60|140:68|140:68|132:68|132:68|132:60|132:60|140:60|140:60|140:68|140:68|132:68|132:68|132:60|132:60|140:60|140:60|140:68|140:68|132:68|132:68|132:60|132:60|140:60|140:60|140:68|140:68|132:68|132:68|132:60|132:60|140:60|140:60|140:68|140:68|132:68|132:68|132:60|132:60|140:60|140:60|140:68|140:68|132:68|132:68|132:60|132:60|140:60|140:60|140:68|140:68|132:68|132:68|132:60|132:60|140:60|140:60|140:68|140:68|136:64|136:64|132:68|132:68|132:60|132:60|140:60|140:60|140:68|140:68|132:68|132:68|132:60|132:60|140:60|140:60|140:68|140:68|132:68|132:68|132:60|132:60|140:60|140:60|140:68|140:68|132:68|132:68|132:60|132:60|140:60|140:60|140:68|140:68|132:68|132:68|132:60|132:60|140:60|140:60|136:64|136:64|376:64|376:64|372:60|372:60|380:60|380:60|380:68|380:68|372:68|372:68|372:60|372:60|380:60|380:60|380:68|380:68|372:68|372:68|372:60|372:60|380:60|380:60|380:68|380:68|372:68|372:68|372:60|372:60|380:60|380:60|380:68|380:68|372:68|372:68|372:60|372:60|380:60|380:60|380:68|380:68|372:68|372:68|372:60|372:60|380:60|380:60|380:68|380:68|372:68|372:68|372:60|372:60|380:60|380:60|380:68|380:68|372:68|372:68|372:60|372:60|380:60|380:60|380:68|380:68|372:68|372:68|372:60|372:60|380:60|380:60|380:68|380:68|372:68|372:68|372:60|372:60|380:60|380:60|380:68|380:68|372:68|372:68|372:60|372:60|380:60|380:60|380:68|380:68|372:68|372:68|372:60|372:60|372:60|372:60|380:60|380:60|380:68|380:68|372:68|372:68|372:60|372:60|380:60|380:60|376:64|376:64|136:64|136:64|376:64|376:64|372:60|372:60|380:60|380:60|380:68|380:68|372:68|372:68|372:60|372:60|380:60|380:60|380:68|380:68|372:68|372:68|372:60|372:60|380:60|380:60|360:80,1,3839.99988555908,4|4,0:0|0:0,0:0:0:0:
496,144,51627,2,0,B|512:104|512:104|496:64,1,79.9999976158142
376,144,51881,6,0,B|372:140|372:140|380:140|380:140|380:148|380:148|372:148|372:148|372:140|372:140|380:140|380:140|380:148|380:148|372:148|372:148|372:140|372:140|380:140|380:140|380:148|380:148|372:148|372:148|372:140|372:140|380:140|380:140|380:148|380:148|372:148|372:148|372:140|372:140|380:140|380:140|380:148|380:148|372:148|372:148|372:140|372:140|380:140|380:140|380:148|380:148|372:148|372:148|372:140|372:140|380:140|380:140|380:148|380:148|372:148|372:148|372:140|372:140|380:140|380:140|380:148|380:148|372:148|372:148|372:140|372:140|380:140|380:140|380:148|380:148|372:148|372:148|372:140|372:140|380:140|380:140|376:144|376:144|380:148|380:148|372:148|372:148|372:140|372:140|380:140|380:140|380:148|380:148|372:148|372:148|372:140|372:140|380:140|380:140|380:148|380:148|372:148|372:148|372:140|372:140|376:144|376:144|136:144|136:144|132:140|132:140|140:140|140:140|140:148|140:148|132:148|132:148|132:140|132:140|140:148|140:148|132:148|132:148|132:140|132:140|140:140|140:140|140:148|140:148|132:148|132:148|132:140|132:140|140:140|140:140|140:148|140:148|132:148|132:148|132:140|132:140|140:140|140:140|140:148|140:148|132:148|132:148|132:140|132:140|140:140|140:140|140:148|140:148|132:148|132:148|132:140|132:140|140:140|140:140|140:148|140:148|132:148|132:148|132:140|132:140|140:140|140:140|140:148|140:148|132:148|132:148|132:140|132:140|140:140|140:140|140:148|140:148|132:148|132:148|132:140|132:140|140:140|140:140|140:148|140:148|132:148|132:148|132:140|132:140|140:140|140:140|140:148|140:148|132:148|132:148|132:140|132:140|140:140|140:140|140:148|140:148|132:148|132:148|132:140|132:140|140:140|140:140|140:148|140:148|132:148|132:148|132:140|132:140|140:140|140:140|140:148|140:148|132:148|132:148|132:140|132:140|140:140|140:140|140:148|140:148|132:148|132:148|132:140|132:140|140:140|140:140|140:148|140:148|132:148|132:148|132:140|132:140|140:140|140:140|140:148|140:148|132:148|132:148|132:140|132:140|140:140|140:140|140:148|140:148|132:148|132:148|132:140|132:140|140:140|140:140|140:148|140:148|132:148|132:148|132:140|132:140|140:140|140:140|140:148|140:148|132:148|132:148|132:140|132:140|140:140|140:140|140:148|140:148|132:148|132:148|132:140|132:140|140:140|140:140|140:148|140:148|132:148|132:148|132:140|132:140|140:140|140:140|136:144|136:144|376:144|376:144|372:140|372:140|380:140|380:140|380:148|380:148|372:148|372:148|372:140|372:140|380:140|380:140|380:148|380:148|372:148|372:148|372:140|372:140|380:140|380:140|380:148|380:148|372:148|372:148|372:140|372:140|380:140|380:140|380:148|380:148|372:148|372:148|372:140|372:140|380:140|380:140|380:148|380:148|372:148|372:148|372:140|372:140|380:140|380:140|380:148|380:148|372:148|372:148|372:140|372:140|380:140|380:140|380:148|380:148|372:148|372:148|372:140|372:140|380:140|380:140|380:148|380:148|372:148|372:148|372:140|372:140|380:140|380:140|380:148|380:148|372:148|372:148|372:140|372:140|380:140|380:140|380:148|380:148|372:148|372:148|372:140|372:140|380:140|380:140|380:148|380:148|372:148|372:148|372:140|372:140|380:140|380:140|380:148|380:148|372:148|372:148|372:140|372:140|380:140|380:140|376:144|376:144|136:144|136:144|132:140|132:140|140:140|140:140|140:148|140:148|132:148|132:148|132:140|132:140|140:140|140:140|140:148|140:148|132:148|132:148|132:140|132:140|140:140|140:140|140:148|140:148|132:148|132:148|132:140|132:140|140:140|140:140|140:148|140:148|132:148|132:148|132:140|132:140|140:140|140:140|140:148|140:148|132:148|132:148|132:140|132:140|140:140|140:140|140:148|140:148|132:148|132:148|132:140|132:140|140:140|140:140|140:148|140:148|132:148|132:148|132:140|132:140|140:140|140:140|140:148|140:148|132:148|132:148|132:140|132:140|140:140|140:140|140:148|140:148|132:148|132:148|132:140|132:140|140:140|140:140|140:148|140:148|132:148|132:148|132:140|132:140|140:140|140:140|140:148|140:148|132:148|132:148|132:140|132:140|140:140|140:140|140:148|140:148|132:148|132:148|132:140|132:140|136:144|136:144|376:144|376:144|372:140|372:140|380:140|380:140|380:148|380:148|372:148|372:148|372:140|372:140|380:140|380:140|380:148|380:148|372:148|372:148|372:140|372:140|380:140|380:140|380:148|380:148|372:148|372:148|372:140|372:140|380:140|380:140|380:148|380:148|372:148|372:148|372:140|372:140|380:140|380:140|380:148|380:148|372:148|372:148|372:140|372:140|380:140|380:140|380:148|380:148|372:148|372:148|372:140|372:140|380:140|380:140|380:148|380:148|372:148|372:148|372:140|372:140|380:140|380:140|380:148|380:148|372:148|372:148|372:140|372:140|380:140|380:140|380:148|380:148|372:148|372:148|372:140|372:140|380:140|380:140|380:148|380:148|372:148|372:148|372:140|372:140|380:140|380:140|380:148|380:148|372:148|372:148|372:140|372:140|380:140|380:140|380:148|380:148|372:148|372:148|372:140|372:140|380:140|380:140|380:148|380:148|372:148|372:148|372:140|372:140|380:140|380:140|380:148|380:148|372:148|372:148|372:140|372:140|380:140|380:140|380:148|380:148|372:148|372:148|372:140|372:140|380:140|380:140|380:148|380:148|372:148|372:148|372:140|372:140|380:140|380:140|380:148|380:148|372:148|372:148|372:140|372:140|380:140|380:140|380:148|380:148|372:148|372:148|372:140|372:140|380:140|380:140|380:148|380:148|372:148|372:148|372:140|372:140|380:140|380:140|380:148|380:148|372:148|372:148|372:140|372:140|380:140|380:140|380:148|380:148|372:148|372:148|372:140|372:140|380:140|380:140|380:148|380:148|372:148|372:148|372:140|372:140|380:140|380:140|376:144|376:144|112:144,1,3839.99988555908,4|8,0:0|0:0,0:0:0:0:
8,224,53661,2,0,B|-8:184|-8:184|8:144,1,79.9999976158142,4|0,0:2|0:0,0:0:0:0:
136,224,53915,6,8,B|140:220|140:220|132:220|132:220|132:228|132:228|140:228|140:228|140:220|140:220|132:220|132:220|132:228|132:228|140:228|140:228|140:220|140:220|132:220|132:220|132:228|132:228|140:228|140:228|140:220|140:220|132:220|132:220|132:228|132:228|140:228|140:228|140:220|140:220|132:220|132:220|132:228|132:228|140:228|140:228|140:220|140:220|132:220|132:220|132:228|132:228|140:228|140:228|140:220|140:220|132:220|132:220|132:228|132:228|140:228|140:228|140:220|140:220|132:220|132:220|132:228|132:228|140:228|140:228|140:220|140:220|132:220|132:220|132:228|132:228|140:228|140:228|140:220|140:220|132:220|132:220|136:224|136:224|132:228|132:228|140:228|140:228|140:220|140:220|132:220|132:220|132:228|132:228|140:228|140:228|140:220|140:220|132:220|132:220|132:228|132:228|140:228|140:228|140:220|140:220|136:224|136:224|376:224|376:224|136:224|136:224|136:224|136:224|140:228|140:228|140:220|140:220|132:220|132:220|132:228|132:228|140:228|140:228|140:220|140:220|132:220|132:220|132:228|132:228|140:228|140:228|140:220|140:220|132:220|132:220|132:228|132:228|140:228|140:228|140:220|140:220|132:220|132:220|132:228|132:228|140:228|140:228|140:220|140:220|132:220|132:220|132:228|132:228|140:228|140:228|140:220|140:220|132:220|132:220|132:228|132:228|140:228|140:228|140:220|140:220|132:220|132:220|132:228|132:228|140:228|140:228|140:220|140:220|132:220|132:220|132:228|132:228|140:228|140:228|140:220|140:220|132:220|132:220|132:228|132:228|140:228|140:228|140:220|140:220|132:220|132:220|132:228|132:228|140:228|140:228|140:220|140:220|132:220|132:220|132:228|132:228|140:228|140:228|140:220|140:220|132:220|132:220|132:228|132:228|140:228|140:228|140:220|140:220|132:220|132:220|132:228|132:228|140:228|140:228|140:220|140:220|132:220|132:220|132:228|132:228|140:228|140:228|140:220|140:220|132:220|132:220|132:228|132:228|136:224|136:224|140:228|140:228|140:220|140:220|132:220|132:220|132:228|132:228|140:228|140:228|140:220|140:220|132:220|132:220|132:228|132:228|140:228|140:228|140:220|140:220|132:220|132:220|132:228|132:228|140:228|140:228|140:220|140:220|132:220|132:220|132:228|132:228|140:228|140:228|140:220|140:220|132:220|132:220|132:228|132:228|140:228|140:228|140:220|140:220|132:220|132:220|132:228|132:228|140:228|140:228|140:220|140:220|132:220|132:220|132:228|132:228|140:228|140:228|140:220|140:220|132:220|132:220|132:228|132:228|140:228|140:228|140:220|140:220|132:220|132:220|132:228|132:228|140:228|140:228|140:220|140:220|132:220|132:220|136:224|136:224|376:224|376:224|380:220|380:220|372:220|372:220|372:228|372:228|380:228|380:228|380:220|380:220|372:220|372:220|372:228|372:228|380:228|380:228|380:220|380:220|372:220|372:220|372:228|372:228|380:228|380:228|380:220|380:220|372:220|372:220|372:228|372:228|380:228|380:228|380:220|380:220|372:220|372:220|372:228|372:228|380:228|380:228|380:220|380:220|372:220|372:220|372:228|372:228|380:228|380:228|380:220|380:220|372:220|372:220|372:228|372:228|380:228|380:228|380:220|380:220|372:220|372:220|372:228|372:228|380:228|380:228|380:220|380:220|372:228|372:228|380:228|380:228|380:220|380:220|372:228|372:228|380:228|380:228|380:220|380:220|372:220|372:220|372:228|372:228|380:228|380:228|380:220|380:220|372:220|372:220|372:228|372:228|380:228|380:228|380:220|380:220|372:220|372:220|372:228|372:228|380:228|380:228|380:220|380:220|372:220|372:220|372:228|372:228|380:228|380:228|380:220|380:220|372:220|372:220|372:228|372:228|380:228|380:228|380:220|380:220|372:220|372:220|372:228|372:228|380:228|380:228|380:220|380:220|372:220|372:220|372:228|372:228|380:228|380:228|380:220|380:220|372:220|372:220|372:228|372:228|376:224|376:224|380:228|380:228|380:220|380:220|372:220|372:220|372:228|372:228|380:228|380:228|380:220|380:220|372:220|372:220|372:228|372:228|380:228|380:228|380:220|380:220|372:220|372:220|372:228|372:228|380:228|380:228|380:220|380:220|372:220|372:220|372:228|372:228|380:228|380:228|380:220|380:220|372:220|372:220|376:224|376:224|136:224|136:224|140:220|140:220|132:220|132:220|132:228|132:228|140:228|140:228|140:220|140:220|132:220|132:220|132:228|132:228|140:228|140:228|140:220|140:220|132:220|132:220|132:228|132:228|140:228|140:228|140:220|140:220|132:220|132:220|132:228|132:228|140:228|140:228|140:220|140:220|132:220|132:220|132:228|132:228|140:228|140:228|140:220|140:220|132:220|132:220|132:228|132:228|140:228|140:228|140:220|140:220|132:220|132:220|132:228|132:228|140:228|140:228|140:220|140:220|132:220|132:220|132:228|132:228|140:228|140:228|140:220|140:220|132:220|132:220|132:228|132:228|140:228|140:228|140:220|140:220|132:220|132:220|132:228|132:228|140:228|140:228|140:220|140:220|132:220|132:220|132:228|132:228|140:228|140:228|140:220|140:220|140:220|140:220|132:220|132:220|132:228|132:228|140:228|140:228|140:220|140:220|132:220|132:220|136:224|136:224|376:224|376:224|136:224|136:224|140:220|140:220|132:220|132:220|132:228|132:228|140:228|140:228|140:220|140:220|132:220|132:220|132:228|132:228|140:228|140:228|140:220|140:220|132:220|132:220|135:223,1,3839.99988555908,8|4,0:0|0:0,0:0:0:0:
24,304,55695,2,0,B|8:264|8:264|24:224,1,79.9999976158142
136,304,55949,6,4,B|140:300|140:300|132:300|132:300|132:308|132:308|140:308|140:308|140:300|140:300|132:300|132:300|132:308|132:308|140:308|140:308|140:300|140:300|132:300|132:300|132:308|132:308|140:308|140:308|140:300|140:300|132:300|132:300|132:308|132:308|140:308|140:308|140:300|140:300|132:300|132:300|132:308|132:308|140:308|140:308|140:300|140:300|132:300|132:300|132:308|132:308|140:308|140:308|140:300|140:300|132:300|132:300|132:308|132:308|140:308|140:308|140:300|140:300|132:300|132:300|132:308|132:308|140:308|140:308|140:300|140:300|132:300|132:300|132:308|132:308|140:308|140:308|140:300|140:300|132:300|132:300|136:304|136:304|132:308|132:308|140:308|140:308|140:300|140:300|132:300|132:300|132:308|132:308|140:308|140:308|140:300|140:300|132:300|132:300|132:308|132:308|140:308|140:308|140:300|140:300|136:304|136:304|376:304|376:304|380:300|380:300|372:300|372:300|372:308|372:308|380:308|380:308|380:300|380:300|372:308|372:308|380:308|380:308|380:300|380:300|372:300|372:300|372:308|372:308|380:308|380:308|380:300|380:300|372:300|372:300|372:308|372:308|380:308|380:308|380:300|380:300|372:300|372:300|372:308|372:308|380:308|380:308|380:300|380:300|372:300|372:300|372:308|372:308|380:308|380:308|380:300|380:300|372:300|372:300|372:308|372:308|380:308|380:308|380:300|380:300|372:300|372:300|372:308|372:308|380:308|380:308|380:300|380:300|372:300|372:300|372:308|372:308|380:308|380:308|380:300|380:300|372:300|372:300|372:308|372:308|380:308|380:308|380:300|380:300|372:300|372:300|372:308|372:308|380:308|380:308|380:300|380:300|372:300|372:300|372:308|372:308|380:308|380:308|380:300|380:300|372:300|372:300|372:308|372:308|380:308|380:308|380:300|380:300|372:300|372:300|372:308|372:308|380:308|380:308|380:300|380:300|372:300|372:300|372:308|372:308|380:308|380:308|380:300|380:300|372:300|372:300|372:308|372:308|380:308|380:308|380:300|380:300|372:300|372:300|372:308|372:308|380:308|380:308|380:300|380:300|372:300|372:300|372:308|372:308|380:308|380:308|380:300|380:300|372:300|372:300|372:308|372:308|380:308|380:308|380:300|380:300|372:300|372:300|372:308|372:308|380:308|380:308|380:300|380:300|372:300|372:300|372:308|372:308|380:308|380:308|380:300|380:300|372:300|372:300|372:308|372:308|380:308|380:308|380:300|380:300|372:300|372:300|376:304|376:304|136:304|136:304|140:300|140:300|132:300|132:300|132:308|132:308|140:308|140:308|140:300|140:300|132:300|132:300|132:308|132:308|140:308|140:308|140:300|140:300|132:300|132:300|132:308|132:308|140:308|140:308|140:300|140:300|132:300|132:300|132:308|132:308|140:308|140:308|140:300|140:300|132:300|132:300|132:308|132:308|140:308|140:308|140:300|140:300|132:300|132:300|132:308|132:308|140:308|140:308|140:300|140:300|132:300|132:300|132:308|132:308|140:308|140:308|140:300|140:300|132:300|132:300|132:308|132:308|140:308|140:308|140:300|140:300|132:300|132:300|132:308|132:308|140:308|140:308|140:300|140:300|132:300|132:300|132:308|132:308|140:308|140:308|140:300|140:300|132:300|132:300|132:308|132:308|140:308|140:308|140:300|140:300|132:300|132:300|132:308|132:308|140:308|140:308|140:300|140:300|132:300|132:300|136:304|136:304|376:304|376:304|380:300|380:300|372:300|372:300|372:308|372:308|380:308|380:308|380:300|380:300|372:300|372:300|372:308|372:308|380:308|380:308|380:300|380:300|372:300|372:300|372:308|372:308|380:308|380:308|380:300|380:300|372:300|372:300|372:308|372:308|380:308|380:308|380:300|380:300|372:300|372:300|372:308|372:308|380:308|380:308|380:300|380:300|372:300|372:300|372:308|372:308|380:308|380:308|380:300|380:300|372:300|372:300|372:308|372:308|380:308|380:308|380:300|380:300|372:300|372:300|372:308|372:308|380:308|380:308|380:300|380:300|372:300|372:300|372:308|372:308|380:308|380:308|380:300|380:300|372:300|372:300|372:308|372:308|380:308|380:308|380:300|380:300|372:300|372:300|372:308|372:308|380:308|380:308|380:300|380:300|372:300|372:300|372:308|372:308|380:308|380:308|380:300|380:300|376:304|376:304|136:304|136:304|140:300|140:300|132:300|132:300|132:308|132:308|140:308|140:308|140:300|140:300|132:300|132:300|132:308|132:308|140:308|140:308|140:300|140:300|132:300|132:300|132:308|132:308|140:308|140:308|140:300|140:300|132:300|132:300|132:308|132:308|140:308|140:308|140:300|140:300|132:300|132:300|132:308|132:308|140:308|140:308|140:300|140:300|132:300|132:300|132:308|132:308|140:308|140:308|140:300|140:300|132:300|132:300|132:308|132:308|140:308|140:308|140:300|140:300|132:300|132:300|132:308|132:308|140:308|140:308|140:300|140:300|132:300|132:300|132:308|132:308|140:308|140:308|140:300|140:300|132:300|132:300|132:308|132:308|140:308|140:308|140:300|140:300|132:300|132:300|132:308|132:308|140:308|140:308|140:300|140:300|132:300|132:300|132:308|132:308|140:308|140:308|140:300|140:300|132:300|132:300|132:308|132:308|140:308|140:308|140:300|140:300|132:300|132:300|132:308|132:308|140:308|140:308|140:300|140:300|132:300|132:300|132:308|132:308|140:308|140:308|140:300|140:300|132:300|132:300|132:308|132:308|140:308|140:308|140:300|140:300|132:300|132:300|132:308|132:308|140:308|140:308|140:300|140:300|132:300|132:300|132:308|132:308|140:308|140:308|140:300|140:300|132:300|132:300|132:308|132:308|140:308|140:308|140:300|140:300|132:300|132:300|132:308|132:308|140:308|140:308|140:300|140:300|132:300|132:300|132:308|132:308|140:308|140:308|140:300|140:300|132:300|132:300|132:308|132:308|140:308|140:308|140:300|140:300|132:300|132:300|136:304|136:304|376:304,1,3839.99988555908
256,16,57983,5,4,0:0:0:0:
8,116,66118,6,0,P|64:92|140:160,1,159.999995231628,4|0,0:0|0:0,0:0:0:0:
223,152,66500,2,0,L|64:164,1,159.999995231628,2|2,0:0|0:0,0:0:0:0:
300,120,66881,1,2,0:0:0:0:
292,200,67008,2,0,L|451:188,2,159.999995231628,2|2|0,0:0|0:0|0:0,0:0:0:0:
300,120,67644,1,0,0:0:0:0:
508,236,67771,2,0,P|452:260|376:192,1,159.999995231628,8|8,0:0|0:0,0:0:0:0:
360,312,68152,6,0,P|416:288|492:356,1,159.999995231628,4|8,0:0|0:0,0:0:0:0:
416,360,68533,1,0,0:0:0:0:
280,319,68661,2,0,L|364:311,1,79.9999976158142,0|2,0:0|0:0,0:0:0:0:
416,360,68915,1,2,0:0:0:0:
232,260,69042,2,0,L|148:268,1,79.9999976158142,2|0,0:0|0:0,0:0:0:0:
22,236,69296,2,0,P|78:288|152:267,1,159.999995231628,2|2,0:0|0:0,0:0:0:0:
96,216,69678,1,0,0:0:0:0:
168,196,69805,2,0,P|112:143|38:165,1,159.999995231628,8|8,0:0|0:0,0:0:0:0:
0,56,70186,6,0,B|88:36|56:88|160:64,1,159.999995231628,4|0,0:0|0:0,0:0:0:0:
200,124,70567,2,0,P|200:64|288:32,1,159.999995231628,2|2,0:0|0:0,0:0:0:0:
188,204,70949,1,2,0:0:0:0:
264,176,71076,2,0,P|336:156|346:82,2,159.999995231628,2|2|2,0:0|0:0|0:0,0:0:0:0:
276,104,71711,1,0,0:0:0:0:
504,192,71839,2,0,B|416:212|448:160|347:183,1,159.999995231628,8|8,0:0|0:0,0:0:0:0:
232,256,72220,6,0,B|320:236|288:288|388:264,1,159.999995231628,12|8,0:0|0:0,0:0:0:0:
344,336,72601,2,0,P|376:284|476:300,1,159.999995231628,2|2,0:0|0:0,0:0:0:0:
416,344,72983,1,8,0:0:0:0:
416,344,73110,1,8,0:0:0:0:
263,172,73237,2,0,P|216:231|141:218,1,159.999995231628,8|2,0:0|0:0,0:0:0:0:
0,88,73618,1,2,0:0:0:0:
40,156,73745,2,0,B|128:136|96:188|196:164,1,159.999995231628,2|8,0:0|0:0,0:0:0:0:
44,356,74254,5,0,0:0:0:0:
124,356,74508,1,2,0:0:0:0:
44,356,74635,1,2,0:0:0:0:
124,356,74889,1,2,0:0:0:0:
44,356,75017,1,2,0:0:0:0:
124,356,75144,1,2,0:0:0:0:
44,356,75398,1,2,0:0:0:0:
124,356,75652,1,2,0:0:0:0:
44,356,75779,2,0,L|32:272,1,79.9999976158142
180,224,76033,2,0,L|192:308,1,79.9999976158142
468,356,76288,5,0,0:0:0:0:
388,356,76542,1,2,0:0:0:0:
468,356,76669,1,2,0:0:0:0:
388,356,76923,1,2,0:0:0:0:
468,356,77051,1,2,0:0:0:0:
388,356,77178,1,2,0:0:0:0:
468,356,77432,1,2,0:0:0:0:
388,356,77686,1,2,0:0:0:0:
468,356,77813,2,0,L|480:272,1,79.9999976158142
332,224,78067,2,0,L|320:308,1,79.9999976158142
256,8,78322,5,0,0:0:0:0:
256,168,78576,1,2,0:0:0:0:
256,8,78703,1,2,0:0:0:0:
256,168,78957,1,2,0:0:0:0:
256,8,79084,1,2,0:0:0:0:
256,168,79211,1,2,0:0:0:0:
256,8,79466,1,2,0:0:0:0:
256,168,79720,1,2,0:0:0:0:
256,8,79847,2,0,L|256:168,1,159.999995231628
40,192,80356,6,0,L|-4:184,2,39.9999988079071
64,272,80610,2,0,L|20:264,2,39.9999988079071
160,128,80864,6,0,L|116:120,1,39.9999988079071
180,212,80991,2,0,L|136:204,1,39.9999988079071
200,300,81118,2,0,L|156:292,1,39.9999988079071
220,384,81245,2,0,L|176:376,1,39.9999988079071
312,228,81372,5,0,0:0:0:0:
312,228,81436,1,0,0:0:0:0:
312,228,81500,1,0,0:0:0:0:
312,228,81563,1,0,0:0:0:0:
312,228,81627,1,0,0:0:0:0:
312,228,81690,1,0,0:0:0:0:
312,228,81754,1,0,0:0:0:0:
312,228,81817,1,0,0:0:0:0:
340,356,81881,5,0,0:0:0:0:
432,168,82389,6,0,L|440:84,1,79.9999976158142
439,88,82644,6,0,B|400:124|320:124|320:124|444:128|512:4|512:4|496:52|440:88,1,479.999985694885,0|0,0:0|2:0,0:0:0:0:
240,56,82898,5,0,0:0:0:0:
240,56,83025,2,0,B|244:60|244:60|236:60|236:60|236:52|236:52|244:52|244:52|240:56|240:56|48:72,1,159.999995231628,0|0,0:0|2:0,0:0:0:0:
192,132,83152,2,0,B|196:136|196:136|188:136|188:136|188:128|188:128|196:128|196:128|192:132|192:132|0:148,1,159.999995231628,0|0,0:0|2:0,0:0:0:0:
140,212,83279,2,0,B|144:216|144:216|136:216|136:216|136:208|136:208|144:208|144:208|140:212|140:212|-52:228,1,159.999995231628,0|0,0:0|2:0,0:0:0:0:
420,148,83406,5,0,0:0:0:0:
420,148,83533,2,0,B|424:152|424:152|416:152|416:152|416:144|416:144|424:144|424:144|420:148|420:148|228:164,1,159.999995231628,0|0,0:0|2:0,0:0:0:0:
372,224,83660,2,0,B|376:228|376:228|368:228|368:228|368:220|368:220|376:220|376:220|372:224|372:224|180:240,1,159.999995231628,0|0,0:0|2:0,0:0:0:0:
320,304,83787,2,0,B|324:308|324:308|316:308|316:308|316:300|316:300|324:300|324:300|320:304|320:304|128:320,1,159.999995231628,0|0,0:0|2:0,0:0:0:0:
140,212,83915,2,0,B|144:216|144:216|136:216|136:216|136:208|136:208|144:208|144:208|140:212|140:212|-52:228,1,159.999995231628,0|0,0:0|2:0,0:0:0:0:
192,132,84042,2,0,B|196:136|196:136|188:136|188:136|188:128|188:128|196:128|196:128|192:132|192:132|0:148,1,159.999995231628,0|0,0:0|2:0,0:0:0:0:
240,56,84169,6,0,B|244:60|244:60|236:60|236:60|236:52|236:52|244:52|244:52|240:56|240:56|236:60|236:60|236:52|236:52|244:52|244:52|244:60|244:60|236:60|236:60|236:52|236:52|244:52|244:52|244:60|244:60|236:60|236:60|236:52|236:52|244:52|244:52|244:60|244:60|236:60|236:60|236:52|236:52|244:52|244:52|244:60|244:60|236:60|236:60|236:52|236:52|244:52|244:52|244:60|244:60|236:60|236:60|236:52|236:52|244:52|244:52|244:60|244:60|236:60|236:60|236:52|236:52|244:52|244:52|244:60|244:60|236:60|236:60|236:52|236:52|244:52|244:52|244:60|244:60|236:60|236:60|236:52|236:52|244:52|244:52|244:60|244:60|236:60|236:60|236:52|236:52|244:52|244:52|244:60|244:60|236:60|236:60|236:52|236:52|244:52|244:52|244:60|244:60|236:60|236:60|236:52|236:52|244:52|244:52|244:60|244:60|236:60|236:60|236:52|236:52|244:52|244:52|244:60|244:60|236:60|236:60|236:52|236:52|244:52|244:52|244:60|244:60|236:60|236:60|236:52|236:52|244:52|244:52|240:56|240:56|48:72,1,639.999980926514,0|4,0:0|0:0,0:0:0:0:
111,66,84678,6,0,B|152:36|192:56|188:128|188:128|180:92|224:8|320:36|320:36|272:68|264:136|336:168,1,479.999985694885,0|0,0:0|2:0,0:0:0:0:
364,100,84932,5,0,0:0:0:0:
364,100,85059,2,0,B|368:96|368:96|368:104|368:104|360:104|360:104|360:96|360:96|364:100|364:100|380:292,1,159.999995231628,0|0,0:0|2:0,0:0:0:0:
240,144,85186,2,0,B|244:140|244:140|244:148|244:148|236:148|236:148|236:140|236:140|240:144|240:144|256:336,1,159.999995231628,0|0,0:0|2:0,0:0:0:0:
116,184,85313,2,0,B|120:180|120:180|120:188|120:188|112:188|112:188|112:180|112:180|116:184|116:184|132:376,1,159.999995231628,0|0,0:0|2:0,0:0:0:0:
432,128,85440,5,0,0:0:0:0:
432,128,85567,2,0,B|436:124|436:124|436:132|436:132|428:132|428:132|428:124|428:124|432:128|432:128|448:320,1,159.999995231628,0|0,0:0|2:0,0:0:0:0:
308,172,85694,2,0,B|312:168|312:168|312:176|312:176|304:176|304:176|304:168|304:168|308:172|308:172|324:364,1,159.999995231628,0|0,0:0|2:0,0:0:0:0:
184,212,85821,2,0,B|188:208|188:208|188:216|188:216|180:216|180:216|180:208|180:208|184:212|184:212|200:404,1,159.999995231628,0|0,0:0|2:0,0:0:0:0:
64,252,85949,6,0,B|68:248|68:248|68:256|68:256|60:256|60:256|60:248|60:248|64:252|64:252|68:256|68:256|60:256|60:256|60:248|60:248|68:248|68:248|68:256|68:256|60:256|60:256|60:248|60:248|68:248|68:248|68:256|68:256|60:256|60:256|60:248|60:248|68:248|68:248|68:256|68:256|60:256|60:256|60:248|60:248|68:248|68:248|68:256|68:256|60:256|60:256|60:248|60:248|68:248|68:248|68:256|68:256|60:256|60:256|60:248|60:248|68:248|68:248|68:256|68:256|60:256|60:256|60:248|60:248|68:248|68:248|68:256|68:256|60:256|60:256|60:248|60:248|68:248|68:248|68:256|68:256|60:256|60:256|60:248|60:248|68:248|68:248|68:256|68:256|60:256|60:256|60:248|60:248|68:248|68:248|68:256|68:256|60:256|60:256|60:248|60:248|68:248|68:248|68:256|68:256|60:256|60:256|60:248|60:248|68:248|68:248|68:256|68:256|60:256|60:256|60:248|60:248|68:248|68:248|68:256|68:256|60:256|60:256|60:248|60:248|68:248|68:248|68:256|68:256|60:256|60:256|60:248|60:248|64:252|64:252|76:380|76:380|136:360|136:360|125:231|125:231|84:172|84:172|76:80,1,959.999971389771,0|0,0:0|2:0,0:0:0:0:
0,52,86457,6,0,L|84:48,1,79.9999976158142,4|0,0:0|2:0,0:0:0:0:
79,48,86711,2,0,L|416:36,2,319.999990463257,0|0|8,0:0|0:0|0:0,0:0:0:0:
0,52,87093,1,0,0:0:0:0:
79,48,87220,2,0,L|416:36,1,319.999990463257
468,188,87474,6,0,B|492:140|456:80|352:100|356:168|356:168|372:196|372:196|364:232|364:232|336:192|260:172|208:248|248:312|248:312|292:312|292:312|324:344|324:344|392:344,1,639.999980926514
456,344,87856,1,2,0:0:0:0:
320,256,87983,6,0,B|309:231|273:227|258:240|249:283|278:300|318:297|320:256|320:256|315:225|257:237|249:267|257:303|305:303|328:287|320:256|320:256|302:221|275:228|233:247|249:303|305:307|333:293|320:256|320:256,1,479.999985694885,8|0,0:0|2:0,0:0:0:0:
188,272,88237,6,0,B|244:272|244:272|248:280|248:280|252:272|252:272|256:280|256:280|260:272|260:272|264:280|264:280|268:272|268:272|272:280|272:280|276:272|276:272|280:280|280:280|284:272|284:272|312:272|312:272|316:264|316:264|320:272|320:272|324:264|324:264|328:272|328:272|332:264|332:264|336:272|336:272|340:264|340:264|344:272|344:272|348:264|348:264|352:272|352:272|460:272,1,319.999990463257,2|0,0:0|0:0,0:0:0:0:
512,104,88491,6,0,P|488:60|384:56,1,159.999995231628,4|0,0:0|0:0,0:0:0:0:
304,20,88872,1,0,0:0:0:0:
440,196,89000,2,0,L|436:116,1,79.9999976158142,8|0,0:0|0:0,0:0:0:0:
304,20,89254,1,0,0:0:0:0:
304,20,89381,2,0,L|316:196,1,159.999995231628,2|2,0:0|0:0,0:0:0:0:
192,164,89762,2,0,L|188:84,1,79.9999976158142,2|0,0:0|0:0,0:0:0:0:
314,179,90017,1,10,0:0:0:0:
238,230,90144,2,0,P|161:238|113:179,1,159.999995231628,2|2,0:0|0:0,0:0:0:0:
192,164,90525,6,0,L|188:84,1,79.9999976158142,0|0,0:0|2:0,0:0:0:0:
238,230,90779,2,0,P|113:179|254:215,1,479.999985694885,0|0,0:0|2:0,0:0:0:0:
192,164,91033,5,0,0:0:0:0:
0,44,91161,2,0,B|-4:48|-4:48|4:48|4:48|4:40|4:40|-4:40|-4:40|0:44|0:44|192:60,1,159.999995231628,0|0,0:0|2:0,0:0:0:0:
195,63,91288,2,0,B|191:67|191:67|199:67|199:67|199:59|199:59|191:59|191:59|195:63|195:63|387:79,1,159.999995231628,0|0,0:0|2:0,0:0:0:0:
388,82,91415,2,0,B|384:86|384:86|392:86|392:86|392:78|392:78|384:78|384:78|388:82|388:82|580:98,1,159.999995231628,0|0,0:0|2:0,0:0:0:0:
512,160,91542,5,0,0:0:0:0:
512,160,91669,2,0,B|516:164|516:164|508:164|508:164|508:156|508:156|516:156|516:156|512:160|512:160|320:176,1,159.999995231628,0|0,0:0|2:0,0:0:0:0:
317,179,91796,2,0,B|321:183|321:183|313:183|313:183|313:175|313:175|321:175|321:175|317:179|317:179|125:195,1,159.999995231628,0|0,0:0|2:0,0:0:0:0:
124,198,91923,2,0,B|128:202|128:202|120:202|120:202|120:194|120:194|128:194|128:194|124:198|124:198|-68:214,1,159.999995231628,0|0,0:0|2:0,0:0:0:0:
0,280,92050,2,0,B|-4:284|-4:284|4:284|4:284|4:276|4:276|-4:276|-4:276|0:280|0:280|192:296,1,159.999995231628,0|0,0:0|2:0,0:0:0:0:
195,299,92177,2,0,B|191:303|191:303|199:303|199:303|199:295|199:295|191:295|191:295|195:299|195:299|387:315,1,159.999995231628,0|0,0:0|2:0,0:0:0:0:
384,316,92305,6,0,B|380:320|380:320|388:320|388:320|388:312|388:312|380:312|380:312|384:316|384:316|388:320|388:320|388:312|388:312|380:312|380:312|380:320|380:320|388:320|388:320|388:312|388:312|380:312|380:312|380:320|380:320|388:320|388:320|388:312|388:312|380:312|380:312|380:320|380:320|388:320|388:320|388:312|388:312|380:312|380:312|380:320|380:320|388:320|388:320|388:312|388:312|380:312|380:312|380:320|380:320|388:320|388:320|388:312|388:312|380:312|380:312|380:320|380:320|388:320|388:320|388:312|388:312|380:312|380:312|380:320|380:320|388:320|388:320|388:312|388:312|380:312|380:312|380:320|380:320|388:320|388:320|388:312|388:312|380:312|380:312|380:320|380:320|388:320|388:320|388:312|388:312|380:312|380:312|380:320|380:320|388:320|388:320|388:312|388:312|380:312|380:312|380:320|380:320|388:320|388:320|388:312|388:312|380:312|380:312|380:320|380:320|388:320|388:320|388:312|388:312|380:312|380:312|380:320|380:320|388:320|388:320|388:312|388:312|380:312|380:312|380:320|380:320|388:320|388:320|388:312|388:312|380:312|380:312|384:316|384:316|576:332,1,639.999980926514,0|4,0:0|0:0,0:0:0:0:
512,326,92813,6,0,L|16:282,1,479.999985694885,0|0,0:0|2:0,0:0:0:0:
0,352,93067,5,0,0:0:0:0:
0,352,93195,2,0,B|-4:348|-4:348|4:348|4:348|4:356|4:356|-4:356|-4:356|0:352|0:352|192:336,1,159.999995231628,0|0,0:0|2:0,0:0:0:0:
195,333,93322,2,0,B|191:329|191:329|199:329|199:329|199:337|199:337|191:337|191:337|195:333|195:333|387:317,1,159.999995231628,0|0,0:0|2:0,0:0:0:0:
388,314,93449,2,0,B|384:310|384:310|392:310|392:310|392:318|392:318|384:318|384:318|388:314|388:314|580:298,1,159.999995231628,0|0,0:0|2:0,0:0:0:0:
512,236,93576,5,0,0:0:0:0:
512,236,93703,2,0,B|516:232|516:232|508:232|508:232|508:240|508:240|516:240|516:240|512:236|512:236|320:220,1,159.999995231628,0|0,0:0|2:0,0:0:0:0:
317,217,93830,2,0,B|321:213|321:213|313:213|313:213|313:221|313:221|321:221|321:221|317:217|317:217|125:201,1,159.999995231628,0|0,0:0|2:0,0:0:0:0:
124,198,93957,2,0,B|128:194|128:194|120:194|120:194|120:202|120:202|128:202|128:202|124:198|124:198|-68:182,1,159.999995231628,0|0,0:0|2:0,0:0:0:0:
0,112,94084,6,0,B|-4:108|-4:108|4:108|4:108|4:116|4:116|-4:116|-4:116|0:112|0:112|4:108|4:108|4:116|4:116|-4:116|-4:116|-4:108|-4:108|4:108|4:108|4:116|4:116|-4:116|-4:116|-4:108|-4:108|4:108|4:108|4:116|4:116|-4:116|-4:116|-4:108|-4:108|4:108|4:108|4:116|4:116|-4:116|-4:116|-4:108|-4:108|4:108|4:108|4:116|4:116|-4:116|-4:116|-4:108|-4:108|4:108|4:108|4:116|4:116|-4:116|-4:116|-4:108|-4:108|4:108|4:108|4:116|4:116|-4:116|-4:116|-4:108|-4:108|4:108|4:108|4:116|4:116|-4:116|-4:116|-4:108|-4:108|4:108|4:108|4:116|4:116|-4:116|-4:116|-4:108|-4:108|4:108|4:108|4:116|4:116|-4:116|-4:116|-4:108|-4:108|4:108|4:108|4:116|4:116|-4:116|-4:116|-4:108|-4:108|4:108|4:108|4:116|4:116|-4:116|-4:116|-4:108|-4:108|4:108|4:108|4:116|4:116|-4:116|-4:116|-4:108|-4:108|4:108|4:108|4:116|4:116|-4:116|-4:116|-4:108|-4:108|4:108|4:108|4:116|4:116|-4:116|-4:116|0:112|0:112|128:100|128:100|96:32|160:-16|236:0|236:60|236:60|218:74|218:74|272:68|272:68|304:144|408:100|396:44|360:8,1,1119.9999666214
480,68,94593,6,0,B|476:132|416:152|332:120|340:44|380:-20|464:-4|480:44|480:68|480:68|472:124|424:152|360:132|352:68|360:20|420:-20|480:8|480:80,1,639.999980926514
480,68,94974,1,0,0:0:0:0:
480,68,95101,6,0,P|420:16|480:76,1,319.999990463257,8|0,0:0|0:0,0:0:0:0:
442,131,95356,2,0,P|362:40|480:68,1,319.999990463257
472,200,95610,5,0,0:0:0:0:
380,192,95737,2,0,L|8:172,2,319.999990463257,2|0|2,0:0|0:0|0:0,0:0:0:0:
412,260,96118,2,0,L|40:240,1,319.999990463257,8|0,0:0|0:0,0:0:0:0:
32,306,96372,2,0,L|352:324,1,319.999990463257,2|0,0:0|0:0,0:0:0:0:
412,260,96627,5,4,0:0:0:0:
464,208,96754,2,0,P|396:188|340:276,1,159.999995231628,2|0,0:0|0:0,0:0:0:0:
492,368,97135,1,10,0:0:0:0:
422,339,97262,2,0,L|412:260,1,79.9999976158142,0|2,0:0|0:0,0:0:0:0:
180,352,97517,2,0,P|248:372|304:284,2,159.999995231628,2|2|0,0:0|0:0|0:0,0:0:0:0:
232,296,98152,2,0,L|221:216,1,79.9999976158142,2|0,0:0|0:0,0:0:0:0:
88,184,98406,6,0,L|44:396,1,159.999995231628,8|0,0:0|0:0,0:0:0:0:
176,288,98661,6,0,B|-14:307|-14:307|-46:312|-57:346|-36:372|-3:368|-3:368|194:349,1,479.999985694885,0|0,0:0|2:0,0:0:0:0:
300,272,98915,2,0,B|490:252|490:252|522:247|533:213|512:187|479:191|479:191|281:210,1,479.999985694885,0|0,0:0|2:0,0:0:0:0:
164,148,99169,5,8,0:0:0:0:
164,148,99423,1,8,0:0:0:0:
164,148,99550,1,8,0:0:0:0:
164,148,99678,1,8,0:0:0:0:
164,148,99932,1,8,0:0:0:0:
164,148,100186,1,8,0:0:0:0:
164,148,100440,1,8,0:0:0:0:
8,68,100695,6,0,L|176:76,1,159.999995231628,8|8,0:0|0:0,0:0:0:0:
344,56,101076,2,8,P|276:56|232:140,2,159.999995231628
472,112,101711,2,8,L|488:28,1,79.9999976158142
280,184,101966,2,8,P|348:184|392:100,1,159.999995231628
496,184,102347,1,0,0:0:0:0:
428,224,102474,2,0,L|412:308,1,79.9999976158142,8|0,0:0|0:0,0:0:0:0:
272,320,102728,6,0,B|240:316|240:316|243:284|243:284|211:281|211:281|208:313|208:313|176:309|176:309|179:278|179:278|148:274|148:274|144:306|144:306|112:303|112:303|116:271|116:271|84:268|84:268|81:299|81:299|49:296|49:296|52:264|52:264|20:261,1,479.999985694885,0|0,0:0|2:0,0:0:0:0:
179,278,102983,2,0,B|210:281|210:281|207:313|207:313|239:316|239:316|242:284|242:284|274:288|274:288|271:319|271:319|302:323|302:323|306:291|306:291|338:294|338:294|334:326|334:326|366:329|366:329|369:298|369:298|401:301|401:301|398:333|398:333|430:336,1,479.999985694885,0|0,0:0|2:0,0:0:0:0:
496,200,103237,5,8,0:0:0:0:
496,200,103491,1,8,0:0:0:0:
496,200,103618,1,8,0:0:0:0:
496,200,103745,1,8,0:0:0:0:
496,200,104000,1,8,0:0:0:0:
496,200,104254,1,8,0:0:0:0:
496,200,104508,1,8,0:0:0:0:
464,104,104762,6,8,P|412:56|328:88,1,159.999995231628
232,136,105144,2,8,L|404:128,1,159.999995231628
120,255,105525,1,8,0:0:0:0:
48,280,105652,2,8,P|100:328|188:224,1,239.999992847443
364,244,106161,1,8,0:0:0:0:
280,248,106288,2,8,L|108:256,1,159.999995231628
392,344,106796,6,0,B|423:337|423:337|445:345|445:345|509:321|544:228|472:149|387:173|387:173|359:195|359:195|324:185|324:185|352:164|352:164|423:170|450:59|395:5|313:25|313:25|315:32|315:32|309:25|309:25|311:33|311:33|305:26|305:26|307:34|307:34|301:27|301:27|303:35|303:35|298:28|298:28|299:35|299:35|294:28|294:28|295:36|295:36|290:29|290:29|291:37|291:37|286:30|286:30|287:38|287:38|282:31|282:31|283:39|283:39|278:31|278:31|279:39|279:39|274:32|274:32|275:40|275:40|270:33|270:33|272:41|272:41|266:34|266:34|268:42|268:42|262:35|262:35|264:42|264:42|258:35|258:35|260:43|260:43|254:36|254:36|256:44|256:44|247:41,1,959.999971389771,0|0,0:0|2:0,0:0:0:0:
196,112,107305,6,0,B|36:104|36:104|248:116,1,319.999990463257
356,120,107559,2,0,B|196:112|196:112|408:124,1,319.999990463257
356,120,107813,6,0,L|24:104,1,319.999990463257
0,296,108067,2,0,L|332:312,1,319.999990463257
408,188,108322,6,0,B|124:176|124:176|88:232|88:232|432:248,1,639.999980926514
376,245,108639,1,0,0:0:0:0:
376,245,108703,1,0,0:0:0:0:
376,245,108767,1,0,0:0:0:0:
376,245,108830,6,0,P|416:292|364:372,1,159.999995231628
272,364,109211,2,0,P|232:317|284:237,1,159.999995231628
324,304,109593,1,0,0:0:0:0:
166,302,109720,2,2,B|250:278|238:326|330:302,1,159.999995231628
104,256,110101,2,0,P|88:280|96:332,1,79.9999976158142,2|0,0:0|0:0,0:0:0:0:
176,228,110356,2,0,L|196:136,1,79.9999976158142,2|0,0:0|0:0,0:0:0:0:
144,88,110610,1,2,0:0:0:0:
166,302,110737,1,0,0:0:0:0:
256,192,110864,6,0,B|288:143|336:143|368:192|336:240|288:240|256:192|256:192|223:143|175:143|143:192|175:240|223:240|256:192|256:192|288:143|336:143|368:192|336:240|288:240|256:192|256:192|223:143|175:143|143:192|175:240|223:240|256:192|256:192|288:143|336:143|368:192|336:240|288:240|256:192|256:192|223:143|175:143|143:192|175:240|223:240|256:192|256:192|288:143|336:143|368:192|336:240|288:240|256:192|256:192|223:143|175:143|143:192|175:240|223:240|256:192|256:192|288:143|336:143|368:192|336:240|288:240|256:192|256:192|223:143|175:143|143:192|175:240|223:240|256:192|256:192|288:143|336:143|368:192|336:240|288:240|256:192|256:192|223:143|175:143|143:192|175:240|223:240|256:192|256:192|320:95|416:95|481:192|416:288|320:288|256:192|256:192|191:95|95:95|30:192|95:288|191:288|256:192|256:192|320:95|416:95|481:192|416:288|320:288|256:192|256:192|191:95|95:95|30:192|95:288|191:288|256:192|256:192|320:95|416:95|481:192|416:288|320:288|256:192|256:192|191:95|95:95|30:192|95:288|191:288|256:192|256:192|384:-1|561:-1|706:192|561:385|384:385|256:192|256:192|127:-1|-49:-1|-194:192|-49:385|127:385|256:192|256:192|384:-1|561:-1|706:192|561:385|384:385|256:192|256:192|254:192|254:192|260:192|260:192|256:224,1,7679.99977111817,0|8,0:0|0:0,0:0:0:0:
257,192,113978,1,0,0:0:0:0:
257,192,114042,1,0,0:0:0:0:
257,192,114106,1,0,0:0:0:0:
257,192,114169,1,8,0:0:0:0:
257,192,114233,1,0,0:0:0:0:
257,192,114296,1,0,0:0:0:0:
257,192,114360,1,0,0:0:0:0:
257,192,114423,2,0,L|257:285,1,79.9999976158142,8|0,0:0|2:0,0:0:0:0:
