osu file format v14

[General]
AudioFilename: audio.mp3
AudioLeadIn: 0
PreviewTime: 57193
Countdown: 0
SampleSet: Soft
StackLeniency: 0.5
Mode: 0
LetterboxInBreaks: 0
WidescreenStoryboard: 1

[Editor]
DistanceSpacing: 1.2
BeatDivisor: 4
GridSize: 32
TimelineZoom: 2.2

[Metadata]
Title:Hastur (Extended Mix)
TitleUnicode:Hastur (Extended Mix)
Artist:USAO
ArtistUnicode:USAO
Creator:Regou
Version:Otosaka's Insane
Source:REFLEC BEAT VOLZZA
Tags:flask firika suzuki_1112 otosaka-yu moombahcore ultimate hyper best survival rbv dancerush stardom drs uom records electronic instrumental
BeatmapID:2721648
BeatmapSetID:1313256

[Difficulty]
HPDrainRate:5
CircleSize:4
OverallDifficulty:8
ApproachRate:9
SliderMultiplier:1.6
SliderTickRate:1

[Events]
//Background and Video events
0,0,"bg3.jpg",0,0
//Break Periods
2,106216,111518
//Storyboard Layer 0 (Background)
//Storyboard Layer 1 (Fail)
//Storyboard Layer 2 (Pass)
//Storyboard Layer 3 (Foreground)
//Storyboard Layer 4 (Overlay)
//Storyboard Sound Samples

[TimingPoints]
254,254.237288135593,4,2,3,60,1,0
8389,-133.333333333333,4,2,3,60,0,0
36864,-100,4,2,3,60,0,0
40931,-133.333333333333,4,2,3,60,0,0
49067,-100,4,2,3,60,0,0
54152,-133.333333333333,4,2,3,60,0,0
55169,-83.3333333333333,4,2,3,60,0,0
55677,-90.9090909090909,4,2,3,60,0,0
56186,-100,4,2,3,60,0,0
56440,-133.333333333333,4,2,3,60,0,0
57203,-83.3333333333333,4,2,3,60,0,0
57711,-100,4,2,3,60,0,0
57838,-100,4,2,3,80,0,0
58982,-71.4285714285714,4,2,3,80,0,0
59237,-83.3333333333333,4,2,3,80,0,0
59745,-100,4,2,3,80,0,0
61525,-83.3333333333333,4,2,3,80,0,0
61779,-100,4,2,3,80,0,0
65338,-83.3333333333333,4,2,3,80,0,0
65592,-100,4,2,3,80,0,0
67118,-71.4285714285714,4,2,3,80,0,0
68389,-100,4,2,3,80,0,0
69152,-71.4285714285714,4,2,3,80,0,0
69406,-83.3333333333333,4,2,3,80,0,0
69660,-100,4,2,3,80,0,0
71186,-71.4285714285714,4,2,3,80,0,0
71694,-100,4,2,3,80,0,0
73474,-66.6666666666667,4,2,3,80,0,0
73982,-76.9230769230769,4,2,3,80,0,0
75508,-66.6666666666667,4,2,3,80,0,0
76016,-76.9230769230769,4,2,3,80,0,0
77542,-66.6666666666667,4,2,3,80,0,0
78050,-76.9230769230769,4,2,3,80,0,0
79830,-100,4,2,3,80,0,0
82118,-76.9230769230769,4,2,3,80,0,0
83643,-66.6666666666667,4,2,3,80,0,0
83898,-76.9230769230769,4,2,3,80,0,0
85423,-58.8235294117647,4,2,3,80,0,0
85677,-66.6666666666667,4,2,3,80,0,0
85931,-100,4,2,3,80,0,0
86186,-76.9230769230769,4,2,3,80,0,0
87965,-100,4,2,3,80,0,0
89745,-62.5,4,2,3,80,0,0
90381,-100,4,2,3,80,0,0
93304,-66.6666666666667,4,2,3,80,0,0
93813,-62.5,4,2,3,80,0,0
94321,-100,4,2,3,80,0,0
95211,-66.6666666666667,4,2,3,80,0,0
95592,-100,4,2,3,80,0,0
97881,-66.6666666666667,4,2,3,80,0,0
98389,-100,4,2,3,80,0,0
101948,-66.6666666666667,4,2,3,80,0,0
102457,-100,4,2,3,80,0,0
121779,-200,4,2,3,80,0,0
122287,-133.333333333333,4,2,3,80,0,0
138813,-100,4,2,3,80,0,0
146694,-76.9230769230769,4,2,3,80,0,1
147330,-100,4,2,3,80,0,1
148728,-76.9230769230769,4,2,3,80,0,1
149364,-100,4,2,3,80,0,1
150762,-66.6666666666667,4,2,3,80,0,1
151016,-100,4,2,3,80,0,1
151270,-90.9090909090909,4,2,3,80,0,1
151906,-76.9230769230769,4,2,3,80,0,1
152287,-133.333333333333,4,2,3,80,0,1
152542,-66.6666666666667,4,2,3,80,0,1
152796,-100,4,2,3,80,0,1
154830,-76.9230769230769,4,2,3,80,0,1
155465,-100,4,2,3,80,0,1
156864,-76.9230769230769,4,2,3,80,0,1
158898,-66.6666666666667,4,2,3,80,0,1
159152,-100,4,2,3,80,0,1
159406,-90.9090909090909,4,2,3,80,0,1
160042,-76.9230769230769,4,2,3,80,0,1
160423,-71.4285714285714,4,2,3,80,0,1
160931,-100,4,2,3,80,0,1
162965,-66.6666666666667,4,2,3,80,0,1
163474,-100,4,2,3,80,0,1
164999,-76.9230769230769,4,2,3,80,0,1
165635,-100,4,2,3,80,0,1
167033,-66.6666666666667,4,2,3,80,0,1
167287,-100,4,2,3,80,0,1
167542,-90.9090909090909,4,2,3,80,0,1
168177,-83.3333333333333,4,2,3,80,0,1
168559,-76.9230769230769,4,2,3,80,0,1
169067,-100,4,2,3,80,0,1
171101,-66.6666666666667,4,2,3,80,0,1
172118,-100,4,2,3,80,0,1
175169,-66.6666666666667,4,2,3,80,0,1
176186,-100,4,2,3,80,0,1
179237,-66.6666666666667,4,2,3,80,0,1
179745,-100,4,2,3,80,0,1
183304,-66.6666666666667,4,2,3,80,0,1
184321,-100,4,2,3,80,0,1
185084,-83.3333333333333,4,2,3,80,0,1
185974,-90.9090909090909,4,2,3,80,0,1
186482,-100,4,2,3,80,0,1
187118,-50,4,2,3,80,0,1
187245,-100,4,2,3,80,0,0

[Colours]
Combo1 : 17,254,176
Combo2 : 173,255,95
Combo3 : 255,88,100
Combo4 : 255,94,55

[HitObjects]
256,192,254,5,4,0:0:0:0:
256,192,317,12,0,8135,0:0:0:0:
448,84,8389,6,0,P|393:84|368:73,2,60.0000022888184,4|0|0,0:0|0:0|0:0,0:0:0:0:
472,180,8770,2,0,P|413:168|328:175,1,120.000004577637,2|0,0:0|0:0,0:0:0:0:
306,102,9152,2,0,L|221:89,1,60.0000022888184,0|2,0:0|0:0,0:0:0:0:
156,74,9406,5,4,0:1:0:0:
176,266,9660,2,0,B|199:210|199:210|187:127,1,120.000004577637,2|0,0:0|0:0,0:0:0:0:
92,229,10169,2,0,B|89:198|89:198|101:169,1,60.0000022888184,2|0,0:0|0:0,0:0:0:0:
190,151,10423,6,0,L|250:142,2,60.0000022888184,4|0|2,0:1|0:0|0:0,0:0:0:0:
100,171,10804,2,0,L|87:307,1,120.000004577637
179,324,11186,2,0,L|238:333,1,60.0000022888184,0|2,0:0|0:0,0:0:0:0:
344,347,11440,5,4,0:1:0:0:
466,275,11694,2,0,B|498:326|498:326|481:399,2,120.000004577637,2|0|2,0:0|0:0|0:0,0:0:0:0:
312,177,12457,6,0,P|281:171|237:183,2,60.0000022888184,4|0|0,0:1|0:0|0:0,0:0:0:0:
197,241,12838,2,0,B|171:210|171:210|186:115,1,120.000004577637,2|0,0:0|0:0,0:0:0:0:
150,46,13220,2,0,P|181:52|225:40,1,60.0000022888184,0|2,0:0|0:0,0:0:0:0:
297,16,13474,5,4,0:1:0:0:
471,97,13728,2,0,L|466:226,1,120.000004577637,2|0,0:0|0:1,0:0:0:0:
385,129,14237,2,0,L|383:191,1,60.0000022888184,2|0,0:0|0:0,0:0:0:0:
429,262,14491,6,0,B|459:255|459:255|497:271,2,60.0000022888184,4|0|2,0:1|0:0|0:0,0:0:0:0:
366,305,14872,2,0,L|221:308,1,120.000004577637
171,334,15253,2,0,L|176:254,1,60.0000022888184,2|0,0:0|0:0,0:0:0:0:
243,228,15508,5,4,0:1:0:0:
131,167,15762,2,0,P|75:153|15:195,2,120.000004577637,2|2|0,0:0|0:3|0:0,0:0:0:0:
288,88,16525,5,4,0:0:0:0:
288,88,16652,2,0,L|372:81,1,60.0000022888184
423,0,16906,2,0,B|417:45|417:45|428:78|428:78|421:141,1,120.000004577637,2|0,0:0|0:0,0:0:0:0:
412,194,17287,1,2,0:0:0:0:
400,268,17415,1,0,0:0:0:0:
400,268,17542,6,0,P|327:274|266:285,2,120.000004577637,4|2|0,0:1|0:0|0:0,0:0:0:0:
204,364,18304,1,2,0:0:0:0:
87,273,18559,6,0,P|84:316|89:348,2,60.0000022888184,4|0|2,0:1|0:0|0:0,0:0:0:0:
26,231,18940,2,0,P|99:225|160:214,1,120.000004577637
217,107,19321,1,2,0:0:0:0:
222,32,19448,1,0,0:0:0:0:
222,32,19576,6,0,B|297:27|251:86|376:62,2,120.000004577637,4|2|0,0:1|0:0|0:0,0:0:0:0:
128,128,20338,1,2,0:0:0:0:
260,210,20592,5,4,0:1:0:0:
260,210,20720,2,0,P|305:208|352:197,1,60.0000022888184,2|0,0:0|0:0,0:0:0:0:
397,212,20974,2,0,B|373:266|373:266|427:351,1,120.000004577637,2|0,0:0|0:1,0:0:0:0:
327,333,21355,2,0,P|282:335|235:346,1,60.0000022888184,0|2,0:0|0:0,0:0:0:0:
182,271,21609,6,0,L|12:278,2,120.000004577637,4|2|0,0:1|0:0|0:0,0:0:0:0:
258,72,22372,1,2,0:0:0:0:
146,192,22626,6,0,L|55:195,2,60.0000022888184,4|0|2,0:1|0:0|0:0,0:0:0:0:
289,153,23008,2,0,P|226:148|177:107,1,120.000004577637,0|0,0:1|0:1,0:0:0:0:
164,37,23389,2,0,L|73:40,1,60.0000022888184,2|0,0:0|0:0,0:0:0:0:
33,116,23643,5,4,0:1:0:0:
236,230,23898,1,2,0:0:0:0:
20,340,24152,2,0,P|83:345|132:386,1,120.000004577637,2|0,0:3|0:0,0:0:0:0:
236,230,24660,5,4,0:0:0:0:
333,355,24915,2,0,B|382:350|382:350|401:358|401:358|503:351,1,120.000004577637,0|2,0:0|0:3,0:0:0:0:
459,200,25423,1,0,0:0:0:0:
459,200,25550,6,0,P|450:139|456:88,1,60.0000022888184
385,216,25804,2,0,P|376:155|382:104,1,60.0000022888184,2|0,0:1|0:0,0:0:0:0:
313,231,26059,2,0,P|304:170|310:119,1,60.0000022888184
236,248,26313,1,2,0:1:0:0:
236,248,26440,2,0,P|153:236|87:234,2,120.000004577637
32,233,27203,5,2,0:3:0:0:
23,48,27457,1,0,0:0:0:0:
23,48,27584,6,0,P|32:109|26:160,1,60.0000022888184
97,32,27838,2,0,P|106:93|100:144,1,60.0000022888184,2|0,0:1|0:0,0:0:0:0:
171,17,28093,2,0,P|180:78|174:129,1,60.0000022888184
244,126,28347,2,0,B|138:119|186:202|33:166,1,180.000006866455,2|0,0:1|0:0,0:0:0:0:
18,301,28982,6,0,P|62:337|117:319,1,120.000004577637,0|2,0:0|0:3,0:0:0:0:
244,126,29491,1,0,0:0:0:0:
244,126,29618,6,0,B|271:138|271:138|356:116,1,60.0000022888184
375,60,29872,2,0,B|348:48|348:48|263:70,1,60.0000022888184,2|0,0:1|0:0,0:0:0:0:
381,138,30126,2,0,B|408:150|408:150|493:128,1,60.0000022888184
498,89,30381,1,2,0:1:0:0:
498,89,30508,2,0,P|484:175|492:250,2,120.000004577637
397,343,31270,5,2,0:3:0:0:
268,258,31525,1,0,0:0:0:0:
268,258,31652,6,0,B|241:246|241:246|156:268,1,60.0000022888184
137,324,31906,2,0,B|164:336|164:336|249:314,1,60.0000022888184,2|0,0:1|0:0,0:0:0:0:
131,246,32160,2,0,B|104:234|104:234|19:256,1,60.0000022888184
0,137,32415,6,0,B|81:131|81:131|96:142|96:142|212:132,1,180.000006866455,2|4,0:1|0:0,0:0:0:0:
444,67,33050,6,0,L|449:-2,1,60.0000022888184,0|0,0:0|0:3,0:0:0:0:
355,115,33304,1,10,0:3:0:0:
355,115,33431,6,0,L|360:46,2,60.0000022888184
262,157,33813,1,0,0:0:0:0:
262,157,33940,6,0,L|267:88,1,60.0000022888184,8|0,0:3|0:0,0:0:0:0:
172,196,34194,1,0,0:0:0:0:
172,196,34321,6,0,L|177:127,1,60.0000022888184,10|0,0:3|0:0,0:0:0:0:
75,235,34576,6,0,L|80:166,1,60.0000022888184,2|0,0:3|0:0,0:0:0:0:
108,44,34830,5,2,0:3:0:0:
68,317,35084,6,0,L|63:386,1,60.0000022888184,0|0,0:3|0:3,0:0:0:0:
157,269,35338,1,10,0:3:0:0:
157,269,35465,6,0,L|152:338,2,60.0000022888184
250,227,35847,1,0,0:0:0:0:
250,227,35974,6,0,L|245:296,1,60.0000022888184,10|0,0:3|0:0,0:0:0:0:
340,188,36228,1,0,0:0:0:0:
340,188,36355,6,0,L|335:257,1,60.0000022888184,10|0,0:3|0:0,0:0:0:0:
437,149,36610,6,0,L|432:218,1,60.0000022888184,2|0,0:3|0:0,0:0:0:0:
404,340,36864,5,2,0:3:0:0:
250,227,37118,1,0,0:0:0:0:
250,227,37245,2,0,B|231:203|231:203|251:136,1,80,0|10,0:0|0:3,0:0:0:0:
264,13,37499,5,0,0:0:0:0:
264,13,37626,2,0,B|283:37|283:37|268:84,1,80,2|2,0:3|0:0,0:0:0:0:
132,129,37881,1,2,0:3:0:0:
132,129,38008,6,0,L|152:51,1,80,8|2,0:3|0:3,0:0:0:0:
378,117,38262,1,2,0:0:0:0:
378,117,38389,6,0,L|357:194,2,80,8|0|2,0:3|0:0|0:3,0:0:0:0:
262,157,38898,5,2,0:3:0:0:
262,157,39025,2,0,B|281:181|281:181|261:248,1,80,0|2,0:3|0:3,0:0:0:0:
248,371,39279,5,0,0:0:0:0:
248,371,39406,2,0,B|229:347|229:347|243:299,2,80,8|2|2,0:3|0:3|0:3,0:0:0:0:
315,330,39787,1,8,0:3:0:0:
455,25,40677,5,2,0:0:0:0:
455,25,40931,6,0,B|395:36|395:36|387:46|387:46|297:62,1,120.000004577637,4|0,0:0|0:0,0:0:0:0:
268,26,41313,2,0,B|257:40|257:40|273:121,2,60.0000022888184,0|8|2,0:0|0:0|0:0,0:0:0:0:
221,184,41821,1,0,0:0:0:0:
221,184,41948,6,0,P|136:177|71:177,1,120.000004577637,0|2,1:0|0:0,0:0:0:0:
39,309,42457,1,8,0:0:0:0:
39,309,42584,1,0,0:0:0:0:
39,309,42711,2,0,P|73:314|114:317,1,60.0000022888184,0|2,0:0|0:0,0:0:0:0:
170,266,42965,6,0,P|229:267|289:273,1,120.000004577637,0|2,1:0|0:0,0:0:0:0:
377,249,43347,2,0,B|365:274|365:274|383:345,2,60.0000022888184,0|8|0,0:0|0:0|0:0,0:0:0:0:
463,121,43855,1,2,0:0:0:0:
463,121,43982,6,0,B|403:130|403:130|334:102,1,120.000004577637,0|2,1:0|0:0,0:0:0:0:
257,30,44491,1,8,0:0:0:0:
257,30,44618,1,0,0:0:0:0:
257,30,44745,2,0,L|179:36,1,60.0000022888184,0|2,0:0|0:0,0:0:0:0:
118,14,44999,6,0,P|125:72|190:112,1,120.000004577637,0|2,1:0|0:0,0:0:0:0:
116,176,45381,2,0,P|68:165|42:165,2,60.0000022888184,0|8|2,0:0|0:0|0:0,0:0:0:0:
171,313,45889,1,2,0:0:0:0:
171,313,46016,6,0,B|242:303|213:352|309:328,1,120.000004577637,0|2,1:0|0:0,0:0:0:0:
396,261,46525,1,8,0:0:0:0:
396,261,46652,1,2,0:0:0:0:
396,261,46779,2,0,P|391:314|400:348,1,60.0000022888184
474,349,47033,6,0,P|484:268|464:201,1,120.000004577637,0|2,1:0|0:0,0:0:0:0:
431,165,47415,2,0,L|368:160,2,60.0000022888184,0|8|2,0:0|0:0|0:0,0:0:0:0:
406,23,47923,1,2,0:0:0:0:
406,23,48050,6,0,B|377:42|377:42|256:32,1,120.000004577637,0|2,1:0|0:0,0:0:0:0:
214,75,48559,1,8,0:0:0:0:
214,75,48686,1,0,0:0:0:0:
214,75,48813,2,0,B|197:46|197:46|212:0,1,60.0000022888184
283,114,49067,5,4,0:0:0:0:
132,81,49321,2,0,P|78:74|42:75,1,80,8|2,0:0|0:0,0:0:0:0:
1,177,49576,5,8,0:0:0:0:
1,177,49703,1,2,0:0:0:0:
1,177,49830,2,0,P|55:170|91:171,1,80,8|2,0:0|0:0,0:0:0:0:
151,264,50084,5,8,0:0:0:0:
151,264,50211,1,2,0:0:0:0:
151,264,50338,2,0,P|97:257|61:258,1,80,8|2,0:0|0:0,0:0:0:0:
1,348,50592,5,8,0:0:0:0:
1,348,50720,2,0,P|55:341|91:342,2,80,2|8|2,0:0|0:0|0:0,0:0:0:0:
175,356,51101,5,8,0:0:0:0:
242,174,51355,2,0,B|230:212|230:212|262:264,1,80,8|2,0:0|0:0,0:0:0:0:
343,331,51609,5,8,0:0:0:0:
343,331,51737,1,2,0:0:0:0:
343,331,51864,2,0,B|355:293|355:293|333:258,1,80,8|2,0:0|0:0,0:0:0:0:
396,142,52118,5,8,0:0:0:0:
396,142,52246,1,0,0:0:0:0:
396,142,52373,2,0,B|384:180|384:180|405:214,1,80,8|0,0:0|0:0,0:0:0:0:
486,322,52626,5,8,0:0:0:0:
486,322,52753,2,0,B|498:284|498:284|476:249,2,80,2|8|2,0:0|0:0|0:0,0:0:0:0:
343,331,53135,5,4,0:0:0:0:
261,343,53389,1,8,0:0:0:0:
169,240,53643,5,8,0:0:0:0:
283,252,53897,1,8,0:0:0:0:
76,301,54152,6,0,L|16:298,1,60.0000022888184,8|0,0:0|0:0,0:0:0:0:
85,226,54406,2,0,L|25:223,1,60.0000022888184,8|0,0:0|0:0,0:0:0:0:
98,149,54660,2,0,L|38:146,1,60.0000022888184,8|2,0:0|0:0,0:0:0:0:
107,74,54914,2,0,L|47:71,1,60.0000022888184,8|2,0:0|0:0,0:0:0:0:
190,13,55169,5,8,0:0:0:0:
190,13,55296,1,8,0:0:0:0:
190,13,55423,2,0,L|310:7,1,95.9999970703126,8|8,0:0|0:0,0:0:0:0:
354,92,55677,5,8,0:0:0:0:
354,92,55804,1,8,0:0:0:0:
354,92,55931,2,0,L|242:86,1,88.000002685547,8|8,0:0|0:0,0:0:0:0:
216,188,56186,6,0,L|320:180,1,80,8|8,0:0|0:0,0:0:0:0:
351,265,56440,6,0,L|300:260,4,30.0000011444092,8|8|8|8|8,0:0|0:0|0:0|0:0|0:0,0:0:0:0:
80,93,57203,6,0,B|76:22|76:22|-5:61|-5:61|6:137|6:137|3:143|3:143|13:212|13:212|56:236,1,335.999989746094,4|0,1:1|0:0,0:0:0:0:
110,213,57711,6,0,L|98:316,1,80,8|2,0:0|0:0,0:0:0:0:
185,203,57965,2,0,L|176:283,1,80,2|2,0:0|0:0,0:0:0:0:
256,160,58220,5,4,1:1:0:0:
326,203,58347,2,0,L|336:283,2,80,2|2|2,0:0|0:0|0:0,0:0:0:0:
402,213,58728,2,0,L|411:292,1,80,8|2,0:0|0:0,0:0:0:0:
476,345,58982,2,0,B|437:322|437:322|357:326|357:326|314:369,1,167.999994873047
254,384,59237,6,0,B|226:339|226:339|258:282|258:282|226:237|256:184|256:184|225:237|152:231,1,335.999989746094,4|0,1:1|0:0,0:0:0:0:
184,130,59745,6,0,L|87:120,1,80,8|2,0:0|0:0,0:0:0:0:
124,29,59999,2,0,L|221:39,1,80,2|2,0:0|0:0,0:0:0:0:
256,96,60253,5,4,1:1:0:0:
308,37,60381,2,0,L|388:29,2,80,2|2|2,0:0|0:0|0:0,0:0:0:0:
328,130,60762,2,0,L|425:120,1,80,8|0,0:0|0:0,0:0:0:0:
476,73,61016,6,0,B|441:110|441:110|458:241,1,160,2|4,0:3|1:1,0:0:0:0:
361,274,61525,6,0,B|445:266|410:316|500:312,1,143.999995605469,2|0,0:0|0:0,0:0:0:0:
496,303,61779,6,0,P|450:296|410:325,1,80,8|2,0:0|0:0,0:0:0:0:
352,263,62033,2,0,P|319:285|306:322,1,80,2|2,0:0|0:0,0:0:0:0:
256,384,62287,5,4,1:1:0:0:
205,322,62415,2,0,P|192:285|160:263,2,80,2|2|2,0:0|0:0|0:0,0:0:0:0:
90,312,62796,2,0,P|54:295|16:302,1,80,8|0,0:0|0:0,0:0:0:0:
205,322,63050,2,0,P|162:270|181:163,1,160,0|4,0:0|1:1,0:0:0:0:
169,0,63559,5,0,0:0:0:0:
214,74,63686,2,0,L|128:80,2,80,2|8|2,0:0|1:0|0:0,0:0:0:0:
256,148,64067,1,0,0:0:0:0:
256,148,64194,1,0,0:0:0:0:
256,148,64321,6,0,B|278:133|278:133|302:156|302:156|351:129|421:164,1,160,4|0,1:1|0:0,0:0:0:0:
512,168,64703,1,0,0:0:0:0:
426,81,64830,1,8,0:2:0:0:
426,81,64957,2,0,P|399:177|423:269,1,160,2|0,0:0|0:0,0:0:0:0:
476,270,65338,6,0,B|441:272|441:272|405:264|405:264|374:276|374:276|321:279,1,143.999995605469,4|0,1:1|0:0,0:0:0:0:
252,285,65592,5,8,0:3:0:0:
252,285,65720,1,8,0:3:0:0:
190,91,65847,5,8,0:0:0:0:
175,323,65974,5,2,0:0:0:0:
175,323,66102,1,2,0:0:0:0:
175,323,66228,1,2,0:0:0:0:
109,135,66355,5,4,1:1:0:0:
109,135,66482,2,0,L|18:142,1,80
95,22,66737,5,0,0:0:0:0:
95,22,66864,2,0,L|4:29,1,80,8|0,0:0|0:0,0:0:0:0:
171,75,67118,6,0,B|232:137|311:83|311:83|262:65|248:5,1,223.999993164063,0|4,0:0|1:1,0:0:0:0:
338,0,67626,5,8,0:3:0:0:
338,0,67753,1,8,0:3:0:0:
374,172,67881,5,8,0:0:0:0:
421,39,68008,5,2,0:0:0:0:
421,39,68135,1,0,0:0:0:0:
421,39,68262,1,0,0:0:0:0:
304,136,68389,5,4,1:1:0:0:
304,136,68516,2,0,B|288:151|288:151|284:223,1,80
192,186,68770,5,0,0:0:0:0:
192,186,68897,2,0,B|208:171|208:171|212:99,1,80,8|0,0:0|0:0,0:0:0:0:
224,37,69152,6,0,B|179:30|179:30|143:13|143:13|113:40|113:40|42:63,1,167.999994873047
60,49,69406,6,0,B|74:66|74:66|82:193,1,143.999995605469,4|0,1:1|0:0,0:0:0:0:
86,213,69660,5,8,0:3:0:0:
86,213,69788,1,8,0:3:0:0:
94,375,69915,5,8,0:0:0:0:
169,261,70042,5,2,0:0:0:0:
169,261,70170,1,2,0:0:0:0:
169,261,70296,1,2,0:0:0:0:
236,317,70423,5,4,1:1:0:0:
236,317,70550,2,0,B|274:325|274:325|333:308,1,80
306,197,70804,5,2,0:0:0:0:
306,197,70931,2,0,B|268:189|268:189|209:206,1,80,8|0,0:0|0:0,0:0:0:0:
382,247,71186,6,0,B|388:172|388:172|382:157|382:157|387:57|387:57|417:25,1,223.999993164063,0|4,0:0|1:1,0:0:0:0:
266,17,71694,5,2,0:0:0:0:
266,17,71821,2,0,P|221:25|181:27,1,80,0|8,0:0|0:0,0:0:0:0:
99,205,72076,5,8,0:3:0:0:
99,205,72203,1,0,0:0:0:0:
99,205,72330,2,0,P|144:197|184:195,1,80,8|4,0:3|1:1,0:0:0:0:
276,108,72584,6,0,P|265:204|281:280,1,160
363,222,72965,2,0,P|365:176|354:123,1,80,8|0,0:0|0:0,0:0:0:0:
354,309,73220,1,2,0:0:0:0:
123,72,73474,6,0,B|157:51|157:51|189:130|189:130|155:205|155:205|109:193,1,240.000009155274,4|0,1:1|0:0,0:0:0:0:
12,290,73982,6,0,B|39:278|39:278|56:283|56:283|136:273,1,103.999995239258,8|0,0:0|0:3,0:0:0:0:
187,264,74237,1,2,0:3:0:0:
200,280,74364,1,2,0:3:0:0:
213,297,74491,6,0,B|240:285|240:285|257:290|257:290|337:280,1,103.999995239258,4|0,1:1|0:3,0:0:0:0:
386,270,74745,1,2,0:3:0:0:
399,286,74872,1,2,0:3:0:0:
412,303,74999,6,0,B|439:291|439:291|456:296|456:296|536:286,2,103.999995239258,8|2|2,0:0|0:3|0:0,0:0:0:0:
423,33,75508,6,0,B|474:83|463:155|418:202|333:143|381:86,1,240.000009155274,4|2,1:1|0:0,0:0:0:0:
259,5,76016,6,0,B|263:50|263:50|269:55|269:55|275:119,1,103.999995239258,8|0,0:0|0:3,0:0:0:0:
228,180,76270,1,2,0:3:0:0:
232,196,76398,1,2,0:3:0:0:
236,214,76525,6,0,B|232:259|232:259|226:264|226:264|220:328,1,103.999995239258,4|0,1:1|0:3,0:0:0:0:
356,348,76779,1,2,0:3:0:0:
356,348,76906,1,2,0:3:0:0:
356,348,77033,6,0,B|369:312|369:312|325:337|325:337|212:346|212:346|208:339|208:339|209:346|209:346|77:358,1,311.999985717774,8|0,0:0|0:0,0:0:0:0:
39,373,77542,6,0,B|115:354|115:354|65:254|65:254|121:178,1,240.000009155274,4|2,1:1|0:0,0:0:0:0:
0,95,78050,6,0,B|40:91|40:91|60:102|60:102|100:97,1,103.999995239258,8|0,0:0|0:3,0:0:0:0:
190,168,78304,1,2,0:3:0:0:
191,182,78431,1,2,0:3:0:0:
192,196,78558,6,0,B|232:201|232:201|252:190|252:190|311:196,1,103.999995239258,4|0,1:1|0:3,0:0:0:0:
353,303,78813,1,2,0:3:0:0:
354,289,78940,1,2,0:3:0:0:
355,275,79067,6,0,B|395:270|395:270|415:281|415:281|474:275,1,103.999995239258,8|2,0:0|0:3,0:0:0:0:
512,328,79321,6,0,B|464:361|464:361|498:193,1,207.999990478516,2|4,0:0|1:1,0:0:0:0:
383,19,79830,5,0,0:0:0:0:
417,92,79957,2,0,B|381:101|381:101|322:82,2,80,2|8|2,0:0|0:0|0:0,0:0:0:0:
292,24,80338,5,0,0:0:0:0:
292,24,80465,1,0,0:0:0:0:
292,24,80592,6,0,B|294:41|286:55|286:55|295:75|295:75|264:122|301:179,1,160,4|0,1:1|0:0,0:0:0:0:
380,215,80974,1,0,0:0:0:0:
380,215,81101,5,8,0:1:0:0:
380,215,81228,2,0,B|321:213|321:213|277:221|277:221|206:219,1,160
220,219,81609,5,4,1:1:0:0:
180,338,81864,6,0,L|239:355,1,40,8|0,0:3|0:0,0:0:0:0:
178,321,81991,2,0,L|237:304,1,40,8|0,0:3|0:0,0:0:0:0:
87,370,82118,6,0,L|30:394,1,51.999997619629,8|0,0:0|0:0,0:0:0:0:
79,353,82245,2,0,L|11:354,1,51.999997619629,2|0,0:0|0:0,0:0:0:0:
75,329,82372,2,0,L|23:328,1,51.999997619629,2|0,0:0|0:0,0:0:0:0:
83,312,82499,2,0,L|35:291,1,51.999997619629,2|0,0:0|0:0,0:0:0:0:
98,183,82626,5,4,1:1:0:0:
168,208,82753,2,0,L|234:221,1,51.999997619629,2|0,0:0|0:0,0:0:0:0:
176,185,82880,2,0,L|227:194,1,51.999997619629,0|0,0:1|0:0,0:0:0:0:
171,166,83007,2,0,L|221:155,1,51.999997619629,2|0,0:0|0:0,0:0:0:0:
189,80,83135,6,0,B|163:73|163:73|132:85|132:85|44:86,1,103.999995239258,8|0,0:0|0:0,0:0:0:0:
0,75,83389,2,0,B|26:82|26:82|57:70|57:70|145:69,1,103.999995239258
209,90,83643,6,0,B|263:90|263:90|268:92|268:92|355:92,1,120.000004577637,4|0,1:1|0:0,0:0:0:0:
458,50,83898,6,0,L|476:-13,1,51.999997619629,8|0,0:3|0:0,0:0:0:0:
440,50,84025,2,0,L|422:-17,1,51.999997619629,8|0,0:3|0:0,0:0:0:0:
480,192,84152,6,0,L|501:249,1,51.999997619629,8|0,0:0|0:0,0:0:0:0:
463,200,84279,2,0,L|461:267,1,51.999997619629,2|0,0:0|0:0,0:0:0:0:
439,203,84406,2,0,L|436:254,1,51.999997619629,2|0,0:0|0:0,0:0:0:0:
422,194,84533,2,0,L|400:241,1,51.999997619629,2|0,0:0|0:0,0:0:0:0:
312,221,84660,5,4,1:1:0:0:
341,151,84787,2,0,L|357:84,1,51.999997619629,2|0,0:0|0:0,0:0:0:0:
318,143,84914,2,0,L|328:92,1,51.999997619629,0|0,0:1|0:0,0:0:0:0:
299,147,85041,2,0,L|290:95,1,51.999997619629,2|0,0:0|0:0,0:0:0:0:
194,52,85169,6,0,B|186:77|186:77|197:109|197:109|194:197,1,103.999995239258,8|0,0:0|0:0,0:0:0:0:
230,248,85423,6,0,B|161:275|92:238|92:238|137:244|183:212,1,204.000003890991
163,218,85677,6,0,B|143:341|143:341|185:384,1,180.000006866455,4|0,1:1|0:0,0:0:0:0:
308,365,85931,6,0,L|386:365,1,40,8|0,0:3|0:0,0:0:0:0:
302,350,86059,2,0,L|262:350,1,40,8|0,0:3|0:0,0:0:0:0:
415,233,86186,6,0,L|380:277,1,51.999997619629,8|0,0:0|0:0,0:0:0:0:
407,221,86313,2,0,L|451:255,1,51.999997619629,2|0,0:0|0:0,0:0:0:0:
395,236,86440,2,0,L|429:191,1,51.999997619629,2|0,0:0|0:0,0:0:0:0:
403,248,86567,2,0,L|358:213,1,51.999997619629,2|0,0:0|0:0,0:0:0:0:
221,160,86694,5,4,1:1:0:0:
226,170,86821,2,0,L|176:213,1,51.999997619629
227,150,86948,2,0,L|289:171,1,51.999997619629
206,159,87076,2,0,L|193:94,1,51.999997619629,2|0,0:0|0:0,0:0:0:0:
193,25,87203,6,0,L|97:30,1,51.999997619629,8|0,0:0|0:0,0:0:0:0:
202,29,87330,2,0,L|253:26,1,51.999997619629
289,24,87457,6,0,B|265:48|265:48|125:51|125:51|79:3,1,207.999990478516,0|4,0:0|1:1,0:0:0:0:
17,304,87965,5,0,0:0:0:0:
17,304,88092,2,0,P|24:356|16:412,1,80,2|8,0:0|0:0,0:0:0:0:
127,271,88347,5,0,0:0:0:0:
127,271,88474,1,0,0:0:0:0:
127,271,88601,2,0,P|120:219|128:163,1,80,2|4,0:0|1:1,0:0:0:0:
176,120,88855,6,0,B|266:99|239:173|351:141,1,160
406,184,89237,2,0,P|416:131|404:99,1,80,8|0,0:0|0:0,0:0:0:0:
333,225,89491,1,2,0:0:0:0:
333,225,89745,6,0,B|232:216|232:216|243:251|243:251|252:261|252:261|279:347|279:347|372:357|372:357|382:352|382:352|458:359|458:359|430:255,1,512,4|0,1:1|0:0,0:0:0:0:
456,266,90381,6,0,B|441:217|441:217|319:208,1,160,4|4,0:1|0:1,0:0:0:0:
297,132,90762,5,8,0:0:0:0:
297,132,90889,2,0,B|278:146|278:146|200:141,2,80
342,55,91270,2,0,B|361:41|361:41|439:46,2,80
342,55,91652,1,4,0:1:0:0:
385,142,91779,6,0,L|235:55,1,160,4|0,1:1|0:0,0:0:0:0:
221,142,92160,2,0,L|359:222,1,160,4|2,0:1|0:0,0:0:0:0:
443,211,92542,1,0,0:0:0:0:
443,211,92669,1,0,0:0:0:0:
385,142,92796,5,8,0:0:0:0:
410,286,92923,2,0,B|413:324|413:324|419:329|419:329|424:376,1,80
422,362,93177,1,4,0:1:0:0:
488,304,93304,6,0,P|467:228|362:217,1,180.000006866455
359,222,93559,2,0,P|332:314|414:367,1,180.000006866455,4|0,0:1|0:0,0:0:0:0:
410,286,93813,6,0,B|324:292|324:292|259:229|259:229|196:365|196:365|121:300|121:300|-18:311,1,512,4|0,1:1|0:0,0:0:0:0:
22,318,94448,6,0,B|101:312|101:312|141:228,1,160,4|4,0:1|0:1,0:0:0:0:
137,165,94830,5,8,0:0:0:0:
137,165,94957,2,0,B|118:131|118:131|62:132,1,80
0,62,95211,6,0,B|40:59|40:59|59:52|59:52|78:55|78:55|136:52,1,120.000004577637
192,95,95465,1,0,0:0:0:0:
192,95,95592,2,0,B|229:106|229:106|285:82,1,80,0|4,0:0|0:1,0:0:0:0:
290,13,95847,6,0,P|349:10|326:103,1,160,4|0,1:1|0:0,0:0:0:0:
309,160,96228,2,0,P|299:231|371:239,1,160,4|2,0:1|0:0,0:0:0:0:
396,161,96609,1,0,0:0:0:0:
396,161,96737,1,2,0:0:0:0:
430,306,96864,5,8,0:0:0:0:
430,306,96991,2,0,B|466:309|466:309|472:314|472:314|529:319,2,80
358,358,97372,2,0,B|322:354|322:354|316:349|316:349|280:346,1,80
217,209,97626,1,2,0:0:0:0:
217,209,97881,6,0,B|151:209|151:209|104:247|104:247|49:196|-24:246,1,240.000009155274,4|0,1:1|0:0,0:0:0:0:
41,301,98262,1,0,0:0:0:0:
98,149,98389,6,0,L|90:51,1,80,2|4,0:3|0:1,0:0:0:0:
175,0,98643,2,0,L|181:79,1,80,2|4,0:3|0:1,0:0:0:0:
256,140,98898,6,0,L|312:146,1,40,8|0,0:0|0:0,0:0:0:0:
350,84,99025,1,0,0:0:0:0:
350,84,99152,1,2,0:3:0:0:
350,84,99279,1,2,0:3:0:0:
350,84,99406,2,0,B|324:117|324:117|316:191|316:191|350:241,1,160,2|2,0:3|0:3,0:0:0:0:
407,279,99787,1,4,0:1:0:0:
453,164,99915,6,0,L|448:72,1,80,4|0,1:1|0:0,0:0:0:0:
407,279,100169,2,0,L|411:358,1,80,8|4,0:3|0:1,0:0:0:0:
492,369,100423,5,2,0:3:0:0:
329,351,100550,2,0,L|214:361,2,80,0|4|2,0:0|0:1|0:3,0:0:0:0:
265,281,100931,6,0,L|209:287,1,40,8|0,0:0|0:0,0:0:0:0:
176,222,101058,1,0,0:0:0:0:
176,222,101185,1,2,0:3:0:0:
176,222,101312,1,4,0:1:0:0:
136,305,101440,2,0,B|158:251|158:251|134:142,1,160,2|4,0:3|0:1,0:0:0:0:
136,28,101821,1,0,0:1:0:0:
0,49,101948,6,0,B|34:56|74:43|74:43|105:79|105:79|140:47|140:47|200:70|237:60,1,240.000009155274,4|2,1:1|0:0,0:0:0:0:
281,40,102330,1,0,0:0:0:0:
461,93,102457,6,0,B|482:59|482:59|455:10,1,80,8|0,0:0|0:0,0:0:0:0:
347,124,102711,2,0,B|326:158|326:158|353:207,1,80,8|0,0:0|0:0,0:0:0:0:
409,272,102965,6,0,B|469:270,1,40,8|0,0:0|0:0,0:0:0:0:
309,283,103092,1,0,0:0:0:0:
309,283,103220,1,2,0:0:0:0:
309,283,103347,1,0,0:0:0:0:
309,283,103474,2,0,B|321:302|321:302|313:390,1,80,0|2,0:0|0:0,0:0:0:0:
214,274,103728,2,0,B|202:255|202:255|209:141,1,120,2|0,0:0|0:0,0:0:0:0:
222,142,103982,6,0,B|144:127|154:192|64:164,1,160,4|0,1:1|0:0,0:0:0:0:
0,70,104364,2,0,P|34:11|111:60,1,160,4|2,1:1|0:0,0:0:0:0:
240,26,104745,2,0,B|200:35|178:71|178:71|139:31|91:42,1,160,4|0,1:1|0:0,0:0:0:0:
254,104,105126,2,0,B|284:110|301:90|301:90|358:125|419:72,1,160,4|0,1:1|0:0,0:0:0:0:
424,13,105508,2,0,B|448:85|448:85|410:144|410:144|471:174|480:268|418:307,1,320,2|4,0:3|0:0,0:0:0:0:
256,192,112118,12,0,114088,0:0:0:0:
19,351,114152,6,0,P|103:351|208:366,1,160,2|0,0:1|0:0,0:0:0:0:
254,372,114533,1,0,0:0:0:0:
335,261,114660,6,0,P|341:300|337:339,1,80,2|0,0:3|0:0,0:0:0:0:
415,259,114915,2,0,P|421:298|417:337,1,80,2|2,0:1|0:1,0:0:0:0:
256,293,115169,6,0,P|256:229|353:182,1,160
329,179,115550,1,2,0:1:0:0:
496,133,115677,5,2,0:3:0:0:
496,133,115804,2,0,B|434:126|434:126|415:90|415:90|326:77,1,160,2|2,0:1|0:1,0:0:0:0:
205,23,116186,6,0,P|188:88|90:114,2,160,0|0|2,0:0|0:0|0:3,0:0:0:0:
261,188,116948,6,0,P|264:128|251:88,1,80,2|2,0:1|0:1,0:0:0:0:
193,217,117203,2,0,P|186:256|191:295,1,80,0|2,0:0|0:1,0:0:0:0:
281,310,117457,2,0,B|190:302|224:365|105:344,1,160,0|2,0:0|0:3,0:0:0:0:
122,333,117838,2,0,P|191:317|257:392,1,160,2|0,0:1|0:0,0:0:0:0:
333,380,118220,6,0,B|370:346|370:346|351:222,1,160
338,157,118601,1,0,0:0:0:0:
481,99,118728,6,0,L|380:93,1,80,2|0,0:3|0:0,0:0:0:0:
488,21,118982,2,0,L|387:15,1,80,2|2,0:1|0:1,0:0:0:0:
336,49,119237,6,0,B|274:47|274:47|261:52|261:52|167:50,1,160
102,48,119618,1,0,0:0:0:0:
102,48,119745,5,2,0:3:0:0:
0,138,119872,2,0,P|60:138|124:244,1,160,2|0,0:1|0:0,0:0:0:0:
137,281,120253,5,0,0:0:0:0:
256,192,120317,12,0,121652,0:0:0:0:
489,330,121779,6,0,L|360:320,1,120,4|0,0:0|0:0,0:0:0:0:
300,356,122287,6,0,P|274:321|290:245,1,120.000004577637,2|0,0:0|0:0,0:0:0:0:
392,169,122669,2,0,L|321:199,1,60.0000022888184,0|2,0:0|0:3,0:0:0:0:
265,178,122923,2,0,P|208:163|180:113,1,120.000004577637,2|0,0:0|0:0,0:0:0:0:
106,130,123304,6,0,P|111:78|134:57,1,60.0000022888184,2|0,0:0|0:0,0:0:0:0:
186,38,123559,1,0,0:0:0:0:
161,187,123813,6,0,P|113:208|83:199,1,60.0000022888184,2|0,0:3|0:0,0:0:0:0:
180,113,124067,2,0,P|222:143|229:173,1,60.0000022888184
44,254,124321,6,0,P|95:246|172:277,1,120.000004577637,2|0,0:0|0:0,0:0:0:0:
216,314,124703,2,0,L|294:312,2,60.0000022888184,0|2|2,0:0|0:3|0:0,0:0:0:0:
285,234,125084,5,2,0:1:0:0:
285,234,125148,1,2,0:1:0:0:
285,234,125211,2,0,L|225:235,1,60.0000022888184,2|0,0:1|0:0,0:0:0:0:
350,285,125465,5,0,0:0:0:0:
350,285,125592,2,0,B|397:280|397:280|409:286|409:286|479:278,1,120.000004577637,2|2,0:0|0:3,0:0:0:0:
506,212,125974,1,0,0:0:0:0:
464,92,126101,2,0,B|454:122|454:122|472:175,1,60.0000022888184,2|0,0:3|0:0,0:0:0:0:
464,92,126355,6,0,P|408:116|337:99,1,120.000004577637,4|2,0:0|0:0,0:0:0:0:
292,153,126737,2,0,P|271:112|271:85,1,60.0000022888184,0|2,0:3|0:3,0:0:0:0:
314,34,126991,1,0,0:0:0:0:
191,110,127118,5,2,0:1:0:0:
191,110,127181,1,2,0:1:0:0:
191,110,127245,2,0,L|116:103,1,60.0000022888184,2|0,0:1|0:3,0:0:0:0:
94,208,127499,5,0,0:0:0:0:
94,208,127626,2,0,L|169:201,1,60.0000022888184,2|0,0:0|0:0,0:0:0:0:
206,268,127881,5,2,0:3:0:0:
292,254,128008,1,0,0:0:0:0:
238,192,128135,2,0,P|242:153|260:125,1,60.0000022888184,2|0,0:0|0:0,0:0:0:0:
261,333,128389,6,0,P|199:353|141:323,1,120.000004577637,4|0,0:0|0:0,0:0:0:0:
95,209,128770,2,0,B|85:240|85:240|103:275,1,60.0000022888184,0|2,0:0|0:3,0:0:0:0:
20,367,129025,2,0,L|22:289,2,60.0000022888184,0|2|2,0:0|0:3|0:3,0:0:0:0:
94,382,129406,5,2,0:0:0:0:
203,230,129533,1,2,0:1:0:0:
203,230,129597,1,2,0:1:0:0:
203,230,129660,2,0,P|158:241|81:184,1,120.000004577637,2|2,0:1|0:3,0:0:0:0:
71,132,130042,2,0,L|-14:136,2,60.0000022888184,0|2|0,0:0|0:0|0:0,0:0:0:0:
204,32,130423,6,0,B|232:52|232:52|333:46,1,120.000004577637,4|0,0:0|0:0,0:0:0:0:
201,163,130931,2,0,B|229:143|229:143|330:149,1,120.000004577637,2|0,0:3|0:0,0:0:0:0:
476,97,131440,5,2,0:3:0:0:
393,13,131694,1,2,0:0:0:0:
392,104,131821,1,0,0:0:0:0:
393,201,131948,2,0,B|402:229|402:229|394:241|394:241|394:335,1,120.000004577637,2|2,0:3|0:3,0:0:0:0:
326,370,132330,1,2,0:3:0:0:
326,370,132457,6,0,B|282:383|282:383|193:365,1,120.000004577637,2|0,0:3|0:3,0:0:0:0:
322,264,132965,2,0,B|278:251|278:251|189:269,1,120.000004577637,2|0,0:3|0:0,0:0:0:0:
133,320,133474,5,0,0:0:0:0:
0,320,133728,1,2,0:3:0:0:
66,259,133855,1,0,0:0:0:0:
133,320,133982,6,0,B|136:293|136:293|150:263,1,60.0000022888184,2|0,0:3|0:0,0:0:0:0:
156,180,134237,1,2,0:3:0:0:
156,180,134300,1,2,0:3:0:0:
156,180,134364,6,0,B|142:150|142:150|139:123,1,60.0000022888184,2|2,0:3|0:3,0:0:0:0:
221,230,134745,1,2,0:3:0:0:
279,110,134999,1,2,0:3:0:0:
19,115,135253,1,2,0:3:0:0:
50,176,135381,1,2,0:3:0:0:
82,235,135508,6,0,L|8:235,1,60.0000022888184
82,333,135762,2,0,B|157:320|157:320|201:337,1,120.000004577637,2|2,0:3|0:3,0:0:0:0:
271,379,136143,2,0,P|283:329|276:303,2,60.0000022888184,0|2|0,0:0|0:3|0:0,0:0:0:0:
347,274,136525,6,0,P|286:274|233:231,1,120.000004577637,2|0,0:3|0:0,0:0:0:0:
212,167,136906,2,0,P|210:121|195:93,1,60.0000022888184,0|2,0:0|0:3,0:0:0:0:
300,19,137287,2,0,P|302:65|317:93,2,60.0000022888184,2|2|2,0:3|0:3|0:3,0:0:0:0:
382,124,137669,1,2,0:1:0:0:
382,124,137732,1,2,0:1:0:0:
382,124,137796,2,0,L|507:115,1,120.000004577637,2|2,0:1|0:3,0:0:0:0:
225,224,138177,1,0,0:0:0:0:
225,224,138304,2,0,B|179:223|179:223|156:232|156:232|95:231,1,120.000004577637,2|4,0:3|0:0,0:0:0:0:
410,330,138813,6,0,B|429:316|429:316|487:309,1,80,2|0,0:3|0:0,0:0:0:0:
351,266,139067,1,2,0:3:0:0:
265,305,139194,6,0,B|267:328|267:328|244:382,2,80,0|2|0,0:0|0:3|0:0,0:0:0:0:
351,266,139576,1,2,0:3:0:0:
373,182,139703,6,0,B|351:172|351:172|316:125,2,80,0|2|0,0:0|0:3|0:0,0:0:0:0:
351,266,140084,5,2,0:3:0:0:
44,236,140338,1,2,0:3:0:0:
44,236,140465,1,0,0:0:0:0:
44,236,140592,2,0,L|30:150,1,80,2|0,0:3|0:0,0:0:0:0:
102,53,140847,6,0,B|83:67|83:67|25:74,1,80,2|0,0:3|0:0,0:0:0:0:
161,118,141101,1,2,0:3:0:0:
247,79,141228,6,0,B|244:55|244:55|267:1,2,80,0|2|0,0:0|0:3|0:0,0:0:0:0:
161,118,141610,1,2,0:3:0:0:
139,202,141737,6,0,B|160:211|160:211|195:258,2,80,0|2|0,0:0|0:3|0:0,0:0:0:0:
161,118,142118,5,2,0:3:0:0:
500,140,142372,1,2,0:3:0:0:
500,140,142499,1,0,0:0:0:0:
500,140,142626,2,0,L|514:226,1,80,4|0,0:0|0:0,0:0:0:0:
417,209,142881,5,2,0:3:0:0:
417,209,143008,2,0,L|431:295,1,80,0|2,0:0|0:3,0:0:0:0:
335,268,143262,1,0,0:0:0:0:
335,268,143389,1,2,0:3:0:0:
335,268,143516,2,0,L|349:354,1,80,2|4,0:3|0:1,0:0:0:0:
164,346,143898,5,2,0:3:0:0:
164,346,144025,2,0,L|177:268,1,80,0|2,0:0|0:3,0:0:0:0:
82,287,144279,5,0,0:0:0:0:
82,287,144406,2,0,L|95:209,1,80,2|2,0:3|0:3,0:0:0:0:
0,218,144660,6,0,L|12:140,1,80,8|8,0:2|0:2,0:0:0:0:
151,43,144915,2,0,B|107:37|107:37|74:52,1,80,8|8,0:2|0:2,0:0:0:0:
148,149,145169,6,0,P|198:160|227:197,1,80,8|10,0:2|0:2,0:0:0:0:
363,148,145423,2,0,P|324:153|294:179,1,80,10|10,0:2|0:2,0:0:0:0:
500,140,145677,6,0,L|512:218,1,80,8|8,0:2|0:2,0:0:0:0:
361,341,145931,2,0,B|378:350|378:350|401:333,1,40,8|8,0:0|0:0,0:0:0:0:
428,334,146059,2,0,B|411:346|411:346|394:337,1,40,8|8,0:0|0:0,0:0:0:0:
386,224,146186,1,2,0:0:0:0:
80,295,146694,6,0,B|122:299|146:329|146:329|232:339|253:258,2,207.999990478516,4|0|8,0:0|0:0|0:0,0:0:0:0:
23,355,147330,2,0,P|-1:310|9:265,1,80,8|8,0:3|0:3,0:0:0:0:
55,219,147584,1,8,0:3:0:0:
55,219,147711,6,0,P|69:170|108:145,1,80,4|8,1:1|0:3,0:0:0:0:
168,178,147965,2,0,P|213:154|258:164,1,80,8|8,0:3|0:3,0:0:0:0:
305,208,148220,5,8,0:0:0:0:
305,208,148347,1,8,0:3:0:0:
305,208,148474,2,0,B|355:205|355:205|370:212|370:212|434:207,1,120,2|0,0:3|0:0,0:0:0:0:
459,144,148728,6,0,B|466:172|453:193|453:193|484:236|484:236|451:286|481:351,2,207.999990478516,4|0|8,1:1|0:0|0:0,0:0:0:0:
439,13,149364,5,8,0:3:0:0:
439,13,149491,1,8,0:3:0:0:
439,13,149618,1,8,0:3:0:0:
378,90,149745,5,4,1:1:0:0:
512,78,149872,5,8,0:3:0:0:
512,78,149999,1,8,0:3:0:0:
512,78,150126,1,8,0:3:0:0:
311,27,150253,5,8,0:0:0:0:
258,100,150381,2,0,B|199:127|199:127|123:90|155:0,1,200
169,3,150762,6,0,B|176:72|176:72|170:98|170:98|184:207,1,180.000006866455,4|0,1:1|0:0,0:0:0:0:
183,204,151016,2,0,L|95:196,1,80,0|4,0:0|0:1,0:0:0:0:
200,327,151270,6,0,P|241:275|312:320,1,132.00000402832,8|0,0:0|0:0,0:0:0:0:
307,299,151525,2,0,P|284:237|298:214,1,88.000002685547,4|0,0:1|0:0,0:0:0:0:
336,162,151779,5,4,1:1:0:0:
470,221,151906,2,0,B|443:225|443:225|417:224|417:224|395:232|395:232|344:239,2,103.999995239258,0|0|4,0:0|0:0|0:1,0:0:0:0:
488,228,152287,6,0,L|488:139,1,90.0000034332277,8|0,0:0|0:0,0:0:0:0:
407,128,152542,6,0,L|429:307,1,180.000006866455,4|0,0:1|0:0,0:0:0:0:
419,330,152796,6,0,P|389:370|285:359,1,159.999995231628,4|0,1:1|0:0,0:0:0:0:
211,365,153177,1,2,0:0:0:0:
322,228,153305,2,0,L|344:309,1,80,8|0,0:0|0:0,0:0:0:0:
250,296,153559,1,0,0:0:0:0:
250,296,153686,2,0,L|201:130,1,160
97,137,154067,2,0,L|127:226,1,80,2|0,0:0|0:0,0:0:0:0:
52,241,154321,1,8,0:0:0:0:
19,111,154449,2,0,P|75:58|149:77,1,159.999995231628
236,57,154830,6,0,B|314:46|314:46|334:54|334:54|447:35,2,207.999990478516,4|0|8,1:1|0:0|0:0,0:0:0:0:
148,76,155465,6,0,P|153:140|191:175,1,80,8|8,0:3|0:3,0:0:0:0:
252,170,155720,1,8,0:3:0:0:
252,170,155847,6,0,P|268:206|265:246,1,80,4|0,1:1|0:0,0:0:0:0:
188,304,156101,2,0,P|193:368|231:403,1,80,8|8,0:3|0:3,0:0:0:0:
286,376,156355,5,8,0:0:0:0:
286,376,156482,1,8,0:3:0:0:
286,376,156609,2,0,B|303:348|303:348|293:235,1,120,2|0,0:3|0:0,0:0:0:0:
265,245,156864,6,0,B|283:244|283:244|297:240|297:240|313:246|313:246|329:242|329:242|363:284|363:284|426:286|436:213,2,207.999990478516,4|0|8,1:1|0:0|0:0,0:0:0:0:
177,213,157499,5,8,0:3:0:0:
177,213,157626,1,8,0:3:0:0:
177,213,157753,1,8,0:3:0:0:
101,151,157881,5,4,1:1:0:0:
76,255,158008,5,8,0:3:0:0:
76,255,158135,1,8,0:3:0:0:
76,255,158262,1,8,0:3:0:0:
194,106,158389,5,8,0:0:0:0:
263,178,158516,2,0,B|299:178|299:178|359:159|359:159|316:101|316:101|361:83|361:83|440:83,1,259.999988098145
431,73,158898,6,0,B|412:82|412:82|275:57|275:57|254:26,1,180.000006866455,4|0,1:1|0:0,0:0:0:0:
247,26,159152,6,0,B|218:15|218:15|136:27,1,80,0|4,0:0|0:1,0:0:0:0:
69,28,159406,6,0,B|86:41|86:41|76:114|76:114|43:146,1,132.00000402832,8|0,0:0|0:0,0:0:0:0:
32,130,159660,2,0,B|9:144|9:144|27:223,1,88.000002685547,4|0,0:1|0:0,0:0:0:0:
43,294,159915,5,4,1:1:0:0:
116,233,160042,2,0,B|146:238|146:238|188:227|188:227|241:238,2,103.999995239258,0|0|4,0:0|0:0|0:1,0:0:0:0:
202,305,160423,6,0,P|277:282|286:216,1,111.999996582031,8|0,0:0|0:0,0:0:0:0:
236,161,160677,2,0,P|161:184|152:250,1,111.999996582031,4|0,0:1|0:0,0:0:0:0:
217,233,160931,6,0,B|301:209|289:257|374:234,1,159.999995231628,4|0,1:1|0:0,0:0:0:0:
446,200,161313,1,2,0:0:0:0:
369,312,161440,2,0,P|422:295|447:254,1,80,8|2,0:0|0:0,0:0:0:0:
371,154,161694,1,0,0:0:0:0:
371,154,161821,2,0,P|323:172|310:283,1,160
298,347,162203,2,0,L|200:342,1,80
141,263,162457,2,0,L|338:271,1,160,8|2,0:0|0:0,0:0:0:0:
373,234,162838,1,0,0:0:0:0:
373,234,162965,6,0,B|289:193|307:-13|423:-32|526:55|424:179,1,420.000016021729,4|0,1:1|0:0,0:0:0:0:
431,167,163474,6,0,B|344:139|344:139|321:130|269:150|269:150|321:131|344:80|344:80|315:140|320:158|320:158|317:213|317:213|258:242|210:212|195:171|195:171|163:178|163:178|154:175|154:175|160:178|160:178|86:193|86:193|116:233|116:233|114:238|114:238|119:237|119:237|153:288|153:288|130:328|154:377,1,880,4|0,0:0|0:0,0:0:0:0:
216,330,164999,6,0,B|99:361|128:287|15:313,2,207.999990478516,4|0|8,1:1|0:0|0:0,0:0:0:0:
262,265,165635,6,0,L|256:211,1,40,8|0,0:3|0:0,0:0:0:0:
335,274,165762,2,0,L|329:220,1,40,8|0,0:3|0:0,0:0:0:0:
408,281,165889,2,0,L|402:227,1,40,8|0,0:3|0:0,0:0:0:0:
480,280,166016,5,4,1:1:0:0:
470,193,166143,2,0,B|467:156|467:156|469:153|469:153|465:95,2,80,8|8|8,0:3|0:3|0:3,0:0:0:0:
361,130,166525,5,8,0:0:0:0:
462,39,166652,2,0,B|432:45|405:69|405:69|374:45|333:58|333:58|314:24|261:12,1,200
276,10,167033,6,0,B|249:-6|249:-6|70:10,1,180.000006866455,4|0,0:0|0:0,0:0:0:0:
25,2,167287,6,0,P|43:56|90:73,1,80,0|4,0:0|0:1,0:0:0:0:
257,96,167542,5,8,0:0:0:0:
257,96,167669,2,0,B|234:92|234:92|156:100,1,88.000002685547,2|4,0:0|0:1,0:0:0:0:
128,294,167923,2,0,B|151:298|151:298|229:290,1,88.000002685547,2|4,0:0|1:1,0:0:0:0:
287,229,168177,6,0,L|292:284,1,47.9999985351563
357,211,168304,2,0,L|362:266,1,47.9999985351563,0|0,0:1|0:0,0:0:0:0:
425,193,168431,1,0,0:0:0:0:
496,171,168559,6,0,L|504:282,2,103.999995239258,8|0|4,0:0|0:0|0:1,0:0:0:0:
491,88,168940,1,0,0:0:0:0:
373,141,169067,5,4,0:0:0:0:
425,193,169194,2,0,P|357:213|301:125,1,159.999995231628,0|2,0:0|0:0,0:0:0:0:
449,18,169575,1,8,0:0:0:0:
383,62,169702,2,0,L|373:141,1,79.9999976158142,2|2,0:0|0:0,0:0:0:0:
300,154,169957,1,0,0:0:0:0:
246,54,170084,6,0,L|182:59,3,40,4|0|0|0,1:1|0:0|0:0|0:0,0:0:0:0:
128,50,170338,2,0,P|132:80|137:91,3,40
201,138,170592,6,0,B|219:215|219:215|201:280,1,120,8|0,0:0|0:0,0:0:0:0:
199,274,170847,2,0,L|111:278,1,80,2|0,0:0|0:0,0:0:0:0:
49,290,171101,6,0,B|45:356|45:356|32:375|32:375|51:359|51:359|112:364|112:364|121:371|121:371|184:375|184:375|185:378|185:378|191:374|191:374|248:377|248:377|266:366|266:366|270:327|270:327|274:325|274:325|270:321|270:321|275:281,1,420.000016021729,4|0,1:1|0:0,0:0:0:0:
269,279,171609,6,0,B|301:277|301:277|326:269|326:269|350:274|350:274|412:269,1,120.000004577637,2|4,0:3|0:1,0:0:0:0:
475,263,171864,1,4,0:1:0:0:
475,263,171991,1,2,0:3:0:0:
475,263,172118,6,0,P|476:216|484:177,1,80,2|4,0:3|0:1,0:0:0:0:
387,271,172372,2,0,P|388:224|396:185,1,80,2|4,0:3|0:1,0:0:0:0:
285,144,172626,2,0,P|285:183|292:223,1,80,8|0,0:0|0:0,0:0:0:0:
205,144,172880,2,0,P|205:183|212:223,1,80,2|2,0:3|0:3,0:0:0:0:
52,230,173135,6,0,L|220:222,1,159.999995231628,4|0,1:1|0:0,0:0:0:0:
247,293,173516,2,8,P|179:293|135:209,2,159.999995231628,2|2|0,0:0|0:0|0:0,0:0:0:0:
347,376,174151,2,8,L|332:297,1,79.9999976158142,4|0,1:1|0:0,0:0:0:0:
293,224,174406,2,8,P|256:156|179:151,1,159.999995231628,2|8,0:0|0:0,0:0:0:0:
107,122,174787,1,0,0:0:0:0:
168,79,174914,2,0,L|184:-5,1,79.9999976158142,2|0,0:3|0:0,0:0:0:0:
250,111,175169,6,0,B|290:131|290:131|388:115|388:115|382:76|396:49|396:49|382:76|343:92|343:92|377:177|377:177|449:215,1,420.000016021729,4|0,1:1|0:0,0:0:0:0:
440,179,175677,6,0,B|446:229|446:229|441:244|441:244|451:327,1,120.000004577637,8|4,0:0|0:1,0:0:0:0:
405,362,175931,1,4,0:1:0:0:
405,362,176059,1,2,0:3:0:0:
405,362,176186,6,0,L|318:358,1,80,2|4,0:3|0:1,0:0:0:0:
371,279,176440,2,0,L|291:275,1,80,2|4,0:3|0:1,0:0:0:0:
216,194,176694,2,0,L|303:190,1,80,8|0,0:0|0:0,0:0:0:0:
250,111,176948,2,0,L|329:107,1,80,2|2,0:3|0:3,0:0:0:0:
482,79,177202,6,8,P|430:31|346:63,1,159.999995231628,4|0,1:1|0:0,0:0:0:0:
250,111,177584,2,8,L|422:103,1,159.999995231628,2|2,0:0|0:0,0:0:0:0:
427,178,177965,1,0,0:0:0:0:
354,154,178092,2,8,P|368:226|501:199,1,240,0|2,0:0|0:0,0:0:0:0:
446,271,178601,1,0,0:0:0:0:
391,333,178728,2,8,L|219:341,1,159.999995231628,8|0,0:0|0:0,0:0:0:0:
155,349,179109,1,0,0:0:0:0:
43,340,179237,6,0,B|79:277|164:307|155:349|155:349|141:315|169:242|266:241|300:292,1,360.000013732911,4|0,1:1|0:0,0:0:0:0:
366,237,179745,6,0,L|372:147,1,80,0|4,0:0|0:1,0:0:0:0:
451,161,179999,2,0,L|445:240,1,80,0|4,0:0|0:1,0:0:0:0:
413,85,180253,5,8,0:0:0:0:
332,92,180381,5,0,0:0:0:0:
332,92,180508,1,0,0:0:0:0:
332,92,180635,1,0,0:0:0:0:
243,97,180762,5,0,0:0:0:0:
243,97,180889,2,0,B|189:96|189:96|142:107|142:107|58:105,1,160,0|4,0:0|0:1,0:0:0:0:
50,172,181270,6,0,P|10:125|49:38,1,160,4|0,1:1|0:0,0:0:0:0:
116,39,181652,2,0,P|156:86|117:173,1,160,4|2,0:1|0:0,0:0:0:0:
84,105,182033,1,8,0:3:0:0:
242,107,182160,2,0,B|158:131|170:83|78:107,1,159.999995231628
304,153,182541,2,0,P|320:129|312:77,1,79.9999976158142,2|0,0:0|0:0,0:0:0:0:
232,181,182796,2,0,L|212:273,1,79.9999976158142,8|0,0:0|0:0,0:0:0:0:
264,321,183050,1,4,0:1:0:0:
298,253,183177,1,0,0:0:0:0:
181,336,183304,6,0,P|231:313|411:383,2,240.000009155274,4|0|8,1:1|0:0|0:1,0:0:0:0:
109,372,183940,1,0,0:0:0:0:
109,372,184067,1,4,0:1:0:0:
109,372,184194,1,0,0:0:0:0:
126,193,184321,5,4,1:1:0:0:
126,193,184448,2,0,B|139:166|139:166|133:97,1,80,0|2,0:0|0:0,0:0:0:0:
32,248,184703,1,4,0:1:0:0:
32,248,184830,2,0,B|19:275|19:275|25:344,1,80,8|0,0:0|0:0,0:0:0:0:
126,193,185084,2,0,B|208:168|179:256|299:206,1,143.999995605469,2|0,0:3|0:0,0:0:0:0:
281,214,185338,5,4,1:1:0:0:
363,211,185465,1,0,0:0:0:0:
445,205,185592,1,0,0:0:0:0:
459,287,185720,6,0,L|471:182,1,95.9999970703126,4|8,0:1|0:1,0:0:0:0:
454,113,185974,1,0,0:0:0:0:
372,107,186101,1,4,0:1:0:0:
358,179,186229,6,0,L|346:79,1,88.000002685547,0|0,0:1|0:0,0:0:0:0:
447,95,186482,6,0,L|459:-4,1,80,4|0,0:1|0:0,0:0:0:0:
355,7,186737,2,0,P|329:14|290:10,3,40,4|0|0|0,0:1|0:0|0:0|0:0,0:0:0:0:
272,114,186991,6,0,P|246:107|207:111,1,40
171,32,187118,6,0,B|124:36|124:36|94:47|94:47|58:39|58:39|-24:45,1,160,4|0,0:0|0:0,0:0:0:0:
