osu file format v14

[General]
AudioFilename: audio.mp3
AudioLeadIn: 0
PreviewTime: 57193
Countdown: 0
SampleSet: Soft
StackLeniency: 0.7
Mode: 0
LetterboxInBreaks: 0
WidescreenStoryboard: 1

[Editor]
DistanceSpacing: 1.1
BeatDivisor: 4
GridSize: 32
TimelineZoom: 2

[Metadata]
Title:Hastur (Extended Mix)
TitleUnicode:Hastur (Extended Mix)
Artist:USAO
ArtistUnicode:USAO
Creator:Regou
Version:Easy
Source:REFLEC BEAT VOLZZA
Tags:flask firika suzuki_1112 otosaka-yu moombahcore ultimate hyper best survival rbv dancerush stardom drs uom records electronic instrumental
BeatmapID:2721645
BeatmapSetID:1313256

[Difficulty]
HPDrainRate:3
CircleSize:3
OverallDifficulty:3.5
ApproachRate:5
SliderMultiplier:0.8
SliderTickRate:1

[Events]
//Background and Video events
0,0,"bg3.jpg",0,0
//Break Periods
2,106216,112952
//Storyboard Layer 0 (Background)
//Storyboard Layer 1 (Fail)
//Storyboard Layer 2 (Pass)
//Storyboard Layer 3 (Foreground)
//Storyboard Layer 4 (Overlay)
//Storyboard Sound Samples

[TimingPoints]
254,254.237288135593,4,2,1,60,1,0
24660,-100,4,2,1,60,0,0
25169,-100,4,2,1,60,0,0
28728,-100,4,2,1,60,0,0
28982,-100,4,2,1,60,0,0
49321,-100,4,2,1,60,0,0
53389,-100,4,2,1,60,0,0
57203,-100,4,2,1,60,0,0
57711,-100,4,2,1,60,0,0
57838,-100,4,2,1,80,0,0
61207,-100,4,2,1,80,0,0
61270,-100,4,2,1,80,0,0
97881,-100,4,2,1,80,0,0
98135,-100,4,2,1,80,0,0
106016,-100,4,2,1,80,0,0
114152,-100,4,2,1,80,0,0
146694,-100,4,2,1,80,0,1
146948,-100,4,2,1,80,0,1
154830,-100,4,2,1,80,0,1
155084,-100,4,2,1,80,0,1
164999,-100,4,2,1,80,0,1
165253,-100,4,2,1,80,0,1
171101,-100,4,2,1,80,0,1
171609,-100,4,2,1,80,0,1
173135,-100,4,2,1,80,0,1
175677,-100,4,2,1,80,0,1
177203,-100,4,2,1,80,0,1
179237,-100,4,2,1,80,0,1
179491,-100,4,2,1,80,0,1
179745,-100,4,2,1,80,0,1
180635,-100,4,2,1,80,0,1
187118,-100,4,2,1,80,0,0

[Colours]
Combo1 : 17,254,176
Combo2 : 173,255,95
Combo3 : 255,88,100
Combo4 : 255,94,55

[HitObjects]
77,152,8389,6,0,P|51:96|72:27,2,120,4|2|0,0:0|0:0|0:0,0:0:0:0:
44,234,9406,2,0,P|126:192|205:295,1,240,4|2,0:1|0:0,0:0:0:0:
267,354,10423,6,0,P|310:358|359:342,1,80,4|2,0:1|0:0,0:0:0:0:
451,208,11186,1,0,0:0:0:0:
443,120,11440,2,0,B|356:38|356:38|252:103,1,240,4|2,0:1|0:0,0:0:0:0:
283,185,12457,6,0,L|295:322,2,120,4|2|0,0:1|0:0|0:0,0:0:0:0:
194,184,13474,2,0,P|160:277|27:252,1,240,4|2,0:1|0:0,0:0:0:0:
52,178,14491,6,0,L|42:94,1,80,4|2,0:1|0:0,0:0:0:0:
191,4,15253,1,2,0:0:0:0:
209,90,15508,2,0,B|186:146|186:146|289:123,1,160,4|2,0:1|0:3,0:0:0:0:
441,46,16525,6,0,P|481:141|374:194,1,240,4|2,0:0|0:0,0:0:0:0:
326,266,17542,2,0,L|341:360,2,80,4|2|0,0:1|0:0|0:0,0:0:0:0:
255,213,18304,1,2,0:0:0:0:
212,290,18559,6,0,B|151:283|151:283|101:332,2,120,4|0|2,0:1|0:0|0:0,0:0:0:0:
255,213,19576,2,0,L|248:131,1,80,4|2,0:1|0:0,0:0:0:0:
160,125,20084,2,0,L|167:41,1,80,0|2,0:0|0:0,0:0:0:0:
82,18,20592,6,0,B|6:-7|6:-7|37:164,1,240,4|0,0:1|0:0,0:0:0:0:
39,238,21609,2,0,P|11:259|5:314,2,80,4|2|0,0:1|0:0|0:0,0:0:0:0:
109,290,22372,1,2,0:0:0:0:
175,232,22626,6,0,L|184:94,2,120,4|0|2,0:1|0:1|0:0,0:0:0:0:
260,210,23643,1,4,0:1:0:0:
327,266,23898,1,2,0:0:0:0:
384,199,24152,2,0,L|369:359,1,160,2|4,0:3|0:0,0:0:0:0:
202,302,25169,6,0,P|170:359|79:347,2,160,2|0|0,0:3|0:0|0:0,0:0:0:0:
49,214,26694,2,0,B|32:177|76:146|76:146|163:165,1,160,0|2,0:0|0:3,0:0:0:0:
311,83,27711,2,0,B|294:46|338:15|338:15|425:34,1,160
498,187,28728,5,0,0:0:0:0:
389,326,29237,2,0,B|451:291|451:291|493:374,2,160,2|0|0,0:3|0:0|0:0,0:0:0:0:
214,304,30762,2,0,P|180:242|251:192,1,160,0|2,0:0|0:3,0:0:0:0:
409,151,31779,2,0,B|346:143|346:143|316:39,1,160
147,9,32796,5,4,0:0:0:0:
26,137,33304,2,0,P|14:192|71:234,1,120,10|0,0:3|0:0,0:0:0:0:
145,200,33940,2,0,L|136:282,1,80,8|0,0:3|0:0,0:0:0:0:
88,353,34448,2,0,P|150:372|202:340,1,120,0|2,0:0|0:3,0:0:0:0:
283,194,35338,5,10,0:3:0:0:
359,237,35592,2,0,L|365:291,1,40
344,362,35974,2,0,P|386:367|421:346,1,80,10|0,0:3|0:0,0:0:0:0:
497,311,36482,6,0,L|506:176,1,120,0|2,0:0|0:3,0:0:0:0:
415,49,37372,6,0,B|342:32|342:32|300:125,1,160,10|2,0:3|0:3,0:0:0:0:
365,175,38135,2,0,P|331:199|284:193,1,80,2|8,0:3|0:3,0:0:0:0:
228,139,38643,1,2,0:3:0:0:
147,176,38898,6,0,L|163:259,1,80,2|2,0:3|0:3,0:0:0:0:
132,337,39406,2,0,L|211:361,1,80,8|2,0:3|0:3,0:0:0:0:
453,264,40931,6,0,B|460:212|460:212|434:183|434:183|441:115,1,160,4|8,0:0|0:0,0:0:0:0:
293,19,41948,2,0,P|281:88|197:97,1,160,0|8,1:0|0:0,0:0:0:0:
35,158,42965,6,0,B|20:69|20:69|76:126,2,160,0|8|0,1:0|0:0|1:0,0:0:0:0:
4,331,44491,1,8,0:0:0:0:
171,275,44999,6,0,P|196:223|299:236,1,160,0|8,1:0|0:0,0:0:0:0:
336,54,46016,2,0,B|417:40|417:40|489:80,1,160,0|8,1:0|0:0,0:0:0:0:
486,253,47033,6,0,B|531:218|531:218|506:330,2,160,0|8|0,1:0|0:0|1:0,0:0:0:0:
349,352,48559,1,8,0:0:0:0:
343,176,49067,6,0,B|282:148|226:191|258:227|198:274|126:232,1,240,4|8,0:0|0:0,0:0:0:0:
52,202,50084,2,0,B|42:149|42:149|68:120|68:120|57:51,1,160,8|8,0:0|0:0,0:0:0:0:
231,25,51101,6,0,L|313:38,1,80,8|8,0:0|0:0,0:0:0:0:
312,125,51609,2,0,L|230:112,1,80,8|8,0:0|0:0,0:0:0:0:
169,174,52118,2,0,P|180:254|190:340,1,160,8|8,0:0|0:0,0:0:0:0:
363,358,53135,6,0,P|411:361|445:343,1,80,4|8,0:0|0:0,0:0:0:0:
391,273,53643,2,0,L|399:193,1,80,8|8,0:0|0:0,0:0:0:0:
445,118,54152,2,0,L|453:38,2,80,8|8|8,0:0|0:0|0:0,0:0:0:0:
357,106,54915,1,8,0:0:0:0:
308,179,55169,5,8,0:0:0:0:
181,56,55677,1,8,0:0:0:0:
139,227,56186,1,8,0:0:0:0:
308,179,56694,5,8,0:0:0:0:
139,227,57203,6,0,P|103:158|28:160,1,160,4|8,1:1|0:0,0:0:0:0:
34,71,57965,2,0,L|19:-14,2,80,2|4|2,0:0|1:1|0:0,0:0:0:0:
121,61,58728,1,8,0:0:0:0:
254,175,59237,6,0,B|222:244|222:244|317:225,1,160,4|8,1:1|0:0,0:0:0:0:
373,281,59999,2,0,P|388:315|379:373,2,80,2|4|2,0:0|1:1|0:0,0:0:0:0:
384,193,60762,2,0,L|396:104,1,80,8|2,0:0|0:3,0:0:0:0:
411,27,61270,6,0,B|378:89|378:89|292:46,1,160,4|8,1:1|0:0,0:0:0:0:
226,100,62033,2,0,L|140:120,2,80,2|4|2,0:0|1:1|0:0,0:0:0:0:
272,174,62796,1,8,0:0:0:0:
251,348,63304,5,4,1:1:0:0:
74,354,63813,2,0,P|69:278|-7:259,2,160,8|4|8,1:0|1:1|0:2,0:0:0:0:
158,199,65338,6,0,P|169:160|156:122,1,80,4|8,1:1|0:3,0:0:0:0:
80,79,65847,2,0,L|-2:91,2,80,8|2|4,0:0|0:0|1:1,0:0:0:0:
135,11,66609,2,0,L|222:1,1,80,0|8,0:0|0:0,0:0:0:0:
371,81,67372,6,0,L|389:-5,2,80,4|8|8,1:1|0:3|0:0,0:0:0:0:
343,165,68135,2,0,P|357:197|358:255,1,80,0|4,0:0|1:1,0:0:0:0:
273,226,68643,2,0,P|269:268|247:303,2,80,0|8|0,0:0|0:0|0:0,0:0:0:0:
185,232,69406,6,0,L|173:153,2,80,4|8|8,1:1|0:3|0:0,0:0:0:0:
175,319,70169,2,0,P|138:328|101:360,1,80,2|4,0:0|1:1,0:0:0:0:
69,273,70677,2,0,P|38:249|-14:243,1,80,0|8,0:0|0:0,0:0:0:0:
42,71,71440,5,4,1:1:0:0:
186,170,71948,2,0,L|277:161,1,80,8|0,0:0|0:0,0:0:0:0:
324,227,72457,2,0,B|436:249|436:249|400:291,1,160,4|8,1:1|0:0,0:0:0:0:
353,354,73220,1,2,0:0:0:0:
275,312,73474,5,4,1:1:0:0:
101,341,73982,2,0,L|92:246,1,80,8|2,0:0|0:3,0:0:0:0:
167,213,74491,2,0,P|174:171|160:135,1,80,4|2,1:1|0:3,0:0:0:0:
82,176,74999,1,8,0:0:0:0:
114,2,75508,5,4,1:1:0:0:
251,111,76016,2,0,L|337:100,1,80,8|2,0:0|0:3,0:0:0:0:
396,41,76525,2,0,P|420:79|417:119,1,80,4|2,1:1|0:3,0:0:0:0:
472,182,77033,2,0,B|413:158|413:158|385:266,1,160,8|4,0:0|1:1,0:0:0:0:
262,373,78050,6,0,L|275:280,1,80,8|2,0:0|0:3,0:0:0:0:
185,305,78559,2,0,L|172:214,1,80,4|2,1:1|0:3,0:0:0:0:
215,148,79067,1,8,0:0:0:0:
96,17,79576,5,4,1:1:0:0:
5,167,80084,2,0,P|3:244|78:263,2,160,8|4|8,0:0|1:1|0:1,0:0:0:0:
96,17,81609,6,0,L|112:100,1,80,4|8,1:1|0:3,0:0:0:0:
182,148,82118,2,0,P|199:191|189:233,2,80,8|2|4,0:0|0:0|1:1,0:0:0:0:
243,84,82881,2,0,L|332:68,1,80,0|8,0:1|0:0,0:0:0:0:
385,130,83389,1,0,0:0:0:0:
472,138,83643,6,0,L|484:41,2,80,4|8|8,1:1|0:3|0:0,0:0:0:0:
423,211,84406,2,0,P|443:244|442:293,1,80,2|4,0:0|1:1,0:0:0:0:
357,268,84915,2,0,P|353:310|330:340,1,80,0|8,0:1|0:0,0:0:0:0:
268,277,85423,1,0,0:0:0:0:
184,304,85677,6,0,L|171:217,1,80,4|8,1:1|0:3,0:0:0:0:
83,221,86186,2,0,P|56:252|6:257,2,80,8|2|4,0:0|0:0|1:1,0:0:0:0:
127,145,86948,2,0,L|112:61,1,80,0|8,0:0|0:0,0:0:0:0:
175,3,87457,1,0,0:0:0:0:
246,53,87711,5,4,1:1:0:0:
416,7,88220,2,0,B|402:86|402:86|460:134|460:134|443:218,1,240,8|0,0:0|0:0,0:0:0:0:
355,204,89237,2,0,L|367:291,1,80,8|2,0:0|0:0,0:0:0:0:
439,330,89745,5,4,1:1:0:0:
220,358,90381,2,0,P|154:228|57:275,1,280,4|0,0:1|0:0,0:0:0:0:
134,316,91525,2,0,L|136:370,2,40,0|4|4,0:0|0:1|1:1,0:0:0:0:
90,145,92287,6,0,B|55:48|55:48|200:89,1,240
251,25,93304,2,0,L|340:48,1,80,0|4,0:0|0:1,0:0:0:0:
412,71,93813,5,4,1:1:0:0:
488,276,94448,2,0,B|416:284|416:284|376:197|376:197|271:236,1,280,4|0,0:1|0:0,0:0:0:0:
308,319,95592,2,0,L|302:370,2,40,0|4|4,0:0|0:1|1:1,0:0:0:0:
137,360,96355,6,0,P|36:330|57:215,1,240
142,222,97372,2,0,L|129:135,1,80,0|2,0:0|0:0,0:0:0:0:
74,74,97881,6,0,B|129:132|129:132|154:43,1,160,4|2,1:1|0:3,0:0:0:0:
230,92,98643,1,2,0:3:0:0:
208,177,98898,2,0,B|266:198|266:198|285:304|285:304|355:329,1,240,8|2,0:0|0:3,0:0:0:0:
424,377,99915,6,0,P|444:341|441:299,1,80,4|8,1:1|0:3,0:0:0:0:
379,242,100423,2,0,P|403:181|500:186,1,160,2|8,0:3|0:0,0:0:0:0:
382,35,101440,2,0,B|350:82|350:82|247:29,1,160,2|4,0:3|1:1,0:0:0:0:
98,111,102457,6,0,L|182:100,1,80,8|8,0:0|0:0,0:0:0:0:
230,170,102965,2,0,P|253:209|254:247,1,80,8|2,0:0|0:0,0:0:0:0:
166,234,103474,2,0,P|172:271|152:311,1,80,0|2,0:0|0:0,0:0:0:0:
81,258,103982,6,0,B|29:222|29:222|3:321,2,160,4|0|0,1:1|0:0|0:0,0:0:0:0:
125,182,105253,2,0,L|113:101,1,80,0|2,0:0|0:3,0:0:0:0:
271,24,106016,5,4,0:0:0:0:
505,304,114152,6,0,B|452:338|383:291|419:250|354:201|290:235,1,240,2|2,0:1|0:1,0:0:0:0:
248,159,115169,2,0,B|189:204|189:204|202:108,1,160,0|2,0:0|0:3,0:0:0:0:
69,0,116186,6,0,P|1:25|32:166,1,240,0|2,0:0|0:1,0:0:0:0:
24,255,117203,2,0,B|83:237|83:237|115:338,1,160,0|2,0:0|0:3,0:0:0:0:
280,368,118220,6,0,B|264:310|264:310|376:282|376:282|359:218,1,240,0|2,0:0|0:1,0:0:0:0:
375,132,119237,1,0,0:0:0:0:
224,41,119745,1,2,0:3:0:0:
396,5,120253,6,0,P|483:38|469:182,1,240
465,255,121270,2,0,B|496:284|497:328|497:328|517:289|502:253,1,160,0|4,0:0|0:0,0:0:0:0:
355,350,122287,6,0,B|329:273|329:273|244:291,1,160,2|2,0:0|0:3,0:0:0:0:
108,186,123304,2,0,P|86:250|-1:242,1,160,2|2,0:0|0:3,0:0:0:0:
88,92,124321,6,0,B|65:50|96:22|96:22|191:37,2,160,2|2|0,0:0|0:3|0:0,0:0:0:0:
164,250,125847,1,2,0:3:0:0:
141,335,126101,1,2,0:3:0:0:
227,317,126355,6,0,P|299:313|347:379,1,160,4|2,0:0|0:3,0:0:0:0:
469,271,127372,2,0,B|492:207|492:207|401:171,1,160,0|2,0:3|0:3,0:0:0:0:
446,1,128389,6,0,L|287:22,1,160,4|2,0:0|0:3,0:0:0:0:
245,100,129152,2,0,P|261:138|257:177,1,80,2|2,0:3|0:0,0:0:0:0:
315,241,129660,1,2,0:1:0:0:
260,310,129915,6,0,B|207:372|207:372|167:295,1,160,2|4,0:3|0:0,0:0:0:0:
34,191,130931,6,0,P|74:190|93:89,1,160,2|2,0:3|0:3,0:0:0:0:
137,14,131694,2,0,L|220:6,1,80,2|2,0:0|0:3,0:0:0:0:
249,88,132203,1,2,0:3:0:0:
279,170,132457,1,2,0:3:0:0:
454,158,132965,6,0,B|493:86|493:86|449:11,2,160,2|0|2,0:3|0:0|0:3,0:0:0:0:
395,224,134237,2,0,P|418:262|418:314,1,80,2|2,0:3|0:3,0:0:0:0:
333,287,134745,5,2,0:3:0:0:
252,251,134999,2,0,L|240:337,1,80,2|2,0:3|0:3,0:0:0:0:
163,372,135508,2,0,P|117:315|37:332,1,160,0|2,0:0|0:3,0:0:0:0:
6,156,136525,6,0,L|88:163,1,80,2|0,0:3|0:0,0:0:0:0:
79,75,137033,2,0,L|161:82,1,80,2|2,0:3|0:3,0:0:0:0:
233,35,137542,2,0,B|293:90|293:90|223:141,1,160,2|2,0:3|0:3,0:0:0:0:
167,301,138559,6,0,B|228:273|284:316|252:352|312:399|384:357,1,240,4|2,0:0|0:3,0:0:0:0:
438,298,139576,2,0,B|448:245|448:245|422:216|422:216|433:147,1,160,2|2,0:3|0:3,0:0:0:0:
300,33,140592,6,0,L|211:24,1,80,2|2,0:3|0:3,0:0:0:0:
238,111,141101,2,0,L|158:102,2,80,2|2|2,0:3|0:3|0:3,0:0:0:0:
289,182,141864,1,2,0:3:0:0:
263,266,142118,1,2,0:3:0:0:
349,248,142372,1,2,0:3:0:0:
325,332,142626,5,4,0:0:0:0:
43,120,143643,5,4,0:1:0:0:
380,20,144660,5,8,0:2:0:0:
444,184,145169,1,8,0:2:0:0:
270,153,145677,1,8,0:2:0:0:
380,20,146186,6,0,L|368:109,1,80,2|0,0:0|0:0,0:0:0:0:
353,185,146694,1,4,0:0:0:0:
211,79,147203,6,0,B|161:17|161:17|94:71,1,160,8|4,0:0|1:1,0:0:0:0:
32,125,147965,2,0,P|60:165|57:209,1,80,8|8,0:3|0:0,0:0:0:0:
135,241,148474,1,2,0:3:0:0:
100,321,148728,6,0,P|152:273|235:308,1,160,4|8,1:1|0:0,0:0:0:0:
272,222,149491,2,0,L|282:141,2,80,8|4|8,0:3|1:1|0:3,0:0:0:0:
313,299,150253,1,8,0:0:0:0:
478,237,150762,6,0,B|495:135|495:135|453:178,1,160,4|8,1:1|0:0,0:0:0:0:
346,37,151779,2,0,L|250:29,1,80,4|0,1:1|0:0,0:0:0:0:
178,24,152287,1,8,0:0:0:0:
202,108,152542,1,4,0:1:0:0:
163,186,152796,6,0,P|213:135|301:169,2,160,4|8|0,1:1|0:0|0:0,0:0:0:0:
19,287,154321,2,0,P|96:279|133:359,1,160,8|4,0:0|1:1,0:0:0:0:
308,371,155338,6,0,B|343:301|343:301|401:361,1,160,8|4,0:0|1:1,0:0:0:0:
462,298,156101,2,0,P|477:256|464:221,1,80,8|8,0:3|0:0,0:0:0:0:
414,152,156609,1,2,0:3:0:0:
465,80,156864,6,0,L|293:103,1,160,4|8,1:1|0:0,0:0:0:0:
221,79,157626,2,0,P|203:45|207:0,2,80,8|4|8,0:3|1:1|0:3,0:0:0:0:
243,164,158389,1,8,0:0:0:0:
70,199,158898,6,0,B|31:233|31:233|138:263,1,160,4|8,1:1|0:0,0:0:0:0:
279,364,159915,2,0,L|368:352,1,80,4|0,1:1|0:0,0:0:0:0:
446,355,160423,1,8,0:0:0:0:
419,271,160677,1,4,0:1:0:0:
335,244,160931,6,0,P|313:177|228:175,2,160,4|8|0,1:1|0:0|0:0,0:0:0:0:
408,83,162457,2,0,P|430:16|515:14,1,160,8|4,0:0|1:1,0:0:0:0:
501,186,163474,6,0,B|256:356|256:356|291:175,1,480,4|4,0:0|1:1,0:0:0:0:
212,19,165508,6,0,P|187:88|107:71,1,160,8|4,0:0|1:1,0:0:0:0:
47,136,166270,1,8,0:3:0:0:
96,209,166525,2,0,P|111:249|106:290,1,80,8|0,0:0|0:0,0:0:0:0:
57,360,167033,6,0,B|106:313|106:313|197:367,1,160,4|8,0:0|0:0,0:0:0:0:
214,276,167796,1,4,0:1:0:0:
282,331,168050,2,0,L|446:315,1,160,4|8,1:1|0:0,0:0:0:0:
456,228,168813,1,4,0:1:0:0:
468,140,169067,5,4,0:0:0:0:
322,40,169576,1,8,0:0:0:0:
303,214,170084,6,0,B|240:231|240:231|202:119|202:119|146:130,1,240,4|2,1:1|0:0,0:0:0:0:
96,57,171101,1,4,1:1:0:0:
89,232,171609,6,0,P|30:229|6:324,1,160,2|2,0:3|0:3,0:0:0:0:
53,381,172372,1,2,0:3:0:0:
124,329,172626,2,0,L|206:319,1,80,8|2,0:0|0:3,0:0:0:0:
275,370,173135,6,0,B|322:307|322:307|437:351,1,200,4|2,1:1|0:0,0:0:0:0:
481,276,174025,2,0,L|489:222,1,40,0|4,0:0|1:1,0:0:0:0:
410,192,174406,1,2,0:0:0:0:
412,104,174660,2,0,P|386:164|297:149,1,160,8|4,0:0|1:1,0:0:0:0:
190,291,175677,6,0,L|168:118,1,160,8|2,0:0|0:3,0:0:0:0:
91,173,176440,1,2,0:3:0:0:
15,127,176694,2,0,L|23:37,1,80,8|2,0:0|0:3,0:0:0:0:
99,5,177203,6,0,B|135:78|135:78|261:52,1,200,4|2,1:1|0:0,0:0:0:0:
336,34,178092,2,0,L|389:48,1,40
382,132,178474,1,2,0:0:0:0:
306,176,178728,2,0,L|299:268,1,80,8|0,0:0|0:0,0:0:0:0:
292,343,179237,5,4,1:1:0:0:
117,365,179745,2,0,P|20:360|23:228,1,240
67,170,180762,2,0,B|153:155|153:155|95:106,1,160,0|4,0:0|1:1,0:0:0:0:
167,54,181525,6,0,L|327:40,1,160,0|8,0:0|0:3,0:0:0:0:
413,31,182287,2,0,P|454:86|409:159,1,160,0|8,0:0|0:0,0:0:0:0:
341,209,183050,1,4,0:1:0:0:
397,276,183304,6,0,B|335:242|335:242|280:318,1,160,4|8,1:1|0:1,0:0:0:0:
204,355,184067,1,4,0:1:0:0:
144,289,184321,2,0,L|134:201,1,80,4|2,1:1|0:0,0:0:0:0:
47,221,184830,2,0,L|37:128,1,80,8|2,0:0|0:3,0:0:0:0:
98,76,185338,6,0,P|63:40|-3:54,2,120,4|4|4,1:1|0:1|0:1,0:0:0:0:
209,4,186482,1,4,0:1:0:0:
225,90,186737,1,4,0:1:0:0:
240,176,186991,2,0,L|292:180,2,40,0|4|0,0:0|0:0|0:0,0:0:0:0:
