osu file format v14

[General]
AudioFilename: audio.mp3
AudioLeadIn: 0
PreviewTime: 81206
Countdown: 0
SampleSet: Normal
StackLeniency: 0.7
Mode: 3
LetterboxInBreaks: 0
SpecialStyle: 0
WidescreenStoryboard: 0

[Editor]
Bookmarks: 32064,146349
DistanceSpacing: 0.7
BeatDivisor: 4
GridSize: 4
TimelineZoom: 3.299999

[Metadata]
Title:Harpoon
TitleUnicode:Harpoon
Artist:USAO
ArtistUnicode:USAO
Creator:AlexDunk
Version:7K you fool
Source:Break Out Uprising
Tags:frenchcore SV
BeatmapID:2113158
BeatmapSetID:1009400

[Difficulty]
HPDrainRate:8
CircleSize:7
OverallDifficulty:8
ApproachRate:5
SliderMultiplier:1.4
SliderTickRate:1

[Events]
//Background and Video events
0,0,"harpoon.jpg",0,0
//Break Periods
//Storyboard Layer 0 (Background)
//Storyboard Layer 1 (Fail)
//Storyboard Layer 2 (Pass)
//Storyboard Layer 3 (Foreground)
//Storyboard Sound Samples

[TimingPoints]
79,285.714285714286,4,1,0,40,1,0
72936,-40,4,1,0,40,0,0
73007,-133.333333333333,4,1,0,40,0,0
73079,-181.818181818181,4,1,0,40,0,0
73221,-22.7272727272727,4,1,0,40,0,0
73257,-133.333333333333,4,1,0,40,0,0
73293,-142.857142857143,4,1,0,40,0,0
73329,-166.666666666667,4,1,0,40,0,0
73364,-250,4,1,0,40,0,0
73400,-500,4,1,0,40,0,0
73436,-10000,4,1,0,40,0,0
73507,-22.7273,4,1,0,40,0,0
73543,-133.333,4,1,0,40,0,0
73579,-142.857,4,1,0,40,0,0
73615,-166.667,4,1,0,40,0,0
73650,-250,4,1,0,40,0,0
73686,-500,4,1,0,40,0,0
73722,-1000,4,1,0,40,0,0
73793,-22.7273,4,1,0,40,0,0
73829,-133.333,4,1,0,40,0,0
73865,-142.857,4,1,0,40,0,0
73901,-166.667,4,1,0,40,0,0
73936,-250,4,1,0,40,0,0
73972,-500,4,1,0,40,0,0
74008,-1000,4,1,0,40,0,0
74079,-30.3030303030303,4,1,0,40,0,0
74096,-133.333,4,1,0,40,0,0
74114,-142.857,4,1,0,40,0,0
74132,-166.667,4,1,0,40,0,0
74150,-250,4,1,0,40,0,0
74168,-500,4,1,0,40,0,0
74186,-1000,4,1,0,40,0,0
74221,-30.3030303030303,4,1,0,40,0,0
74239,-133.333333333333,4,1,0,40,0,0
74257,-142.857142857143,4,1,0,40,0,0
74275,-166.666666666667,4,1,0,40,0,0
74293,-250,4,1,0,40,0,0
74311,-500,4,1,0,40,0,0
74329,-10000,4,1,0,40,0,0
74365,-22.7273,4,1,0,40,0,0
74401,-133.333,4,1,0,40,0,0
74437,-142.857,4,1,0,40,0,0
74473,-166.667,4,1,0,40,0,0
74508,-250,4,1,0,40,0,0
74544,-500,4,1,0,40,0,0
74580,-1000,4,1,0,40,0,0
74651,-22.7273,4,1,0,40,0,0
74687,-133.333,4,1,0,40,0,0
74723,-142.857,4,1,0,40,0,0
74759,-166.667,4,1,0,40,0,0
74794,-250,4,1,0,40,0,0
74830,-500,4,1,0,40,0,0
74866,-1000,4,1,0,40,0,0
74937,-22.7273,4,1,0,40,0,0
74973,-133.333,4,1,0,40,0,0
75009,-142.857,4,1,0,40,0,0
75045,-166.667,4,1,0,40,0,0
75080,-250,4,1,0,40,0,0
75116,-500,4,1,0,40,0,0
75152,-1000,4,1,0,40,0,0
75223,-30.303,4,1,0,40,0,0
75240,-133.333,4,1,0,40,0,0
75258,-142.857,4,1,0,40,0,0
75276,-166.667,4,1,0,40,0,0
75294,-250,4,1,0,40,0,0
75312,-500,4,1,0,40,0,0
75330,-1000,4,1,0,40,0,0
75365,-30.303,4,1,0,40,0,0
75383,-133.333,4,1,0,40,0,0
75401,-142.857,4,1,0,40,0,0
75419,-166.667,4,1,0,40,0,0
75437,-250,4,1,0,40,0,0
75455,-500,4,1,0,40,0,0
75473,-1000,4,1,0,40,0,0
75508,-22.7273,4,1,0,40,0,0
75544,-133.333,4,1,0,40,0,0
75580,-142.857,4,1,0,40,0,0
75616,-166.667,4,1,0,40,0,0
75651,-250,4,1,0,40,0,0
75687,-500,4,1,0,40,0,0
75723,-1000,4,1,0,40,0,0
75794,-22.7273,4,1,0,40,0,0
75830,-133.333,4,1,0,40,0,0
75866,-142.857,4,1,0,40,0,0
75902,-166.667,4,1,0,40,0,0
75937,-250,4,1,0,40,0,0
75973,-500,4,1,0,40,0,0
76009,-1000,4,1,0,40,0,0
76079,-22.7273,4,1,0,40,0,0
76115,-133.333,4,1,0,40,0,0
76151,-142.857,4,1,0,40,0,0
76187,-166.667,4,1,0,40,0,0
76222,-250,4,1,0,40,0,0
76258,-500,4,1,0,40,0,0
76294,-1000,4,1,0,40,0,0
76367,-30.303,4,1,0,40,0,0
76384,-133.333,4,1,0,40,0,0
76402,-142.857,4,1,0,40,0,0
76420,-166.667,4,1,0,40,0,0
76438,-250,4,1,0,40,0,0
76456,-500,4,1,0,40,0,0
76474,-1000,4,1,0,40,0,0
76509,-30.303,4,1,0,40,0,0
76527,-133.333,4,1,0,40,0,0
76545,-142.857,4,1,0,40,0,0
76563,-166.667,4,1,0,40,0,0
76581,-250,4,1,0,40,0,0
76599,-500,4,1,0,40,0,0
76617,-1000,4,1,0,40,0,0
76651,-22.7273,4,1,0,40,0,0
76687,-133.333,4,1,0,40,0,0
76723,-142.857,4,1,0,40,0,0
76759,-166.667,4,1,0,40,0,0
76794,-250,4,1,0,40,0,0
76830,-500,4,1,0,40,0,0
76866,-1000,4,1,0,40,0,0
76937,-22.7273,4,1,0,40,0,0
76972,-133.333,4,1,0,40,0,0
77008,-142.857,4,1,0,40,0,0
77044,-166.667,4,1,0,40,0,0
77079,-250,4,1,0,40,0,0
77116,-500,4,1,0,40,0,0
77152,-1000,4,1,0,40,0,0
77222,-100,4,1,0,40,0,0
82079,-40,4,1,0,40,0,0
82126,-200,4,1,0,40,0,0
82221,-250,4,1,0,40,0,0
82269,-142.857142857143,4,1,0,40,0,0
82317,-66.6666666666667,4,1,0,40,0,0
82364,-100,4,1,0,40,0,1
100650,-100,4,1,0,40,0,0
136936,-40,4,1,0,40,0,0
137007,-133.333,4,1,0,40,0,0
137079,-181.818,4,1,0,40,0,0
137221,-28.5714285714286,4,1,0,40,0,0
137250,-25,4,1,0,40,0,0
137254,-333.333333333333,4,1,0,40,0,0
137286,-25,4,1,0,40,0,0
137290,-333.333333333333,4,1,0,40,0,0
137322,-25,4,1,0,40,0,0
137326,-333.333333333333,4,1,0,40,0,0
137357,-25,4,1,0,40,0,0
137361,-333.333333333333,4,1,0,40,0,0
137393,-25,4,1,0,40,0,0
137397,-333.333333333333,4,1,0,40,0,0
137429,-25,4,1,0,40,0,0
137433,-333.333333333333,4,1,0,40,0,0
137471,-40,4,1,0,40,0,0
137507,-22.7273,4,1,0,40,0,0
137543,-133.333,4,1,0,40,0,0
137579,-142.857,4,1,0,40,0,0
137615,-166.667,4,1,0,40,0,0
137650,-250,4,1,0,40,0,0
137686,-500,4,1,0,40,0,0
137722,-1000,4,1,0,40,0,0
137793,-22.7273,4,1,0,40,0,0
137829,-133.333,4,1,0,40,0,0
137865,-142.857,4,1,0,40,0,0
137901,-166.667,4,1,0,40,0,0
137936,-250,4,1,0,40,0,0
137972,-500,4,1,0,40,0,0
138008,-1000,4,1,0,40,0,0
138079,-30.303,4,1,0,40,0,0
138096,-133.333,4,1,0,40,0,0
138114,-142.857,4,1,0,40,0,0
138132,-166.667,4,1,0,40,0,0
138150,-250,4,1,0,40,0,0
138168,-500,4,1,0,40,0,0
138186,-1000,4,1,0,40,0,0
138221,-30.303,4,1,0,40,0,0
138239,-133.333,4,1,0,40,0,0
138257,-142.857,4,1,0,40,0,0
138275,-166.667,4,1,0,40,0,0
138293,-250,4,1,0,40,0,0
138311,-500,4,1,0,40,0,0
138329,-1000,4,1,0,40,0,0
138365,-22.7273,4,1,0,40,0,0
138401,-133.333,4,1,0,40,0,0
138437,-142.857,4,1,0,40,0,0
138473,-166.667,4,1,0,40,0,0
138508,-250,4,1,0,40,0,0
138544,-500,4,1,0,40,0,0
138580,-1000,4,1,0,40,0,0
138651,-22.7273,4,1,0,40,0,0
138687,-133.333,4,1,0,40,0,0
138723,-142.857,4,1,0,40,0,0
138759,-166.667,4,1,0,40,0,0
138794,-250,4,1,0,40,0,0
138830,-500,4,1,0,40,0,0
138866,-1000,4,1,0,40,0,0
138937,-22.7273,4,1,0,40,0,0
138973,-133.333,4,1,0,40,0,0
139009,-142.857,4,1,0,40,0,0
139045,-166.667,4,1,0,40,0,0
139080,-250,4,1,0,40,0,0
139116,-500,4,1,0,40,0,0
139152,-1000,4,1,0,40,0,0
139223,-30.303,4,1,0,40,0,0
139240,-133.333,4,1,0,40,0,0
139258,-142.857,4,1,0,40,0,0
139276,-166.667,4,1,0,40,0,0
139294,-250,4,1,0,40,0,0
139312,-500,4,1,0,40,0,0
139330,-1000,4,1,0,40,0,0
139365,-30.303,4,1,0,40,0,0
139383,-133.333,4,1,0,40,0,0
139401,-142.857,4,1,0,40,0,0
139419,-166.667,4,1,0,40,0,0
139437,-250,4,1,0,40,0,0
139455,-500,4,1,0,40,0,0
139473,-1000,4,1,0,40,0,0
139508,-28.5714285714286,4,1,0,40,0,0
139537,-25,4,1,0,40,0,0
139540,-333.333333333333,4,1,0,40,0,0
139573,-25,4,1,0,40,0,0
139576,-333.333333333333,4,1,0,40,0,0
139609,-25,4,1,0,40,0,0
139612,-333.333333333333,4,1,0,40,0,0
139644,-25,4,1,0,40,0,0
139647,-333.333333333333,4,1,0,40,0,0
139680,-25,4,1,0,40,0,0
139683,-333.333333333333,4,1,0,40,0,0
139716,-25,4,1,0,40,0,0
139719,-333.333333333333,4,1,0,40,0,0
139757,-40,4,1,0,40,0,0
139794,-22.7273,4,1,0,40,0,0
139830,-133.333,4,1,0,40,0,0
139866,-142.857,4,1,0,40,0,0
139902,-166.667,4,1,0,40,0,0
139937,-250,4,1,0,40,0,0
139973,-500,4,1,0,40,0,0
140009,-1000,4,1,0,40,0,0
140079,-22.7273,4,1,0,40,0,0
140115,-133.333,4,1,0,40,0,0
140151,-142.857,4,1,0,40,0,0
140187,-166.667,4,1,0,40,0,0
140222,-250,4,1,0,40,0,0
140258,-500,4,1,0,40,0,0
140294,-1000,4,1,0,40,0,0
140367,-30.303,4,1,0,40,0,0
140384,-133.333,4,1,0,40,0,0
140402,-142.857,4,1,0,40,0,0
140420,-166.667,4,1,0,40,0,0
140438,-250,4,1,0,40,0,0
140456,-500,4,1,0,40,0,0
140474,-1000,4,1,0,40,0,0
140509,-30.303,4,1,0,40,0,0
140527,-133.333,4,1,0,40,0,0
140545,-142.857,4,1,0,40,0,0
140563,-166.667,4,1,0,40,0,0
140581,-250,4,1,0,40,0,0
140599,-500,4,1,0,40,0,0
140617,-1000,4,1,0,40,0,0
140651,-22.7273,4,1,0,40,0,0
140687,-133.333,4,1,0,40,0,0
140723,-142.857,4,1,0,40,0,0
140759,-166.667,4,1,0,40,0,0
140794,-250,4,1,0,40,0,0
140830,-500,4,1,0,40,0,0
140866,-1000,4,1,0,40,0,0
140937,-22.7273,4,1,0,40,0,0
140972,-133.333,4,1,0,40,0,0
141008,-142.857,4,1,0,40,0,0
141044,-166.667,4,1,0,40,0,0
141079,-250,4,1,0,40,0,0
141116,-500,4,1,0,40,0,0
141152,-1000,4,1,0,40,0,0
141222,-100,4,1,0,40,0,0
146079,-40,4,1,0,40,0,0
146126,-200,4,1,0,40,0,0
146221,-250,4,1,0,40,0,0
146269,-142.857,4,1,0,40,0,0
146317,-66.6667,4,1,0,40,0,0
146364,-100,4,1,0,40,0,1
164079,-100,4,1,0,40,0,0
164650,-100,4,1,0,40,0,1
182936,-100,4,1,0,40,0,0

[HitObjects]
36,192,79,5,0,0:0:0:0:
256,192,79,1,0,0:0:0:0:
475,192,79,1,0,0:0:0:0:
109,192,221,1,0,0:0:0:0:
182,192,293,1,0,0:0:0:0:
402,192,364,1,0,0:0:0:0:
475,192,364,1,0,0:0:0:0:
329,192,507,1,0,0:0:0:0:
182,192,650,1,0,0:0:0:0:
256,192,793,128,0,936:0:0:0:0:
36,192,793,1,0,0:0:0:0:
402,192,936,1,0,0:0:0:0:
475,192,936,1,0,0:0:0:0:
256,192,1079,128,0,1221:0:0:0:0:
109,192,1221,1,0,0:0:0:0:
182,192,1364,1,0,0:0:0:0:
329,192,1436,1,0,0:0:0:0:
402,192,1507,1,0,0:0:0:0:
475,192,1507,1,0,0:0:0:0:
256,192,1650,1,0,0:0:0:0:
329,192,1793,1,0,0:0:0:0:
109,192,1936,1,0,0:0:0:0:
402,192,2079,1,0,0:0:0:0:
475,192,2079,1,0,0:0:0:0:
109,192,2364,1,0,0:0:0:0:
402,192,2650,1,0,0:0:0:0:
475,192,2650,1,0,0:0:0:0:
256,192,2936,1,0,0:0:0:0:
109,192,3079,1,0,0:0:0:0:
402,192,3221,1,0,0:0:0:0:
475,192,3221,1,0,0:0:0:0:
329,192,3364,1,0,0:0:0:0:
109,192,3507,1,0,0:0:0:0:
182,192,3650,1,0,0:0:0:0:
402,192,3793,1,0,0:0:0:0:
475,192,3793,1,0,0:0:0:0:
182,192,3936,1,0,0:0:0:0:
329,192,4079,1,0,0:0:0:0:
109,192,4221,1,0,0:0:0:0:
402,192,4364,1,0,0:0:0:0:
475,192,4364,1,0,0:0:0:0:
329,192,4650,1,0,0:0:0:0:
36,192,4650,128,0,4793:0:0:0:0:
182,192,4650,128,0,4793:0:0:0:0:
475,192,4936,1,0,0:0:0:0:
109,192,4936,128,0,5079:0:0:0:0:
182,192,4936,128,0,5079:0:0:0:0:
329,192,4936,1,0,0:0:0:0:
402,192,5221,1,0,0:0:0:0:
182,192,5364,128,0,5507:0:0:0:0:
36,192,5364,128,0,5507:0:0:0:0:
329,192,5364,1,0,0:0:0:0:
475,192,5507,1,0,0:0:0:0:
402,192,5507,1,0,0:0:0:0:
109,192,5650,128,0,5721:0:0:0:0:
36,192,5650,128,0,5721:0:0:0:0:
329,192,5650,1,0,0:0:0:0:
36,192,5793,128,0,5936:0:0:0:0:
109,192,5793,128,0,5936:0:0:0:0:
329,192,5793,1,0,0:0:0:0:
475,192,6079,1,0,0:0:0:0:
109,192,6079,128,0,6150:0:0:0:0:
182,192,6079,128,0,6150:0:0:0:0:
402,192,6079,1,0,0:0:0:0:
329,192,6221,1,0,0:0:0:0:
36,192,6257,1,0,0:0:0:0:
182,192,6293,1,0,0:0:0:0:
329,192,6329,1,0,0:0:0:0:
36,192,6364,1,0,0:0:0:0:
475,192,6364,1,0,0:0:0:0:
182,192,6507,1,0,0:0:0:0:
329,192,6650,1,0,0:0:0:0:
475,192,6650,1,0,0:0:0:0:
182,192,6793,128,0,6864:0:0:0:0:
36,192,6793,128,0,6864:0:0:0:0:
36,192,6936,128,0,7079:0:0:0:0:
182,192,6936,128,0,7079:0:0:0:0:
329,192,6936,1,0,0:0:0:0:
329,192,7221,1,0,0:0:0:0:
475,192,7221,1,0,0:0:0:0:
36,192,7221,128,0,7364:0:0:0:0:
182,192,7221,128,0,7364:0:0:0:0:
256,192,7507,1,0,0:0:0:0:
329,192,7650,1,0,0:0:0:0:
109,192,7650,128,0,7721:0:0:0:0:
182,192,7650,128,0,7721:0:0:0:0:
329,192,7793,1,0,0:0:0:0:
475,192,7793,1,0,0:0:0:0:
36,192,7936,128,0,8007:0:0:0:0:
109,192,7936,128,0,8007:0:0:0:0:
182,192,8007,128,0,8079:0:0:0:0:
329,192,8079,1,0,0:0:0:0:
109,192,8079,128,0,8150:0:0:0:0:
36,192,8079,128,0,8150:0:0:0:0:
109,192,8364,128,0,8436:0:0:0:0:
36,192,8364,128,0,8436:0:0:0:0:
329,192,8364,1,0,0:0:0:0:
475,192,8364,1,0,0:0:0:0:
402,192,8507,1,0,0:0:0:0:
109,192,8543,1,0,0:0:0:0:
182,192,8579,1,0,0:0:0:0:
329,192,8614,1,0,0:0:0:0:
36,192,8650,1,0,0:0:0:0:
475,192,8650,1,0,0:0:0:0:
256,192,8793,1,0,0:0:0:0:
329,192,8936,1,0,0:0:0:0:
475,192,8936,1,0,0:0:0:0:
256,192,9221,1,0,0:0:0:0:
182,192,9221,1,0,0:0:0:0:
402,192,9221,1,0,0:0:0:0:
36,192,9221,128,0,9507:0:0:0:0:
329,192,9507,1,0,0:0:0:0:
475,192,9507,1,0,0:0:0:0:
36,192,9650,128,0,9721:0:0:0:0:
402,192,9793,1,0,0:0:0:0:
109,192,9936,1,0,0:0:0:0:
182,192,9936,1,0,0:0:0:0:
36,192,10079,1,0,0:0:0:0:
256,192,10079,128,0,10150:0:0:0:0:
475,192,10079,128,0,10150:0:0:0:0:
475,192,10221,128,0,10293:0:0:0:0:
256,192,10221,128,0,10293:0:0:0:0:
182,192,10364,1,0,0:0:0:0:
475,192,10364,128,0,10579:0:0:0:0:
256,192,10364,128,0,10579:0:0:0:0:
402,192,10650,1,0,0:0:0:0:
475,192,10650,1,0,0:0:0:0:
182,192,10650,128,0,10864:0:0:0:0:
36,192,10650,128,0,10864:0:0:0:0:
329,192,10936,1,0,0:0:0:0:
109,192,11079,1,0,0:0:0:0:
182,192,11079,1,0,0:0:0:0:
36,192,11221,1,0,0:0:0:0:
256,192,11221,1,0,0:0:0:0:
402,192,11221,1,0,0:0:0:0:
109,192,11507,1,0,0:0:0:0:
182,192,11507,1,0,0:0:0:0:
329,192,11507,1,0,0:0:0:0:
256,192,11650,1,0,0:0:0:0:
329,192,11793,1,0,0:0:0:0:
36,192,11793,1,0,0:0:0:0:
475,192,11793,1,0,0:0:0:0:
256,192,11936,1,0,0:0:0:0:
182,192,12079,1,0,0:0:0:0:
402,192,12079,1,0,0:0:0:0:
109,192,12221,1,0,0:0:0:0:
182,192,12364,1,0,0:0:0:0:
36,192,12364,1,0,0:0:0:0:
475,192,12364,128,0,12579:0:0:0:0:
329,192,12364,128,0,12579:0:0:0:0:
182,192,12650,1,0,0:0:0:0:
329,192,12650,128,0,12864:0:0:0:0:
475,192,12650,128,0,12864:0:0:0:0:
329,192,12936,128,0,13150:0:0:0:0:
475,192,12936,128,0,13150:0:0:0:0:
36,192,12936,1,0,0:0:0:0:
109,192,12936,1,0,0:0:0:0:
329,192,13221,128,0,13436:0:0:0:0:
475,192,13221,128,0,13436:0:0:0:0:
36,192,13221,1,0,0:0:0:0:
109,192,13364,1,0,0:0:0:0:
182,192,13364,1,0,0:0:0:0:
329,192,13507,1,0,0:0:0:0:
402,192,13507,1,0,0:0:0:0:
36,192,13507,1,0,0:0:0:0:
182,192,13507,1,0,0:0:0:0:
329,192,13650,1,0,0:0:0:0:
402,192,13650,1,0,0:0:0:0:
182,192,13721,1,0,0:0:0:0:
109,192,13721,1,0,0:0:0:0:
329,192,13793,1,0,0:0:0:0:
402,192,13793,1,0,0:0:0:0:
256,192,13936,1,0,0:0:0:0:
109,192,13936,1,0,0:0:0:0:
36,192,14079,1,0,0:0:0:0:
182,192,14079,1,0,0:0:0:0:
329,192,14079,1,0,0:0:0:0:
109,192,14221,1,0,0:0:0:0:
256,192,14221,1,0,0:0:0:0:
182,192,14364,1,0,0:0:0:0:
329,192,14364,1,0,0:0:0:0:
256,192,14507,1,0,0:0:0:0:
402,192,14507,1,0,0:0:0:0:
109,192,14507,1,0,0:0:0:0:
182,192,14650,1,0,0:0:0:0:
329,192,14650,128,0,14721:0:0:0:0:
475,192,14650,128,0,14721:0:0:0:0:
475,192,14793,128,0,14864:0:0:0:0:
329,192,14793,128,0,14864:0:0:0:0:
109,192,14793,1,0,0:0:0:0:
475,192,14936,128,0,15007:0:0:0:0:
329,192,14936,128,0,15007:0:0:0:0:
36,192,14936,1,0,0:0:0:0:
109,192,15079,1,0,0:0:0:0:
256,192,15079,1,0,0:0:0:0:
182,192,15221,1,0,0:0:0:0:
329,192,15221,1,0,0:0:0:0:
402,192,15221,1,0,0:0:0:0:
109,192,15364,1,0,0:0:0:0:
475,192,15364,1,0,0:0:0:0:
182,192,15507,1,0,0:0:0:0:
329,192,15507,1,0,0:0:0:0:
109,192,15650,1,0,0:0:0:0:
402,192,15650,1,0,0:0:0:0:
36,192,15793,1,0,0:0:0:0:
256,192,15793,1,0,0:0:0:0:
475,192,15793,1,0,0:0:0:0:
109,192,15936,1,0,0:0:0:0:
402,192,15936,1,0,0:0:0:0:
182,192,16079,1,0,0:0:0:0:
329,192,16079,1,0,0:0:0:0:
109,192,16150,1,0,0:0:0:0:
402,192,16221,1,0,0:0:0:0:
182,192,16293,1,0,0:0:0:0:
329,192,16364,1,0,0:0:0:0:
256,192,16364,1,0,0:0:0:0:
36,192,16436,1,0,0:0:0:0:
402,192,16507,1,0,0:0:0:0:
109,192,16579,1,0,0:0:0:0:
475,192,16650,1,0,0:0:0:0:
182,192,16721,1,0,0:0:0:0:
402,192,16793,1,0,0:0:0:0:
329,192,16793,1,0,0:0:0:0:
109,192,16864,1,0,0:0:0:0:
475,192,16936,1,0,0:0:0:0:
402,192,16936,1,0,0:0:0:0:
36,192,17007,1,0,0:0:0:0:
256,192,17079,1,0,0:0:0:0:
109,192,17150,1,0,0:0:0:0:
475,192,17221,1,0,0:0:0:0:
402,192,17257,1,0,0:0:0:0:
329,192,17293,1,0,0:0:0:0:
36,192,17329,1,0,0:0:0:0:
109,192,17364,1,0,0:0:0:0:
256,192,17400,1,0,0:0:0:0:
475,192,17436,1,0,0:0:0:0:
402,192,17471,1,0,0:0:0:0:
329,192,17507,1,0,0:0:0:0:
182,192,17543,1,0,0:0:0:0:
109,192,17579,1,0,0:0:0:0:
402,192,17614,1,0,0:0:0:0:
329,192,17650,1,0,0:0:0:0:
256,192,17686,1,0,0:0:0:0:
182,192,17721,1,0,0:0:0:0:
109,192,17757,1,0,0:0:0:0:
36,192,17793,1,0,0:0:0:0:
256,192,17936,1,0,0:0:0:0:
182,192,17983,1,0,0:0:0:0:
109,192,18031,1,0,0:0:0:0:
36,192,18079,1,0,0:0:0:0:
475,192,18079,1,0,0:0:0:0:
329,192,18079,1,0,0:0:0:0:
109,192,18364,1,0,0:0:0:0:
256,192,18364,1,0,0:0:0:0:
402,192,18364,1,0,0:0:0:0:
182,192,18507,128,0,18650:0:0:0:0:
36,192,18650,1,0,0:0:0:0:
256,192,18650,1,0,0:0:0:0:
475,192,18650,1,0,0:0:0:0:
402,192,18793,128,0,18936:0:0:0:0:
329,192,18936,1,0,0:0:0:0:
256,192,18936,1,0,0:0:0:0:
109,192,18936,1,0,0:0:0:0:
182,192,19079,128,0,19221:0:0:0:0:
36,192,19221,1,0,0:0:0:0:
256,192,19221,1,0,0:0:0:0:
402,192,19221,1,0,0:0:0:0:
475,192,19364,128,0,19507:0:0:0:0:
36,192,19507,1,0,0:0:0:0:
329,192,19507,1,0,0:0:0:0:
256,192,19507,1,0,0:0:0:0:
109,192,19650,128,0,19793:0:0:0:0:
182,192,19793,1,0,0:0:0:0:
256,192,19793,1,0,0:0:0:0:
402,192,19793,1,0,0:0:0:0:
329,192,19936,128,0,20079:0:0:0:0:
36,192,20079,1,0,0:0:0:0:
256,192,20079,1,0,0:0:0:0:
475,192,20079,1,0,0:0:0:0:
109,192,20221,128,0,20364:0:0:0:0:
182,192,20364,1,0,0:0:0:0:
256,192,20364,1,0,0:0:0:0:
402,192,20364,1,0,0:0:0:0:
475,192,20507,128,0,20650:0:0:0:0:
36,192,20650,1,0,0:0:0:0:
256,192,20650,1,0,0:0:0:0:
402,192,20650,1,0,0:0:0:0:
182,192,20793,128,0,20936:0:0:0:0:
36,192,20936,1,0,0:0:0:0:
256,192,20936,1,0,0:0:0:0:
329,192,20936,1,0,0:0:0:0:
402,192,21079,128,0,21221:0:0:0:0:
109,192,21221,1,0,0:0:0:0:
182,192,21221,1,0,0:0:0:0:
256,192,21221,1,0,0:0:0:0:
36,192,21364,128,0,21507:0:0:0:0:
109,192,21507,1,0,0:0:0:0:
475,192,21507,1,0,0:0:0:0:
256,192,21507,1,0,0:0:0:0:
402,192,21650,128,0,21793:0:0:0:0:
36,192,21793,1,0,0:0:0:0:
109,192,21793,1,0,0:0:0:0:
256,192,21793,1,0,0:0:0:0:
182,192,21936,128,0,22079:0:0:0:0:
109,192,22079,1,0,0:0:0:0:
256,192,22079,1,0,0:0:0:0:
402,192,22079,1,0,0:0:0:0:
329,192,22221,128,0,22364:0:0:0:0:
182,192,22364,1,0,0:0:0:0:
256,192,22364,1,0,0:0:0:0:
475,192,22364,1,0,0:0:0:0:
36,192,22507,128,0,22650:0:0:0:0:
109,192,22650,1,0,0:0:0:0:
256,192,22650,1,0,0:0:0:0:
402,192,22650,1,0,0:0:0:0:
475,192,22650,1,0,0:0:0:0:
256,192,22793,1,0,0:0:0:0:
329,192,22793,1,0,0:0:0:0:
182,192,22793,1,0,0:0:0:0:
256,192,22936,1,0,0:0:0:0:
329,192,22936,1,0,0:0:0:0:
182,192,22936,1,0,0:0:0:0:
402,192,23079,128,0,23221:0:0:0:0:
36,192,23221,1,0,0:0:0:0:
182,192,23221,1,0,0:0:0:0:
256,192,23221,1,0,0:0:0:0:
109,192,23364,128,0,23507:0:0:0:0:
256,192,23507,1,0,0:0:0:0:
329,192,23507,1,0,0:0:0:0:
475,192,23507,1,0,0:0:0:0:
402,192,23650,128,0,23793:0:0:0:0:
36,192,23793,1,0,0:0:0:0:
109,192,23793,1,0,0:0:0:0:
256,192,23793,1,0,0:0:0:0:
182,192,23936,128,0,24079:0:0:0:0:
256,192,24079,1,0,0:0:0:0:
329,192,24079,1,0,0:0:0:0:
36,192,24079,1,0,0:0:0:0:
475,192,24221,128,0,24364:0:0:0:0:
109,192,24364,1,0,0:0:0:0:
256,192,24364,1,0,0:0:0:0:
402,192,24364,1,0,0:0:0:0:
182,192,24507,128,0,24650:0:0:0:0:
36,192,24650,1,0,0:0:0:0:
256,192,24650,1,0,0:0:0:0:
329,192,24650,1,0,0:0:0:0:
475,192,24793,128,0,24936:0:0:0:0:
256,192,24936,1,0,0:0:0:0:
182,192,24936,1,0,0:0:0:0:
402,192,24936,1,0,0:0:0:0:
329,192,25079,1,0,0:0:0:0:
402,192,25079,1,0,0:0:0:0:
182,192,25150,1,0,0:0:0:0:
109,192,25150,1,0,0:0:0:0:
36,192,25221,1,0,0:0:0:0:
256,192,25221,1,0,0:0:0:0:
329,192,25221,1,0,0:0:0:0:
475,192,25364,128,0,25507:0:0:0:0:
109,192,25507,1,0,0:0:0:0:
256,192,25507,1,0,0:0:0:0:
402,192,25507,1,0,0:0:0:0:
36,192,25650,128,0,25793:0:0:0:0:
182,192,25793,1,0,0:0:0:0:
256,192,25793,1,0,0:0:0:0:
329,192,25793,1,0,0:0:0:0:
402,192,25936,128,0,26079:0:0:0:0:
109,192,26079,1,0,0:0:0:0:
182,192,26079,1,0,0:0:0:0:
256,192,26079,1,0,0:0:0:0:
36,192,26221,128,0,26364:0:0:0:0:
329,192,26364,1,0,0:0:0:0:
402,192,26364,1,0,0:0:0:0:
256,192,26364,1,0,0:0:0:0:
475,192,26507,128,0,26650:0:0:0:0:
109,192,26650,1,0,0:0:0:0:
256,192,26650,1,0,0:0:0:0:
329,192,26650,1,0,0:0:0:0:
182,192,26793,128,0,26936:0:0:0:0:
475,192,26936,1,0,0:0:0:0:
256,192,26936,1,0,0:0:0:0:
329,192,26936,1,0,0:0:0:0:
402,192,27079,1,0,0:0:0:0:
475,192,27079,1,0,0:0:0:0:
109,192,27150,1,0,0:0:0:0:
182,192,27150,1,0,0:0:0:0:
36,192,27221,1,0,0:0:0:0:
256,192,27221,1,0,0:0:0:0:
329,192,27221,1,0,0:0:0:0:
256,192,27364,1,0,0:0:0:0:
329,192,27364,1,0,0:0:0:0:
182,192,27364,1,0,0:0:0:0:
475,192,27507,1,0,0:0:0:0:
36,192,27507,1,0,0:0:0:0:
329,192,27507,1,0,0:0:0:0:
109,192,27507,1,0,0:0:0:0:
256,192,27507,1,0,0:0:0:0:
402,192,27650,1,0,0:0:0:0:
109,192,27793,1,0,0:0:0:0:
182,192,27793,1,0,0:0:0:0:
475,192,27793,1,0,0:0:0:0:
329,192,27793,1,0,0:0:0:0:
256,192,27936,1,0,0:0:0:0:
36,192,28079,1,0,0:0:0:0:
182,192,28079,1,0,0:0:0:0:
329,192,28079,1,0,0:0:0:0:
109,192,28221,1,0,0:0:0:0:
36,192,28364,1,0,0:0:0:0:
256,192,28364,1,0,0:0:0:0:
329,192,28364,1,0,0:0:0:0:
475,192,28364,1,0,0:0:0:0:
402,192,28507,1,0,0:0:0:0:
109,192,28650,1,0,0:0:0:0:
329,192,28650,1,0,0:0:0:0:
182,192,28650,1,0,0:0:0:0:
36,192,28793,1,0,0:0:0:0:
182,192,28936,1,0,0:0:0:0:
256,192,28936,1,0,0:0:0:0:
402,192,28936,1,0,0:0:0:0:
475,192,28936,1,0,0:0:0:0:
329,192,29079,1,0,0:0:0:0:
109,192,29221,1,0,0:0:0:0:
182,192,29221,1,0,0:0:0:0:
402,192,29221,1,0,0:0:0:0:
256,192,29364,1,0,0:0:0:0:
36,192,29507,1,0,0:0:0:0:
109,192,29507,1,0,0:0:0:0:
329,192,29507,1,0,0:0:0:0:
402,192,29507,1,0,0:0:0:0:
182,192,29650,1,0,0:0:0:0:
109,192,29793,1,0,0:0:0:0:
256,192,29793,1,0,0:0:0:0:
475,192,29793,1,0,0:0:0:0:
402,192,29936,1,0,0:0:0:0:
36,192,30079,1,0,0:0:0:0:
182,192,30079,1,0,0:0:0:0:
329,192,30079,1,0,0:0:0:0:
256,192,30079,1,0,0:0:0:0:
109,192,30221,1,0,0:0:0:0:
256,192,30364,1,0,0:0:0:0:
329,192,30364,1,0,0:0:0:0:
475,192,30364,1,0,0:0:0:0:
402,192,30507,1,0,0:0:0:0:
109,192,30650,1,0,0:0:0:0:
182,192,30650,1,0,0:0:0:0:
329,192,30650,1,0,0:0:0:0:
36,192,30650,1,0,0:0:0:0:
256,192,30793,1,0,0:0:0:0:
109,192,30936,1,0,0:0:0:0:
329,192,30936,1,0,0:0:0:0:
182,192,30936,1,0,0:0:0:0:
475,192,31079,1,0,0:0:0:0:
36,192,31221,1,0,0:0:0:0:
182,192,31221,1,0,0:0:0:0:
329,192,31221,1,0,0:0:0:0:
402,192,31221,1,0,0:0:0:0:
109,192,31364,1,0,0:0:0:0:
182,192,31507,1,0,0:0:0:0:
256,192,31507,1,0,0:0:0:0:
475,192,31507,1,0,0:0:0:0:
329,192,31650,1,0,0:0:0:0:
402,192,31650,1,0,0:0:0:0:
36,192,31793,1,0,0:0:0:0:
109,192,31793,1,0,0:0:0:0:
256,192,31793,1,0,0:0:0:0:
182,192,31936,1,0,0:0:0:0:
329,192,31936,1,0,0:0:0:0:
475,192,31936,1,0,0:0:0:0:
36,192,31936,1,0,0:0:0:0:
329,192,32079,1,0,0:0:0:0:
475,192,32079,1,0,0:0:0:0:
256,192,32079,1,0,0:0:0:0:
36,192,32221,1,0,0:0:0:0:
109,192,32364,1,0,0:0:0:0:
182,192,32364,1,0,0:0:0:0:
256,192,32364,1,0,0:0:0:0:
402,192,32364,1,0,0:0:0:0:
329,192,32507,1,0,0:0:0:0:
109,192,32650,1,0,0:0:0:0:
475,192,32650,1,0,0:0:0:0:
402,192,32650,1,0,0:0:0:0:
182,192,32793,1,0,0:0:0:0:
36,192,32936,1,0,0:0:0:0:
256,192,32936,1,0,0:0:0:0:
329,192,32936,1,0,0:0:0:0:
402,192,32936,1,0,0:0:0:0:
109,192,33079,1,0,0:0:0:0:
182,192,33221,1,0,0:0:0:0:
256,192,33221,1,0,0:0:0:0:
475,192,33221,1,0,0:0:0:0:
329,192,33364,1,0,0:0:0:0:
109,192,33507,1,0,0:0:0:0:
182,192,33507,1,0,0:0:0:0:
402,192,33507,1,0,0:0:0:0:
475,192,33507,1,0,0:0:0:0:
256,192,33650,1,0,0:0:0:0:
109,192,33793,1,0,0:0:0:0:
329,192,33793,1,0,0:0:0:0:
36,192,33793,1,0,0:0:0:0:
182,192,33936,1,0,0:0:0:0:
109,192,34079,1,0,0:0:0:0:
256,192,34079,1,0,0:0:0:0:
329,192,34079,1,0,0:0:0:0:
475,192,34079,1,0,0:0:0:0:
402,192,34221,1,0,0:0:0:0:
329,192,34221,1,0,0:0:0:0:
109,192,34293,1,0,0:0:0:0:
182,192,34293,1,0,0:0:0:0:
329,192,34364,1,0,0:0:0:0:
402,192,34364,1,0,0:0:0:0:
256,192,34436,1,0,0:0:0:0:
109,192,34507,1,0,0:0:0:0:
182,192,34579,1,0,0:0:0:0:
36,192,34650,1,0,0:0:0:0:
256,192,34650,1,0,0:0:0:0:
475,192,34650,1,0,0:0:0:0:
402,192,34721,1,0,0:0:0:0:
329,192,34793,1,0,0:0:0:0:
256,192,34864,1,0,0:0:0:0:
109,192,34936,1,0,0:0:0:0:
475,192,34936,1,0,0:0:0:0:
182,192,35007,1,0,0:0:0:0:
329,192,35079,1,0,0:0:0:0:
256,192,35150,1,0,0:0:0:0:
36,192,35221,1,0,0:0:0:0:
182,192,35221,1,0,0:0:0:0:
475,192,35221,1,0,0:0:0:0:
402,192,35221,1,0,0:0:0:0:
329,192,35293,1,0,0:0:0:0:
256,192,35364,1,0,0:0:0:0:
182,192,35436,1,0,0:0:0:0:
36,192,35507,1,0,0:0:0:0:
402,192,35507,1,0,0:0:0:0:
109,192,35579,1,0,0:0:0:0:
182,192,35650,1,0,0:0:0:0:
256,192,35721,1,0,0:0:0:0:
36,192,35793,1,0,0:0:0:0:
329,192,35793,1,0,0:0:0:0:
475,192,35793,1,0,0:0:0:0:
109,192,35864,1,0,0:0:0:0:
182,192,35936,1,0,0:0:0:0:
256,192,36007,1,0,0:0:0:0:
402,192,36079,1,0,0:0:0:0:
109,192,36079,1,0,0:0:0:0:
329,192,36221,1,0,0:0:0:0:
256,192,36364,1,0,0:0:0:0:
182,192,36507,1,0,0:0:0:0:
109,192,36650,1,0,0:0:0:0:
256,192,36650,1,0,0:0:0:0:
402,192,36650,1,0,0:0:0:0:
182,192,36793,1,0,0:0:0:0:
256,192,36936,1,0,0:0:0:0:
329,192,37079,1,0,0:0:0:0:
256,192,37221,1,0,0:0:0:0:
109,192,37364,1,0,0:0:0:0:
256,192,37507,1,0,0:0:0:0:
402,192,37650,1,0,0:0:0:0:
256,192,37793,1,0,0:0:0:0:
182,192,37936,1,0,0:0:0:0:
256,192,38079,1,0,0:0:0:0:
402,192,38221,1,0,0:0:0:0:
256,192,38364,1,0,0:0:0:0:
36,192,38507,1,0,0:0:0:0:
256,192,38650,1,0,0:0:0:0:
329,192,38793,1,0,0:0:0:0:
256,192,38936,1,0,0:0:0:0:
109,192,39079,1,0,0:0:0:0:
256,192,39221,1,0,0:0:0:0:
475,192,39364,1,0,0:0:0:0:
256,192,39507,1,0,0:0:0:0:
329,192,39650,1,0,0:0:0:0:
256,192,39793,1,0,0:0:0:0:
182,192,39936,1,0,0:0:0:0:
256,192,40079,1,0,0:0:0:0:
402,192,40221,1,0,0:0:0:0:
256,192,40364,1,0,0:0:0:0:
109,192,40507,1,0,0:0:0:0:
256,192,40650,1,0,0:0:0:0:
475,192,40793,1,0,0:0:0:0:
256,192,40936,1,0,0:0:0:0:
402,192,40936,1,0,0:0:0:0:
256,192,41079,1,0,0:0:0:0:
109,192,41079,1,0,0:0:0:0:
402,192,41221,1,0,0:0:0:0:
256,192,41221,1,0,0:0:0:0:
109,192,41364,1,0,0:0:0:0:
256,192,41507,1,0,0:0:0:0:
402,192,41650,1,0,0:0:0:0:
256,192,41793,1,0,0:0:0:0:
182,192,41936,1,0,0:0:0:0:
256,192,42079,1,0,0:0:0:0:
402,192,42221,1,0,0:0:0:0:
256,192,42364,1,0,0:0:0:0:
36,192,42507,1,0,0:0:0:0:
256,192,42650,1,0,0:0:0:0:
402,192,42793,1,0,0:0:0:0:
256,192,42936,1,0,0:0:0:0:
182,192,43079,1,0,0:0:0:0:
256,192,43221,1,0,0:0:0:0:
329,192,43364,1,0,0:0:0:0:
182,192,43364,1,0,0:0:0:0:
329,192,43436,1,0,0:0:0:0:
182,192,43436,1,0,0:0:0:0:
256,192,43507,1,0,0:0:0:0:
109,192,43650,1,0,0:0:0:0:
256,192,43793,1,0,0:0:0:0:
475,192,43936,1,0,0:0:0:0:
256,192,44079,1,0,0:0:0:0:
109,192,44221,1,0,0:0:0:0:
256,192,44364,1,0,0:0:0:0:
36,192,44364,128,0,44579:0:0:0:0:
402,192,44507,1,0,0:0:0:0:
256,192,44650,1,0,0:0:0:0:
36,192,44650,128,0,44864:0:0:0:0:
182,192,44793,1,0,0:0:0:0:
256,192,44936,1,0,0:0:0:0:
36,192,44936,128,0,45221:0:0:0:0:
402,192,45079,1,0,0:0:0:0:
475,192,45221,128,0,45507:0:0:0:0:
256,192,45221,1,0,0:0:0:0:
109,192,45364,1,0,0:0:0:0:
182,192,45364,1,0,0:0:0:0:
402,192,45436,1,0,0:0:0:0:
329,192,45436,1,0,0:0:0:0:
256,192,45507,1,0,0:0:0:0:
256,192,45650,1,0,0:0:0:0:
36,192,45793,1,0,0:0:0:0:
475,192,45793,1,0,0:0:0:0:
182,192,45793,1,0,0:0:0:0:
256,192,45936,1,0,0:0:0:0:
36,192,46079,1,0,0:0:0:0:
475,192,46079,1,0,0:0:0:0:
329,192,46079,1,0,0:0:0:0:
256,192,46221,1,0,0:0:0:0:
475,192,46364,1,0,0:0:0:0:
36,192,46364,1,0,0:0:0:0:
182,192,46364,1,0,0:0:0:0:
402,192,46507,1,0,0:0:0:0:
36,192,46650,1,0,0:0:0:0:
475,192,46650,1,0,0:0:0:0:
256,192,46650,1,0,0:0:0:0:
109,192,46793,1,0,0:0:0:0:
36,192,46936,1,0,0:0:0:0:
475,192,46936,1,0,0:0:0:0:
256,192,46936,1,0,0:0:0:0:
329,192,47079,1,0,0:0:0:0:
475,192,47221,1,0,0:0:0:0:
36,192,47221,1,0,0:0:0:0:
256,192,47221,1,0,0:0:0:0:
182,192,47364,1,0,0:0:0:0:
36,192,47507,1,0,0:0:0:0:
475,192,47507,1,0,0:0:0:0:
256,192,47507,1,0,0:0:0:0:
402,192,47650,1,0,0:0:0:0:
36,192,47793,1,0,0:0:0:0:
256,192,47793,1,0,0:0:0:0:
475,192,47793,1,0,0:0:0:0:
109,192,47936,1,0,0:0:0:0:
256,192,48079,1,0,0:0:0:0:
36,192,48079,1,0,0:0:0:0:
475,192,48079,1,0,0:0:0:0:
329,192,48221,1,0,0:0:0:0:
36,192,48364,1,0,0:0:0:0:
256,192,48364,1,0,0:0:0:0:
475,192,48364,1,0,0:0:0:0:
109,192,48507,1,0,0:0:0:0:
256,192,48650,1,0,0:0:0:0:
475,192,48650,1,0,0:0:0:0:
36,192,48650,1,0,0:0:0:0:
402,192,48793,1,0,0:0:0:0:
36,192,48936,1,0,0:0:0:0:
256,192,48936,1,0,0:0:0:0:
475,192,48936,1,0,0:0:0:0:
182,192,49079,1,0,0:0:0:0:
329,192,49079,1,0,0:0:0:0:
36,192,49221,1,0,0:0:0:0:
256,192,49221,1,0,0:0:0:0:
475,192,49221,1,0,0:0:0:0:
109,192,49364,1,0,0:0:0:0:
36,192,49507,1,0,0:0:0:0:
475,192,49507,1,0,0:0:0:0:
256,192,49507,1,0,0:0:0:0:
329,192,49650,1,0,0:0:0:0:
36,192,49793,1,0,0:0:0:0:
256,192,49793,1,0,0:0:0:0:
475,192,49793,1,0,0:0:0:0:
182,192,49936,1,0,0:0:0:0:
329,192,49936,1,0,0:0:0:0:
256,192,50079,1,0,0:0:0:0:
475,192,50079,1,0,0:0:0:0:
36,192,50079,1,0,0:0:0:0:
402,192,50221,1,0,0:0:0:0:
109,192,50221,1,0,0:0:0:0:
36,192,50364,1,0,0:0:0:0:
256,192,50364,1,0,0:0:0:0:
475,192,50364,1,0,0:0:0:0:
109,192,50507,1,0,0:0:0:0:
329,192,50507,1,0,0:0:0:0:
36,192,50650,1,0,0:0:0:0:
182,192,50650,1,0,0:0:0:0:
402,192,50650,1,0,0:0:0:0:
256,192,50793,1,0,0:0:0:0:
475,192,50793,1,0,0:0:0:0:
109,192,50936,1,0,0:0:0:0:
329,192,50936,1,0,0:0:0:0:
182,192,50936,1,0,0:0:0:0:
256,192,51079,1,0,0:0:0:0:
475,192,51079,1,0,0:0:0:0:
182,192,51221,1,0,0:0:0:0:
36,192,51221,1,0,0:0:0:0:
402,192,51221,1,0,0:0:0:0:
109,192,51364,1,0,0:0:0:0:
402,192,51364,1,0,0:0:0:0:
36,192,51507,1,0,0:0:0:0:
402,192,51507,1,0,0:0:0:0:
182,192,51507,1,0,0:0:0:0:
109,192,51650,1,0,0:0:0:0:
329,192,51650,1,0,0:0:0:0:
182,192,51793,1,0,0:0:0:0:
256,192,51793,1,0,0:0:0:0:
402,192,51793,1,0,0:0:0:0:
36,192,51936,1,0,0:0:0:0:
329,192,51936,1,0,0:0:0:0:
109,192,52079,1,0,0:0:0:0:
256,192,52079,1,0,0:0:0:0:
475,192,52079,1,0,0:0:0:0:
182,192,52221,1,0,0:0:0:0:
402,192,52221,1,0,0:0:0:0:
36,192,52364,1,0,0:0:0:0:
256,192,52364,1,0,0:0:0:0:
329,192,52364,1,0,0:0:0:0:
109,192,52507,1,0,0:0:0:0:
182,192,52507,1,0,0:0:0:0:
109,192,52579,1,0,0:0:0:0:
182,192,52579,1,0,0:0:0:0:
256,192,52650,1,0,0:0:0:0:
329,192,52650,1,0,0:0:0:0:
402,192,52650,1,0,0:0:0:0:
36,192,52721,1,0,0:0:0:0:
402,192,52793,1,0,0:0:0:0:
109,192,52864,1,0,0:0:0:0:
182,192,52936,1,0,0:0:0:0:
256,192,52936,1,0,0:0:0:0:
329,192,52936,1,0,0:0:0:0:
36,192,53007,1,0,0:0:0:0:
329,192,53079,1,0,0:0:0:0:
109,192,53150,1,0,0:0:0:0:
402,192,53221,1,0,0:0:0:0:
475,192,53221,1,0,0:0:0:0:
256,192,53221,1,0,0:0:0:0:
182,192,53293,1,0,0:0:0:0:
329,192,53364,1,0,0:0:0:0:
36,192,53436,1,0,0:0:0:0:
182,192,53507,1,0,0:0:0:0:
475,192,53507,1,0,0:0:0:0:
109,192,53507,1,0,0:0:0:0:
402,192,53579,1,0,0:0:0:0:
329,192,53650,1,0,0:0:0:0:
182,192,53721,1,0,0:0:0:0:
475,192,53793,1,0,0:0:0:0:
256,192,53864,1,0,0:0:0:0:
475,192,53936,1,0,0:0:0:0:
256,192,54007,1,0,0:0:0:0:
402,192,54079,1,0,0:0:0:0:
182,192,54150,1,0,0:0:0:0:
402,192,54221,1,0,0:0:0:0:
182,192,54293,1,0,0:0:0:0:
329,192,54364,1,0,0:0:0:0:
109,192,54436,1,0,0:0:0:0:
329,192,54507,1,0,0:0:0:0:
109,192,54579,1,0,0:0:0:0:
256,192,54650,1,0,0:0:0:0:
36,192,54721,1,0,0:0:0:0:
256,192,54793,1,0,0:0:0:0:
36,192,54864,1,0,0:0:0:0:
182,192,54936,1,0,0:0:0:0:
475,192,54936,1,0,0:0:0:0:
402,192,54936,1,0,0:0:0:0:
329,192,55507,1,0,0:0:0:0:
182,192,55793,1,0,0:0:0:0:
109,192,55793,1,0,0:0:0:0:
36,192,56079,1,0,0:0:0:0:
256,192,56079,1,0,0:0:0:0:
475,192,56079,1,0,0:0:0:0:
329,192,56364,1,0,0:0:0:0:
402,192,56364,1,0,0:0:0:0:
182,192,56650,1,0,0:0:0:0:
109,192,56936,1,0,0:0:0:0:
256,192,56936,1,0,0:0:0:0:
109,192,57507,1,0,0:0:0:0:
182,192,57793,1,0,0:0:0:0:
329,192,57793,1,0,0:0:0:0:
402,192,58079,1,0,0:0:0:0:
36,192,58364,1,0,0:0:0:0:
475,192,58364,1,0,0:0:0:0:
109,192,58507,1,0,0:0:0:0:
182,192,58650,128,0,58936:0:0:0:0:
329,192,58650,1,0,0:0:0:0:
402,192,58936,1,0,0:0:0:0:
109,192,59079,1,0,0:0:0:0:
329,192,59221,128,0,59507:0:0:0:0:
182,192,59221,1,0,0:0:0:0:
256,192,59507,1,0,0:0:0:0:
36,192,59507,128,0,59650:0:0:0:0:
182,192,59650,128,0,59793:0:0:0:0:
109,192,59793,128,0,59936:0:0:0:0:
256,192,59936,128,0,60079:0:0:0:0:
182,192,60079,128,0,60364:0:0:0:0:
36,192,60079,1,0,0:0:0:0:
475,192,60364,128,0,60507:0:0:0:0:
329,192,60507,128,0,60650:0:0:0:0:
402,192,60650,128,0,60793:0:0:0:0:
36,192,60650,1,0,0:0:0:0:
182,192,60650,1,0,0:0:0:0:
256,192,60793,128,0,60936:0:0:0:0:
329,192,60936,128,0,61221:0:0:0:0:
475,192,60936,1,0,0:0:0:0:
36,192,61221,128,0,61364:0:0:0:0:
109,192,61364,128,0,61507:0:0:0:0:
182,192,61507,128,0,61650:0:0:0:0:
402,192,61507,1,0,0:0:0:0:
256,192,61650,128,0,61793:0:0:0:0:
36,192,61793,128,0,61936:0:0:0:0:
182,192,61793,1,0,0:0:0:0:
329,192,61936,128,0,62079:0:0:0:0:
182,192,62079,128,0,62221:0:0:0:0:
402,192,62221,128,0,62364:0:0:0:0:
475,192,62221,1,0,0:0:0:0:
256,192,62364,128,0,62650:0:0:0:0:
109,192,62364,1,0,0:0:0:0:
475,192,62650,128,0,62793:0:0:0:0:
109,192,62650,1,0,0:0:0:0:
329,192,62793,128,0,62936:0:0:0:0:
402,192,62936,128,0,63079:0:0:0:0:
36,192,62936,1,0,0:0:0:0:
182,192,62936,1,0,0:0:0:0:
256,192,63079,128,0,63221:0:0:0:0:
329,192,63221,128,0,63507:0:0:0:0:
475,192,63221,1,0,0:0:0:0:
36,192,63507,128,0,63650:0:0:0:0:
109,192,63650,1,0,0:0:0:0:
182,192,63793,128,0,64079:0:0:0:0:
329,192,63793,1,0,0:0:0:0:
329,192,64079,1,0,0:0:0:0:
402,192,64079,1,0,0:0:0:0:
475,192,64079,1,0,0:0:0:0:
109,192,64079,1,0,0:0:0:0:
36,192,64079,1,0,0:0:0:0:
256,192,64221,1,0,0:0:0:0:
109,192,64364,1,0,0:0:0:0:
182,192,64364,1,0,0:0:0:0:
329,192,64364,1,0,0:0:0:0:
475,192,64364,1,0,0:0:0:0:
256,192,64507,1,0,0:0:0:0:
36,192,64650,1,0,0:0:0:0:
182,192,64793,1,0,0:0:0:0:
329,192,64793,1,0,0:0:0:0:
109,192,64936,1,0,0:0:0:0:
256,192,64936,1,0,0:0:0:0:
402,192,64936,1,0,0:0:0:0:
475,192,64936,1,0,0:0:0:0:
182,192,65079,1,0,0:0:0:0:
256,192,65221,1,0,0:0:0:0:
402,192,65221,1,0,0:0:0:0:
329,192,65364,1,0,0:0:0:0:
109,192,65507,1,0,0:0:0:0:
182,192,65507,1,0,0:0:0:0:
402,192,65507,128,0,65793:0:0:0:0:
475,192,65507,128,0,65793:0:0:0:0:
36,192,65650,1,0,0:0:0:0:
256,192,65793,1,0,0:0:0:0:
182,192,65936,1,0,0:0:0:0:
329,192,65936,1,0,0:0:0:0:
256,192,66079,1,0,0:0:0:0:
402,192,66079,1,0,0:0:0:0:
475,192,66079,1,0,0:0:0:0:
109,192,66079,1,0,0:0:0:0:
36,192,66221,1,0,0:0:0:0:
109,192,66364,1,0,0:0:0:0:
329,192,66364,1,0,0:0:0:0:
256,192,66507,1,0,0:0:0:0:
182,192,66650,1,0,0:0:0:0:
402,192,66650,1,0,0:0:0:0:
475,192,66650,1,0,0:0:0:0:
36,192,66650,1,0,0:0:0:0:
329,192,66793,1,0,0:0:0:0:
109,192,66936,1,0,0:0:0:0:
182,192,67079,1,0,0:0:0:0:
256,192,67079,1,0,0:0:0:0:
109,192,67221,1,0,0:0:0:0:
329,192,67221,1,0,0:0:0:0:
402,192,67221,1,0,0:0:0:0:
475,192,67221,1,0,0:0:0:0:
256,192,67364,1,0,0:0:0:0:
36,192,67507,1,0,0:0:0:0:
182,192,67507,1,0,0:0:0:0:
256,192,67650,1,0,0:0:0:0:
182,192,67793,1,0,0:0:0:0:
36,192,67793,1,0,0:0:0:0:
329,192,67793,128,0,68079:0:0:0:0:
475,192,67793,128,0,68079:0:0:0:0:
256,192,68079,1,0,0:0:0:0:
182,192,68221,1,0,0:0:0:0:
402,192,68221,1,0,0:0:0:0:
256,192,68364,1,0,0:0:0:0:
329,192,68364,1,0,0:0:0:0:
36,192,68364,128,0,68650:0:0:0:0:
475,192,68364,128,0,68650:0:0:0:0:
182,192,68650,1,0,0:0:0:0:
402,192,68650,1,0,0:0:0:0:
256,192,68793,1,0,0:0:0:0:
109,192,68936,1,0,0:0:0:0:
182,192,68936,1,0,0:0:0:0:
329,192,68936,1,0,0:0:0:0:
475,192,68936,1,0,0:0:0:0:
36,192,69079,1,0,0:0:0:0:
402,192,69221,1,0,0:0:0:0:
109,192,69364,1,0,0:0:0:0:
329,192,69364,1,0,0:0:0:0:
36,192,69507,1,0,0:0:0:0:
182,192,69507,1,0,0:0:0:0:
256,192,69507,1,0,0:0:0:0:
475,192,69507,1,0,0:0:0:0:
402,192,69650,1,0,0:0:0:0:
329,192,69793,1,0,0:0:0:0:
109,192,69793,1,0,0:0:0:0:
256,192,69936,1,0,0:0:0:0:
329,192,70079,1,0,0:0:0:0:
475,192,70079,1,0,0:0:0:0:
36,192,70079,128,0,70364:0:0:0:0:
182,192,70079,128,0,70364:0:0:0:0:
109,192,70364,1,0,0:0:0:0:
256,192,70507,1,0,0:0:0:0:
402,192,70507,1,0,0:0:0:0:
36,192,70650,1,0,0:0:0:0:
182,192,70650,1,0,0:0:0:0:
329,192,70650,1,0,0:0:0:0:
475,192,70650,1,0,0:0:0:0:
256,192,70793,1,0,0:0:0:0:
109,192,70936,1,0,0:0:0:0:
402,192,70936,1,0,0:0:0:0:
329,192,71079,1,0,0:0:0:0:
36,192,71221,1,0,0:0:0:0:
182,192,71221,1,0,0:0:0:0:
256,192,71221,1,0,0:0:0:0:
475,192,71221,1,0,0:0:0:0:
402,192,71364,1,0,0:0:0:0:
109,192,71507,1,0,0:0:0:0:
182,192,71650,1,0,0:0:0:0:
329,192,71650,1,0,0:0:0:0:
36,192,71793,1,0,0:0:0:0:
256,192,71793,1,0,0:0:0:0:
475,192,71793,1,0,0:0:0:0:
402,192,71793,1,0,0:0:0:0:
109,192,71936,1,0,0:0:0:0:
182,192,72079,1,0,0:0:0:0:
475,192,72079,1,0,0:0:0:0:
402,192,72079,1,0,0:0:0:0:
256,192,72221,1,0,0:0:0:0:
182,192,72364,128,0,72650:0:0:0:0:
475,192,72364,128,0,72650:0:0:0:0:
402,192,72507,1,0,0:0:0:0:
329,192,72579,1,0,0:0:0:0:
36,192,72650,1,0,0:0:0:0:
109,192,72650,1,0,0:0:0:0:
256,192,72793,1,0,0:0:0:0:
329,192,72829,1,0,0:0:0:0:
402,192,72864,1,0,0:0:0:0:
475,192,72900,1,0,0:0:0:0:
36,192,72936,1,0,0:0:0:0:
109,192,72936,1,0,0:0:0:0:
182,192,72936,1,0,0:0:0:0:
36,192,73221,1,0,0:0:0:0:
182,192,73221,1,0,0:0:0:0:
256,192,73221,1,0,0:0:0:0:
329,192,73221,1,0,0:0:0:0:
475,192,73221,1,0,0:0:0:0:
109,192,73507,1,0,0:0:0:0:
182,192,73507,1,0,0:0:0:0:
329,192,73507,1,0,0:0:0:0:
402,192,73507,1,0,0:0:0:0:
475,192,73507,1,0,0:0:0:0:
36,192,73793,1,0,0:0:0:0:
109,192,73793,1,0,0:0:0:0:
329,192,73793,1,0,0:0:0:0:
402,192,73793,1,0,0:0:0:0:
256,192,73793,1,0,0:0:0:0:
109,192,74079,1,0,0:0:0:0:
182,192,74079,1,0,0:0:0:0:
256,192,74079,1,0,0:0:0:0:
402,192,74079,1,0,0:0:0:0:
475,192,74079,1,0,0:0:0:0:
402,192,74221,1,0,0:0:0:0:
475,192,74221,1,0,0:0:0:0:
36,192,74364,1,0,0:0:0:0:
182,192,74364,1,0,0:0:0:0:
256,192,74364,1,0,0:0:0:0:
329,192,74364,1,0,0:0:0:0:
402,192,74364,1,0,0:0:0:0:
36,192,74650,1,0,0:0:0:0:
109,192,74650,1,0,0:0:0:0:
182,192,74650,1,0,0:0:0:0:
256,192,74650,1,0,0:0:0:0:
402,192,74650,1,0,0:0:0:0:
36,192,74936,1,0,0:0:0:0:
109,192,74936,1,0,0:0:0:0:
256,192,74936,1,0,0:0:0:0:
329,192,74936,1,0,0:0:0:0:
475,192,74936,1,0,0:0:0:0:
182,192,75221,1,0,0:0:0:0:
109,192,75221,1,0,0:0:0:0:
329,192,75221,1,0,0:0:0:0:
475,192,75221,1,0,0:0:0:0:
402,192,75221,1,0,0:0:0:0:
182,192,75364,1,0,0:0:0:0:
109,192,75364,1,0,0:0:0:0:
182,192,75507,1,0,0:0:0:0:
256,192,75507,1,0,0:0:0:0:
329,192,75507,1,0,0:0:0:0:
402,192,75507,1,0,0:0:0:0:
36,192,75507,1,0,0:0:0:0:
36,192,75793,1,0,0:0:0:0:
109,192,75793,1,0,0:0:0:0:
256,192,75793,1,0,0:0:0:0:
402,192,75793,1,0,0:0:0:0:
475,192,75793,1,0,0:0:0:0:
109,192,76079,1,0,0:0:0:0:
182,192,76079,1,0,0:0:0:0:
256,192,76079,1,0,0:0:0:0:
329,192,76079,1,0,0:0:0:0:
475,192,76079,1,0,0:0:0:0:
36,192,76364,1,0,0:0:0:0:
109,192,76364,1,0,0:0:0:0:
475,192,76364,1,0,0:0:0:0:
329,192,76364,1,0,0:0:0:0:
256,192,76364,1,0,0:0:0:0:
475,192,76507,1,0,0:0:0:0:
402,192,76507,1,0,0:0:0:0:
329,192,76650,1,0,0:0:0:0:
475,192,76650,1,0,0:0:0:0:
36,192,76650,1,0,0:0:0:0:
182,192,76650,1,0,0:0:0:0:
402,192,76650,1,0,0:0:0:0:
36,192,76936,1,0,0:0:0:0:
182,192,76936,1,0,0:0:0:0:
256,192,76936,1,0,0:0:0:0:
329,192,76936,1,0,0:0:0:0:
402,192,76936,1,0,0:0:0:0:
109,192,77221,1,0,0:0:0:0:
402,192,77221,1,0,0:0:0:0:
475,192,77221,1,0,0:0:0:0:
182,192,77221,1,0,0:0:0:0:
329,192,77364,1,0,0:0:0:0:
36,192,77364,1,0,0:0:0:0:
256,192,77364,1,0,0:0:0:0:
402,192,77507,1,0,0:0:0:0:
475,192,77507,1,0,0:0:0:0:
329,192,77507,1,0,0:0:0:0:
256,192,77507,1,0,0:0:0:0:
109,192,77650,1,0,0:0:0:0:
36,192,77650,1,0,0:0:0:0:
182,192,77721,1,0,0:0:0:0:
256,192,77721,1,0,0:0:0:0:
329,192,77793,1,0,0:0:0:0:
402,192,77793,1,0,0:0:0:0:
475,192,77793,1,0,0:0:0:0:
36,192,77793,1,0,0:0:0:0:
109,192,77936,1,0,0:0:0:0:
182,192,77936,1,0,0:0:0:0:
475,192,78079,1,0,0:0:0:0:
402,192,78079,1,0,0:0:0:0:
329,192,78079,1,0,0:0:0:0:
256,192,78079,1,0,0:0:0:0:
182,192,78221,1,0,0:0:0:0:
109,192,78221,1,0,0:0:0:0:
36,192,78364,1,0,0:0:0:0:
329,192,78364,1,0,0:0:0:0:
256,192,78364,1,0,0:0:0:0:
402,192,78364,1,0,0:0:0:0:
182,192,78507,1,0,0:0:0:0:
256,192,78507,1,0,0:0:0:0:
36,192,78650,1,0,0:0:0:0:
109,192,78650,1,0,0:0:0:0:
329,192,78650,1,0,0:0:0:0:
402,192,78650,1,0,0:0:0:0:
256,192,78793,1,0,0:0:0:0:
329,192,78793,1,0,0:0:0:0:
109,192,78936,1,0,0:0:0:0:
182,192,78936,1,0,0:0:0:0:
475,192,78936,1,0,0:0:0:0:
402,192,78936,1,0,0:0:0:0:
256,192,79079,1,0,0:0:0:0:
329,192,79079,1,0,0:0:0:0:
36,192,79221,1,0,0:0:0:0:
182,192,79221,1,0,0:0:0:0:
109,192,79221,1,0,0:0:0:0:
402,192,79221,1,0,0:0:0:0:
182,192,79364,1,0,0:0:0:0:
256,192,79364,1,0,0:0:0:0:
36,192,79507,1,0,0:0:0:0:
109,192,79507,1,0,0:0:0:0:
402,192,79507,1,0,0:0:0:0:
475,192,79507,1,0,0:0:0:0:
182,192,79650,1,0,0:0:0:0:
109,192,79650,1,0,0:0:0:0:
256,192,79793,1,0,0:0:0:0:
329,192,79793,1,0,0:0:0:0:
475,192,79793,1,0,0:0:0:0:
402,192,79793,1,0,0:0:0:0:
182,192,79936,1,0,0:0:0:0:
329,192,79936,1,0,0:0:0:0:
109,192,79936,1,0,0:0:0:0:
402,192,80079,1,0,0:0:0:0:
475,192,80079,1,0,0:0:0:0:
182,192,80150,1,0,0:0:0:0:
109,192,80150,1,0,0:0:0:0:
329,192,80221,1,0,0:0:0:0:
402,192,80221,1,0,0:0:0:0:
36,192,80293,1,0,0:0:0:0:
109,192,80293,1,0,0:0:0:0:
256,192,80364,1,0,0:0:0:0:
329,192,80364,1,0,0:0:0:0:
109,192,80436,1,0,0:0:0:0:
182,192,80436,1,0,0:0:0:0:
475,192,80507,1,0,0:0:0:0:
402,192,80507,1,0,0:0:0:0:
36,192,80579,1,0,0:0:0:0:
109,192,80579,1,0,0:0:0:0:
256,192,80650,1,0,0:0:0:0:
329,192,80650,1,0,0:0:0:0:
109,192,80721,1,0,0:0:0:0:
182,192,80721,1,0,0:0:0:0:
256,192,80793,1,0,0:0:0:0:
329,192,80793,1,0,0:0:0:0:
402,192,80864,1,0,0:0:0:0:
475,192,80864,1,0,0:0:0:0:
329,192,80936,1,0,0:0:0:0:
256,192,80936,1,0,0:0:0:0:
109,192,81007,1,0,0:0:0:0:
182,192,81007,1,0,0:0:0:0:
329,192,81079,1,0,0:0:0:0:
256,192,81079,1,0,0:0:0:0:
109,192,81150,1,0,0:0:0:0:
182,192,81150,1,0,0:0:0:0:
402,192,81221,1,0,0:0:0:0:
475,192,81221,1,0,0:0:0:0:
109,192,81436,1,0,0:0:0:0:
182,192,81471,1,0,0:0:0:0:
36,192,81507,1,0,0:0:0:0:
256,192,81507,1,0,0:0:0:0:
109,192,81650,1,0,0:0:0:0:
182,192,81650,1,0,0:0:0:0:
256,192,81793,1,0,0:0:0:0:
329,192,81793,1,0,0:0:0:0:
402,192,81936,1,0,0:0:0:0:
182,192,81983,1,0,0:0:0:0:
329,192,82031,1,0,0:0:0:0:
475,192,82079,1,0,0:0:0:0:
36,192,82079,1,0,0:0:0:0:
109,192,82079,1,0,0:0:0:0:
256,192,82079,1,0,0:0:0:0:
256,192,82364,1,0,0:0:0:0:
329,192,82364,1,0,0:0:0:0:
475,192,82364,1,0,0:0:0:0:
36,192,82364,1,0,0:0:0:0:
109,192,82507,1,0,0:0:0:0:
475,192,82650,1,0,0:0:0:0:
182,192,82650,1,0,0:0:0:0:
402,192,82650,1,0,0:0:0:0:
256,192,82650,1,0,0:0:0:0:
329,192,82793,1,0,0:0:0:0:
36,192,82936,1,0,0:0:0:0:
109,192,82936,1,0,0:0:0:0:
475,192,82936,1,0,0:0:0:0:
182,192,83079,1,0,0:0:0:0:
256,192,83079,1,0,0:0:0:0:
402,192,83221,1,0,0:0:0:0:
329,192,83221,1,0,0:0:0:0:
109,192,83221,1,0,0:0:0:0:
475,192,83221,1,0,0:0:0:0:
36,192,83364,1,0,0:0:0:0:
256,192,83364,1,0,0:0:0:0:
329,192,83507,1,0,0:0:0:0:
182,192,83507,1,0,0:0:0:0:
475,192,83507,1,0,0:0:0:0:
402,192,83650,1,0,0:0:0:0:
36,192,83793,1,0,0:0:0:0:
256,192,83793,1,0,0:0:0:0:
329,192,83793,1,0,0:0:0:0:
182,192,83793,1,0,0:0:0:0:
109,192,83936,1,0,0:0:0:0:
182,192,84079,1,0,0:0:0:0:
329,192,84079,1,0,0:0:0:0:
475,192,84079,1,0,0:0:0:0:
256,192,84221,1,0,0:0:0:0:
109,192,84364,1,0,0:0:0:0:
182,192,84364,1,0,0:0:0:0:
402,192,84364,1,0,0:0:0:0:
475,192,84364,1,0,0:0:0:0:
36,192,84507,1,0,0:0:0:0:
256,192,84507,1,0,0:0:0:0:
329,192,84507,1,0,0:0:0:0:
109,192,84650,1,0,0:0:0:0:
329,192,84650,1,0,0:0:0:0:
256,192,84650,1,0,0:0:0:0:
182,192,84793,1,0,0:0:0:0:
36,192,84936,1,0,0:0:0:0:
109,192,84936,1,0,0:0:0:0:
329,192,84936,1,0,0:0:0:0:
475,192,84936,1,0,0:0:0:0:
182,192,85079,1,0,0:0:0:0:
402,192,85079,1,0,0:0:0:0:
329,192,85221,1,0,0:0:0:0:
475,192,85221,1,0,0:0:0:0:
109,192,85221,1,0,0:0:0:0:
256,192,85364,1,0,0:0:0:0:
36,192,85507,1,0,0:0:0:0:
109,192,85507,1,0,0:0:0:0:
329,192,85507,1,0,0:0:0:0:
402,192,85507,1,0,0:0:0:0:
182,192,85650,1,0,0:0:0:0:
256,192,85650,1,0,0:0:0:0:
109,192,85793,1,0,0:0:0:0:
329,192,85793,1,0,0:0:0:0:
402,192,85793,1,0,0:0:0:0:
182,192,85936,1,0,0:0:0:0:
36,192,86079,1,0,0:0:0:0:
256,192,86079,1,0,0:0:0:0:
402,192,86079,1,0,0:0:0:0:
475,192,86079,1,0,0:0:0:0:
109,192,86221,1,0,0:0:0:0:
182,192,86364,1,0,0:0:0:0:
329,192,86364,1,0,0:0:0:0:
402,192,86364,1,0,0:0:0:0:
256,192,86507,1,0,0:0:0:0:
36,192,86650,1,0,0:0:0:0:
109,192,86650,1,0,0:0:0:0:
475,192,86650,1,0,0:0:0:0:
329,192,86793,1,0,0:0:0:0:
402,192,86793,1,0,0:0:0:0:
475,192,86793,1,0,0:0:0:0:
109,192,86864,1,0,0:0:0:0:
182,192,86864,1,0,0:0:0:0:
329,192,86936,1,0,0:0:0:0:
256,192,86936,1,0,0:0:0:0:
36,192,86936,1,0,0:0:0:0:
182,192,87079,1,0,0:0:0:0:
256,192,87221,1,0,0:0:0:0:
402,192,87221,1,0,0:0:0:0:
109,192,87221,1,0,0:0:0:0:
475,192,87221,1,0,0:0:0:0:
329,192,87364,1,0,0:0:0:0:
36,192,87507,1,0,0:0:0:0:
182,192,87507,1,0,0:0:0:0:
475,192,87507,1,0,0:0:0:0:
109,192,87650,1,0,0:0:0:0:
256,192,87650,1,0,0:0:0:0:
182,192,87793,1,0,0:0:0:0:
36,192,87793,1,0,0:0:0:0:
402,192,87793,1,0,0:0:0:0:
475,192,87793,1,0,0:0:0:0:
256,192,87936,1,0,0:0:0:0:
329,192,87936,1,0,0:0:0:0:
109,192,88079,1,0,0:0:0:0:
402,192,88079,1,0,0:0:0:0:
475,192,88079,1,0,0:0:0:0:
182,192,88221,1,0,0:0:0:0:
36,192,88364,1,0,0:0:0:0:
109,192,88364,1,0,0:0:0:0:
256,192,88364,1,0,0:0:0:0:
329,192,88364,1,0,0:0:0:0:
402,192,88507,1,0,0:0:0:0:
182,192,88650,1,0,0:0:0:0:
475,192,88650,1,0,0:0:0:0:
256,192,88650,1,0,0:0:0:0:
109,192,88793,1,0,0:0:0:0:
182,192,88936,1,0,0:0:0:0:
256,192,88936,1,0,0:0:0:0:
402,192,88936,1,0,0:0:0:0:
36,192,88936,1,0,0:0:0:0:
329,192,89079,1,0,0:0:0:0:
182,192,89221,1,0,0:0:0:0:
256,192,89221,1,0,0:0:0:0:
475,192,89221,1,0,0:0:0:0:
109,192,89364,1,0,0:0:0:0:
36,192,89507,1,0,0:0:0:0:
182,192,89507,1,0,0:0:0:0:
402,192,89507,1,0,0:0:0:0:
329,192,89507,1,0,0:0:0:0:
256,192,89650,1,0,0:0:0:0:
109,192,89793,1,0,0:0:0:0:
475,192,89793,1,0,0:0:0:0:
182,192,89793,1,0,0:0:0:0:
329,192,89936,1,0,0:0:0:0:
402,192,89936,1,0,0:0:0:0:
36,192,90079,1,0,0:0:0:0:
109,192,90079,1,0,0:0:0:0:
182,192,90079,1,0,0:0:0:0:
256,192,90079,1,0,0:0:0:0:
402,192,90221,1,0,0:0:0:0:
36,192,90364,1,0,0:0:0:0:
182,192,90364,1,0,0:0:0:0:
329,192,90364,1,0,0:0:0:0:
109,192,90507,1,0,0:0:0:0:
182,192,90650,1,0,0:0:0:0:
475,192,90650,1,0,0:0:0:0:
256,192,90650,1,0,0:0:0:0:
402,192,90650,1,0,0:0:0:0:
329,192,90793,1,0,0:0:0:0:
36,192,90936,1,0,0:0:0:0:
256,192,91079,1,0,0:0:0:0:
182,192,91221,128,0,91507:0:0:0:0:
109,192,91507,1,0,0:0:0:0:
256,192,91507,1,0,0:0:0:0:
402,192,91507,1,0,0:0:0:0:
36,192,91507,128,0,91793:0:0:0:0:
475,192,91507,128,0,91793:0:0:0:0:
109,192,91793,1,0,0:0:0:0:
182,192,91793,1,0,0:0:0:0:
329,192,91793,1,0,0:0:0:0:
402,192,91793,1,0,0:0:0:0:
402,192,91936,1,0,0:0:0:0:
256,192,92079,1,0,0:0:0:0:
329,192,92079,1,0,0:0:0:0:
36,192,92079,128,0,92221:0:0:0:0:
182,192,92221,128,0,92364:0:0:0:0:
109,192,92364,1,0,0:0:0:0:
256,192,92364,1,0,0:0:0:0:
475,192,92364,1,0,0:0:0:0:
329,192,92364,128,0,92507:0:0:0:0:
402,192,92507,128,0,92650:0:0:0:0:
36,192,92650,1,0,0:0:0:0:
256,192,92650,1,0,0:0:0:0:
475,192,92650,128,0,92936:0:0:0:0:
36,192,92793,1,0,0:0:0:0:
109,192,92936,1,0,0:0:0:0:
329,192,92936,1,0,0:0:0:0:
402,192,92936,1,0,0:0:0:0:
182,192,92936,128,0,93221:0:0:0:0:
329,192,93079,1,0,0:0:0:0:
256,192,93221,1,0,0:0:0:0:
402,192,93221,1,0,0:0:0:0:
36,192,93221,128,0,93507:0:0:0:0:
256,192,93364,1,0,0:0:0:0:
109,192,93507,1,0,0:0:0:0:
182,192,93507,1,0,0:0:0:0:
329,192,93507,1,0,0:0:0:0:
475,192,93507,1,0,0:0:0:0:
256,192,93650,1,0,0:0:0:0:
402,192,93650,1,0,0:0:0:0:
182,192,93721,1,0,0:0:0:0:
36,192,93721,1,0,0:0:0:0:
256,192,93793,1,0,0:0:0:0:
402,192,93793,128,0,94079:0:0:0:0:
109,192,93936,1,0,0:0:0:0:
36,192,94079,1,0,0:0:0:0:
475,192,94079,1,0,0:0:0:0:
182,192,94079,1,0,0:0:0:0:
256,192,94079,1,0,0:0:0:0:
109,192,94221,128,0,94650:0:0:0:0:
475,192,94364,1,0,0:0:0:0:
182,192,94364,1,0,0:0:0:0:
329,192,94364,1,0,0:0:0:0:
329,192,94507,1,0,0:0:0:0:
36,192,94650,1,0,0:0:0:0:
182,192,94650,1,0,0:0:0:0:
256,192,94650,1,0,0:0:0:0:
475,192,94650,128,0,94793:0:0:0:0:
329,192,94793,128,0,94936:0:0:0:0:
36,192,94936,1,0,0:0:0:0:
475,192,94936,1,0,0:0:0:0:
182,192,94936,128,0,95079:0:0:0:0:
256,192,95079,128,0,95221:0:0:0:0:
36,192,95221,1,0,0:0:0:0:
402,192,95221,1,0,0:0:0:0:
475,192,95221,1,0,0:0:0:0:
109,192,95221,128,0,95364:0:0:0:0:
182,192,95364,128,0,95507:0:0:0:0:
329,192,95507,1,0,0:0:0:0:
36,192,95507,128,0,95650:0:0:0:0:
109,192,95650,128,0,95793:0:0:0:0:
256,192,95793,1,0,0:0:0:0:
402,192,95793,1,0,0:0:0:0:
475,192,95793,1,0,0:0:0:0:
329,192,95793,1,0,0:0:0:0:
182,192,95936,1,0,0:0:0:0:
329,192,95936,1,0,0:0:0:0:
402,192,95936,1,0,0:0:0:0:
256,192,96079,1,0,0:0:0:0:
329,192,96079,1,0,0:0:0:0:
109,192,96079,128,0,96364:0:0:0:0:
36,192,96364,1,0,0:0:0:0:
182,192,96364,1,0,0:0:0:0:
402,192,96364,1,0,0:0:0:0:
475,192,96364,1,0,0:0:0:0:
402,192,96507,1,0,0:0:0:0:
109,192,96650,1,0,0:0:0:0:
329,192,96650,1,0,0:0:0:0:
256,192,96650,128,0,96793:0:0:0:0:
182,192,96793,128,0,96936:0:0:0:0:
402,192,96936,128,0,97079:0:0:0:0:
36,192,96936,1,0,0:0:0:0:
256,192,96936,1,0,0:0:0:0:
475,192,96936,1,0,0:0:0:0:
329,192,97079,128,0,97221:0:0:0:0:
475,192,97221,1,0,0:0:0:0:
256,192,97221,1,0,0:0:0:0:
36,192,97221,128,0,97507:0:0:0:0:
109,192,97364,1,0,0:0:0:0:
182,192,97507,1,0,0:0:0:0:
475,192,97507,1,0,0:0:0:0:
256,192,97507,1,0,0:0:0:0:
402,192,97507,128,0,97793:0:0:0:0:
182,192,97650,1,0,0:0:0:0:
256,192,97793,1,0,0:0:0:0:
329,192,97793,1,0,0:0:0:0:
109,192,97793,128,0,98079:0:0:0:0:
329,192,97936,1,0,0:0:0:0:
182,192,98079,1,0,0:0:0:0:
475,192,98079,1,0,0:0:0:0:
402,192,98079,1,0,0:0:0:0:
256,192,98079,1,0,0:0:0:0:
109,192,98221,1,0,0:0:0:0:
329,192,98221,1,0,0:0:0:0:
36,192,98221,1,0,0:0:0:0:
402,192,98364,1,0,0:0:0:0:
475,192,98364,128,0,98650:0:0:0:0:
182,192,98364,1,0,0:0:0:0:
256,192,98507,1,0,0:0:0:0:
182,192,98650,1,0,0:0:0:0:
329,192,98650,1,0,0:0:0:0:
36,192,98650,128,0,98936:0:0:0:0:
109,192,98650,1,0,0:0:0:0:
329,192,98793,1,0,0:0:0:0:
109,192,98936,1,0,0:0:0:0:
256,192,98936,1,0,0:0:0:0:
402,192,98936,128,0,99079:0:0:0:0:
182,192,99079,1,0,0:0:0:0:
329,192,99079,128,0,99221:0:0:0:0:
36,192,99221,1,0,0:0:0:0:
256,192,99221,1,0,0:0:0:0:
475,192,99221,1,0,0:0:0:0:
109,192,99364,1,0,0:0:0:0:
329,192,99364,1,0,0:0:0:0:
36,192,99507,1,0,0:0:0:0:
256,192,99507,1,0,0:0:0:0:
182,192,99507,128,0,99793:0:0:0:0:
475,192,99650,1,0,0:0:0:0:
109,192,99793,1,0,0:0:0:0:
329,192,99793,1,0,0:0:0:0:
402,192,99793,128,0,100079:0:0:0:0:
182,192,99936,1,0,0:0:0:0:
475,192,100079,128,0,100364:0:0:0:0:
36,192,100079,1,0,0:0:0:0:
256,192,100221,1,0,0:0:0:0:
329,192,100257,1,0,0:0:0:0:
402,192,100293,1,0,0:0:0:0:
182,192,100329,1,0,0:0:0:0:
36,192,100364,1,0,0:0:0:0:
109,192,100364,1,0,0:0:0:0:
256,192,100364,1,0,0:0:0:0:
402,192,100507,1,0,0:0:0:0:
475,192,100507,1,0,0:0:0:0:
109,192,100650,1,0,0:0:0:0:
256,192,100650,1,0,0:0:0:0:
182,192,100650,1,0,0:0:0:0:
402,192,100793,1,0,0:0:0:0:
182,192,100936,1,0,0:0:0:0:
256,192,100936,1,0,0:0:0:0:
329,192,100936,1,0,0:0:0:0:
475,192,101079,1,0,0:0:0:0:
402,192,101221,1,0,0:0:0:0:
329,192,101221,1,0,0:0:0:0:
256,192,101221,1,0,0:0:0:0:
36,192,101364,1,0,0:0:0:0:
256,192,101507,1,0,0:0:0:0:
182,192,101507,1,0,0:0:0:0:
109,192,101507,128,0,101579:0:0:0:0:
402,192,101650,1,0,0:0:0:0:
109,192,101650,128,0,101721:0:0:0:0:
256,192,101793,1,0,0:0:0:0:
182,192,101793,1,0,0:0:0:0:
109,192,101793,128,0,102007:0:0:0:0:
475,192,101936,1,0,0:0:0:0:
256,192,102079,1,0,0:0:0:0:
329,192,102079,1,0,0:0:0:0:
402,192,102079,128,0,102221:0:0:0:0:
109,192,102221,1,0,0:0:0:0:
182,192,102364,1,0,0:0:0:0:
329,192,102364,1,0,0:0:0:0:
256,192,102364,128,0,102507:0:0:0:0:
402,192,102507,1,0,0:0:0:0:
36,192,102650,1,0,0:0:0:0:
182,192,102650,1,0,0:0:0:0:
109,192,102650,1,0,0:0:0:0:
329,192,102793,1,0,0:0:0:0:
109,192,102936,1,0,0:0:0:0:
182,192,102936,1,0,0:0:0:0:
256,192,102936,1,0,0:0:0:0:
402,192,103079,1,0,0:0:0:0:
182,192,103221,1,0,0:0:0:0:
256,192,103221,1,0,0:0:0:0:
329,192,103221,1,0,0:0:0:0:
475,192,103364,1,0,0:0:0:0:
256,192,103507,1,0,0:0:0:0:
402,192,103507,1,0,0:0:0:0:
329,192,103507,1,0,0:0:0:0:
182,192,103650,1,0,0:0:0:0:
475,192,103793,1,0,0:0:0:0:
329,192,103793,1,0,0:0:0:0:
402,192,103793,128,0,103864:0:0:0:0:
109,192,103936,1,0,0:0:0:0:
402,192,103936,128,0,104007:0:0:0:0:
256,192,104079,1,0,0:0:0:0:
329,192,104079,1,0,0:0:0:0:
402,192,104079,128,0,104293:0:0:0:0:
36,192,104221,1,0,0:0:0:0:
182,192,104364,1,0,0:0:0:0:
256,192,104364,1,0,0:0:0:0:
329,192,104364,128,0,104507:0:0:0:0:
475,192,104507,1,0,0:0:0:0:
182,192,104650,1,0,0:0:0:0:
256,192,104650,1,0,0:0:0:0:
109,192,104650,128,0,104793:0:0:0:0:
329,192,104793,1,0,0:0:0:0:
36,192,104936,1,0,0:0:0:0:
109,192,104936,1,0,0:0:0:0:
182,192,104936,1,0,0:0:0:0:
182,192,105079,1,0,0:0:0:0:
256,192,105079,1,0,0:0:0:0:
329,192,105079,1,0,0:0:0:0:
329,192,105221,1,0,0:0:0:0:
402,192,105221,1,0,0:0:0:0:
475,192,105221,1,0,0:0:0:0:
182,192,105364,1,0,0:0:0:0:
329,192,105507,1,0,0:0:0:0:
402,192,105507,1,0,0:0:0:0:
256,192,105507,1,0,0:0:0:0:
109,192,105650,1,0,0:0:0:0:
182,192,105793,1,0,0:0:0:0:
256,192,105793,1,0,0:0:0:0:
329,192,105793,1,0,0:0:0:0:
36,192,105936,1,0,0:0:0:0:
109,192,106079,1,0,0:0:0:0:
256,192,106079,1,0,0:0:0:0:
182,192,106079,128,0,106150:0:0:0:0:
182,192,106221,128,0,106293:0:0:0:0:
109,192,106364,1,0,0:0:0:0:
182,192,106364,1,0,0:0:0:0:
36,192,106364,128,0,106579:0:0:0:0:
329,192,106507,1,0,0:0:0:0:
109,192,106650,128,0,106793:0:0:0:0:
182,192,106650,1,0,0:0:0:0:
256,192,106650,1,0,0:0:0:0:
402,192,106793,1,0,0:0:0:0:
256,192,106936,1,0,0:0:0:0:
329,192,106936,1,0,0:0:0:0:
182,192,106936,128,0,107079:0:0:0:0:
475,192,107079,1,0,0:0:0:0:
256,192,107221,1,0,0:0:0:0:
329,192,107221,1,0,0:0:0:0:
402,192,107221,1,0,0:0:0:0:
109,192,107364,1,0,0:0:0:0:
182,192,107364,1,0,0:0:0:0:
109,192,107436,1,0,0:0:0:0:
182,192,107436,1,0,0:0:0:0:
475,192,107507,1,0,0:0:0:0:
329,192,107507,128,0,107721:0:0:0:0:
402,192,107507,128,0,107721:0:0:0:0:
36,192,107650,1,0,0:0:0:0:
329,192,107793,1,0,0:0:0:0:
109,192,107793,128,0,108007:0:0:0:0:
182,192,107793,128,0,108007:0:0:0:0:
475,192,107936,1,0,0:0:0:0:
182,192,108079,1,0,0:0:0:0:
329,192,108079,1,0,0:0:0:0:
256,192,108079,1,0,0:0:0:0:
402,192,108221,128,0,108364:0:0:0:0:
475,192,108221,128,0,108364:0:0:0:0:
36,192,108364,1,0,0:0:0:0:
109,192,108364,1,0,0:0:0:0:
256,192,108364,1,0,0:0:0:0:
329,192,108507,1,0,0:0:0:0:
182,192,108579,1,0,0:0:0:0:
256,192,108650,1,0,0:0:0:0:
402,192,108650,128,0,108793:0:0:0:0:
475,192,108650,128,0,108793:0:0:0:0:
329,192,108793,1,0,0:0:0:0:
256,192,108936,1,0,0:0:0:0:
36,192,108936,128,0,109079:0:0:0:0:
109,192,108936,128,0,109079:0:0:0:0:
182,192,109079,1,0,0:0:0:0:
475,192,109221,128,0,109364:0:0:0:0:
402,192,109221,128,0,109364:0:0:0:0:
256,192,109221,1,0,0:0:0:0:
109,192,109364,1,0,0:0:0:0:
36,192,109364,1,0,0:0:0:0:
182,192,109364,1,0,0:0:0:0:
256,192,109436,1,0,0:0:0:0:
329,192,109436,1,0,0:0:0:0:
402,192,109436,1,0,0:0:0:0:
36,192,109507,1,0,0:0:0:0:
182,192,109507,1,0,0:0:0:0:
109,192,109507,1,0,0:0:0:0:
182,192,109650,1,0,0:0:0:0:
109,192,109650,1,0,0:0:0:0:
36,192,109650,1,0,0:0:0:0:
36,192,109793,1,0,0:0:0:0:
256,192,109793,1,0,0:0:0:0:
182,192,109793,1,0,0:0:0:0:
402,192,109793,128,0,109936:0:0:0:0:
475,192,109793,128,0,109936:0:0:0:0:
109,192,110079,1,0,0:0:0:0:
402,192,110079,128,0,110221:0:0:0:0:
475,192,110079,128,0,110221:0:0:0:0:
256,192,110079,1,0,0:0:0:0:
36,192,110221,1,0,0:0:0:0:
182,192,110364,1,0,0:0:0:0:
256,192,110364,1,0,0:0:0:0:
329,192,110364,1,0,0:0:0:0:
402,192,110507,128,0,110650:0:0:0:0:
475,192,110507,128,0,110650:0:0:0:0:
109,192,110650,1,0,0:0:0:0:
182,192,110650,1,0,0:0:0:0:
329,192,110650,1,0,0:0:0:0:
36,192,110650,1,0,0:0:0:0:
402,192,110793,128,0,110936:0:0:0:0:
36,192,110936,1,0,0:0:0:0:
182,192,110936,128,0,111079:0:0:0:0:
256,192,110936,128,0,111079:0:0:0:0:
182,192,111221,128,0,111364:0:0:0:0:
475,192,111221,1,0,0:0:0:0:
36,192,111221,1,0,0:0:0:0:
329,192,111221,128,0,111364:0:0:0:0:
475,192,111507,1,0,0:0:0:0:
256,192,111507,128,0,111650:0:0:0:0:
182,192,111507,128,0,111650:0:0:0:0:
36,192,111793,1,0,0:0:0:0:
182,192,111793,1,0,0:0:0:0:
329,192,111793,1,0,0:0:0:0:
402,192,111793,1,0,0:0:0:0:
256,192,112079,1,0,0:0:0:0:
109,192,112079,128,0,112221:0:0:0:0:
182,192,112079,128,0,112221:0:0:0:0:
109,192,112364,128,0,112507:0:0:0:0:
182,192,112364,128,0,112507:0:0:0:0:
329,192,112364,1,0,0:0:0:0:
475,192,112364,1,0,0:0:0:0:
36,192,112650,1,0,0:0:0:0:
329,192,112650,1,0,0:0:0:0:
182,192,112650,1,0,0:0:0:0:
256,192,112793,128,0,112936:0:0:0:0:
329,192,112793,128,0,112936:0:0:0:0:
36,192,112936,1,0,0:0:0:0:
182,192,112936,1,0,0:0:0:0:
475,192,112936,1,0,0:0:0:0:
402,192,112936,1,0,0:0:0:0:
182,192,113079,1,0,0:0:0:0:
329,192,113150,1,0,0:0:0:0:
402,192,113221,1,0,0:0:0:0:
109,192,113221,128,0,113364:0:0:0:0:
256,192,113221,128,0,113364:0:0:0:0:
402,192,113507,1,0,0:0:0:0:
475,192,113507,1,0,0:0:0:0:
109,192,113507,128,0,113650:0:0:0:0:
256,192,113507,128,0,113650:0:0:0:0:
36,192,113793,1,0,0:0:0:0:
182,192,113793,128,0,113936:0:0:0:0:
329,192,113793,128,0,113936:0:0:0:0:
402,192,113936,1,0,0:0:0:0:
36,192,114079,1,0,0:0:0:0:
256,192,114079,1,0,0:0:0:0:
329,192,114079,1,0,0:0:0:0:
402,192,114221,1,0,0:0:0:0:
109,192,114221,1,0,0:0:0:0:
475,192,114221,1,0,0:0:0:0:
182,192,114221,1,0,0:0:0:0:
36,192,114364,1,0,0:0:0:0:
329,192,114364,1,0,0:0:0:0:
256,192,114364,1,0,0:0:0:0:
109,192,114507,1,0,0:0:0:0:
402,192,114507,1,0,0:0:0:0:
182,192,114650,1,0,0:0:0:0:
256,192,114650,1,0,0:0:0:0:
329,192,114650,1,0,0:0:0:0:
475,192,114650,1,0,0:0:0:0:
109,192,114793,1,0,0:0:0:0:
402,192,114793,1,0,0:0:0:0:
256,192,114936,1,0,0:0:0:0:
36,192,114936,1,0,0:0:0:0:
329,192,114936,1,0,0:0:0:0:
109,192,115079,1,0,0:0:0:0:
182,192,115079,1,0,0:0:0:0:
256,192,115221,1,0,0:0:0:0:
402,192,115221,1,0,0:0:0:0:
475,192,115221,1,0,0:0:0:0:
329,192,115221,1,0,0:0:0:0:
36,192,115364,1,0,0:0:0:0:
182,192,115364,1,0,0:0:0:0:
256,192,115507,1,0,0:0:0:0:
329,192,115507,1,0,0:0:0:0:
475,192,115507,1,0,0:0:0:0:
182,192,115650,1,0,0:0:0:0:
402,192,115650,1,0,0:0:0:0:
36,192,115793,1,0,0:0:0:0:
256,192,115793,1,0,0:0:0:0:
109,192,115793,1,0,0:0:0:0:
329,192,115793,1,0,0:0:0:0:
182,192,115936,1,0,0:0:0:0:
475,192,115936,1,0,0:0:0:0:
36,192,116079,1,0,0:0:0:0:
256,192,116079,1,0,0:0:0:0:
329,192,116079,1,0,0:0:0:0:
109,192,116221,1,0,0:0:0:0:
182,192,116221,1,0,0:0:0:0:
329,192,116364,1,0,0:0:0:0:
256,192,116364,1,0,0:0:0:0:
402,192,116364,1,0,0:0:0:0:
475,192,116364,1,0,0:0:0:0:
109,192,116507,1,0,0:0:0:0:
182,192,116507,1,0,0:0:0:0:
329,192,116579,1,0,0:0:0:0:
402,192,116579,1,0,0:0:0:0:
182,192,116650,1,0,0:0:0:0:
109,192,116650,1,0,0:0:0:0:
329,192,116793,1,0,0:0:0:0:
402,192,116936,1,0,0:0:0:0:
475,192,116936,1,0,0:0:0:0:
36,192,116936,1,0,0:0:0:0:
109,192,116936,1,0,0:0:0:0:
256,192,117079,1,0,0:0:0:0:
182,192,117221,1,0,0:0:0:0:
475,192,117221,1,0,0:0:0:0:
402,192,117293,1,0,0:0:0:0:
329,192,117364,1,0,0:0:0:0:
36,192,117436,1,0,0:0:0:0:
109,192,117507,1,0,0:0:0:0:
329,192,117507,1,0,0:0:0:0:
402,192,117507,1,0,0:0:0:0:
475,192,117507,1,0,0:0:0:0:
182,192,117579,1,0,0:0:0:0:
256,192,117650,1,0,0:0:0:0:
329,192,117721,1,0,0:0:0:0:
109,192,117793,1,0,0:0:0:0:
182,192,117793,1,0,0:0:0:0:
475,192,117829,1,0,0:0:0:0:
402,192,117864,1,0,0:0:0:0:
329,192,117900,1,0,0:0:0:0:
256,192,117936,1,0,0:0:0:0:
182,192,117971,1,0,0:0:0:0:
109,192,118007,1,0,0:0:0:0:
36,192,118043,1,0,0:0:0:0:
329,192,118079,1,0,0:0:0:0:
402,192,118079,1,0,0:0:0:0:
475,192,118079,1,0,0:0:0:0:
256,192,118114,1,0,0:0:0:0:
182,192,118150,1,0,0:0:0:0:
109,192,118186,1,0,0:0:0:0:
402,192,118221,1,0,0:0:0:0:
329,192,118257,1,0,0:0:0:0:
256,192,118293,1,0,0:0:0:0:
182,192,118329,1,0,0:0:0:0:
36,192,118364,1,0,0:0:0:0:
475,192,118364,1,0,0:0:0:0:
402,192,118364,1,0,0:0:0:0:
109,192,118364,1,0,0:0:0:0:
402,192,118507,1,0,0:0:0:0:
475,192,118507,1,0,0:0:0:0:
36,192,118507,1,0,0:0:0:0:
109,192,118507,1,0,0:0:0:0:
182,192,118579,1,0,0:0:0:0:
256,192,118579,1,0,0:0:0:0:
329,192,118579,1,0,0:0:0:0:
36,192,118650,1,0,0:0:0:0:
109,192,118650,1,0,0:0:0:0:
475,192,118650,1,0,0:0:0:0:
402,192,118650,1,0,0:0:0:0:
182,192,118793,1,0,0:0:0:0:
256,192,118793,1,0,0:0:0:0:
329,192,118793,1,0,0:0:0:0:
402,192,118793,1,0,0:0:0:0:
109,192,118793,1,0,0:0:0:0:
36,192,118936,1,0,0:0:0:0:
109,192,118936,1,0,0:0:0:0:
402,192,118936,1,0,0:0:0:0:
475,192,118936,1,0,0:0:0:0:
182,192,119221,1,0,0:0:0:0:
329,192,119221,1,0,0:0:0:0:
36,192,119221,1,0,0:0:0:0:
256,192,119364,1,0,0:0:0:0:
402,192,119507,1,0,0:0:0:0:
109,192,119650,1,0,0:0:0:0:
256,192,119650,1,0,0:0:0:0:
36,192,119793,1,0,0:0:0:0:
182,192,119793,1,0,0:0:0:0:
329,192,119793,1,0,0:0:0:0:
402,192,119936,1,0,0:0:0:0:
109,192,120079,1,0,0:0:0:0:
256,192,120079,1,0,0:0:0:0:
402,192,120221,1,0,0:0:0:0:
36,192,120364,1,0,0:0:0:0:
182,192,120364,1,0,0:0:0:0:
329,192,120364,1,0,0:0:0:0:
475,192,120507,1,0,0:0:0:0:
402,192,120650,1,0,0:0:0:0:
256,192,120793,1,0,0:0:0:0:
36,192,120793,1,0,0:0:0:0:
182,192,120936,1,0,0:0:0:0:
329,192,120936,1,0,0:0:0:0:
109,192,120936,1,0,0:0:0:0:
475,192,121079,1,0,0:0:0:0:
109,192,121221,1,0,0:0:0:0:
256,192,121221,1,0,0:0:0:0:
402,192,121364,1,0,0:0:0:0:
475,192,121436,1,0,0:0:0:0:
36,192,121507,1,0,0:0:0:0:
182,192,121507,1,0,0:0:0:0:
329,192,121507,1,0,0:0:0:0:
109,192,121650,1,0,0:0:0:0:
402,192,121793,1,0,0:0:0:0:
256,192,121936,1,0,0:0:0:0:
182,192,121936,1,0,0:0:0:0:
36,192,122079,1,0,0:0:0:0:
329,192,122079,1,0,0:0:0:0:
109,192,122079,1,0,0:0:0:0:
182,192,122221,1,0,0:0:0:0:
109,192,122364,1,0,0:0:0:0:
329,192,122364,1,0,0:0:0:0:
256,192,122507,1,0,0:0:0:0:
182,192,122650,1,0,0:0:0:0:
402,192,122650,1,0,0:0:0:0:
329,192,122650,1,0,0:0:0:0:
109,192,122793,1,0,0:0:0:0:
256,192,122936,1,0,0:0:0:0:
36,192,123079,1,0,0:0:0:0:
182,192,123079,1,0,0:0:0:0:
109,192,123221,1,0,0:0:0:0:
256,192,123221,1,0,0:0:0:0:
402,192,123221,1,0,0:0:0:0:
402,192,123507,1,0,0:0:0:0:
182,192,123507,1,0,0:0:0:0:
36,192,123507,1,0,0:0:0:0:
329,192,123650,1,0,0:0:0:0:
182,192,123721,1,0,0:0:0:0:
109,192,123793,1,0,0:0:0:0:
256,192,123793,1,0,0:0:0:0:
402,192,123793,1,0,0:0:0:0:
329,192,123936,1,0,0:0:0:0:
182,192,124079,1,0,0:0:0:0:
402,192,124079,1,0,0:0:0:0:
36,192,124221,1,0,0:0:0:0:
256,192,124221,1,0,0:0:0:0:
109,192,124364,1,0,0:0:0:0:
329,192,124364,1,0,0:0:0:0:
402,192,124364,1,0,0:0:0:0:
182,192,124507,1,0,0:0:0:0:
256,192,124650,1,0,0:0:0:0:
329,192,124650,1,0,0:0:0:0:
402,192,124650,1,0,0:0:0:0:
109,192,124793,1,0,0:0:0:0:
182,192,124936,1,0,0:0:0:0:
256,192,124936,1,0,0:0:0:0:
402,192,124936,1,0,0:0:0:0:
329,192,125079,1,0,0:0:0:0:
36,192,125221,1,0,0:0:0:0:
402,192,125221,1,0,0:0:0:0:
182,192,125364,1,0,0:0:0:0:
256,192,125364,1,0,0:0:0:0:
402,192,125507,1,0,0:0:0:0:
329,192,125507,1,0,0:0:0:0:
109,192,125507,1,0,0:0:0:0:
182,192,125650,1,0,0:0:0:0:
256,192,125793,1,0,0:0:0:0:
402,192,125793,1,0,0:0:0:0:
36,192,125793,1,0,0:0:0:0:
329,192,125936,1,0,0:0:0:0:
109,192,126079,1,0,0:0:0:0:
182,192,126079,1,0,0:0:0:0:
402,192,126079,1,0,0:0:0:0:
256,192,126221,1,0,0:0:0:0:
36,192,126364,1,0,0:0:0:0:
402,192,126364,1,0,0:0:0:0:
109,192,126507,1,0,0:0:0:0:
182,192,126507,1,0,0:0:0:0:
36,192,126650,1,0,0:0:0:0:
329,192,126650,1,0,0:0:0:0:
402,192,126650,1,0,0:0:0:0:
256,192,126793,1,0,0:0:0:0:
109,192,126936,1,0,0:0:0:0:
402,192,126936,1,0,0:0:0:0:
182,192,126936,1,0,0:0:0:0:
36,192,127079,1,0,0:0:0:0:
109,192,127221,1,0,0:0:0:0:
256,192,127221,1,0,0:0:0:0:
402,192,127221,1,0,0:0:0:0:
329,192,127364,1,0,0:0:0:0:
182,192,127507,1,0,0:0:0:0:
402,192,127507,1,0,0:0:0:0:
256,192,127650,1,0,0:0:0:0:
329,192,127650,1,0,0:0:0:0:
109,192,127793,1,0,0:0:0:0:
402,192,127793,1,0,0:0:0:0:
475,192,127793,1,0,0:0:0:0:
182,192,127936,1,0,0:0:0:0:
36,192,128079,128,0,128221:0:0:0:0:
109,192,128079,128,0,128221:0:0:0:0:
256,192,128079,128,0,128221:0:0:0:0:
329,192,128079,128,0,128221:0:0:0:0:
182,192,128364,1,0,0:0:0:0:
329,192,128364,1,0,0:0:0:0:
475,192,128364,1,0,0:0:0:0:
256,192,128650,128,0,128793:0:0:0:0:
36,192,128793,1,0,0:0:0:0:
109,192,128793,128,0,128936:0:0:0:0:
182,192,128936,1,0,0:0:0:0:
475,192,128936,1,0,0:0:0:0:
329,192,128936,128,0,129079:0:0:0:0:
256,192,129079,128,0,129221:0:0:0:0:
36,192,129221,1,0,0:0:0:0:
109,192,129221,128,0,129507:0:0:0:0:
329,192,129507,1,0,0:0:0:0:
475,192,129507,1,0,0:0:0:0:
182,192,129507,128,0,129793:0:0:0:0:
256,192,129793,128,0,130079:0:0:0:0:
36,192,129936,1,0,0:0:0:0:
109,192,129936,1,0,0:0:0:0:
182,192,130079,1,0,0:0:0:0:
475,192,130079,1,0,0:0:0:0:
329,192,130079,128,0,130364:0:0:0:0:
182,192,130221,1,0,0:0:0:0:
36,192,130221,1,0,0:0:0:0:
256,192,130364,1,0,0:0:0:0:
402,192,130364,128,0,130650:0:0:0:0:
109,192,130507,1,0,0:0:0:0:
36,192,130650,1,0,0:0:0:0:
182,192,130650,1,0,0:0:0:0:
329,192,130650,1,0,0:0:0:0:
475,192,130793,128,0,131221:0:0:0:0:
256,192,130936,1,0,0:0:0:0:
109,192,131079,1,0,0:0:0:0:
182,192,131079,1,0,0:0:0:0:
36,192,131221,1,0,0:0:0:0:
402,192,131221,1,0,0:0:0:0:
256,192,131221,128,0,131364:0:0:0:0:
329,192,131364,1,0,0:0:0:0:
182,192,131364,128,0,131507:0:0:0:0:
256,192,131507,1,0,0:0:0:0:
402,192,131507,1,0,0:0:0:0:
109,192,131507,128,0,131650:0:0:0:0:
329,192,131650,128,0,131793:0:0:0:0:
402,192,131793,1,0,0:0:0:0:
475,192,131793,1,0,0:0:0:0:
36,192,131793,1,0,0:0:0:0:
182,192,131793,128,0,131936:0:0:0:0:
256,192,131936,128,0,132079:0:0:0:0:
109,192,132079,128,0,132221:0:0:0:0:
182,192,132221,1,0,0:0:0:0:
256,192,132221,128,0,132364:0:0:0:0:
402,192,132221,1,0,0:0:0:0:
109,192,132364,1,0,0:0:0:0:
329,192,132364,1,0,0:0:0:0:
36,192,132364,128,0,132650:0:0:0:0:
475,192,132507,1,0,0:0:0:0:
182,192,132507,1,0,0:0:0:0:
256,192,132650,1,0,0:0:0:0:
402,192,132650,1,0,0:0:0:0:
329,192,132650,128,0,132936:0:0:0:0:
36,192,132936,1,0,0:0:0:0:
182,192,132936,1,0,0:0:0:0:
475,192,132936,1,0,0:0:0:0:
109,192,132936,1,0,0:0:0:0:
256,192,133079,1,0,0:0:0:0:
402,192,133221,1,0,0:0:0:0:
109,192,133221,128,0,133364:0:0:0:0:
182,192,133364,128,0,133507:0:0:0:0:
329,192,133364,1,0,0:0:0:0:
256,192,133507,128,0,133650:0:0:0:0:
36,192,133507,1,0,0:0:0:0:
402,192,133507,1,0,0:0:0:0:
475,192,133507,1,0,0:0:0:0:
329,192,133650,128,0,133793:0:0:0:0:
182,192,133793,1,0,0:0:0:0:
109,192,133793,128,0,133936:0:0:0:0:
256,192,133936,128,0,134079:0:0:0:0:
109,192,134079,128,0,134221:0:0:0:0:
402,192,134079,1,0,0:0:0:0:
475,192,134079,128,0,134364:0:0:0:0:
329,192,134221,1,0,0:0:0:0:
182,192,134364,1,0,0:0:0:0:
36,192,134364,128,0,134650:0:0:0:0:
109,192,134507,1,0,0:0:0:0:
256,192,134507,1,0,0:0:0:0:
182,192,134650,1,0,0:0:0:0:
329,192,134650,1,0,0:0:0:0:
475,192,134650,1,0,0:0:0:0:
402,192,134793,1,0,0:0:0:0:
256,192,134936,1,0,0:0:0:0:
329,192,134936,1,0,0:0:0:0:
109,192,134936,128,0,135221:0:0:0:0:
36,192,135221,1,0,0:0:0:0:
182,192,135221,1,0,0:0:0:0:
402,192,135221,1,0,0:0:0:0:
475,192,135221,128,0,135507:0:0:0:0:
256,192,135507,128,0,135650:0:0:0:0:
329,192,135650,1,0,0:0:0:0:
109,192,135650,128,0,136079:0:0:0:0:
182,192,135793,1,0,0:0:0:0:
256,192,135793,1,0,0:0:0:0:
402,192,135793,1,0,0:0:0:0:
475,192,135793,1,0,0:0:0:0:
36,192,136079,1,0,0:0:0:0:
256,192,136079,128,0,136364:0:0:0:0:
402,192,136079,1,0,0:0:0:0:
109,192,136221,1,0,0:0:0:0:
182,192,136364,128,0,136650:0:0:0:0:
36,192,136364,1,0,0:0:0:0:
329,192,136364,1,0,0:0:0:0:
475,192,136364,1,0,0:0:0:0:
402,192,136650,128,0,136793:0:0:0:0:
256,192,136793,1,0,0:0:0:0:
109,192,136793,1,0,0:0:0:0:
256,192,136936,1,0,0:0:0:0:
36,192,136936,1,0,0:0:0:0:
182,192,136936,1,0,0:0:0:0:
329,192,136936,1,0,0:0:0:0:
475,192,136936,1,0,0:0:0:0:
109,192,137221,128,0,137364:0:0:0:0:
256,192,137221,128,0,137364:0:0:0:0:
182,192,137221,128,0,137364:0:0:0:0:
329,192,137221,128,0,137364:0:0:0:0:
402,192,137221,128,0,137364:0:0:0:0:
256,192,137507,1,0,0:0:0:0:
475,192,137507,1,0,0:0:0:0:
109,192,137507,1,0,0:0:0:0:
36,192,137507,1,0,0:0:0:0:
402,192,137507,1,0,0:0:0:0:
109,192,137793,1,0,0:0:0:0:
182,192,137793,1,0,0:0:0:0:
402,192,137793,1,0,0:0:0:0:
256,192,137793,1,0,0:0:0:0:
329,192,137793,1,0,0:0:0:0:
256,192,138079,1,0,0:0:0:0:
402,192,138079,1,0,0:0:0:0:
475,192,138079,1,0,0:0:0:0:
36,192,138079,1,0,0:0:0:0:
109,192,138079,1,0,0:0:0:0:
402,192,138221,1,0,0:0:0:0:
475,192,138221,1,0,0:0:0:0:
256,192,138364,1,0,0:0:0:0:
329,192,138364,1,0,0:0:0:0:
109,192,138364,1,0,0:0:0:0:
182,192,138364,1,0,0:0:0:0:
402,192,138364,1,0,0:0:0:0:
36,192,138650,1,0,0:0:0:0:
109,192,138650,1,0,0:0:0:0:
256,192,138650,1,0,0:0:0:0:
475,192,138650,1,0,0:0:0:0:
402,192,138650,1,0,0:0:0:0:
109,192,138936,1,0,0:0:0:0:
182,192,138936,1,0,0:0:0:0:
256,192,138936,1,0,0:0:0:0:
329,192,138936,1,0,0:0:0:0:
402,192,138936,1,0,0:0:0:0:
36,192,139221,1,0,0:0:0:0:
109,192,139221,1,0,0:0:0:0:
256,192,139221,1,0,0:0:0:0:
402,192,139221,1,0,0:0:0:0:
475,192,139221,1,0,0:0:0:0:
109,192,139364,1,0,0:0:0:0:
182,192,139364,1,0,0:0:0:0:
109,192,139507,128,0,139650:0:0:0:0:
182,192,139507,128,0,139650:0:0:0:0:
256,192,139507,128,0,139650:0:0:0:0:
329,192,139507,128,0,139650:0:0:0:0:
402,192,139507,128,0,139650:0:0:0:0:
36,192,139793,1,0,0:0:0:0:
475,192,139793,1,0,0:0:0:0:
256,192,139793,1,0,0:0:0:0:
182,192,139793,1,0,0:0:0:0:
329,192,139793,1,0,0:0:0:0:
109,192,140079,1,0,0:0:0:0:
182,192,140079,1,0,0:0:0:0:
329,192,140079,1,0,0:0:0:0:
256,192,140079,1,0,0:0:0:0:
402,192,140079,1,0,0:0:0:0:
36,192,140364,1,0,0:0:0:0:
182,192,140364,1,0,0:0:0:0:
256,192,140364,1,0,0:0:0:0:
475,192,140364,1,0,0:0:0:0:
329,192,140364,1,0,0:0:0:0:
402,192,140507,1,0,0:0:0:0:
475,192,140507,1,0,0:0:0:0:
109,192,140650,1,0,0:0:0:0:
182,192,140650,1,0,0:0:0:0:
329,192,140650,1,0,0:0:0:0:
256,192,140650,1,0,0:0:0:0:
402,192,140650,1,0,0:0:0:0:
36,192,140936,1,0,0:0:0:0:
182,192,140936,1,0,0:0:0:0:
329,192,140936,1,0,0:0:0:0:
256,192,140936,1,0,0:0:0:0:
475,192,140936,1,0,0:0:0:0:
109,192,141221,1,0,0:0:0:0:
182,192,141221,1,0,0:0:0:0:
256,192,141221,1,0,0:0:0:0:
329,192,141221,1,0,0:0:0:0:
402,192,141221,1,0,0:0:0:0:
475,192,141364,1,0,0:0:0:0:
402,192,141364,1,0,0:0:0:0:
109,192,141507,1,0,0:0:0:0:
256,192,141507,1,0,0:0:0:0:
329,192,141507,1,0,0:0:0:0:
182,192,141507,1,0,0:0:0:0:
36,192,141650,1,0,0:0:0:0:
109,192,141650,1,0,0:0:0:0:
402,192,141650,1,0,0:0:0:0:
475,192,141650,1,0,0:0:0:0:
182,192,141721,1,0,0:0:0:0:
256,192,141721,1,0,0:0:0:0:
329,192,141721,1,0,0:0:0:0:
36,192,141793,128,0,141936:0:0:0:0:
109,192,141793,128,0,141936:0:0:0:0:
402,192,141793,128,0,141936:0:0:0:0:
475,192,141793,128,0,141936:0:0:0:0:
182,192,141936,1,0,0:0:0:0:
256,192,141936,1,0,0:0:0:0:
36,192,142079,1,0,0:0:0:0:
109,192,142079,1,0,0:0:0:0:
329,192,142079,1,0,0:0:0:0:
475,192,142079,1,0,0:0:0:0:
182,192,142221,1,0,0:0:0:0:
256,192,142221,1,0,0:0:0:0:
36,192,142364,128,0,142507:0:0:0:0:
109,192,142364,128,0,142507:0:0:0:0:
402,192,142364,128,0,142507:0:0:0:0:
475,192,142364,128,0,142507:0:0:0:0:
182,192,142507,1,0,0:0:0:0:
329,192,142507,1,0,0:0:0:0:
36,192,142650,1,0,0:0:0:0:
109,192,142650,1,0,0:0:0:0:
475,192,142650,1,0,0:0:0:0:
402,192,142650,1,0,0:0:0:0:
256,192,142721,1,0,0:0:0:0:
329,192,142721,1,0,0:0:0:0:
182,192,142793,1,0,0:0:0:0:
109,192,142793,1,0,0:0:0:0:
329,192,142864,1,0,0:0:0:0:
256,192,142864,1,0,0:0:0:0:
36,192,142936,128,0,143079:0:0:0:0:
109,192,142936,128,0,143079:0:0:0:0:
402,192,142936,128,0,143079:0:0:0:0:
475,192,142936,128,0,143079:0:0:0:0:
182,192,143079,1,0,0:0:0:0:
329,192,143079,1,0,0:0:0:0:
36,192,143221,1,0,0:0:0:0:
475,192,143221,1,0,0:0:0:0:
402,192,143221,1,0,0:0:0:0:
256,192,143221,1,0,0:0:0:0:
182,192,143364,1,0,0:0:0:0:
329,192,143364,1,0,0:0:0:0:
36,192,143507,128,0,143650:0:0:0:0:
109,192,143507,128,0,143650:0:0:0:0:
402,192,143507,128,0,143650:0:0:0:0:
475,192,143507,128,0,143650:0:0:0:0:
256,192,143650,1,0,0:0:0:0:
36,192,143793,128,0,143936:0:0:0:0:
109,192,143793,128,0,143936:0:0:0:0:
402,192,143793,128,0,143936:0:0:0:0:
475,192,143793,128,0,143936:0:0:0:0:
182,192,143793,1,0,0:0:0:0:
329,192,143936,1,0,0:0:0:0:
109,192,144079,1,0,0:0:0:0:
182,192,144079,1,0,0:0:0:0:
256,192,144079,1,0,0:0:0:0:
109,192,144221,1,0,0:0:0:0:
182,192,144221,1,0,0:0:0:0:
256,192,144221,1,0,0:0:0:0:
329,192,144364,1,0,0:0:0:0:
402,192,144364,1,0,0:0:0:0:
475,192,144364,1,0,0:0:0:0:
36,192,144364,1,0,0:0:0:0:
109,192,144364,1,0,0:0:0:0:
329,192,144507,1,0,0:0:0:0:
402,192,144507,1,0,0:0:0:0:
475,192,144507,1,0,0:0:0:0:
109,192,144650,1,0,0:0:0:0:
182,192,144650,1,0,0:0:0:0:
329,192,144721,1,0,0:0:0:0:
402,192,144721,1,0,0:0:0:0:
182,192,144793,1,0,0:0:0:0:
109,192,144793,1,0,0:0:0:0:
256,192,144864,1,0,0:0:0:0:
329,192,144864,1,0,0:0:0:0:
109,192,144936,1,0,0:0:0:0:
36,192,144936,1,0,0:0:0:0:
402,192,144936,1,0,0:0:0:0:
475,192,144936,1,0,0:0:0:0:
329,192,145007,1,0,0:0:0:0:
256,192,145007,1,0,0:0:0:0:
182,192,145079,1,0,0:0:0:0:
109,192,145079,1,0,0:0:0:0:
475,192,145150,1,0,0:0:0:0:
402,192,145150,1,0,0:0:0:0:
256,192,145221,1,0,0:0:0:0:
329,192,145221,1,0,0:0:0:0:
182,192,145293,1,0,0:0:0:0:
36,192,145364,1,0,0:0:0:0:
182,192,145436,1,0,0:0:0:0:
329,192,145507,1,0,0:0:0:0:
475,192,145507,1,0,0:0:0:0:
182,192,145579,1,0,0:0:0:0:
329,192,145650,1,0,0:0:0:0:
182,192,145721,1,0,0:0:0:0:
36,192,145793,1,0,0:0:0:0:
256,192,145936,1,0,0:0:0:0:
402,192,145936,1,0,0:0:0:0:
182,192,146079,1,0,0:0:0:0:
36,192,146079,1,0,0:0:0:0:
475,192,146079,1,0,0:0:0:0:
329,192,146079,1,0,0:0:0:0:
182,192,146364,1,0,0:0:0:0:
256,192,146364,1,0,0:0:0:0:
402,192,146364,1,0,0:0:0:0:
109,192,146364,128,0,146650:0:0:0:0:
329,192,146507,1,0,0:0:0:0:
36,192,146650,1,0,0:0:0:0:
182,192,146650,1,0,0:0:0:0:
402,192,146650,1,0,0:0:0:0:
475,192,146650,1,0,0:0:0:0:
256,192,146793,1,0,0:0:0:0:
329,192,146936,1,0,0:0:0:0:
402,192,146936,1,0,0:0:0:0:
109,192,146936,128,0,147079:0:0:0:0:
256,192,147079,128,0,147221:0:0:0:0:
36,192,147221,1,0,0:0:0:0:
329,192,147221,1,0,0:0:0:0:
475,192,147221,1,0,0:0:0:0:
182,192,147221,128,0,147364:0:0:0:0:
402,192,147364,128,0,147793:0:0:0:0:
36,192,147507,1,0,0:0:0:0:
109,192,147507,1,0,0:0:0:0:
256,192,147507,1,0,0:0:0:0:
329,192,147650,1,0,0:0:0:0:
182,192,147793,128,0,148079:0:0:0:0:
256,192,147793,1,0,0:0:0:0:
475,192,147793,1,0,0:0:0:0:
36,192,147793,1,0,0:0:0:0:
402,192,147936,1,0,0:0:0:0:
109,192,148079,1,0,0:0:0:0:
256,192,148079,1,0,0:0:0:0:
329,192,148079,128,0,148364:0:0:0:0:
182,192,148221,1,0,0:0:0:0:
475,192,148364,128,0,148650:0:0:0:0:
36,192,148364,1,0,0:0:0:0:
109,192,148364,1,0,0:0:0:0:
402,192,148364,1,0,0:0:0:0:
256,192,148507,1,0,0:0:0:0:
329,192,148507,1,0,0:0:0:0:
182,192,148650,128,0,148936:0:0:0:0:
402,192,148650,1,0,0:0:0:0:
36,192,148650,1,0,0:0:0:0:
329,192,148793,1,0,0:0:0:0:
475,192,148936,1,0,0:0:0:0:
109,192,148936,1,0,0:0:0:0:
256,192,148936,1,0,0:0:0:0:
402,192,148936,1,0,0:0:0:0:
36,192,149079,128,0,149507:0:0:0:0:
256,192,149221,1,0,0:0:0:0:
329,192,149221,1,0,0:0:0:0:
182,192,149221,1,0,0:0:0:0:
329,192,149364,1,0,0:0:0:0:
109,192,149507,1,0,0:0:0:0:
402,192,149507,1,0,0:0:0:0:
475,192,149507,1,0,0:0:0:0:
182,192,149507,128,0,149650:0:0:0:0:
256,192,149650,128,0,149793:0:0:0:0:
109,192,149793,1,0,0:0:0:0:
475,192,149793,1,0,0:0:0:0:
329,192,149793,128,0,150079:0:0:0:0:
256,192,149936,1,0,0:0:0:0:
182,192,150079,128,0,150364:0:0:0:0:
36,192,150079,1,0,0:0:0:0:
475,192,150079,1,0,0:0:0:0:
402,192,150079,1,0,0:0:0:0:
256,192,150221,1,0,0:0:0:0:
36,192,150364,128,0,150650:0:0:0:0:
329,192,150364,1,0,0:0:0:0:
475,192,150364,1,0,0:0:0:0:
182,192,150507,1,0,0:0:0:0:
329,192,150650,128,0,150793:0:0:0:0:
475,192,150650,1,0,0:0:0:0:
256,192,150650,1,0,0:0:0:0:
402,192,150650,1,0,0:0:0:0:
36,192,150793,1,0,0:0:0:0:
109,192,150793,1,0,0:0:0:0:
182,192,150793,1,0,0:0:0:0:
402,192,150864,1,0,0:0:0:0:
475,192,150864,1,0,0:0:0:0:
182,192,150936,128,0,151221:0:0:0:0:
256,192,150936,1,0,0:0:0:0:
329,192,151079,1,0,0:0:0:0:
36,192,151221,1,0,0:0:0:0:
256,192,151221,1,0,0:0:0:0:
402,192,151221,1,0,0:0:0:0:
475,192,151221,1,0,0:0:0:0:
182,192,151364,1,0,0:0:0:0:
402,192,151507,1,0,0:0:0:0:
109,192,151507,1,0,0:0:0:0:
256,192,151507,128,0,151650:0:0:0:0:
182,192,151650,128,0,151793:0:0:0:0:
402,192,151793,128,0,151936:0:0:0:0:
36,192,151793,1,0,0:0:0:0:
256,192,151793,1,0,0:0:0:0:
475,192,151793,1,0,0:0:0:0:
109,192,151936,128,0,152364:0:0:0:0:
182,192,152079,1,0,0:0:0:0:
256,192,152079,1,0,0:0:0:0:
329,192,152079,1,0,0:0:0:0:
402,192,152221,1,0,0:0:0:0:
256,192,152364,128,0,152650:0:0:0:0:
182,192,152364,1,0,0:0:0:0:
36,192,152364,1,0,0:0:0:0:
475,192,152364,1,0,0:0:0:0:
329,192,152507,1,0,0:0:0:0:
402,192,152650,128,0,152936:0:0:0:0:
182,192,152650,1,0,0:0:0:0:
475,192,152650,1,0,0:0:0:0:
256,192,152793,1,0,0:0:0:0:
36,192,152936,128,0,153221:0:0:0:0:
109,192,152936,1,0,0:0:0:0:
182,192,152936,1,0,0:0:0:0:
329,192,152936,1,0,0:0:0:0:
256,192,153079,1,0,0:0:0:0:
329,192,153221,128,0,153507:0:0:0:0:
109,192,153221,1,0,0:0:0:0:
475,192,153221,1,0,0:0:0:0:
182,192,153364,1,0,0:0:0:0:
475,192,153507,128,0,153793:0:0:0:0:
256,192,153507,1,0,0:0:0:0:
36,192,153507,1,0,0:0:0:0:
109,192,153507,1,0,0:0:0:0:
402,192,153650,1,0,0:0:0:0:
256,192,153793,128,0,153936:0:0:0:0:
36,192,153793,1,0,0:0:0:0:
109,192,153936,128,0,154364:0:0:0:0:
182,192,154079,1,0,0:0:0:0:
329,192,154079,1,0,0:0:0:0:
475,192,154079,1,0,0:0:0:0:
402,192,154079,1,0,0:0:0:0:
256,192,154221,1,0,0:0:0:0:
402,192,154364,128,0,154650:0:0:0:0:
182,192,154364,1,0,0:0:0:0:
329,192,154364,1,0,0:0:0:0:
329,192,154650,128,0,154936:0:0:0:0:
36,192,154650,1,0,0:0:0:0:
256,192,154650,1,0,0:0:0:0:
182,192,154650,1,0,0:0:0:0:
182,192,154936,1,0,0:0:0:0:
256,192,154936,1,0,0:0:0:0:
36,192,154936,1,0,0:0:0:0:
109,192,155079,1,0,0:0:0:0:
329,192,155079,1,0,0:0:0:0:
182,192,155150,1,0,0:0:0:0:
402,192,155150,1,0,0:0:0:0:
36,192,155221,128,0,155507:0:0:0:0:
256,192,155221,1,0,0:0:0:0:
329,192,155221,1,0,0:0:0:0:
402,192,155364,1,0,0:0:0:0:
475,192,155364,1,0,0:0:0:0:
109,192,155507,1,0,0:0:0:0:
182,192,155507,1,0,0:0:0:0:
329,192,155507,128,0,155793:0:0:0:0:
36,192,155793,1,0,0:0:0:0:
256,192,155793,1,0,0:0:0:0:
402,192,155793,1,0,0:0:0:0:
475,192,155793,1,0,0:0:0:0:
182,192,155936,1,0,0:0:0:0:
256,192,156079,1,0,0:0:0:0:
402,192,156079,1,0,0:0:0:0:
109,192,156079,128,0,156221:0:0:0:0:
182,192,156221,128,0,156364:0:0:0:0:
36,192,156364,1,0,0:0:0:0:
256,192,156364,1,0,0:0:0:0:
475,192,156364,1,0,0:0:0:0:
329,192,156364,128,0,156507:0:0:0:0:
402,192,156507,128,0,156650:0:0:0:0:
182,192,156650,1,0,0:0:0:0:
109,192,156650,128,0,156936:0:0:0:0:
256,192,156793,1,0,0:0:0:0:
36,192,156936,1,0,0:0:0:0:
475,192,156936,1,0,0:0:0:0:
182,192,156936,1,0,0:0:0:0:
329,192,156936,128,0,157221:0:0:0:0:
402,192,157079,1,0,0:0:0:0:
256,192,157221,128,0,157507:0:0:0:0:
109,192,157221,1,0,0:0:0:0:
475,192,157221,1,0,0:0:0:0:
182,192,157364,1,0,0:0:0:0:
36,192,157507,128,0,157793:0:0:0:0:
109,192,157507,1,0,0:0:0:0:
329,192,157507,1,0,0:0:0:0:
402,192,157507,1,0,0:0:0:0:
329,192,157650,1,0,0:0:0:0:
256,192,157650,1,0,0:0:0:0:
182,192,157721,1,0,0:0:0:0:
109,192,157721,1,0,0:0:0:0:
402,192,157793,128,0,158079:0:0:0:0:
329,192,157793,1,0,0:0:0:0:
182,192,157936,1,0,0:0:0:0:
36,192,158079,1,0,0:0:0:0:
256,192,158079,1,0,0:0:0:0:
475,192,158079,1,0,0:0:0:0:
109,192,158079,1,0,0:0:0:0:
182,192,158221,128,0,158650:0:0:0:0:
256,192,158364,1,0,0:0:0:0:
329,192,158364,1,0,0:0:0:0:
402,192,158364,1,0,0:0:0:0:
109,192,158507,1,0,0:0:0:0:
36,192,158650,1,0,0:0:0:0:
329,192,158650,1,0,0:0:0:0:
475,192,158650,1,0,0:0:0:0:
256,192,158650,128,0,158793:0:0:0:0:
109,192,158793,128,0,158936:0:0:0:0:
329,192,158936,128,0,159079:0:0:0:0:
402,192,158936,1,0,0:0:0:0:
475,192,158936,1,0,0:0:0:0:
182,192,159079,128,0,159221:0:0:0:0:
402,192,159221,128,0,159364:0:0:0:0:
36,192,159221,1,0,0:0:0:0:
109,192,159221,1,0,0:0:0:0:
475,192,159221,1,0,0:0:0:0:
256,192,159364,128,0,159507:0:0:0:0:
475,192,159507,128,0,159650:0:0:0:0:
329,192,159507,1,0,0:0:0:0:
182,192,159507,1,0,0:0:0:0:
36,192,159650,128,0,159793:0:0:0:0:
182,192,159793,128,0,160079:0:0:0:0:
329,192,159793,1,0,0:0:0:0:
475,192,159793,1,0,0:0:0:0:
109,192,159936,1,0,0:0:0:0:
256,192,159936,1,0,0:0:0:0:
402,192,159936,1,0,0:0:0:0:
329,192,160079,128,0,160364:0:0:0:0:
475,192,160079,1,0,0:0:0:0:
36,192,160079,1,0,0:0:0:0:
109,192,160364,1,0,0:0:0:0:
182,192,160364,1,0,0:0:0:0:
256,192,160364,1,0,0:0:0:0:
402,192,160364,1,0,0:0:0:0:
182,192,160507,1,0,0:0:0:0:
36,192,160650,1,0,0:0:0:0:
475,192,160650,1,0,0:0:0:0:
256,192,160650,128,0,160793:0:0:0:0:
329,192,160793,128,0,160936:0:0:0:0:
109,192,160936,128,0,161079:0:0:0:0:
182,192,160936,1,0,0:0:0:0:
475,192,160936,1,0,0:0:0:0:
256,192,160936,1,0,0:0:0:0:
402,192,161079,128,0,161507:0:0:0:0:
329,192,161221,1,0,0:0:0:0:
36,192,161221,1,0,0:0:0:0:
182,192,161221,1,0,0:0:0:0:
256,192,161364,1,0,0:0:0:0:
36,192,161507,1,0,0:0:0:0:
475,192,161507,1,0,0:0:0:0:
329,192,161507,1,0,0:0:0:0:
182,192,161507,128,0,161793:0:0:0:0:
109,192,161650,1,0,0:0:0:0:
402,192,161793,1,0,0:0:0:0:
256,192,161793,128,0,162079:0:0:0:0:
36,192,161793,1,0,0:0:0:0:
329,192,161936,1,0,0:0:0:0:
36,192,162079,1,0,0:0:0:0:
182,192,162079,1,0,0:0:0:0:
402,192,162079,1,0,0:0:0:0:
475,192,162079,1,0,0:0:0:0:
109,192,162221,1,0,0:0:0:0:
256,192,162221,1,0,0:0:0:0:
329,192,162221,1,0,0:0:0:0:
182,192,162364,1,0,0:0:0:0:
402,192,162364,1,0,0:0:0:0:
36,192,162364,128,0,162650:0:0:0:0:
402,192,162507,1,0,0:0:0:0:
109,192,162650,1,0,0:0:0:0:
256,192,162650,1,0,0:0:0:0:
329,192,162650,1,0,0:0:0:0:
475,192,162650,128,0,162936:0:0:0:0:
182,192,162793,1,0,0:0:0:0:
402,192,162936,1,0,0:0:0:0:
109,192,162936,1,0,0:0:0:0:
256,192,162936,128,0,163079:0:0:0:0:
182,192,163079,128,0,163507:0:0:0:0:
36,192,163221,1,0,0:0:0:0:
402,192,163221,1,0,0:0:0:0:
256,192,163221,1,0,0:0:0:0:
475,192,163221,1,0,0:0:0:0:
109,192,163364,1,0,0:0:0:0:
256,192,163507,1,0,0:0:0:0:
402,192,163507,1,0,0:0:0:0:
329,192,163507,128,0,163793:0:0:0:0:
182,192,163650,1,0,0:0:0:0:
36,192,163793,1,0,0:0:0:0:
402,192,163793,1,0,0:0:0:0:
475,192,163793,1,0,0:0:0:0:
109,192,163793,128,0,164079:0:0:0:0:
329,192,163936,1,0,0:0:0:0:
256,192,164079,128,0,164364:0:0:0:0:
182,192,164221,1,0,0:0:0:0:
36,192,164364,128,0,164650:0:0:0:0:
109,192,164650,1,0,0:0:0:0:
182,192,164650,128,0,164936:0:0:0:0:
329,192,164650,128,0,164936:0:0:0:0:
475,192,164650,128,0,164793:0:0:0:0:
36,192,164936,1,0,0:0:0:0:
256,192,164936,1,0,0:0:0:0:
402,192,164936,1,0,0:0:0:0:
475,192,164936,128,0,165079:0:0:0:0:
109,192,165079,128,0,165221:0:0:0:0:
182,192,165221,1,0,0:0:0:0:
329,192,165221,128,0,165364:0:0:0:0:
475,192,165221,128,0,165364:0:0:0:0:
256,192,165364,128,0,165507:0:0:0:0:
36,192,165507,1,0,0:0:0:0:
182,192,165507,128,0,165650:0:0:0:0:
402,192,165507,1,0,0:0:0:0:
329,192,165507,128,0,165650:0:0:0:0:
109,192,165650,128,0,166079:0:0:0:0:
256,192,165650,128,0,165793:0:0:0:0:
182,192,165793,1,0,0:0:0:0:
475,192,165793,1,0,0:0:0:0:
329,192,165793,128,0,165936:0:0:0:0:
402,192,165936,128,0,166079:0:0:0:0:
36,192,166079,1,0,0:0:0:0:
182,192,166079,1,0,0:0:0:0:
256,192,166079,128,0,166364:0:0:0:0:
475,192,166079,128,0,166364:0:0:0:0:
109,192,166221,1,0,0:0:0:0:
329,192,166364,128,0,166650:0:0:0:0:
402,192,166364,1,0,0:0:0:0:
182,192,166364,1,0,0:0:0:0:
36,192,166507,128,0,166650:0:0:0:0:
256,192,166650,1,0,0:0:0:0:
402,192,166650,1,0,0:0:0:0:
182,192,166650,1,0,0:0:0:0:
475,192,166650,1,0,0:0:0:0:
109,192,166793,1,0,0:0:0:0:
182,192,166793,1,0,0:0:0:0:
329,192,166864,1,0,0:0:0:0:
256,192,166864,1,0,0:0:0:0:
475,192,166936,1,0,0:0:0:0:
182,192,166936,1,0,0:0:0:0:
109,192,166936,128,0,167221:0:0:0:0:
402,192,166936,128,0,167079:0:0:0:0:
256,192,167079,128,0,167221:0:0:0:0:
36,192,167221,1,0,0:0:0:0:
182,192,167221,1,0,0:0:0:0:
475,192,167221,128,0,167364:0:0:0:0:
402,192,167221,1,0,0:0:0:0:
329,192,167364,128,0,167793:0:0:0:0:
256,192,167507,1,0,0:0:0:0:
182,192,167507,128,0,167793:0:0:0:0:
109,192,167507,1,0,0:0:0:0:
36,192,167793,1,0,0:0:0:0:
475,192,167793,1,0,0:0:0:0:
402,192,167793,128,0,167936:0:0:0:0:
256,192,167793,128,0,167936:0:0:0:0:
329,192,167936,128,0,168079:0:0:0:0:
182,192,167936,128,0,168079:0:0:0:0:
256,192,168079,128,0,168221:0:0:0:0:
475,192,168079,1,0,0:0:0:0:
36,192,168079,128,0,168364:0:0:0:0:
402,192,168221,128,0,168364:0:0:0:0:
329,192,168364,1,0,0:0:0:0:
256,192,168364,128,0,168650:0:0:0:0:
109,192,168364,1,0,0:0:0:0:
182,192,168364,128,0,168650:0:0:0:0:
402,192,168507,1,0,0:0:0:0:
475,192,168650,128,0,168793:0:0:0:0:
36,192,168650,128,0,168793:0:0:0:0:
329,192,168650,1,0,0:0:0:0:
109,192,168793,128,0,168936:0:0:0:0:
402,192,168936,1,0,0:0:0:0:
475,192,168936,1,0,0:0:0:0:
182,192,168936,1,0,0:0:0:0:
256,192,168936,1,0,0:0:0:0:
329,192,169079,1,0,0:0:0:0:
402,192,169079,1,0,0:0:0:0:
109,192,169079,1,0,0:0:0:0:
182,192,169221,1,0,0:0:0:0:
256,192,169221,128,0,169364:0:0:0:0:
475,192,169221,128,0,169507:0:0:0:0:
109,192,169364,128,0,169507:0:0:0:0:
256,192,169507,128,0,169650:0:0:0:0:
329,192,169507,1,0,0:0:0:0:
402,192,169507,1,0,0:0:0:0:
36,192,169507,1,0,0:0:0:0:
182,192,169650,128,0,169793:0:0:0:0:
109,192,169793,1,0,0:0:0:0:
256,192,169793,128,0,169936:0:0:0:0:
402,192,169793,128,0,169936:0:0:0:0:
329,192,169936,128,0,170079:0:0:0:0:
109,192,170079,1,0,0:0:0:0:
402,192,170079,1,0,0:0:0:0:
475,192,170079,1,0,0:0:0:0:
182,192,170079,128,0,170221:0:0:0:0:
36,192,170221,128,0,170650:0:0:0:0:
256,192,170364,128,0,170507:0:0:0:0:
402,192,170364,1,0,0:0:0:0:
329,192,170364,1,0,0:0:0:0:
182,192,170507,128,0,170650:0:0:0:0:
109,192,170650,1,0,0:0:0:0:
475,192,170650,128,0,170936:0:0:0:0:
402,192,170650,128,0,170936:0:0:0:0:
329,192,170650,1,0,0:0:0:0:
182,192,170793,1,0,0:0:0:0:
36,192,170936,1,0,0:0:0:0:
109,192,170936,128,0,171079:0:0:0:0:
256,192,170936,128,0,171221:0:0:0:0:
329,192,171079,128,0,171221:0:0:0:0:
36,192,171221,1,0,0:0:0:0:
475,192,171221,1,0,0:0:0:0:
402,192,171221,1,0,0:0:0:0:
182,192,171221,1,0,0:0:0:0:
109,192,171364,1,0,0:0:0:0:
256,192,171364,1,0,0:0:0:0:
329,192,171364,1,0,0:0:0:0:
475,192,171507,1,0,0:0:0:0:
182,192,171507,128,0,171793:0:0:0:0:
402,192,171507,128,0,171650:0:0:0:0:
329,192,171650,1,0,0:0:0:0:
256,192,171793,1,0,0:0:0:0:
402,192,171793,1,0,0:0:0:0:
475,192,171793,128,0,172079:0:0:0:0:
36,192,171793,128,0,171936:0:0:0:0:
109,192,171936,1,0,0:0:0:0:
329,192,172079,1,0,0:0:0:0:
256,192,172079,128,0,172221:0:0:0:0:
182,192,172079,1,0,0:0:0:0:
402,192,172221,128,0,172364:0:0:0:0:
36,192,172364,1,0,0:0:0:0:
475,192,172364,1,0,0:0:0:0:
329,192,172364,1,0,0:0:0:0:
109,192,172364,1,0,0:0:0:0:
182,192,172507,1,0,0:0:0:0:
256,192,172507,1,0,0:0:0:0:
475,192,172650,1,0,0:0:0:0:
329,192,172650,1,0,0:0:0:0:
109,192,172650,128,0,172936:0:0:0:0:
36,192,172793,1,0,0:0:0:0:
256,192,172936,128,0,173221:0:0:0:0:
402,192,172936,1,0,0:0:0:0:
182,192,172936,1,0,0:0:0:0:
475,192,172936,1,0,0:0:0:0:
329,192,173079,1,0,0:0:0:0:
402,192,173221,128,0,173507:0:0:0:0:
109,192,173221,1,0,0:0:0:0:
182,192,173317,1,0,0:0:0:0:
256,192,173412,1,0,0:0:0:0:
36,192,173507,128,0,173793:0:0:0:0:
109,192,173507,1,0,0:0:0:0:
329,192,173507,1,0,0:0:0:0:
475,192,173507,1,0,0:0:0:0:
182,192,173793,128,0,174079:0:0:0:0:
256,192,173793,1,0,0:0:0:0:
475,192,173793,1,0,0:0:0:0:
402,192,173793,128,0,173936:0:0:0:0:
329,192,173936,128,0,174079:0:0:0:0:
36,192,174079,1,0,0:0:0:0:
402,192,174079,1,0,0:0:0:0:
109,192,174079,1,0,0:0:0:0:
475,192,174079,128,0,174364:0:0:0:0:
256,192,174221,1,0,0:0:0:0:
36,192,174364,1,0,0:0:0:0:
109,192,174364,128,0,174507:0:0:0:0:
329,192,174364,1,0,0:0:0:0:
402,192,174507,128,0,174650:0:0:0:0:
329,192,174650,128,0,174793:0:0:0:0:
475,192,174650,1,0,0:0:0:0:
182,192,174650,128,0,174793:0:0:0:0:
256,192,174650,1,0,0:0:0:0:
109,192,174793,128,0,174936:0:0:0:0:
402,192,174936,1,0,0:0:0:0:
182,192,174936,1,0,0:0:0:0:
256,192,174936,128,0,175221:0:0:0:0:
329,192,175079,128,0,175221:0:0:0:0:
475,192,175221,1,0,0:0:0:0:
36,192,175221,1,0,0:0:0:0:
109,192,175221,128,0,175507:0:0:0:0:
402,192,175221,1,0,0:0:0:0:
256,192,175364,1,0,0:0:0:0:
36,192,175507,1,0,0:0:0:0:
182,192,175507,1,0,0:0:0:0:
329,192,175507,128,0,175793:0:0:0:0:
402,192,175650,1,0,0:0:0:0:
109,192,175793,1,0,0:0:0:0:
256,192,175793,1,0,0:0:0:0:
475,192,175793,1,0,0:0:0:0:
182,192,175793,1,0,0:0:0:0:
329,192,175936,1,0,0:0:0:0:
402,192,175936,1,0,0:0:0:0:
475,192,175936,1,0,0:0:0:0:
182,192,176007,1,0,0:0:0:0:
109,192,176007,1,0,0:0:0:0:
402,192,176079,1,0,0:0:0:0:
329,192,176079,128,0,176221:0:0:0:0:
182,192,176221,128,0,176364:0:0:0:0:
475,192,176364,1,0,0:0:0:0:
256,192,176364,128,0,176507:0:0:0:0:
329,192,176364,1,0,0:0:0:0:
109,192,176364,1,0,0:0:0:0:
36,192,176507,128,0,176936:0:0:0:0:
329,192,176650,128,0,176936:0:0:0:0:
475,192,176650,1,0,0:0:0:0:
109,192,176650,1,0,0:0:0:0:
256,192,176793,1,0,0:0:0:0:
475,192,176936,1,0,0:0:0:0:
109,192,176936,1,0,0:0:0:0:
402,192,176936,128,0,177079:0:0:0:0:
182,192,176936,128,0,177221:0:0:0:0:
256,192,177079,128,0,177221:0:0:0:0:
109,192,177221,1,0,0:0:0:0:
475,192,177221,1,0,0:0:0:0:
329,192,177221,128,0,177364:0:0:0:0:
36,192,177364,128,0,177507:0:0:0:0:
182,192,177507,1,0,0:0:0:0:
402,192,177507,1,0,0:0:0:0:
475,192,177507,1,0,0:0:0:0:
256,192,177507,128,0,177650:0:0:0:0:
109,192,177650,128,0,177793:0:0:0:0:
182,192,177793,1,0,0:0:0:0:
402,192,177793,1,0,0:0:0:0:
329,192,177793,128,0,177936:0:0:0:0:
256,192,177936,128,0,178079:0:0:0:0:
402,192,178079,1,0,0:0:0:0:
475,192,178079,1,0,0:0:0:0:
109,192,178079,1,0,0:0:0:0:
36,192,178079,1,0,0:0:0:0:
182,192,178221,1,0,0:0:0:0:
329,192,178221,1,0,0:0:0:0:
402,192,178221,1,0,0:0:0:0:
109,192,178221,1,0,0:0:0:0:
182,192,178364,1,0,0:0:0:0:
329,192,178364,1,0,0:0:0:0:
256,192,178364,128,0,178507:0:0:0:0:
109,192,178507,128,0,178650:0:0:0:0:
182,192,178650,1,0,0:0:0:0:
475,192,178650,1,0,0:0:0:0:
36,192,178650,1,0,0:0:0:0:
329,192,178650,128,0,178793:0:0:0:0:
402,192,178793,128,0,178936:0:0:0:0:
182,192,178936,1,0,0:0:0:0:
329,192,178936,1,0,0:0:0:0:
256,192,178936,128,0,179079:0:0:0:0:
109,192,179079,128,0,179221:0:0:0:0:
36,192,179221,1,0,0:0:0:0:
182,192,179221,1,0,0:0:0:0:
475,192,179221,1,0,0:0:0:0:
329,192,179221,128,0,179364:0:0:0:0:
402,192,179364,128,0,179507:0:0:0:0:
36,192,179507,1,0,0:0:0:0:
256,192,179507,1,0,0:0:0:0:
109,192,179507,128,0,179793:0:0:0:0:
182,192,179793,1,0,0:0:0:0:
402,192,179793,1,0,0:0:0:0:
36,192,179793,1,0,0:0:0:0:
329,192,179793,128,0,180079:0:0:0:0:
402,192,180079,1,0,0:0:0:0:
475,192,180079,1,0,0:0:0:0:
256,192,180079,128,0,180364:0:0:0:0:
36,192,180364,1,0,0:0:0:0:
109,192,180364,1,0,0:0:0:0:
329,192,180364,1,0,0:0:0:0:
475,192,180364,128,0,180650:0:0:0:0:
109,192,180507,1,0,0:0:0:0:
182,192,180507,1,0,0:0:0:0:
402,192,180507,1,0,0:0:0:0:
402,192,180650,1,0,0:0:0:0:
36,192,180650,1,0,0:0:0:0:
256,192,180650,128,0,180936:0:0:0:0:
36,192,180936,1,0,0:0:0:0:
329,192,180936,1,0,0:0:0:0:
402,192,180936,1,0,0:0:0:0:
109,192,180936,128,0,181221:0:0:0:0:
182,192,181221,128,0,181364:0:0:0:0:
402,192,181221,1,0,0:0:0:0:
475,192,181221,1,0,0:0:0:0:
329,192,181364,128,0,181793:0:0:0:0:
36,192,181507,1,0,0:0:0:0:
109,192,181507,1,0,0:0:0:0:
256,192,181507,1,0,0:0:0:0:
475,192,181507,1,0,0:0:0:0:
109,192,181793,1,0,0:0:0:0:
182,192,181793,1,0,0:0:0:0:
402,192,181793,1,0,0:0:0:0:
36,192,182079,1,0,0:0:0:0:
182,192,182079,1,0,0:0:0:0:
256,192,182079,1,0,0:0:0:0:
402,192,182079,1,0,0:0:0:0:
329,192,182364,1,0,0:0:0:0:
182,192,182459,1,0,0:0:0:0:
256,192,182555,1,0,0:0:0:0:
475,192,182650,1,0,0:0:0:0:
329,192,182650,1,0,0:0:0:0:
36,192,182650,1,0,0:0:0:0:
182,192,182650,1,0,0:0:0:0:
109,192,182936,128,0,183221:0:0:0:0:
182,192,182936,128,0,183221:0:0:0:0:
402,192,182936,128,0,183221:0:0:0:0:
329,192,182936,128,0,183221:0:0:0:0:
36,192,182936,128,0,183007:0:0:0:0:
475,192,182936,128,0,183007:0:0:0:0:
36,192,183221,1,0,0:0:0:0:
475,192,183221,1,0,0:0:0:0:
256,192,183221,1,0,0:0:0:0:
329,192,183364,1,0,0:0:0:0:
182,192,183436,1,0,0:0:0:0:
329,192,183507,1,0,0:0:0:0:
109,192,183650,128,0,183721:0:0:0:0:
36,192,183650,128,0,183721:0:0:0:0:
256,192,183650,128,0,183793:0:0:0:0:
402,192,183793,1,0,0:0:0:0:
475,192,183793,1,0,0:0:0:0:
256,192,183936,128,0,184079:0:0:0:0:
36,192,184079,128,0,184150:0:0:0:0:
109,192,184079,128,0,184150:0:0:0:0:
256,192,184221,128,0,184364:0:0:0:0:
182,192,184293,1,0,0:0:0:0:
402,192,184364,1,0,0:0:0:0:
475,192,184364,1,0,0:0:0:0:
329,192,184507,1,0,0:0:0:0:
256,192,184579,1,0,0:0:0:0:
182,192,184650,1,0,0:0:0:0:
36,192,184793,128,0,184864:0:0:0:0:
109,192,184793,128,0,184864:0:0:0:0:
402,192,184936,1,0,0:0:0:0:
475,192,184936,1,0,0:0:0:0:
36,192,185221,128,0,185293:0:0:0:0:
109,192,185221,128,0,185293:0:0:0:0:
182,192,185364,1,0,0:0:0:0:
329,192,185436,1,0,0:0:0:0:
402,192,185507,1,0,0:0:0:0:
475,192,185507,1,0,0:0:0:0:
182,192,185650,1,0,0:0:0:0:
256,192,185793,1,0,0:0:0:0:
109,192,185936,128,0,186007:0:0:0:0:
36,192,185936,128,0,186007:0:0:0:0:
402,192,186079,1,0,0:0:0:0:
475,192,186079,1,0,0:0:0:0:
109,192,186364,128,0,186436:0:0:0:0:
36,192,186364,128,0,186436:0:0:0:0:
402,192,186650,1,0,0:0:0:0:
475,192,186650,1,0,0:0:0:0:
182,192,186650,128,0,186793:0:0:0:0:
256,192,186793,128,0,186864:0:0:0:0:
329,192,186936,128,0,187079:0:0:0:0:
36,192,187079,128,0,187150:0:0:0:0:
109,192,187079,128,0,187150:0:0:0:0:
256,192,187079,128,0,187150:0:0:0:0:
402,192,187221,1,0,0:0:0:0:
475,192,187221,1,0,0:0:0:0:
182,192,187221,128,0,187364:0:0:0:0:
36,192,187507,128,0,187579:0:0:0:0:
475,192,187507,128,0,187579:0:0:0:0:
109,192,187507,128,0,187793:0:0:0:0:
182,192,187507,128,0,187793:0:0:0:0:
329,192,187507,128,0,187793:0:0:0:0:
402,192,187507,128,0,187793:0:0:0:0:
36,192,187793,1,0,0:0:0:0:
475,192,187793,1,0,0:0:0:0:
256,192,187793,128,0,187936:0:0:0:0:
182,192,187936,128,0,188079:0:0:0:0:
402,192,188221,128,0,188293:0:0:0:0:
475,192,188221,128,0,188293:0:0:0:0:
256,192,188221,128,0,188364:0:0:0:0:
109,192,188364,1,0,0:0:0:0:
36,192,188364,1,0,0:0:0:0:
256,192,188507,128,0,188650:0:0:0:0:
402,192,188650,128,0,188721:0:0:0:0:
475,192,188650,128,0,188721:0:0:0:0:
256,192,188793,128,0,188936:0:0:0:0:
109,192,188936,1,0,0:0:0:0:
36,192,188936,1,0,0:0:0:0:
182,192,189079,1,0,0:0:0:0:
329,192,189221,1,0,0:0:0:0:
402,192,189364,128,0,189436:0:0:0:0:
475,192,189364,128,0,189436:0:0:0:0:
109,192,189507,1,0,0:0:0:0:
36,192,189507,1,0,0:0:0:0:
256,192,189650,1,0,0:0:0:0:
402,192,189793,128,0,189864:0:0:0:0:
475,192,189793,128,0,189864:0:0:0:0:
256,192,189936,1,0,0:0:0:0:
109,192,190079,1,0,0:0:0:0:
36,192,190079,1,0,0:0:0:0:
329,192,190221,1,0,0:0:0:0:
182,192,190293,1,0,0:0:0:0:
329,192,190364,1,0,0:0:0:0:
402,192,190507,128,0,190579:0:0:0:0:
475,192,190507,128,0,190579:0:0:0:0:
36,192,190650,1,0,0:0:0:0:
109,192,190650,1,0,0:0:0:0:
256,192,190793,1,0,0:0:0:0:
402,192,190936,128,0,191007:0:0:0:0:
475,192,190936,128,0,191007:0:0:0:0:
256,192,191079,1,0,0:0:0:0:
182,192,191150,1,0,0:0:0:0:
36,192,191221,1,0,0:0:0:0:
109,192,191221,1,0,0:0:0:0:
329,192,191221,128,0,191364:0:0:0:0:
256,192,191364,128,0,191436:0:0:0:0:
182,192,191507,128,0,191650:0:0:0:0:
256,192,191650,128,0,191721:0:0:0:0:
402,192,191650,128,0,191721:0:0:0:0:
475,192,191650,128,0,191721:0:0:0:0:
329,192,191793,128,0,191936:0:0:0:0:
36,192,191793,1,0,0:0:0:0:
109,192,191793,1,0,0:0:0:0:
36,192,192079,128,0,192150:0:0:0:0:
475,192,192079,128,0,192150:0:0:0:0:
109,192,192079,128,0,192364:0:0:0:0:
182,192,192079,128,0,192364:0:0:0:0:
329,192,192079,128,0,192364:0:0:0:0:
402,192,192079,128,0,192364:0:0:0:0:
475,192,192364,128,0,192507:0:0:0:0:
36,192,192364,1,0,0:0:0:0:
256,192,192364,128,0,192507:0:0:0:0:
109,192,192650,1,0,0:0:0:0:
256,192,192793,128,0,192936:0:0:0:0:
329,192,192793,128,0,192936:0:0:0:0:
36,192,192936,1,0,0:0:0:0:
182,192,192936,1,0,0:0:0:0:
475,192,192936,1,0,0:0:0:0:
256,192,193079,128,0,193150:0:0:0:0:
402,192,193079,128,0,193150:0:0:0:0:
36,192,193221,1,0,0:0:0:0:
402,192,193221,128,0,193364:0:0:0:0:
256,192,193221,128,0,193364:0:0:0:0:
36,192,193507,1,0,0:0:0:0:
182,192,193507,1,0,0:0:0:0:
329,192,193507,128,0,193650:0:0:0:0:
475,192,193507,128,0,193650:0:0:0:0:
109,192,193650,1,0,0:0:0:0:
182,192,193686,1,0,0:0:0:0:
402,192,193721,1,0,0:0:0:0:
329,192,193757,1,0,0:0:0:0:
256,192,193793,1,0,0:0:0:0:
36,192,193793,1,0,0:0:0:0:
109,192,193936,1,0,0:0:0:0:
329,192,193936,1,0,0:0:0:0:
475,192,193936,1,0,0:0:0:0:
182,192,194079,1,0,0:0:0:0:
256,192,194079,1,0,0:0:0:0:
402,192,194079,1,0,0:0:0:0:
475,192,194079,1,0,0:0:0:0:
36,192,194221,128,0,194293:0:0:0:0:
109,192,194221,128,0,194293:0:0:0:0:
36,192,194364,128,0,194507:0:0:0:0:
109,192,194364,128,0,194507:0:0:0:0:
329,192,194364,1,0,0:0:0:0:
475,192,194650,1,0,0:0:0:0:
329,192,194650,1,0,0:0:0:0:
36,192,194650,128,0,194793:0:0:0:0:
182,192,194650,128,0,194793:0:0:0:0:
256,192,194936,1,0,0:0:0:0:
182,192,195079,128,0,195221:0:0:0:0:
36,192,195079,128,0,195221:0:0:0:0:
402,192,195079,1,0,0:0:0:0:
329,192,195221,1,0,0:0:0:0:
475,192,195221,1,0,0:0:0:0:
256,192,195364,1,0,0:0:0:0:
475,192,195436,1,0,0:0:0:0:
182,192,195507,128,0,195650:0:0:0:0:
109,192,195507,128,0,195650:0:0:0:0:
329,192,195507,1,0,0:0:0:0:
36,192,195793,128,0,195936:0:0:0:0:
182,192,195793,128,0,195936:0:0:0:0:
475,192,195793,1,0,0:0:0:0:
329,192,195793,128,0,196079:0:0:0:0:
402,192,195936,128,0,196079:0:0:0:0:
256,192,196079,1,0,0:0:0:0:
109,192,196079,128,0,196364:0:0:0:0:
182,192,196221,128,0,196364:0:0:0:0:
402,192,196221,1,0,0:0:0:0:
329,192,196221,1,0,0:0:0:0:
36,192,196364,128,0,196436:0:0:0:0:
475,192,196364,128,0,196436:0:0:0:0:
256,192,196364,128,0,196436:0:0:0:0:
329,192,196650,128,0,196936:0:0:0:0:
402,192,196650,128,0,196936:0:0:0:0:
109,192,196650,128,0,196936:0:0:0:0:
182,192,196650,128,0,196936:0:0:0:0:
475,192,196650,128,0,196721:0:0:0:0:
36,192,196650,128,0,196721:0:0:0:0:
475,192,196936,1,0,0:0:0:0:
36,192,196936,128,0,197079:0:0:0:0:
256,192,196936,128,0,197079:0:0:0:0:
329,192,197221,1,0,0:0:0:0:
182,192,197364,128,0,197507:0:0:0:0:
256,192,197364,128,0,197507:0:0:0:0:
109,192,197364,1,0,0:0:0:0:
36,192,197507,1,0,0:0:0:0:
402,192,197507,1,0,0:0:0:0:
475,192,197507,1,0,0:0:0:0:
329,192,197507,1,0,0:0:0:0:
329,192,197650,128,0,197721:0:0:0:0:
256,192,197650,128,0,197721:0:0:0:0:
256,192,197793,128,0,197936:0:0:0:0:
402,192,197793,128,0,197936:0:0:0:0:
36,192,197793,1,0,0:0:0:0:
182,192,198079,1,0,0:0:0:0:
36,192,198079,1,0,0:0:0:0:
329,192,198079,128,0,198221:0:0:0:0:
475,192,198079,128,0,198221:0:0:0:0:
109,192,198221,1,0,0:0:0:0:
182,192,198257,1,0,0:0:0:0:
256,192,198293,1,0,0:0:0:0:
329,192,198329,1,0,0:0:0:0:
36,192,198364,128,0,198507:0:0:0:0:
402,192,198364,128,0,198507:0:0:0:0:
109,192,198507,1,0,0:0:0:0:
182,192,198507,1,0,0:0:0:0:
256,192,198650,1,0,0:0:0:0:
329,192,198650,1,0,0:0:0:0:
475,192,198650,1,0,0:0:0:0:
36,192,198650,1,0,0:0:0:0:
402,192,198793,128,0,198864:0:0:0:0:
182,192,198793,128,0,198864:0:0:0:0:
402,192,198936,128,0,199079:0:0:0:0:
182,192,198936,128,0,199079:0:0:0:0:
109,192,198936,1,0,0:0:0:0:
329,192,199221,1,0,0:0:0:0:
36,192,199221,1,0,0:0:0:0:
256,192,199221,128,0,199364:0:0:0:0:
475,192,199221,128,0,199364:0:0:0:0:
109,192,199507,1,0,0:0:0:0:
182,192,199650,1,0,0:0:0:0:
329,192,199650,128,0,199793:0:0:0:0:
402,192,199650,128,0,199793:0:0:0:0:
36,192,199793,1,0,0:0:0:0:
109,192,199793,1,0,0:0:0:0:
256,192,199793,1,0,0:0:0:0:
475,192,199793,1,0,0:0:0:0:
329,192,199936,1,0,0:0:0:0:
256,192,200007,1,0,0:0:0:0:
402,192,200079,1,0,0:0:0:0:
109,192,200079,128,0,200221:0:0:0:0:
475,192,200079,1,0,0:0:0:0:
256,192,200221,128,0,200364:0:0:0:0:
109,192,200364,1,0,0:0:0:0:
402,192,200364,128,0,200507:0:0:0:0:
36,192,200364,1,0,0:0:0:0:
256,192,200507,128,0,200650:0:0:0:0:
109,192,200650,128,0,200793:0:0:0:0:
402,192,200650,128,0,200793:0:0:0:0:
475,192,200650,1,0,0:0:0:0:
256,192,200793,1,0,0:0:0:0:
329,192,200829,1,0,0:0:0:0:
182,192,200864,1,0,0:0:0:0:
109,192,200900,1,0,0:0:0:0:
36,192,200936,1,0,0:0:0:0:
256,192,200936,128,0,201221:0:0:0:0:
402,192,200936,128,0,201221:0:0:0:0:
475,192,200936,128,0,201221:0:0:0:0:
