osu file format v14

[General]
AudioFilename: audio.mp3
AudioLeadIn: 0
PreviewTime: 140712
Countdown: 0
SampleSet: Soft
StackLeniency: 0.3
Mode: 0
LetterboxInBreaks: 0
WidescreenStoryboard: 1

[Editor]
Bookmarks: 37,8879,10142,18984,20247,29089,30352,40458,50563,52142,60668,70773,80879,90984,101089,111194,121300,131197,140712,150120,159532,166591,168944,178356,187767,192473,197179,201885,206591,216003,225414,234826,244238,253650,263061,272473,281885,291297,296003,300709
DistanceSpacing: 1
BeatDivisor: 8
GridSize: 32
TimelineZoom: 3.1

[Metadata]
Title:Get on
TitleUnicode:Get on
Artist:USAO
ArtistUnicode:USAO
Creator:C00L
Version:Deliverance
Source:
Tags:featured artist fa electronic instrumental dubstep drumstep dnb drum n and bass HARDCORE SYNDROME 9 Kick's Kicks For Liberation 6 tano*c cool
BeatmapID:1243967
BeatmapSetID:552213

[Difficulty]
HPDrainRate:5.5
CircleSize:4.2
OverallDifficulty:9.2
ApproachRate:9.6
SliderMultiplier:2.2
SliderTickRate:1

[Events]
//Background and Video events
0,0,"Get_On_With_The_Beat.jpg",0,0
//Break Periods
//Storyboard Layer 0 (Background)
//Storyboard Layer 1 (Fail)
//Storyboard Layer 2 (Pass)
//Storyboard Layer 3 (Foreground)
//Storyboard Layer 4 (Overlay)
//Storyboard Sound Samples

[TimingPoints]
30,315.789473684211,4,2,1,50,1,0
30,-83.3333333333334,4,2,1,50,0,0
266,-83.3333333333334,4,2,1,5,0,0
345,-166.666666666667,4,2,1,50,0,0
4056,-166.666666666667,4,2,1,5,0,0
4135,-166.666666666667,4,2,1,50,0,0
5319,-166.666666666667,4,2,1,5,0,0
5398,-166.666666666667,4,2,1,50,0,0
5635,-166.666666666667,4,2,1,5,0,0
5714,-166.666666666667,4,2,1,50,0,0
5951,-166.666666666667,4,2,1,5,0,0
6030,-166.666666666667,4,2,1,50,0,0
6266,-166.666666666667,4,2,1,5,0,0
6345,-166.666666666667,4,2,1,50,0,0
8872,-125,4,2,1,40,0,0
9108,-166.666666666667,4,2,1,5,0,0
9187,-125,4,2,1,40,0,0
10135,-100,4,2,1,60,0,0
15424,-166.666666666667,4,2,1,5,0,0
15503,-100,4,2,1,60,0,0
15740,-166.666666666667,4,2,1,5,0,0
15819,-100,4,2,1,60,0,0
16056,-166.666666666667,4,2,1,5,0,0
16135,-100,4,2,1,60,0,0
16372,-166.666666666667,4,2,1,5,0,0
16451,-100,4,2,1,60,0,0
18977,-100,4,2,1,50,0,0
20240,-100,4,2,1,60,0,0
21740,-166.666666666667,4,2,1,5,0,0
21819,-100,4,2,1,60,0,0
24266,-166.666666666667,4,2,1,5,0,0
24345,-100,4,2,1,60,0,0
25214,-166.666666666667,4,2,1,5,0,0
25293,-100,4,2,1,60,0,0
27424,-166.666666666667,4,2,1,5,0,0
27503,-100,4,2,1,60,0,0
29082,-111.111111111111,4,2,1,50,0,0
29319,-166.666666666667,4,2,1,5,0,0
29398,-111.111111111111,4,2,1,50,0,0
30266,-166.666666666667,4,2,1,5,0,0
30345,-90.9090909090909,4,2,1,60,0,0
31845,-166.666666666667,4,2,1,5,0,0
31924,-90.9090909090909,4,2,1,60,0,0
34372,-166.666666666667,4,2,1,5,0,0
34451,-90.9090909090909,4,2,1,60,0,0
35319,-166.666666666667,4,2,1,5,0,0
35398,-90.9090909090909,4,2,1,60,0,0
39819,-100,4,2,1,50,0,0
40135,-125,4,2,1,50,0,0
40372,-166.666666666667,4,2,1,5,0,0
40451,-125,4,2,1,40,0,0
42582,-166.666666666667,4,2,1,5,0,0
42661,-125,4,2,1,40,0,0
45108,-166.666666666667,4,2,1,5,0,0
45187,-125,4,2,1,40,0,0
47635,-166.666666666667,4,2,1,5,0,0
47714,-125,4,2,1,40,0,0
50556,-100,4,2,1,50,0,0
51503,-83.3333333333333,4,2,1,50,0,0
51740,-166.666666666667,4,2,1,5,0,0
51819,-100,4,2,1,50,0,0
53398,-83.3333333333333,4,2,1,50,0,0
53635,-83.3333333333333,4,2,1,5,0,0
53714,-83.3333333333333,4,2,1,50,0,0
53951,-83.3333333333333,4,2,1,5,0,0
54030,-83.3333333333333,4,2,1,50,0,0
54345,-100,4,2,1,50,0,0
55608,-100,4,2,1,60,0,0
56556,-83.3333333333333,4,2,1,60,0,0
56793,-83.3333333333333,4,2,1,5,0,0
56872,-100,4,2,1,60,0,0
60030,-100,4,2,1,40,0,0
60345,-166.666666666667,4,2,1,30,0,0
60385,-166.666666666667,4,2,1,10,0,0
60661,-62.5,4,2,2,80,0,0
60898,-166.666666666667,4,2,2,5,0,0
60977,-100,4,2,2,80,0,0
61293,-90.9090909090909,4,2,2,80,0,0
61608,-76.9230769230769,4,2,2,80,0,0
62556,-90.9090909090909,4,2,2,80,0,0
63187,-71.4285714285714,4,2,2,80,0,0
63740,-166.666666666667,4,2,2,5,0,0
63819,-76.9230769230769,4,2,2,80,0,0
65082,-76.9230769230769,4,2,2,80,0,0
65714,-62.5,4,2,2,80,0,0
65951,-62.5,4,2,2,5,0,0
66030,-100,4,2,2,80,0,0
66345,-90.9090909090909,4,2,2,80,0,0
66977,-76.9230769230769,4,2,2,80,0,0
67214,-76.9230769230769,4,2,2,5,0,0
67293,-76.9230769230769,4,2,2,80,0,0
67608,-90.9090909090909,4,2,2,80,0,0
68240,-71.4285714285714,4,2,2,80,0,0
68793,-71.4285714285714,4,2,2,5,0,0
68872,-76.9230769230769,4,2,2,80,0,0
70135,-125,4,2,1,60,0,0
70766,-62.5,4,2,2,85,0,0
71003,-62.5,4,2,2,5,0,0
71082,-100,4,2,2,85,0,0
71398,-90.9090909090909,4,2,2,85,0,0
71714,-76.9230769230769,4,2,2,85,0,0
72661,-90.9090909090909,4,2,2,85,0,0
73293,-71.4285714285714,4,2,2,85,0,0
73845,-71.4285714285714,4,2,2,5,0,0
73924,-76.9230769230769,4,2,2,85,0,0
75819,-62.5,4,2,2,85,0,0
76056,-62.5,4,2,2,5,0,0
76135,-100,4,2,2,85,0,0
76451,-76.9230769230769,4,2,2,85,0,0
78345,-90.9090909090909,4,2,1,50,0,0
80240,-90.9090909090909,4,2,1,55,0,0
80556,-90.9090909090909,4,2,1,60,0,0
80872,-71.4285714285714,4,2,1,70,0,0
81740,-71.4285714285714,4,2,1,5,0,0
81819,-90.9090909090909,4,2,1,70,0,0
82372,-90.9090909090909,4,2,1,5,0,0
82451,-90.9090909090909,4,2,1,70,0,0
82766,-76.9230769230769,4,2,1,70,0,0
83003,-76.9230769230769,4,2,1,5,0,0
83082,-76.9230769230769,4,2,1,70,0,0
83319,-76.9230769230769,4,2,1,5,0,0
83398,-71.4285714285714,4,2,1,70,0,0
84345,-90.9090909090909,4,2,1,70,0,0
84661,-76.9230769230769,4,2,1,70,0,0
84898,-76.9230769230769,4,2,1,5,0,0
84977,-76.9230769230769,4,2,1,70,0,0
85293,-90.9090909090909,4,2,1,70,0,0
85845,-90.9090909090909,4,2,1,5,0,0
85924,-71.4285714285714,4,2,1,70,0,0
86793,-71.4285714285714,4,2,1,5,0,0
86872,-90.9090909090909,4,2,1,70,0,0
87187,-76.9230769230769,4,2,1,70,0,0
87424,-76.9230769230769,4,2,1,5,0,0
87503,-76.9230769230769,4,2,1,70,0,0
87819,-100,4,2,1,70,0,0
88372,-100,4,2,1,5,0,0
88451,-71.4285714285714,4,2,1,70,0,0
89398,-76.9230769230769,4,2,1,70,0,0
89714,-83.3333333333333,4,2,1,70,0,0
90030,-66.6666666666667,4,2,1,70,0,0
90345,-100,4,2,1,60,0,0
90977,-71.4285714285714,4,2,1,70,0,0
91845,-71.4285714285714,4,2,1,5,0,0
91924,-90.9090909090909,4,2,1,70,0,0
92477,-90.9090909090909,4,2,1,5,0,0
92556,-90.9090909090909,4,2,1,70,0,0
92872,-76.9230769230769,4,2,1,70,0,0
93108,-76.9230769230769,4,2,1,5,0,0
93187,-76.9230769230769,4,2,1,70,0,0
93424,-76.9230769230769,4,2,1,5,0,0
93503,-71.4285714285714,4,2,1,70,0,0
94451,-76.9230769230769,4,2,1,70,0,0
95003,-76.9230769230769,4,2,1,5,0,0
95082,-76.9230769230769,4,2,1,70,0,0
95398,-90.9090909090909,4,2,1,70,0,0
95951,-90.9090909090909,4,2,1,5,0,0
96030,-71.4285714285714,4,2,1,70,0,0
96898,-71.4285714285714,4,2,1,5,0,0
96977,-90.9090909090909,4,2,1,70,0,0
97293,-76.9230769230769,4,2,1,70,0,0
97530,-76.9230769230769,4,2,1,5,0,0
97608,-76.9230769230769,4,2,1,70,0,0
97924,-100,4,2,1,70,0,0
98477,-100,4,2,1,5,0,0
98556,-100,4,2,1,50,0,0
100451,-125,4,2,1,55,0,0
100766,-125,4,2,1,60,0,0
101003,-125,4,2,1,5,0,0
101082,-100,4,2,1,60,0,0
102030,-83.3333333333333,4,2,1,60,0,0
102345,-100,4,2,1,60,0,0
102977,-83.3333333333333,4,2,1,60,0,0
103214,-83.3333333333333,4,2,1,5,0,0
103293,-83.3333333333333,4,2,1,60,0,0
103608,-100,4,2,1,60,0,0
104477,-100,4,2,1,5,0,0
104556,-83.3333333333333,4,2,1,60,0,0
104872,-100,4,2,1,60,0,0
105503,-83.3333333333333,4,2,1,60,0,0
106135,-100,4,2,1,60,0,0
107082,-83.3333333333333,4,2,1,60,0,0
107398,-100,4,2,1,60,0,0
108661,-100,4,2,1,60,0,0
110556,-333.333333333336,4,2,1,60,0,0
110595,-333.333333333336,4,2,1,10,0,0
111108,-333.333333333336,4,2,1,5,0,0
111187,-125,4,2,1,50,0,0
112451,-100,4,2,1,50,0,0
113714,-125,4,2,1,50,0,0
114661,-100,4,2,1,50,0,0
115924,-100,4,2,1,50,0,0
116161,-100,4,2,1,5,0,0
116240,-125,4,2,1,50,0,0
117503,-100,4,2,1,50,0,0
118766,-125,4,2,1,50,0,0
120030,-100,4,2,1,50,0,0
120661,-333.333333333333,4,2,1,60,0,0
121214,-333.333333333333,4,2,1,5,0,0
121293,-166.666666666667,4,2,1,40,0,0
123819,309.278350515464,4,2,1,40,1,0
123819,-166.666666666667,4,2,1,40,0,0
126293,307.692307692308,4,2,1,40,1,0
126293,-166.666666666667,4,2,1,40,0,0
128754,306.122448979592,4,2,1,40,1,0
128754,-166.666666666667,4,2,1,40,0,0
131202,300,4,2,1,50,1,0
131202,-125,4,2,1,50,0,0
132027,-125,4,2,1,5,0,0
132102,-125,4,2,1,50,0,0
133602,298.507462686567,4,2,1,50,1,0
133602,-125,4,2,1,50,0,0
134422,-125,4,2,1,5,0,0
134497,-125,4,2,1,50,0,0
135986,297.029702970297,4,2,1,60,1,0
138362,294.117647058824,4,2,1,60,1,0
138362,-125,4,2,1,60,0,0
139538,-90.9090909090909,4,2,1,60,0,0
140126,-125,4,2,1,40,0,0
140420,-166.666666666667,4,2,1,40,0,0
140457,-166.666666666667,4,2,1,10,0,0
140712,294.117647058824,4,2,1,60,1,0
140712,-55.5555555555556,4,2,2,80,0,0
140932,-55.5555555555556,4,2,2,5,0,0
141006,-71.4285714285714,4,2,2,80,0,0
141300,-83.3333333333333,4,2,2,80,0,0
142476,-62.5,4,2,2,80,0,0
142697,-62.5,4,2,2,5,0,0
142770,-83.3333333333333,4,2,2,80,0,0
144829,-62.5,4,2,2,80,0,0
145050,-62.5,4,2,2,5,0,0
145123,-50,4,2,2,80,0,0
145417,-55.5555555555556,4,2,2,80,0,0
145638,-55.5555555555556,4,2,2,5,0,0
145712,-71.4285714285714,4,2,2,80,0,0
146006,-83.3333333333333,4,2,2,80,0,0
146594,-71.4285714285714,4,2,2,80,0,0
146888,-83.3333333333333,4,2,2,80,0,0
149535,-62.5,4,2,2,60,0,0
149756,-62.5,4,2,2,5,0,0
149829,-125,4,2,2,60,0,0
150123,-55.5555555555556,4,2,2,80,0,0
150712,-83.3333333333333,4,2,2,80,0,0
151888,-62.5,4,2,2,80,0,0
152109,-62.5,4,2,2,5,0,0
152182,-83.3333333333333,4,2,2,80,0,0
154241,-62.5,4,2,2,80,0,0
154462,-62.5,4,2,2,5,0,0
154535,-50,4,2,2,80,0,0
154829,-55.5555555555556,4,2,2,80,0,0
155050,-55.5555555555556,4,2,2,5,0,0
155123,-71.4285714285714,4,2,2,80,0,0
155417,-83.3333333333333,4,2,2,80,0,0
156006,-71.4285714285714,4,2,2,80,0,0
156300,-83.3333333333333,4,2,2,80,0,0
157182,-83.3333333333333,4,2,1,60,0,0
158947,-83.3333333333333,4,2,1,65,0,0
159241,-83.3333333333333,4,2,1,70,0,0
159535,-71.4285714285714,4,2,1,70,0,0
160344,-71.4285714285714,4,2,1,5,0,0
160417,-90.9090909090909,4,2,1,70,0,0
160712,-90.9090909090909,4,2,1,70,0,0
160932,-90.9090909090909,4,2,1,5,0,0
161006,-90.9090909090909,4,2,1,70,0,0
161300,-76.9230769230769,4,2,1,70,0,0
161520,-76.9230769230769,4,2,1,5,0,0
161594,-76.9230769230769,4,2,1,70,0,0
161814,-76.9230769230769,4,2,1,5,0,0
161888,-90.9090909090909,4,2,1,70,0,0
163064,-76.9230769230769,4,2,1,70,0,0
163285,-76.9230769230769,4,2,1,5,0,0
163359,-90.9090909090909,4,2,1,70,0,0
164167,-90.9090909090909,4,2,1,5,0,0
164241,-71.4285714285714,4,2,1,70,0,0
165050,-71.4285714285714,4,2,1,5,0,0
165123,-90.9090909090909,4,2,1,70,0,0
165417,-76.9230769230769,4,2,1,70,0,0
165638,-76.9230769230769,4,2,1,5,0,0
165712,-76.9230769230769,4,2,1,70,0,0
166006,-100,4,2,1,70,0,0
166226,-100,4,2,1,5,0,0
166300,-125,4,2,1,70,0,0
166520,-125,4,2,1,5,0,0
166594,-166.666666666667,4,2,1,50,0,0
168359,-83.3333333333333,4,2,1,55,0,0
168579,-83.3333333333333,4,2,1,5,0,0
168653,-83.3333333333333,4,2,1,60,0,0
168873,-83.3333333333333,4,2,1,5,0,0
168947,-66.6666666666667,4,2,1,70,0,0
169756,-66.6666666666667,4,2,1,5,0,0
169829,-83.3333333333333,4,2,1,70,0,0
170344,-83.3333333333333,4,2,1,5,0,0
170417,-83.3333333333333,4,2,1,70,0,0
170712,-71.4285714285714,4,2,1,70,0,0
170932,-71.4285714285714,4,2,1,5,0,0
171006,-71.4285714285714,4,2,1,70,0,0
171226,-71.4285714285714,4,2,1,5,0,0
171300,-83.3333333333333,4,2,1,70,0,0
172476,-71.4285714285714,4,2,1,70,0,0
172697,-71.4285714285714,4,2,1,5,0,0
172770,-83.3333333333333,4,2,1,70,0,0
173579,-83.3333333333333,4,2,1,5,0,0
173653,-66.6666666666667,4,2,1,70,0,0
174241,-83.3333333333333,4,2,1,70,0,0
175417,-83.3333333333333,4,2,1,70,0,0
175638,-83.3333333333333,4,2,1,5,0,0
175712,-100,4,2,1,70,0,0
175932,-100,4,2,1,5,0,0
176006,-100,4,2,1,50,0,0
177770,-125,4,2,1,55,0,0
178064,-125,4,2,1,60,0,0
178285,-125,4,2,1,5,0,0
178359,588.235294117647,4,2,1,60,1,0
178359,-125,4,2,1,30,0,0
187182,-83.3333333333333,4,2,1,40,0,0
187476,-62.5,4,2,1,50,0,0
187770,294.117647058824,4,2,1,60,1,0
187770,-100,4,2,1,60,0,0
189534,-90.9090909090909,4,2,1,60,0,0
189755,-90.9090909090909,4,2,1,5,0,0
189828,-76.9230769230769,4,2,1,60,0,0
190049,-76.9230769230769,4,2,1,5,0,0
190123,-100,4,2,1,60,0,0
191888,-90.9090909090909,4,2,1,60,0,0
192108,-90.9090909090909,4,2,1,5,0,0
192182,-76.9230769230769,4,2,1,60,0,0
192402,-76.9230769230769,4,2,1,5,0,0
192476,-100,4,2,1,60,0,0
196006,-100,4,2,1,40,0,0
196594,-125,4,2,1,40,0,0
197108,-125,4,2,1,5,0,0
197181,-100,4,2,1,50,0,0
197402,-100,4,2,1,5,0,0
197475,-100,4,2,1,50,0,0
201814,-100,4,2,1,5,0,0
201888,-90.9090909090909,4,2,1,60,0,0
203064,-83.3333333333333,4,2,1,60,0,0
204240,-76.9230769230769,4,2,1,65,0,0
204461,-76.9230769230769,4,2,1,5,0,0
204534,-76.9230769230769,4,2,1,65,0,0
204902,-76.9230769230769,4,2,1,5,0,0
204975,-76.9230769230769,4,2,1,65,0,0
205417,-71.4285714285714,4,2,1,70,0,0
206006,-125,4,2,1,60,0,0
206594,-83.3333333333333,4,2,1,80,0,0
211225,-83.3333333333333,4,2,1,5,0,0
211299,-83.3333333333333,4,2,1,80,0,0
214828,-100,4,2,1,80,0,0
216005,-83.3333333333333,4,2,1,80,0,0
218358,-90.9090909090909,4,2,1,75,0,0
218946,-99.9999999999999,4,2,1,70,0,0
219534,-111.111111111111,4,2,1,65,0,0
220122,-125,4,2,1,60,0,0
220711,-125,4,2,1,60,0,0
221299,-111.111111111111,4,2,1,65,0,0
221887,-100,4,2,1,70,0,0
222475,-90.9090909090909,4,2,1,75,0,0
223064,-83.3333333333333,4,2,1,80,0,0
223652,-76.9230769230769,4,2,1,85,0,0
223946,-71.4285714285714,4,2,1,90,0,0
224240,-100,4,2,1,60,0,0
225417,-76.9230769230769,4,2,1,70,0,0
225637,-76.9230769230769,4,2,1,5,0,0
225711,-76.9230769230769,4,2,1,70,0,0
225931,-76.9230769230769,4,2,1,5,0,0
226005,-76.9230769230769,4,2,1,70,0,0
226225,-76.9230769230769,4,2,1,5,0,0
226299,-100,4,2,1,70,0,0
226814,-100,4,2,1,5,0,0
226887,-100,4,2,1,70,0,0
227402,-100,4,2,1,5,0,0
227475,-100,4,2,1,70,0,0
227770,-76.9230769230769,4,2,1,70,0,0
227990,-76.9230769230769,4,2,1,5,0,0
228064,-76.9230769230769,4,2,1,70,0,0
228284,-76.9230769230769,4,2,1,5,0,0
228358,-76.9230769230769,4,2,1,70,0,0
228578,-76.9230769230769,4,2,1,5,0,0
228652,-100,4,2,1,70,0,0
228946,-83.3333333333333,4,2,1,70,0,0
229167,-83.3333333333333,4,2,1,5,0,0
229240,-83.3333333333333,4,2,1,70,0,0
229534,-100,4,2,1,70,0,0
230122,-76.9230769230769,4,2,1,70,0,0
230343,-76.9230769230769,4,2,1,5,0,0
230417,-76.9230769230769,4,2,1,70,0,0
230637,-76.9230769230769,4,2,1,5,0,0
230711,-76.9230769230769,4,2,1,70,0,0
230931,-76.9230769230769,4,2,1,5,0,0
231005,-100,4,2,1,70,0,0
231520,-100,4,2,1,5,0,0
231593,-100,4,2,1,70,0,0
232475,-76.9230769230769,4,2,1,70,0,0
232696,-76.9230769230769,4,2,1,5,0,0
232770,-76.9230769230769,4,2,1,70,0,0
232990,-76.9230769230769,4,2,1,5,0,0
233064,-76.9230769230769,4,2,1,70,0,0
233284,-76.9230769230769,4,2,1,5,0,0
233358,-76.9230769230769,4,2,1,70,0,0
233652,-100,4,2,1,60,0,0
234828,-76.9230769230769,4,2,1,70,0,0
235343,-76.9230769230769,4,2,1,5,0,0
235417,-76.9230769230769,4,2,1,70,0,0
235637,-76.9230769230769,4,2,1,5,0,0
235711,-100,4,2,1,70,0,0
236225,-100,4,2,1,5,0,0
236299,-100,4,2,1,70,0,0
236814,-100,4,2,1,5,0,0
236887,-100,4,2,1,70,0,0
237181,-76.9230769230769,4,2,1,70,0,0
237402,-76.9230769230769,4,2,1,5,0,0
237475,-76.9230769230769,4,2,1,70,0,0
237696,-76.9230769230769,4,2,1,5,0,0
237770,-76.9230769230769,4,2,1,70,0,0
237990,-76.9230769230769,4,2,1,5,0,0
238064,-100,4,2,1,70,0,0
238358,-83.3333333333333,4,2,1,70,0,0
238578,-83.3333333333333,4,2,1,5,0,0
238652,-83.3333333333333,4,2,1,70,0,0
238946,-100,4,2,1,70,0,0
239534,-76.9230769230769,4,2,1,70,0,0
239755,-76.9230769230769,4,2,1,5,0,0
239828,-76.9230769230769,4,2,1,70,0,0
240049,-76.9230769230769,4,2,1,5,0,0
240122,-76.9230769230769,4,2,1,70,0,0
240343,-76.9230769230769,4,2,1,5,0,0
240417,-100,4,2,1,70,0,0
240931,-100,4,2,1,5,0,0
241005,-100,4,2,1,70,0,0
241887,-76.9230769230769,4,2,1,70,0,0
242108,-76.9230769230769,4,2,1,5,0,0
242181,-76.9230769230769,4,2,1,70,0,0
242402,-76.9230769230769,4,2,1,5,0,0
242475,-76.9230769230769,4,2,1,70,0,0
242696,-76.9230769230769,4,2,1,5,0,0
242770,-76.9230769230769,4,2,1,70,0,0
243064,-100,4,2,1,60,0,0
243284,-100,4,2,1,5,0,0
243358,-100,4,2,1,60,0,0
244240,-83.3333333333333,4,2,1,80,0,1
245417,-66.6666666666667,4,2,1,80,0,1
246225,-66.6666666666667,4,2,1,5,0,1
246299,-66.6666666666667,4,2,1,80,0,1
246520,-66.6666666666667,4,2,1,5,0,1
246593,-83.3333333333333,4,2,1,80,0,1
247770,-66.6666666666667,4,2,1,80,0,1
247990,-66.6666666666667,4,2,1,5,0,1
248064,-66.6666666666667,4,2,1,80,0,1
248872,-66.6666666666667,4,2,1,5,0,1
248946,-83.3333333333333,4,2,1,80,0,1
250122,-66.6666666666667,4,2,1,80,0,1
250343,-66.6666666666667,4,2,1,5,0,1
250417,-66.6666666666667,4,2,1,80,0,1
250711,-76.9230769230769,4,2,1,80,0,1
251299,-83.3333333333333,4,2,1,80,0,1
252475,-100,4,2,1,60,0,0
253652,-83.3333333333333,4,2,1,85,0,1
254828,-66.6666666666667,4,2,1,85,0,1
255049,-66.6666666666667,4,2,1,5,0,1
255122,-66.6666666666667,4,2,1,85,0,1
255637,-66.6666666666667,4,2,1,5,0,1
255711,-66.6666666666667,4,2,1,85,0,1
256005,-83.3333333333333,4,2,1,85,0,1
257181,-66.6666666666667,4,2,1,85,0,1
257402,-66.6666666666667,4,2,1,5,0,1
257475,-66.6666666666667,4,2,1,85,0,1
258358,-83.3333333333333,4,2,1,85,0,1
259534,-66.6666666666667,4,2,1,85,0,1
259755,-66.6666666666667,4,2,1,5,0,1
259828,-66.6666666666667,4,2,1,85,0,1
260711,-83.3333333333333,4,2,1,85,0,1
261887,-100,4,2,1,70,0,0
262475,-125,4,2,1,70,0,0
262990,-125,4,2,1,10,0,0
263064,-90.9090909090909,4,2,1,80,0,1
264828,-76.9230769230769,4,2,1,80,0,1
265049,-76.9230769230769,4,2,1,5,0,1
265122,-76.9230769230769,4,2,1,80,0,1
265343,-76.9230769230769,4,2,1,5,0,1
265417,-90.9090909090909,4,2,1,80,0,1
267181,-76.9230769230769,4,2,1,80,0,1
267696,-76.9230769230769,4,2,1,5,0,1
267770,-90.9090909090909,4,2,1,80,0,1
269534,-76.9230769230769,4,2,1,80,0,1
269755,-76.9230769230769,4,2,1,5,0,1
269828,-76.9230769230769,4,2,1,80,0,1
270049,-76.9230769230769,4,2,1,5,0,1
270122,-90.9090909090909,4,2,1,80,0,1
271299,-125,4,2,1,60,0,0
272475,-90.9090909090909,4,2,1,85,0,1
274240,-83.3333333333333,4,2,1,85,0,1
274534,-71.4285714285714,4,2,1,85,0,1
274828,-90.9090909090909,4,2,1,85,0,1
276593,-83.3333333333333,4,2,1,85,0,1
276887,-71.4285714285714,4,2,1,85,0,1
277181,-90.9090909090909,4,2,1,85,0,1
280711,-100,4,2,1,60,0,0
281887,-125,4,2,1,60,0,0
283284,-125,4,2,1,5,0,0
283358,-125,4,2,1,60,0,0
283578,-125,4,2,1,5,0,0
283652,-100,4,2,1,60,0,0
283872,-100,4,2,1,5,0,0
283946,-100,4,2,1,60,0,0
284167,-100,4,2,1,5,0,0
284240,-125,4,2,1,60,0,0
285637,-125,4,2,1,5,0,0
285711,-125,4,2,1,60,0,0
285931,-125,4,2,1,5,0,0
286005,-100,4,2,1,60,0,0
286225,-100,4,2,1,5,0,0
286299,-100,4,2,1,60,0,0
286593,-142.857142857143,4,2,1,60,0,0
287990,-142.857142857143,4,2,1,5,0,0
288064,-142.857142857143,4,2,1,60,0,0
288284,-142.857142857143,4,2,1,5,0,0
288358,-111.111111111111,4,2,1,60,0,0
288578,-111.111111111111,4,2,1,5,0,0
288652,-111.111111111111,4,2,1,60,0,0
288946,-166.666666666667,4,2,1,50,0,0
289975,-166.666666666667,4,2,1,40,0,0
291299,-166.666666666667,4,2,1,40,0,0
293284,-166.666666666667,4,2,1,5,0,0
293358,-166.666666666667,4,2,1,40,0,0
293578,-166.666666666667,4,2,1,5,0,0
293652,-166.666666666667,4,2,1,40,0,0
294828,-166.666666666667,4,2,1,45,0,0
295417,-166.666666666667,4,2,1,50,0,0
296005,-166.666666666667,4,2,1,55,0,0
300711,-166.666666666667,4,2,1,30,0,0

[Colours]
Combo1 : 193,0,193
Combo2 : 0,130,84
Combo3 : 119,60,60
Combo4 : 170,0,0
Combo5 : 221,111,0
Combo6 : 159,0,80

[HitObjects]
102,212,30,6,0,B|134:190|143:140|143:140|144:207|178:251,1,197.99999395752,8|0,0:3|0:0,0:0:0:0:
93,299,345,1,8,0:2:0:0:
93,299,661,5,8,0:3:0:0:
143,141,819,1,0,0:0:0:0:
265,248,977,1,8,0:2:0:0:
222,89,1135,5,0,0:0:0:0:
222,89,1214,1,0,0:0:0:0:
222,89,1293,2,0,P|249:103|287:112,1,65.9999979858399,8|0,0:3|0:0,0:0:0:0:
420,106,1608,2,0,P|393:122|367:151,1,65.9999979858399,8|0,0:2|0:0,0:0:0:0:
278,218,1845,5,0,0:0:0:0:
278,218,1924,2,0,L|279:234,2,16.49999949646,8|0|0,0:3|0:0|0:0,0:0:0:0:
222,89,2082,2,0,L|223:72,2,16.49999949646,8|0|0,0:3|0:0|0:0,0:0:0:0:
175,247,2240,1,8,0:2:0:0:
175,247,2556,6,0,L|173:263,4,16.49999949646,8|0|0|0|0,0:3|0:0|0:0|0:0|0:0,0:0:0:0:
106,142,2872,1,8,0:2:0:0:
278,218,3030,1,0,0:0:0:0:
281,65,3187,6,0,P|252:81|220:88,1,65.9999979858399,8|0,0:3|0:0,0:0:0:0:
102,51,3503,1,8,0:2:0:0:
32,215,3661,1,0,0:0:0:0:
32,215,3740,1,0,0:0:0:0:
32,215,3819,2,0,P|28:165|9:120,1,98.9999969787599,8|0,0:3|0:0,0:0:0:0:
0,98,4135,1,8,0:2:0:0:
121,198,4293,5,0,0:0:0:0:
136,197,4372,1,0,0:0:0:0:
152,196,4451,2,0,L|179:193,2,16.49999949646,8|0|0,0:3|0:0|0:0,0:0:0:0:
28,297,4608,2,0,L|0:294,2,16.49999949646,8|0|0,0:3|0:0|0:0,0:0:0:0:
232,355,4766,5,8,0:2:0:0:
232,354,5082,6,0,P|248:308|246:259,1,98.9999969787599,8|0,0:3|0:0,0:0:0:0:
243,182,5398,2,0,P|275:219|318:242,1,98.9999969787599,8|0,0:2|0:0,0:0:0:0:
418,290,5714,6,0,L|409:191,1,98.9999969787599,8|0,0:3|0:0,0:0:0:0:
377,163,6030,2,0,L|385:64,1,98.9999969787599,8|0,0:2|0:0,0:0:0:0:
285,70,6345,5,8,0:3:0:0:
243,182,6503,1,0,0:0:0:0:
125,84,6661,2,0,P|155:70|188:66,1,65.9999979858399,8|0,0:2|0:0,0:0:0:0:
243,182,6898,1,0,0:0:0:0:
243,182,6977,2,0,L|245:210,2,16.49999949646,8|0|0,0:3|0:0|0:0,0:0:0:0:
100,120,7135,2,0,L|101:103,2,16.49999949646,8|0|0,0:3|0:0|0:0,0:0:0:0:
166,284,7293,5,8,0:2:0:0:
166,284,7608,6,0,L|167:300,4,16.49999949646,8|0|0|0|0,0:3|0:0|0:0|0:0|0:0,0:0:0:0:
43,223,7924,1,8,0:2:0:0:
16,367,8082,1,0,0:0:0:0:
196,204,8240,2,0,P|163:201|130:207,1,65.9999979858399,8|0,0:3|0:0,0:0:0:0:
137,370,8556,2,0,P|169:373|202:367,1,65.9999979858399,8|0,0:2|0:0,0:0:0:0:
371,379,8793,5,0,0:0:0:0:
371,379,8872,2,0,B|366:330|366:330|373:317|373:317|367:249,1,132,8|0,0:3|0:0,0:0:0:0:
443,124,9187,6,0,P|422:132|401:135,1,44,0|0,0:0|0:0,0:0:0:0:
295,188,9345,2,0,P|277:174|263:157,1,44,0|0,0:0|0:0,0:0:0:0:
324,56,9503,1,8,0:2:0:0:
367,249,9661,1,0,0:0:0:0:
131,200,9819,6,0,L|174:196,1,44,0|0,0:0|0:0,0:0:0:0:
295,188,9977,1,8,0:3:0:0:
37,249,10135,6,0,L|46:139,1,110,8|0,0:3|0:0,0:0:0:0:
259,104,10451,1,8,0:3:0:0:
261,130,10530,1,0,0:0:0:0:
263,157,10608,1,0,0:0:0:0:
132,87,10766,2,0,L|136:32,2,55,8|0|0,0:3|0:0|0:0,0:0:0:0:
131,200,11082,6,0,L|185:195,1,55,8|0,0:3|0:0,0:0:0:0:
313,108,11240,2,0,L|259:104,1,55
132,87,11398,1,8,0:3:0:0:
272,196,11556,6,0,L|276:250,1,55
116,346,11714,2,0,L|120:291,1,55,8|0,0:3|0:0,0:0:0:0:
131,200,11872,1,0,0:0:0:0:
283,335,12030,6,0,L|310:337,2,27.5,8|0|0,0:3|0:0|0:0,0:0:0:0:
379,285,12187,2,0,L|406:282,2,27.5,8|0|0,0:3|0:0|0:0,0:0:0:0:
202,303,12345,1,8,0:3:0:0:
389,376,12503,1,0,0:0:0:0:
272,196,12661,6,0,L|269:168,4,27.5,8|0|0|0|0,0:3|0:0|0:0|0:0|0:0,0:0:0:0:
408,84,12977,5,8,0:3:0:0:
380,81,13056,1,0,0:0:0:0:
352,79,13135,1,0,0:0:0:0:
448,183,13293,2,0,L|502:178,2,55,8|0|0,0:3|0:0|0:0,0:0:0:0:
272,196,13608,6,0,L|267:141,1,55,8|0,0:3|0:0,0:0:0:0:
151,20,13766,2,0,L|146:74,1,55,0|0,0:0|0:0,0:0:0:0:
131,200,13924,1,8,0:3:0:0:
12,124,14082,6,0,L|70:129,1,55,0|0,0:0|0:0,0:0:0:0:
165,279,14240,2,0,L|106:284,1,55,8|0,0:3|0:0,0:0:0:0:
0,298,14398,1,0,0:0:0:0:
269,223,14556,6,0,L|271:195,2,27.5,8|0|0,0:3|0:0|0:0,0:0:0:0:
346,312,14714,2,0,L|348:339,2,27.5,8|0|0,0:3|0:0|0:0,0:0:0:0:
165,279,14872,1,8,0:3:0:0:
368,218,15030,1,0,0:0:0:0:
140,355,15187,6,0,B|135:303|135:303|127:295|127:295|137:256|137:256|130:249|130:249|126:197,1,165,8|0,0:3|0:0,0:0:0:0:
59,61,15503,2,0,B|54:112|54:112|46:120|46:120|56:159|56:159|49:166|49:166|45:218,1,165,8|0,0:3|0:0,0:0:0:0:
141,113,15819,6,0,B|167:126|209:119|209:119|225:125|225:125|260:117|302:130,1,165,8|0,0:3|0:0,0:0:0:0:
400,200,16135,2,0,B|373:213|331:206|331:206|315:212|315:212|280:204|238:217,1,165,8|0,0:3|0:0,0:0:0:0:
139,333,16451,5,8,0:3:0:0:
166,196,16608,1,0,0:0:0:0:
279,302,16766,2,0,L|333:297,2,55,8|0|0,0:3|0:0|0:0,0:0:0:0:
48,243,17082,6,0,L|45:215,2,27.5,8|0|0,0:3|0:0|0:0,0:0:0:0:
141,113,17240,2,0,L|152:88,2,27.5,8|0|0,0:3|0:0|0:0,0:0:0:0:
190,270,17398,1,8,0:3:0:0:
58,130,17556,1,0,0:0:0:0:
48,243,17714,5,8,0:3:0:0:
141,113,17872,1,0,0:0:0:0:
108,312,18030,1,8,0:3:0:0:
58,130,18187,1,0,0:0:0:0:
190,270,18345,5,8,0:3:0:0:
308,170,18503,1,0,0:0:0:0:
123,205,18661,1,8,0:3:0:0:
291,270,18819,1,0,0:0:0:0:
249,71,18977,5,8,0:3:0:0:
229,205,19135,6,0,P|221:178|223:151,1,55,8|0,0:3|0:0,0:0:0:0:
133,0,19293,2,0,P|159:6|181:22,1,55,8|0,0:3|0:0,0:0:0:0:
373,50,19451,2,0,P|353:69|329:81,1,55,8|0,0:3|0:0,0:0:0:0:
123,205,19608,6,0,B|48:155|91:67|91:67|137:109,1,220,8|8,0:0|0:3,0:0:0:0:
174,290,20082,1,8,0:3:0:0:
371,193,20240,6,0,L|316:197,1,55,8|0,0:3|0:0,0:0:0:0:
229,205,20398,1,0,0:0:0:0:
300,119,20556,1,8,0:0:0:0:
370,282,20714,6,0,L|424:286,1,55
512,294,20872,1,8,0:3:0:0:
355,371,21030,1,0,0:0:0:0:
371,193,21187,1,8,0:0:0:0:
512,313,21345,1,0,0:0:0:0:
269,360,21503,6,0,B|273:306|273:306|283:293|283:293|292:199,1,165,8|0,0:3|0:0,0:0:0:0:
300,119,21819,1,8,0:0:0:0:
364,286,21977,1,0,0:0:0:0:
213,167,22135,1,8,0:3:0:0:
398,194,22293,1,0,0:0:0:0:
202,264,22451,1,8,0:0:0:0:
300,119,22608,1,0,0:0:0:0:
111,182,22766,6,0,L|115:236,1,55,8|0,0:3|0:0,0:0:0:0:
126,317,22924,1,0,0:0:0:0:
30,207,23082,1,8,0:0:0:0:
202,264,23240,6,0,L|206:209,1,55
217,129,23398,1,8,0:3:0:0:
284,292,23556,1,0,0:0:0:0:
452,189,23714,5,8,0:0:0:0:
284,292,23872,1,0,0:0:0:0:
469,369,24030,6,0,B|472:334|472:334|468:322|468:322|474:254|474:254|470:242|470:242|473:205,1,165,8|0,0:3|0:0,0:0:0:0:
418,45,24345,1,8,0:0:0:0:
321,210,24503,1,0,0:0:0:0:
212,74,24661,6,0,L|216:128,1,55,8|0,0:3|0:0,0:0:0:0:
325,155,24819,2,0,L|320:209,1,55,8|0,0:3|0:0,0:0:0:0:
235,299,24977,6,0,B|227:343|272:365|272:365|307:328|282:291,1,165,8|0,0:0|0:0,0:0:0:0:
164,195,25293,6,0,L|109:199,1,55,8|0,0:3|0:0,0:0:0:0:
1,209,25451,1,0,0:0:0:0:
92,286,25608,1,8,0:0:0:0:
54,114,25766,6,0,L|108:118,1,55,0|0,0:0|0:0,0:0:0:0:
216,128,25924,1,8,0:3:0:0:
140,36,26081,1,0,0:0:0:0:
164,195,26240,5,8,0:0:0:0:
286,42,26398,1,0,0:0:0:0:
399,198,26556,6,0,L|289:207,1,110,8|0,0:3|0:0,0:0:0:0:
435,291,26872,1,8,0:0:0:0:
450,292,26951,1,0,0:0:0:0:
466,293,27030,1,0,0:0:0:0:
277,345,27187,6,0,B|232:341|232:341|219:348|219:348|185:331|185:331|173:335|173:335|112:330,1,165,8|0,0:3|0:0,0:0:0:0:
37,264,27503,2,0,B|14:316|14:316|26:367,1,110,8|0,0:0|0:0,0:0:0:0:
229,251,27819,6,0,L|219:141,1,110,8|0,0:3|0:0,0:0:0:0:
127,195,28135,1,8,0:0:0:0:
211,61,28293,1,0,0:0:0:0:
317,179,28451,1,8,0:3:0:0:
210,41,28608,1,0,0:0:0:0:
229,251,28766,1,8,0:0:0:0:
322,62,28924,5,0,0:0:0:0:
322,62,29003,1,0,0:0:0:0:
322,62,29082,2,0,P|391:88|464:100,1,148.49999546814,8|0,0:3|0:0,0:0:0:0:
317,179,29398,1,8,0:0:0:0:
512,198,29556,5,0,0:0:0:0:
512,198,29635,1,0,0:0:0:0:
512,198,29714,2,0,P|461:197|399:223,1,98.9999969787599,0|0,0:0|0:0,0:0:0:0:
365,304,29951,1,0,0:0:0:0:
365,304,30030,2,0,B|317:299|317:299|297:305|297:305|278:296|278:296|217:291,1,148.49999546814,8|0,0:3|0:0,0:0:0:0:
34,343,30345,6,0,L|39:282,1,60.5000018463135,10|0,0:3|0:0,0:0:0:0:
50,182,30503,1,0,0:0:0:0:
130,319,30661,1,8,0:0:0:0:
235,130,30819,6,0,L|229:190,1,60.5000018463135,2|0,0:0|0:0,0:0:0:0:
219,291,30977,1,8,0:3:0:0:
139,154,31135,1,0,0:0:0:0:
34,343,31293,5,10,0:0:0:0:
77,102,31451,1,2,0:0:0:0:
219,291,31608,6,0,B|262:287|262:287|291:265|291:265|311:275|311:275|390:268,1,181.500005538941,10|0,0:3|0:0,0:0:0:0:
370,145,31924,1,10,0:0:0:0:
306,361,32082,1,2,0:0:0:0:
229,190,32240,6,0,B|187:186|187:186|172:190|172:190|109:184,1,121.000003692627,10|0,0:3|0:0,0:0:0:0:
9,96,32477,1,0,0:0:0:0:
27,98,32556,2,0,B|68:101|68:101|83:97|83:97|146:103,1,121.000003692627,10|0,0:0|0:0,0:0:0:0:
10,360,32872,6,0,L|15:299,1,60.5000018463135,10|0,0:3|0:0,0:0:0:0:
26,182,33030,1,0,0:0:0:0:
95,332,33187,1,8,0:0:0:0:
229,190,33345,6,0,L|234:250,1,60.5000018463135,2|0,0:0|0:0,0:0:0:0:
245,368,33503,1,8,0:3:0:0:
314,218,33660,1,0,0:0:0:0:
95,332,33819,5,10,0:0:0:0:
305,304,33977,1,2,0:0:0:0:
124,222,34135,6,0,B|120:181|120:181|125:166|125:166|103:123|103:123|113:98|113:98|108:48,1,181.500005538941,10|0,0:3|0:0,0:0:0:0:
26,182,34451,1,10,0:0:0:0:
205,91,34608,1,2,0:0:0:0:
129,282,34766,6,0,L|123:221,1,60.5000018463135,10|0,0:3|0:0,0:0:0:0:
205,91,34924,2,0,L|199:151,1,60.5000018463135,10|0,0:3|0:0,0:0:0:0:
56,363,35082,6,0,B|98:359|98:359|128:370|128:370|159:360|159:360|233:353,1,181.500005538941,10|0,0:0|0:0,0:0:0:0:
451,329,35398,5,10,0:3:0:0:
305,304,35556,1,0,0:0:0:0:
416,242,35714,1,8,0:0:0:0:
383,384,35872,1,2,0:0:0:0:
332,207,36030,5,8,0:3:0:0:
500,261,36187,1,0,0:0:0:0:
305,304,36345,1,10,0:0:0:0:
438,167,36503,1,2,0:0:0:0:
472,347,36661,5,10,0:3:0:0:
315,202,36819,1,0,0:0:0:0:
500,261,36977,1,10,0:0:0:0:
305,304,37135,1,0,0:0:0:0:
383,79,37293,5,10,0:3:0:0:
500,261,37451,1,0,0:0:0:0:
462,38,37608,1,10,0:0:0:0:
416,242,37766,1,0,0:0:0:0:
259,89,37924,5,10,0:3:0:0:
501,143,38082,1,0,0:0:0:0:
315,202,38240,1,8,0:0:0:0:
352,0,38398,1,0,0:0:0:0:
416,242,38556,5,10,0:3:0:0:
469,17,38714,1,0,0:0:0:0:
232,173,38872,1,8,0:0:0:0:
478,144,39030,1,0,0:0:0:0:
284,310,39187,5,10,0:3:0:0:
333,19,39345,1,0,0:0:0:0:
444,319,39503,1,8,0:0:0:0:
403,62,39661,1,0,0:0:0:0:
208,255,39819,6,0,P|180:254|154:246,1,55,8|0,0:3|0:0,0:0:0:0:
77,303,39977,2,0,P|63:279|57:252,1,55,8|0,0:3|0:0,0:0:0:0:
0,142,40135,6,0,L|131:153,1,132,8|0,0:0|0:0,0:0:0:0:
298,299,40451,6,0,L|290:211,1,88,14|0,0:1|0:0,0:0:0:0:
233,132,40766,1,8,0:1:0:0:
410,149,40924,2,0,L|402:61,1,88,2|8,0:0|0:1,0:0:0:0:
402,61,41240,1,0,0:0:0:0:
378,228,41398,6,0,P|421:231|462:217,1,88,10|0,0:1|0:0,0:0:0:0:
500,138,41714,1,8,0:1:0:0:
324,40,41872,2,0,P|280:36|239:50,1,88,2|8,0:0|0:1,0:0:0:0:
239,50,42187,1,0,0:0:0:0:
144,194,42345,6,0,L|132:62,1,132,10|0,0:1|0:0,0:0:0:0:
128,33,42661,1,10,0:1:0:0:
37,130,42819,1,8,0:1:0:0:
136,281,42977,6,0,L|143:193,1,88,10|0,0:1|0:0,0:0:0:0:
45,323,43293,1,8,0:1:0:0:
227,239,43451,2,0,L|234:151,1,88,2|8,0:0|0:1,0:0:0:0:
136,281,43766,1,0,0:0:0:0:
318,197,43924,2,0,L|325:109,1,88,10|0,0:1|0:0,0:0:0:0:
227,239,44239,1,8,0:1:0:0:
409,155,44398,2,0,L|416:67,1,88,2|8,0:0|0:1,0:0:0:0:
318,197,44713,1,0,0:0:0:0:
502,298,44872,6,0,P|433:277|372:275,1,132,10|0,0:1|0:0,0:0:0:0:
351,283,45187,1,10,0:1:0:0:
409,155,45345,1,8,0:1:0:0:
139,231,45503,6,0,L|226:238,1,88,10|0,0:1|0:0,0:0:0:0:
318,197,45819,1,8,0:1:0:0:
194,138,45977,2,0,L|106:145,1,88,2|8,0:0|0:1,0:0:0:0:
106,145,46293,1,0,0:0:0:0:
284,107,46451,6,0,P|304:68|313:25,1,88,10|0,0:1|0:0,0:0:0:0:
420,34,46766,1,8,0:1:0:0:
409,155,46924,2,0,P|417:198|438:236,1,88,2|8,0:0|0:1,0:0:0:0:
438,236,47240,1,0,0:0:0:0:
284,107,47398,6,0,L|152:118,1,132,10|0,0:1|0:0,0:0:0:0:
118,123,47714,1,10,0:1:0:0:
205,29,47872,1,8,0:1:0:0:
191,197,48030,5,10,0:1:0:0:
119,36,48187,1,8,0:1:0:0:
0,154,48345,1,8,0:1:0:0:
212,194,48503,6,0,L|300:186,1,88,2|8,0:0|0:1,0:0:0:0:
368,124,48819,1,0,0:0:0:0:
455,256,48977,2,0,L|366:248,1,88,10|0,0:1|0:0,0:0:0:0:
299,186,49293,1,8,0:1:0:0:
211,318,49451,2,0,L|299:310,1,88,2|8,0:0|0:1,0:0:0:0:
367,248,49767,1,0,0:0:0:0:
244,87,49924,5,10,0:1:0:0:
209,242,50082,1,8,0:1:0:0:
121,163,50240,1,10,0:1:0:0:
306,150,50398,1,8,0:1:0:0:
100,253,50556,6,0,L|209:243,1,110,8|0,0:0|0:0,0:0:0:0:
306,150,50872,1,0,0:0:0:0:
296,280,51030,1,0,0:0:0:0:
471,229,51187,2,0,L|361:219,1,110,8|0,0:0|0:0,0:0:0:0:
211,149,51503,6,0,B|171:85|223:23|223:23|257:80,1,197.99999395752,0|0,0:0|0:0,0:0:0:0:
306,150,51819,1,8,0:0:0:0:
463,91,51977,1,0,0:0:0:0:
463,91,52056,1,0,0:0:0:0:
463,91,52135,2,0,L|457:154,1,55,0|0,0:0|0:0,0:0:0:0:
306,150,52293,2,0,L|311:213,1,55,0|0,0:0|0:0,0:0:0:0:
433,319,52451,1,8,0:0:0:0:
433,319,52766,6,0,L|487:323,2,55,0|0|0,0:0|0:0|0:0,0:0:0:0:
219,352,53082,6,0,L|209:242,1,110,8|0,0:0|0:0,0:0:0:0:
102,156,53319,5,0,0:0:0:0:
102,156,53398,2,0,B|135:142|168:161|168:161|195:147|195:147|244:165|299:156,1,197.99999395752,0|0,0:0|0:0,0:0:0:0:
422,145,53714,2,0,B|463:100|411:55|411:55|356:82|370:129,1,197.99999395752,8|0,0:0|0:0,0:0:0:0:
512,255,54030,6,0,B|450:249|450:249|433:240|433:240|406:253|406:253|388:244|388:244|322:238,1,197.99999395752,0|0,0:0|0:0,0:0:0:0:
219,352,54345,1,8,0:0:0:0:
44,268,54503,1,0,0:0:0:0:
44,268,54582,1,0,0:0:0:0:
44,268,54661,2,0,L|48:213,1,55,0|0,0:0|0:0,0:0:0:0:
204,187,54819,2,0,L|209:242,1,55,0|0,0:0|0:0,0:0:0:0:
123,362,54977,5,8,0:0:0:0:
123,362,55293,6,0,L|127:307,1,55,0|0,0:0|0:0,0:0:0:0:
209,242,55451,2,0,L|204:187,1,55,0|0,0:0|0:0,0:0:0:0:
47,98,55608,6,0,B|82:75|82:75|151:82,1,110,8|0,0:2|0:0,0:0:0:0:
350,98,55924,1,8,0:2:0:0:
204,187,56082,1,0,0:0:0:0:
254,16,56240,1,8,0:2:0:0:
315,205,56398,1,0,0:0:0:0:
484,120,56556,6,0,B|521:96|526:41|481:3|481:3|447:19|447:58,1,197.99999395752,8|0,0:2|0:0,0:0:0:0:
401,238,56872,6,0,L|410:347,1,110,8|0,0:2|0:0,0:0:0:0:
315,205,57108,1,0,0:0:0:0:
315,205,57187,1,8,0:2:0:0:
492,272,57345,1,0,0:0:0:0:
318,326,57503,1,8,0:2:0:0:
386,148,57661,1,0,0:0:0:0:
502,297,57819,2,0,L|506:352,2,55,8|0|0,0:2|0:0|0:0,0:0:0:0:
484,120,58135,5,8,0:2:0:0:
315,205,58293,1,8,0:2:0:0:
315,205,58372,1,8,0:2:0:0:
315,205,58451,1,8,0:2:0:0:
259,18,58608,1,0,0:0:0:0:
217,213,58766,1,8,0:2:0:0:
356,53,58924,1,0,0:0:0:0:
179,103,59082,5,8,0:2:0:0:
386,148,59240,1,0,0:0:0:0:
116,34,59398,5,8,0:3:0:0:
97,67,59477,1,8,0:3:0:0:
89,104,59556,1,8,0:3:0:0:
98,141,59635,1,8,0:3:0:0:
120,172,59714,1,8,0:3:0:0:
142,203,59793,1,8,0:3:0:0:
148,239,59872,1,8,0:3:0:0:
143,277,59951,1,8,0:3:0:0:
122,308,60030,6,0,P|104:330|81:344,1,55
0,223,60187,2,0,P|27:227|51:241,1,55,0|0,0:0|0:0,0:0:0:0:
205,374,60345,6,0,L|303:365,1,98.9999969787599
458,310,60661,6,0,B|528:236|443:146|443:146|416:219,1,264,8|0,0:3|0:0,0:0:0:0:
308,310,60977,2,0,L|303:364,2,55,8|0|0,0:3|0:0|0:0,0:0:0:0:
423,72,61293,6,0,L|453:69,2,30.2500009231568,8|0|0,0:0|0:0|0:0,0:0:0:0:
234,182,61451,2,0,L|203:179,2,30.2500009231568,0|0|0,0:0|0:0|0:0,0:0:0:0:
390,232,61608,6,0,L|383:160,1,71.4999967269899
236,23,61766,2,0,L|229:94,1,71.4999967269899,0|0,0:0|0:0,0:0:0:0:
211,276,61924,1,8,0:3:0:0:
300,100,62082,6,0,L|228:93,1,71.4999967269899,0|0,0:0|0:0,0:0:0:0:
60,261,62240,2,0,L|131:267,1,71.4999967269899,0|0,0:0|0:0,0:0:0:0:
303,364,62398,5,8,3:3:0:0:
303,364,62477,1,0,3:0:0:0:
303,364,62556,2,0,B|327:323|327:323|312:251,1,121.000003692627,8|0,3:2|0:0,0:0:0:0:
258,184,62793,1,0,0:0:0:0:
390,232,62872,6,0,L|420:234,4,30.2500009231568,0|0|0|0|0,0:0|0:0|0:0|0:0|0:0,0:0:0:0:
107,339,63187,6,0,B|111:284|111:284|102:272|102:272|110:188,1,153.999995300293,8|0,0:3|0:0,0:0:0:0:
129,75,63424,1,0,0:0:0:0:
4,128,63503,2,0,B|63:122|63:122|73:113|73:113|137:108|137:108|147:100|147:100|227:93,1,230.99999295044
432,55,63819,6,0,L|425:125,1,71.4999967269899,8|0,0:0|0:0,0:0:0:0:
264,254,63977,2,0,L|258:184,1,71.4999967269899,0|0,0:0|0:0,0:0:0:0:
288,0,64135,1,8,0:3:0:0:
415,229,64293,6,0,L|343:235,1,71.4999967269899,0|0,0:0|0:0,0:0:0:0:
212,304,64451,2,0,L|242:239,1,71.4999967269899,0|0,0:0|0:0,0:0:0:0:
227,93,64608,2,0,L|268:151,1,71.4999967269899,0|0,0:0|0:0,0:0:0:0:
266,372,64766,5,0,3:0:0:0:
229,383,64845,1,0,3:0:0:0:
193,383,64924,1,8,3:3:0:0:
159,369,65003,1,0,3:0:0:0:
92,311,65082,6,0,B|95:272|95:272|82:236|82:236|92:218|92:218|96:167,1,142.99999345398,8|0,0:0|0:0,0:0:0:0:
152,119,65319,1,0,0:0:0:0:
16,197,65398,2,0,B|19:158|19:158|6:122|6:122|16:104|16:104|20:53,1,142.99999345398,8|0,0:3|0:0,0:0:0:0:
334,257,65714,6,0,B|284:242|271:189|271:189|234:211|187:198|187:198|228:213|245:250,1,264,8|0,0:3|0:0,0:0:0:0:
418,357,66030,2,0,L|472:352,2,55,0|0|8,0:0|0:0|0:3,0:0:0:0:
152,295,66345,6,0,L|121:297,2,30.2500009231568,8|0|0,0:0|0:0|0:0,0:0:0:0:
334,376,66503,2,0,B|330:333|330:333|339:316|339:316|334:257,1,121.000003692627,0|8,0:0|0:3,0:0:0:0:
432,40,66819,2,0,L|437:100,1,60.5000018463135,0|0,0:0|0:0,0:0:0:0:
192,175,66977,2,0,B|226:181|253:169|253:169|285:193|285:193|315:174|315:174|356:180|407:166,1,214.49999018097,0|0,0:0|0:0,0:0:0:0:
212,78,67293,6,0,L|140:71,1,71.4999967269899,0|0,3:0|3:0,3:0:0:0:
41,254,67451,2,0,L|112:247,1,71.4999967269899,0|0,3:0|3:0,3:0:0:0:
286,194,67608,2,0,L|288:163,4,30.2500009231568,8|0|0|0|0,0:0|0:0|0:0|0:0|0:0,0:0:0:0:
478,318,67924,5,0,3:0:0:0:
448,309,68003,1,0,3:0:0:0:
416,308,68082,1,0,3:0:0:0:
386,313,68161,1,0,3:0:0:0:
334,376,68240,6,0,B|296:372|296:372|273:380|273:380|250:368|250:368|184:362,1,153.999995300293,8|0,0:3|0:0,0:0:0:0:
103,373,68477,1,0,0:0:0:0:
202,289,68556,6,0,B|197:237|197:237|205:223|205:223|201:180|201:180|175:155|175:155|187:124|187:124|183:74,1,230.99999295044,0|0,0:0|0:0,0:0:0:0:
338,130,68872,2,0,L|266:136,1,71.4999967269899,8|0,0:0|0:0,0:0:0:0:
48,222,69030,2,0,L|119:215,1,71.4999967269899,0|0,0:0|0:0,0:0:0:0:
290,282,69187,1,8,0:3:0:0:
103,373,69345,6,0,L|109:301,1,71.4999967269899,0|0,0:0|0:0,0:0:0:0:
290,282,69503,2,0,L|283:210,1,71.4999967269899,0|0,0:0|0:0,0:0:0:0:
105,138,69661,2,0,L|111:66,1,71.4999967269899,0|0,0:0|0:0,0:0:0:0:
276,34,69819,1,0,0:0:0:0:
152,226,69977,5,8,3:3:0:0:
152,226,70056,1,0,3:0:0:0:
152,226,70135,2,0,L|195:222,1,44,8|0,0:3|0:0,0:0:0:0:
290,282,70293,2,0,L|308:242,1,44,8|0,0:3|0:0,0:0:0:0:
227,126,70451,1,8,0:3:0:0:
204,318,70608,1,8,0:3:0:0:
462,277,70766,6,0,B|520:196|435:114|435:114|438:162|416:192,1,264,8|0,0:3|0:0,0:0:0:0:
378,330,71082,2,0,L|382:384,2,55,8|0|0,0:3|0:0|0:0,0:0:0:0:
129,227,71398,6,0,L|98:227,2,30.2500009231568,8|0|0,0:0|0:0|0:0,0:0:0:0:
304,131,71556,2,0,L|335:129,2,30.2500009231568,0|0|0,0:0|0:0|0:0,0:0:0:0:
119,75,71714,6,0,L|125:146,1,71.4999967269899,0|0,0:0|0:0,0:0:0:0:
290,282,71872,2,0,L|296:210,1,71.4999967269899,0|0,0:0|0:0,0:0:0:0:
314,43,72030,1,8,0:3:0:0:
129,227,72187,2,0,L|200:220,1,71.4999967269899,0|0,0:0|0:0,0:0:0:0:
376,137,72345,2,0,L|304:130,1,71.4999967269899,0|0,0:0|0:0,0:0:0:0:
55,180,72503,5,8,3:3:0:0:
55,180,72582,1,0,3:0:0:0:
55,180,72661,2,0,B|37:221|37:221|62:310,1,121.000003692627,8|0,3:2|0:0,0:0:0:0:
138,325,72898,1,0,0:0:0:0:
32,381,72977,2,0,L|1:383,4,30.2500009231568,0|0|0|0|0,0:0|0:0|0:0|0:0|0:0,0:0:0:0:
378,365,73293,6,0,B|373:308|373:308|364:296|364:296|356:214,1,153.999995300293,8|0,0:3|0:0,0:0:0:0:
343,104,73530,1,0,0:0:0:0:
476,140,73608,2,0,B|427:135|427:135|409:140|409:140|344:135|344:135|327:142|327:142|304:126|304:126|245:119,1,230.99999295044,0|0,0:0|0:0,0:0:0:0:
94,19,73924,6,0,L|100:90,1,71.4999967269899,8|0,0:0|0:0,0:0:0:0:
251,145,74082,2,0,L|244:216,1,71.4999967269899,0|0,0:0|0:0,0:0:0:0:
138,325,74240,1,8,0:3:0:0:
396,177,74398,6,0,L|324:170,1,71.4999967269899,0|0,0:0|0:0,0:0:0:0:
93,237,74556,2,0,L|164:243,1,71.4999967269899,0|0,0:0|0:0,0:0:0:0:
376,363,74714,2,0,L|304:356,1,71.4999967269899,0|0,0:0|0:0,0:0:0:0:
13,279,74872,5,0,3:0:0:0:
5,243,74951,1,0,3:0:0:0:
10,211,75030,1,8,3:3:0:0:
29,177,75108,1,0,3:0:0:0:
115,127,75187,6,0,B|155:130|155:130|172:123|172:123|192:139|192:139|250:144,1,142.99999345398,8|0,0:0|0:0,0:0:0:0:
311,203,75424,1,0,0:0:0:0:
282,68,75503,2,0,B|322:64|322:64|339:71|339:71|359:55|359:55|417:50,1,142.99999345398,8|0,0:3|0:0,0:0:0:0:
344,364,75819,6,0,B|393:314|392:216|392:216|407:273|456:292,1,264,8|0,0:3|0:0,0:0:0:0:
269,318,76135,2,0,L|241:320,4,27.5,0|0|0|0|8,0:0|0:0|0:0|0:0|0:3,0:0:0:0:
464,210,76451,6,0,L|392:216,1,71.4999967269899,8|0,0:0|0:0,0:0:0:0:
179,138,76608,2,0,L|250:144,1,71.4999967269899,0|0,0:0|0:0,0:0:0:0:
417,50,76766,1,8,0:3:0:0:
269,233,76924,2,0,L|262:161,1,71.4999967269899
252,19,77082,1,8,0:3:0:0:
73,164,77240,6,0,L|79:92,1,71.4999967269899
252,19,77398,2,0,L|258:90,1,71.4999967269899,0|0,0:0|0:0,0:0:0:0:
269,233,77556,1,8,0:3:0:0:
15,14,77714,6,0,B|55:17|55:17|86:11|86:11|115:22|115:22|154:26,1,142.99999345398,8|0,0:0|0:0,0:0:0:0:
443,170,78030,5,8,3:3:0:0:
412,152,78108,1,8,3:3:0:0:
376,145,78187,1,8,3:3:0:0:
340,145,78266,1,8,3:3:0:0:
306,157,78345,5,8,3:3:0:0:
467,94,78503,1,0,0:0:0:0:
370,231,78661,1,0,0:0:0:0:
381,68,78819,1,8,0:3:0:0:
512,241,78977,5,8,0:0:0:0:
306,157,79135,1,0,0:0:0:0:
461,351,79293,1,8,0:3:0:0:
412,152,79451,1,0,0:0:0:0:
350,384,79608,1,0,0:0:0:0:
121,167,79766,5,8,3:3:0:0:
136,157,79845,1,0,3:0:0:0:
158,147,79924,1,0,3:0:0:0:
186,138,80003,1,0,3:0:0:0:
222,133,80082,1,0,3:0:0:0:
264,136,80161,1,0,3:0:0:0:
306,157,80240,6,0,P|303:186|290:214,1,60.5000018463135,0|0,2:3|2:3,2:3:0:0:
281,299,80398,2,0,P|253:311|223:314,1,60.5000018463135,0|0,2:3|2:3,2:3:0:0:
97,350,80556,6,0,L|102:289,1,60.5000018463135,0|0,2:3|2:3,2:3:0:0:
191,198,80714,2,0,L|185:137,1,60.5000018463135,0|0,2:3|2:3,2:3:0:0:
54,22,80872,6,0,B|108:26|108:26|126:22|126:22|145:39|145:39|200:43,1,153.999995300293,8|0,0:3|0:0,0:0:0:0:
410,114,81108,1,0,0:0:0:0:
410,114,81187,2,0,B|355:118|355:118|335:135|335:135|317:131|317:131|263:135,1,153.999995300293,8|0,0:3|0:0,0:0:0:0:
97,350,81503,6,0,B|35:274|107:200|107:200|110:233|131:258,1,230.99999295044,8|0,0:0|0:0,0:0:0:0:
281,299,81819,6,0,L|275:238,1,60.5000018463135,2|0,0:0|0:0,0:0:0:0:
196,137,81977,2,0,L|190:197,1,60.5000018463135,2|0,0:0|0:0,0:0:0:0:
188,378,82135,6,0,B|244:373|244:373|272:385|272:385|366:377,1,181.500005538941,10|0,0:3|0:0,0:0:0:0:
494,245,82451,1,2,3:0:0:0:
464,233,82530,1,0,3:0:0:0:
434,232,82608,1,8,3:3:0:0:
404,237,82687,1,0,3:0:0:0:
365,305,82766,6,0,B|372:218|372:218|360:207|360:207|370:95,1,214.49999018097,10|0,0:0|0:0,0:0:0:0:
184,133,83082,2,0,B|135:99|124:36|160:0|160:0|197:20|194:62,1,214.49999018097,2|0,0:0|0:0,0:0:0:0:
273,197,83398,6,0,L|269:235,6,38.4999988250733,8|0|0|0|0|0|0,0:3|0:0|0:0|0:0|0:0|0:0|0:0,0:0:0:0:
366,134,83714,2,0,L|370:96,6,38.4999988250733
365,305,84030,2,0,B|319:308|319:308|296:322|296:322|215:330,1,153.999995300293,8|0,0:0|0:0,0:0:0:0:
11,370,84345,6,0,L|16:309,1,60.5000018463135,10|0,0:3|0:0,0:0:0:0:
146,254,84503,2,0,L|140:193,1,60.5000018463135,2|0,0:0|0:0,0:0:0:0:
19,81,84661,6,0,B|70:85|70:85|94:98|94:98|126:72|126:72|141:85|141:85|233:93,1,214.49999018097,2|0,0:0|0:0,0:0:0:0:
469,134,84977,1,2,3:0:0:0:
435,119,85056,1,0,3:0:0:0:
400,121,85135,1,8,3:3:0:0:
366,134,85214,1,0,3:0:0:0:
346,168,85293,6,0,L|340:228,2,60.5000018463135,10|0|2,0:0|0:0|0:2,0:0:0:0:
296,94,85530,1,0,0:0:0:0:
241,176,85608,2,0,B|244:216|244:216|239:234|239:234|247:252|247:252|249:271|249:271|257:291|257:291|252:311|252:311|256:356,1,181.500005538941,10|0,0:3|0:0,0:0:0:0:
487,258,85924,6,0,B|435:262|435:262|400:248|400:248|387:259|387:259|332:264,1,153.999995300293,8|0,0:3|0:0,0:0:0:0:
109,346,86161,1,0,0:0:0:0:
109,346,86240,2,0,B|160:350|160:350|195:336|195:336|208:347|208:347|263:352,1,153.999995300293,0|8,0:0|0:3,0:0:0:0:
105,166,86556,6,0,B|47:143|6:206|6:206|58:255|110:219,1,230.99999295044,8|0,0:0|0:0,0:0:0:0:
241,176,86872,6,0,L|246:115,1,60.5000018463135,10|0,0:3|0:0,0:0:0:0:
140,18,87030,2,0,L|145:78,1,60.5000018463135,2|0,0:0|0:0,0:0:0:0:
179,261,87187,6,0,B|216:257|216:257|247:264|247:264|277:252|277:252|291:251|291:251|323:240|323:240|356:245|356:245|390:242,1,214.49999018097,2|0,0:0|0:0,0:0:0:0:
437,58,87503,5,2,3:0:0:0:
399,53,87582,1,0,3:0:0:0:
363,57,87661,1,0,3:0:0:0:
330,71,87740,1,0,3:0:0:0:
307,109,87819,6,0,L|309:136,2,27.5,10|0|0,0:0|0:0|0:0,0:0:0:0:
237,29,87977,1,8,0:3:0:0:
47,145,88135,6,0,P|57:212|104:165,1,165,2|0,0:0|0:0,0:0:0:0:
144,56,88451,6,0,L|140:18,6,38.4999988250733,8|0|0|0|0|0|0,0:3|0:0|0:0|0:0|0:0|0:0|0:0,0:0:0:0:
213,184,88766,2,0,L|216:145,6,38.4999988250733,0|0|0|0|0|0|0,0:0|0:0|0:0|0:0|0:0|0:0|0:0,0:0:0:0:
45,294,89082,6,0,B|115:317|115:317|193:302,1,153.999995300293,8|0,0:0|0:0,0:0:0:0:
453,359,89398,6,0,L|446:287,1,71.4999967269899,10|0,0:3|0:0,0:0:0:0:
327,220,89556,2,0,L|334:149,1,71.4999967269899,2|0,0:0|0:0,0:0:0:0:
506,87,89714,6,0,L|500:21,2,65.9999979858399,2|0|0,0:0|0:0|0:0,0:0:0:0:
478,166,89951,1,0,0:0:0:0:
415,79,90030,2,0,B|367:74|367:74|351:60|351:60|313:69|313:69|256:64,1,165.000006294251,0|8,0:0|0:3,0:0:0:0:
108,25,90266,5,0,3:0:0:0:
107,25,90345,2,0,P|109:52|120:77,1,55,0|0,3:0|3:0,3:0:0:0:
245,147,90503,2,0,P|219:135|192:132,1,55,0|0,3:0|3:0,3:0:0:0:
67,200,90661,2,0,P|89:183|105:161,1,55,0|0,3:0|3:0,3:0:0:0:
194,22,90819,1,0,3:0:0:0:
117,295,90977,6,0,B|157:291|157:291|175:277|175:277|197:282|197:282|212:281|212:281|225:284|225:284|240:279|240:279|263:276,1,153.999995300293,8|0,0:3|0:0,0:0:0:0:
501,365,91214,1,0,0:0:0:0:
501,365,91293,2,0,B|460:361|460:361|442:347|442:347|420:352|420:352|405:351|405:351|392:354|392:354|377:349|377:349|354:346,1,153.999995300293,8|0,0:3|0:0,0:0:0:0:
67,200,91608,6,0,B|35:170|28:118|74:74|74:74|125:95|120:142,1,230.99999295044,8|0,0:0|0:0,0:0:0:0:
249,339,91924,6,0,L|189:333,1,60.5000018463135,2|0,0:0|0:0,0:0:0:0:
152,222,92082,2,0,L|212:216,1,60.5000018463135,2|0,0:0|0:0,0:0:0:0:
353,345,92240,6,0,B|357:294|357:294|368:287|368:287|350:234|350:234|363:226|363:226|367:179,1,181.500005538941,10|0,0:3|0:0,0:0:0:0:
194,22,92556,1,2,3:0:0:0:
219,39,92635,1,0,3:0:0:0:
247,52,92714,1,8,3:3:0:0:
278,54,92793,1,0,3:0:0:0:
357,40,92872,6,0,B|435:-8|500:52|500:52|452:83,1,214.49999018097,10|0,0:0|0:0,0:0:0:0:
283,166,93187,2,0,B|313:181|345:171|345:171|370:185|370:185|402:157|402:157|438:180|496:168,1,214.49999018097,2|0,0:0|0:0,0:0:0:0:
329,269,93503,6,0,L|325:307,6,38.4999988250733,8|0|0|0|0|0|0,0:3|0:0|0:0|0:0|0:0|0:0|0:0,0:0:0:0:
184,190,93819,2,0,L|180:151,6,38.4999988250733,0|0|0|0|0|0|0,0:0|0:0|0:0|0:0|0:0|0:0|0:0,0:0:0:0:
258,362,94135,6,0,B|317:386|317:386|405:367,1,153.999995300293,8|0,0:0|0:0,0:0:0:0:
44,195,94451,6,0,L|50:266,1,71.4999967269899,10|0,0:3|0:0,0:0:0:0:
166,384,94608,2,0,L|172:312,1,71.4999967269899,2|0,0:0|0:0,0:0:0:0:
373,197,94766,6,0,B|342:189|317:192|317:192|294:177|294:177|267:208|267:208|244:192|244:192|212:197|183:189,1,214.49999018097,2|0,0:0|0:0,0:0:0:0:
450,149,95082,1,2,3:0:0:0:
462,182,95161,1,0,3:0:0:0:
460,217,95240,1,8,3:3:0:0:
447,250,95319,1,0,3:0:0:0:
423,276,95398,2,0,L|417:336,2,60.5000018463135,10|0|2,0:0|0:0|3:2,0:0:0:0:
373,197,95635,1,0,0:0:0:0:
300,276,95714,6,0,B|296:236|296:236|289:228|289:228|285:176|285:176|300:155|300:155|295:102,1,181.500005538941,10|0,0:3|0:0,0:0:0:0:
504,20,96030,6,0,B|459:23|459:23|448:15|448:15|405:19|405:19|395:29|395:29|357:32,1,153.999995300293,8|0,0:3|0:0,0:0:0:0:
149,89,96266,1,0,0:0:0:0:
149,89,96345,2,0,B|193:92|193:92|204:84|204:84|247:88|247:88|257:98|257:98|295:101,1,153.999995300293,0|8,0:0|0:3,0:0:0:0:
0,201,96661,6,0,B|48:150|57:75|57:75|55:129|87:160,1,230.99999295044,8|0,0:0|0:0,0:0:0:0:
213,269,96977,6,0,L|152:263,1,60.5000018463135,10|0,0:3|0:0,0:0:0:0:
41,350,97135,2,0,L|101:344,1,60.5000018463135,2|0,0:0|0:0,0:0:0:0:
313,381,97293,6,0,B|308:329|308:329|296:330|296:330|317:247|317:247|306:248|306:248|300:180,1,214.49999018097,2|0,0:0|0:0,0:0:0:0:
85,158,97608,5,2,3:0:0:0:
119,148,97687,1,0,3:0:0:0:
154,145,97766,1,0,3:0:0:0:
189,152,97845,1,0,3:0:0:0:
219,164,97924,6,0,L|221:191,2,27.5,10|0|0,0:0|0:0|0:0,0:0:0:0:
310,55,98082,1,8,0:3:0:0:
477,253,98240,2,0,B|443:261|409:247|409:247|395:256|395:256|358:243|317:249,1,165,2|0,0:0|0:0,0:0:0:0:
125,354,98556,5,8,0:3:0:0:
148,226,98714,1,0,0:0:0:0:
19,288,98872,1,0,0:0:0:0:
8,123,99030,1,0,0:0:0:0:
188,301,99187,1,8,0:0:0:0:
0,204,99345,1,0,0:0:0:0:
249,176,99503,6,0,L|244:121,1,55,10|0,0:3|0:0,0:0:0:0:
123,7,99661,2,0,L|118:61,1,55,2|0,0:0|0:0,0:0:0:0:
96,219,99819,5,2,0:0:0:0:
108,255,99898,1,0,0:0:0:0:
136,280,99977,1,0,0:0:0:0:
173,287,100056,1,0,0:0:0:0:
213,269,100135,1,0,0:0:0:0:
253,251,100214,1,0,0:0:0:0:
290,258,100293,1,8,0:3:0:0:
318,283,100372,1,0,0:0:0:0:
329,318,100451,6,0,P|329:340|324:362,1,44,8|0,3:0|3:0,3:0:0:0:
173,287,100608,2,0,P|173:265|178:243,1,44,0|0,3:0|3:0,3:0:0:0:
377,157,100766,6,0,P|314:177|248:175,1,132,8|0,0:3|0:0,0:0:0:0:
96,219,101082,6,0,B|99:181|99:181|106:168|106:168|111:111,1,110,8|0,0:3|0:0,0:0:0:0:
25,295,101319,1,0,0:0:0:0:
25,295,101398,2,0,L|22:322,2,27.5,8|0|0,0:3|0:0|0:0,0:0:0:0:
96,219,101556,1,0,0:0:0:0:
166,367,101714,6,0,L|161:312,1,55,8|0,0:0|0:0,0:0:0:0:
253,251,101872,2,0,L|257:196,1,55,0|0,0:0|0:0,0:0:0:0:
111,111,102030,6,0,B|152:107|152:107|164:112|164:112|243:105,1,131.99999597168,0|0,0:0|0:0,0:0:0:0:
381,211,102266,1,0,0:0:0:0:
381,211,102345,2,0,L|376:156,1,55,8|0,0:3|0:0,0:0:0:0:
367,47,102503,1,0,0:0:0:0:
257,196,102661,1,0,0:0:0:0:
474,285,102819,5,8,0:3:0:0:
474,285,102898,1,0,0:0:0:0:
474,285,102977,2,0,B|426:289|426:289|397:311|397:311|368:305|368:305|284:312,1,197.99999395752,8|0,0:0|0:0,0:0:0:0:
96,219,103293,2,0,L|62:216,4,32.99999899292,0|0|0|0|0,0:0|0:0|0:0|0:0|0:0,0:0:0:0:
268,13,103608,6,0,B|290:47|290:47|281:123,1,110,8|0,0:3|0:0,0:0:0:0:
198,241,103845,1,0,0:0:0:0:
198,241,103924,2,0,L|195:268,2,27.5,0|0|0,0:0|0:0|0:0,0:0:0:0:
163,149,104082,1,0,0:0:0:0:
103,350,104240,2,0,B|132:358|160:344|160:344|181:358|181:358|216:343|270:350,1,165,8|0,0:0|0:0,0:0:0:0:
440,191,104556,6,0,B|397:187|397:187|389:181|389:181|367:195|367:195|358:189|358:189|316:186,1,131.99999597168,8|0,0:3|0:0,0:0:0:0:
163,149,104793,1,0,0:0:0:0:
163,149,104872,2,0,L|217:144,1,55,0|0,0:0|0:0,0:0:0:0:
326,280,105030,2,0,L|271:275,1,55,0|0,0:0|0:0,0:0:0:0:
123,262,105187,1,0,0:0:0:0:
403,362,105345,5,8,0:3:0:0:
403,362,105424,1,0,0:0:0:0:
403,362,105503,2,0,B|398:315|398:315|405:303|405:303|399:232,1,131.99999597168,8|0,0:0|0:0,0:0:0:0:
326,280,105740,1,0,0:0:0:0:
316,186,105819,2,0,B|320:139|320:139|313:127|313:127|319:56,1,131.99999597168,8|0,0:3|0:0,0:0:0:0:
481,236,106135,6,0,L|483:263,4,27.5,8|0|0|0|0,0:3|0:0|0:0|0:0|0:0,0:0:0:0:
396,113,106372,1,0,0:0:0:0:
396,113,106451,2,0,L|398:85,4,27.5,0|0|0|0|8,0:0|0:0|0:0|0:0|0:3,0:0:0:0:
271,284,106766,6,0,L|326:280,1,55,8|0,0:0|0:0,0:0:0:0:
481,236,106924,2,0,L|426:231,1,55,0|0,0:0|0:0,0:0:0:0:
233,206,107082,1,8,0:3:0:0:
312,8,107240,5,0,0:0:0:0:
312,8,107319,1,0,0:0:0:0:
312,7,107398,2,0,L|316:61,1,55
333,190,107556,1,0,0:0:0:0:
192,85,107714,5,0,0:0:0:0:
160,74,107793,1,0,0:0:0:0:
126,73,107872,1,0,0:0:0:0:
94,81,107951,1,0,0:0:0:0:
74,107,108030,2,0,L|71:134,2,27.5,8|0|0,0:0|0:0|0:0,0:0:0:0:
31,5,108187,1,8,0:3:0:0:
48,216,108345,6,0,L|49:243,4,27.5
333,190,108661,5,8,0:3:0:0:
179,282,108819,1,8,0:3:0:0:
179,282,108898,1,8,0:3:0:0:
179,282,108977,1,8,0:3:0:0:
212,99,109135,1,0,0:0:0:0:
294,311,109293,1,8,0:0:0:0:
333,190,109451,1,0,0:0:0:0:
493,275,109608,6,0,B|452:290|452:290|388:277,1,110,8|0,0:3|0:0,0:0:0:0:
189,187,109845,1,0,0:0:0:0:
189,187,109924,2,0,L|243:182,1,55,0|0,0:0|0:0,0:0:0:0:
372,102,110082,2,0,L|317:97,1,55,0|0,0:0|0:0,0:0:0:0:
191,84,110240,1,0,0:0:0:0:
354,204,110398,5,8,0:3:0:0:
354,204,110477,1,0,0:0:0:0:
354,204,110556,2,0,P|406:181|464:174,1,115.49999647522,0|0,0:0|0:0,0:0:0:0:
383,307,111187,6,0,L|295:299,1,88,8|0,0:3|0:0,0:0:0:0:
163,283,111503,1,0,0:0:0:0:
247,362,111661,1,0,0:0:0:0:
71,337,111819,2,0,L|63:249,1,88,8|0,0:0|0:0,0:0:0:0:
164,141,112135,1,0,0:0:0:0:
5,119,112293,2,0,L|48:115,1,44,8|0,0:3|0:0,0:0:0:0:
235,115,112451,6,0,P|198:156|177:206,1,110,8|0,0:3|0:0,0:0:0:0:
63,249,112687,1,0,0:0:0:0:
63,249,112766,2,0,P|144:241|223:263,1,165,8|0,0:3|0:0,0:0:0:0:
354,204,113082,1,8,0:0:0:0:
354,204,113398,6,0,L|349:149,2,55,0|0|0,0:0|0:0|0:0,0:0:0:0:
488,359,113714,6,0,L|495:271,1,88,8|0,0:3|0:0,0:0:0:0:
512,105,114030,2,0,P|475:129|433:142,1,88,0|0,0:0|0:0,0:0:0:0:
282,154,114266,1,0,0:0:0:0:
282,154,114345,2,0,P|321:173|353:203,1,88,8|0,0:0|0:0,0:0:0:0:
356,76,114661,5,0,0:0:0:0:
290,244,114819,1,8,0:3:0:0:
200,111,114977,6,0,P|149:133|95:141,1,110,8|0,0:3|0:0,0:0:0:0:
4,145,115214,1,0,0:0:0:0:
4,145,115293,2,0,P|81:175|146:227,1,165,8|0,0:3|0:0,0:0:0:0:
353,203,115608,1,8,0:0:0:0:
353,203,115924,6,0,P|372:159|305:184,1,165
446,290,116240,6,0,L|358:297,1,88,8|0,0:3|0:0,0:0:0:0:
243,308,116556,1,0,0:0:0:0:
346,384,116714,1,0,0:0:0:0:
158,340,116872,2,0,L|165:252,1,88,8|0,0:0|0:0,0:0:0:0:
96,155,117187,1,0,0:0:0:0:
244,175,117345,2,0,L|200:178,1,44,8|0,0:3|0:0,0:0:0:0:
31,195,117503,6,0,P|53:145|60:90,1,110,8|0,0:3|0:0,0:0:0:0:
17,12,117740,1,0,0:0:0:0:
17,12,117819,2,0,P|81:63|158:89,1,165,8|0,0:3|0:0,0:0:0:0:
351,145,118135,1,8,0:0:0:0:
351,145,118451,6,0,L|414:139,2,55,0|0|0,0:0|0:0|0:0,0:0:0:0:
165,252,118766,5,8,0:3:0:0:
256,101,118924,1,8,0:3:0:0:
256,101,119003,1,8,0:3:0:0:
256,101,119082,1,8,0:3:0:0:
312,229,119240,1,0,0:0:0:0:
161,76,119398,2,0,L|153:164,1,88,8|0,0:0|0:0,0:0:0:0:
134,333,119714,1,0,0:0:0:0:
68,201,119872,1,8,0:3:0:0:
217,347,120030,6,0,P|270:334|319:310,1,110,8|0,0:3|0:0,0:0:0:0:
416,351,120266,1,0,0:0:0:0:
416,351,120345,2,0,P|345:291|309:224,1,165,8|0,0:3|0:0,0:0:0:0:
256,101,120661,6,0,B|283:103|283:103|298:100|298:100|306:105|306:105|319:106|319:106|330:111|330:111|342:108|342:108|368:110,1,115.49999647522,0|0,0:0|0:0,0:0:0:0:
186,197,121293,6,0,L|174:65,1,131.99999597168,8|0,0:0|0:0,0:0:0:0:
174,65,121766,1,0,0:0:0:0:
63,264,121924,2,0,L|74:132,1,131.99999597168,8|0,0:0|0:0,0:0:0:0:
244,262,122556,5,8,0:0:0:0:
169,134,122872,2,0,P|171:166|185:196,1,65.9999979858399,0|0,0:0|0:0,0:0:0:0:
244,262,123187,1,8,0:0:0:0:
390,264,123503,2,0,P|360:249|327:246,1,65.9999979858399,0|0,0:0|0:0,0:0:0:0:
259,139,123819,6,0,L|390:150,1,131.99999597168,8|0,0:0|0:0,0:0:0:0:
390,150,124282,1,0,0:0:0:0:
277,42,124437,2,0,L|145:53,1,131.99999597168,8|0,0:0|0:0,0:0:0:0:
5,213,125056,5,8,0:0:0:0:
64,81,125365,2,0,P|65:113|53:144,1,65.9999979858399,0|0,0:0|0:0,0:0:0:0:
5,213,125674,1,8,0:0:0:0:
90,334,125983,2,0,P|60:318|40:293,1,65.9999979858399,0|0,0:0|0:0,0:0:0:0:
200,84,126293,6,0,L|205:149,1,65.9999979858399,8|0,0:0|0:0,0:0:0:0:
216,254,126600,1,0,0:0:0:0:
129,175,126754,1,0,0:0:0:0:
280,191,126908,2,0,L|411:202,1,131.99999597168,8|0,0:0|0:0,0:0:0:0:
200,84,127523,5,8,0:0:0:0:
55,17,127831,2,0,L|123:10,1,65.9999979858399,0|0,0:0|0:0,0:0:0:0:
201,84,128139,1,8,0:0:0:0:
63,169,128446,2,0,L|128:174,1,65.9999979858399,0|0,0:0|0:0,0:0:0:0:
294,60,128754,6,0,L|288:125,1,65.9999979858399,8|0,0:0|0:0,0:0:0:0:
278,227,129060,1,0,0:0:0:0:
363,159,129213,1,0,0:0:0:0:
482,241,129366,2,0,L|493:372,1,131.99999597168,8|0,0:0|0:0,0:0:0:0:
394,58,129978,5,8,0:0:0:0:
512,132,130284,2,0,L|446:126,1,65.9999979858399,0|0,0:0|0:0,0:0:0:0:
394,58,130590,1,8,0:0:0:0:
255,0,130896,2,0,L|320:5,1,65.9999979858399,0|0,0:0|0:0,0:0:0:0:
298,195,131202,6,0,L|290:107,1,88,8|0,0:0|0:0,0:0:0:0:
135,45,131502,2,0,L|127:132,1,88,8|0,0:0|0:0,0:0:0:0:
69,267,131802,6,0,P|129:242|196:232,1,132,8|0,0:0|0:0,0:0:0:0:
298,195,132102,6,0,L|341:191,1,44,8|0,0:0|0:0,0:0:0:0:
406,287,132252,2,0,L|362:283,1,44
187,320,132402,6,0,L|194:232,1,88,8|0,0:0|0:0,0:0:0:0:
334,103,132702,2,0,L|341:190,1,88,8|0,0:0|0:0,0:0:0:0:
140,171,133002,6,0,L|143:127,1,44,8|0,0:0|0:0,0:0:0:0:
231,40,133152,2,0,L|234:83,1,44,0|0,0:0|0:0,0:0:0:0:
343,212,133302,2,0,P|301:199|257:197,1,88,8|0,0:0|0:0,0:0:0:0:
132,258,133602,6,0,L|139:170,1,88,8|0,0:0|0:0,0:0:0:0:
335,124,133900,2,0,L|342:211,1,88,8|0,0:0|0:0,0:0:0:0:
459,54,134199,6,8,P|393:46|332:23,1,132,8|0,0:0|0:0,0:0:0:0:
231,40,134497,6,0,L|187:36,1,44,8|0,0:0|0:0,0:0:0:0:
56,91,134646,2,0,L|99:87,1,44,0|0,0:0|0:0,0:0:0:0:
227,178,134796,6,0,L|139:170,1,88,8|0,0:0|0:0,0:0:0:0:
31,338,135094,2,0,L|118:330,1,88,8|0,0:0|0:0,0:0:0:0:
354,277,135393,6,0,L|350:320,1,44,8|0,0:0|0:0,0:0:0:0:
244,365,135542,2,0,L|240:321,1,44,0|0,0:0|0:0,0:0:0:0:
227,178,135691,6,0,P|264:192|312:200,1,88,8|0,0:0|0:0,0:0:0:0:
118,330,135986,5,8,0:3:0:0:
139,170,136134,1,0,0:0:0:0:
244,365,136283,1,0,0:0:0:0:
227,195,136431,1,0,0:0:0:0:
50,236,136580,5,8,0:3:0:0:
275,282,136728,1,0,0:0:0:0:
139,170,136877,1,0,0:0:0:0:
115,355,137025,1,0,0:0:0:0:
208,94,137174,5,8,0:3:0:0:
275,282,137322,1,0,0:0:0:0:
50,236,137471,1,0,0:0:0:0:
299,170,137619,1,0,0:0:0:0:
115,355,137768,5,8,0:3:0:0:
70,106,137916,1,0,0:0:0:0:
275,282,138065,1,0,0:0:0:0:
21,329,138213,1,0,0:0:0:0:
208,94,138362,5,8,0:3:0:0:
215,68,138435,1,0,0:0:0:0:
206,42,138509,1,0,0:0:0:0:
183,29,138582,1,0,0:0:0:0:
154,30,138656,1,0,0:0:0:0:
134,47,138729,1,0,0:0:0:0:
122,71,138803,1,0,0:0:0:0:
121,97,138876,1,0,0:0:0:0:
129,140,138950,5,8,0:3:0:0:
163,164,139023,1,0,0:0:0:0:
206,173,139097,1,0,0:0:0:0:
249,168,139170,1,0,0:0:0:0:
287,143,139244,1,0,0:0:0:0:
323,118,139317,1,0,0:0:0:0:
366,113,139390,1,0,0:0:0:0:
409,119,139464,1,0,0:0:0:0:
444,146,139538,6,0,P|454:174|451:204,1,60.5000018463135,0|0,3:0|0:0,0:0:0:0:
512,263,139685,2,0,P|492:285|465:298,1,60.5000018463135,0|0,3:0|0:0,0:0:0:0:
263,360,139832,2,0,P|282:337|309:324,1,60.5000018463135,0|0,3:0|0:0,0:0:0:0:
330,241,139979,2,0,P|359:246|384:263,1,60.5000018463135,0|0,3:0|0:0,0:0:0:0:
418,375,140126,6,0,P|396:376|374:371,1,44,0|0,0:0|0:0,0:0:0:0:
249,256,140273,2,0,P|227:259|206:267,1,44,0|0,0:0|0:0,0:0:0:0:
109,369,140420,6,0,L|100:270,1,98.9999969787599
105,172,140712,6,0,B|202:210|251:121|251:121|200:65|137:104,1,296.99999093628,8|0,0:3|0:0,0:0:0:0:
8,235,141006,2,0,L|4:273,4,38.4999988250733,0|0|0|0|8,0:0|0:0|0:0|0:0|0:3,0:0:0:0:
44,34,141300,6,0,L|50:100,1,65.9999979858399,8|0,0:0|0:0,0:0:0:0:
101,271,141447,1,0,0:0:0:0:
185,20,141594,1,8,0:3:0:0:
463,263,141741,6,0,L|397:257,1,65.9999979858399,0|0,0:0|0:0,0:0:0:0:
212,198,141888,2,0,L|239:257,1,65.9999979858399,0|0,0:0|0:0,0:0:0:0:
320,363,142035,1,0,0:0:0:0:
347,35,142182,1,8,0:3:0:0:
50,100,142329,5,0,0:0:0:0:
50,100,142403,1,0,0:0:0:0:
50,100,142476,6,0,B|95:119|137:99|137:99|170:126|170:126|198:110|198:110|241:127|295:111,1,264,8|0,0:0|0:0,0:0:0:0:
495,67,142770,6,0,P|473:91|462:122,1,65.9999979858399,2|0,0:0|0:0,0:0:0:0:
349,184,142917,2,0,P|359:214|380:240,1,65.9999979858399,2|0,0:0|0:0,0:0:0:0:
507,354,143064,1,8,3:3:0:0:
480,333,143138,1,0,3:0:0:0:
448,321,143212,1,0,3:0:0:0:
413,321,143285,1,0,3:0:0:0:
388,342,143359,6,0,L|304:334,1,65.9999979858399,0|0,0:0|0:0,0:0:0:0:
209,198,143506,2,0,L|292:190,1,65.9999979858399,0|0,0:0|0:0,0:0:0:0:
512,173,143653,1,8,0:0:0:0:
324,3,143800,6,0,B|290:38|290:38|301:123,1,131.99999597168,0|8,0:0|0:3,0:0:0:0:
94,217,144094,6,0,L|88:151,1,65.9999979858399,0|0,0:0|0:0,0:0:0:0:
48,38,144241,2,0,L|107:65,1,65.9999979858399,0|0,0:0|0:0,0:0:0:0:
220,87,144388,2,0,L|165:124,1,65.9999979858399,0|0,0:0|0:0,0:0:0:0:
37,289,144535,5,0,3:0:0:0:
67,302,144609,1,0,3:0:0:0:
99,305,144682,1,8,3:3:0:0:
131,299,144756,1,0,3:0:0:0:
183,232,144829,6,0,B|275:239|275:239|285:234|285:234|339:239|339:239|354:235|354:235|444:243,1,264,8|0,0:0|0:0,0:0:0:0:
512,173,145123,6,0,B|557:123|502:72|502:72|440:103|460:159,1,220
463,245,145344,1,0,0:0:0:0:
343,141,145417,6,0,B|304:127|273:134|273:134|257:121|257:121|228:126|214:156|214:156|188:142|177:114|177:114|159:125|159:125|130:115|85:119,1,296.99999093628,8|0,0:3|0:0,0:0:0:0:
299,44,145712,2,0,L|302:5,4,38.4999988250733,0|0|0|0|8,0:0|0:0|0:0|0:0|0:3,0:0:0:0:
104,269,146006,6,0,L|109:203,1,65.9999979858399,8|0,0:0|0:0,0:0:0:0:
128,38,146153,2,0,L|130:5,2,32.99999899292,0|0|0,0:0|0:0|0:0,0:0:0:0:
74,118,146300,1,8,0:3:0:0:
299,44,146447,6,0,L|293:109,1,65.9999979858399,0|0,0:0|0:0,0:0:0:0:
183,232,146594,2,0,B|229:236|229:236|247:227|247:227|342:236,1,153.999995300293
506,381,146888,1,8,0:3:0:0:
404,173,147035,1,0,0:0:0:0:
258,375,147182,6,0,L|263:309,1,65.9999979858399,8|0,0:0|0:0,0:0:0:0:
430,318,147329,2,0,L|424:252,1,65.9999979858399,0|0,0:0|0:0,0:0:0:0:
293,109,147476,2,0,L|298:43,2,65.9999979858399,0|0|0,0:0|0:0|0:0,0:0:0:0:
68,260,147770,5,8,3:3:0:0:
99,268,147844,1,0,3:0:0:0:
131,268,147917,1,0,3:0:0:0:
163,258,147991,1,0,3:0:0:0:
183,232,148064,2,0,L|177:166,1,65.9999979858399,0|0,0:0|0:0,0:0:0:0:
55,35,148212,2,0,L|49:100,1,65.9999979858399,0|0,0:0|0:0,0:0:0:0:
26,334,148359,5,8,0:0:0:0:
152,57,148506,1,0,0:0:0:0:
209,319,148653,1,8,0:3:0:0:
404,173,148800,5,0,0:0:0:0:
386,174,148873,1,0,0:0:0:0:
367,176,148947,2,0,L|301:181,1,65.9999979858399,0|0,0:0|0:0,0:0:0:0:
152,57,149094,2,0,L|217:62,1,65.9999979858399,0|0,0:0|0:0,0:0:0:0:
486,117,149241,5,0,3:0:0:0:
498,147,149314,1,0,3:0:0:0:
501,179,149388,1,8,3:3:0:0:
494,210,149462,1,0,3:0:0:0:
448,275,149535,6,0,B|397:288|355:266|355:266|324:278|315:309|315:309|263:279|211:300,1,264,8|0,0:0|0:0,0:0:0:0:
199,201,149829,6,0,P|242:211|286:211,1,88,0|0,0:3|0:0,0:0:0:0:
38,346,150123,6,0,B|42:291|42:291|50:284|50:284|56:219|56:219|51:208|51:208|55:153,1,197.99999395752,8|0,0:3|0:0,0:0:0:0:
101,41,150344,1,0,0:0:0:0:
1,106,150417,6,0,B|59:111|59:111|91:128|91:128|128:117|128:117|191:122,1,197.99999395752,8|0,0:3|0:0,0:0:0:0:
486,117,150712,6,0,L|420:122,1,65.9999979858399,8|0,0:0|0:0,0:0:0:0:
286,211,150859,2,0,L|313:151,1,65.9999979858399,0|0,0:0|0:0,0:0:0:0:
301,0,151006,2,0,L|338:54,1,65.9999979858399,0|0,0:0|0:0,0:0:0:0:
448,275,151153,5,0,0:0:0:0:
192,122,151300,1,8,0:3:0:0:
486,117,151447,6,0,L|420:122,1,65.9999979858399,0|0,0:0|0:0,0:0:0:0:
198,211,151594,1,0,3:0:0:0:
188,242,151667,1,0,3:0:0:0:
188,275,151741,1,8,3:3:0:0:
195,306,151814,1,0,3:0:0:0:
263,356,151888,6,0,B|328:342|390:383|390:383|329:339|322:275,1,264,8|0,0:0|0:0,0:0:0:0:
192,122,152182,6,0,P|222:134|255:139,1,65.9999979858399,0|0,0:0|0:0,0:0:0:0:
420,121,152329,2,0,P|394:141|373:167,1,65.9999979858399,0|0,0:0|0:0,0:0:0:0:
195,306,152476,5,8,0:3:0:0:
106,97,152623,1,0,0:0:0:0:
0,314,152770,6,0,L|5:248,1,65.9999979858399,0|0,0:0|0:0,0:0:0:0:
198,211,152917,2,0,L|192:145,1,65.9999979858399,0|0,0:0|0:0,0:0:0:0:
39,41,153064,1,8,0:0:0:0:
86,294,153212,2,0,B|132:314|132:314|225:289,1,131.99999597168,0|8,0:0|0:3,0:0:0:0:
512,182,153506,6,0,L|452:209,1,65.9999979858399,0|0,0:0|0:0,0:0:0:0:
271,151,153653,2,0,L|325:188,1,65.9999979858399,0|0,0:0|0:0,0:0:0:0:
375,350,153800,2,0,L|380:284,1,65.9999979858399,0|0,0:0|0:0,0:0:0:0:
445,117,153947,5,0,3:0:0:0:
413,102,154020,1,0,3:0:0:0:
378,99,154094,1,8,3:3:0:0:
346,105,154167,1,0,3:0:0:0:
271,151,154241,6,0,B|213:145|213:145|203:141|203:141|169:155|169:155|159:150|159:150|119:146|119:146|111:140|111:140|70:136|70:136|61:130|61:130|3:125,1,264,8|0,0:0|0:0,0:0:0:0:
8,286,154535,6,0,B|92:310|135:225|135:225|55:216,1,220,8|0,0:3|0:0,0:0:0:0:
1,148,154756,1,0,0:0:0:0:
70,55,154829,6,0,B|134:60|134:60|165:74|165:74|197:63|197:63|228:68|228:68|261:58|261:58|296:74|296:74|372:81,1,296.99999093628,8|0,0:3|0:0,0:0:0:0:
457,284,155123,6,0,L|495:287,4,38.4999988250733,0|0|0|0|8,0:0|0:0|0:0|0:0|0:3,0:0:0:0:
217,225,155417,2,0,L|282:230,1,65.9999979858399,8|0,0:0|0:0,0:0:0:0:
461,198,155564,6,0,L|493:200,2,32.99999899292,0|0|0,0:0|0:0|0:0,0:0:0:0:
370,240,155712,1,8,0:3:0:0:
510,122,155859,6,0,L|444:116,1,65.9999979858399,0|0,0:0|0:0,0:0:0:0:
217,225,156006,2,0,B|211:161|211:161|216:148|216:148|209:72,1,153.999995300293,0|0,0:0|0:0,0:0:0:0:
291,301,156300,1,8,0:3:0:0:
74,143,156447,2,0,L|139:137,1,65.9999979858399,0|0,0:0|0:0,0:0:0:0:
327,121,156594,1,8,0:0:0:0:
42,237,156741,2,0,L|107:231,1,65.9999979858399,0|0,0:0|0:0,0:0:0:0:
295,215,156888,1,8,0:3:0:0:
106,51,157035,5,0,0:0:0:0:
104,33,157109,1,0,0:0:0:0:
102,14,157182,1,8,0:3:0:0:
0,169,157329,1,0,0:0:0:0:
226,130,157476,1,0,0:0:0:0:
139,305,157623,1,0,0:0:0:0:
102,14,157770,5,8,0:0:0:0:
59,247,157917,1,0,0:0:0:0:
179,54,158064,1,8,0:3:0:0:
212,238,158212,1,0,0:0:0:0:
47,95,158359,1,0,0:0:0:0:
139,305,158506,5,0,3:0:0:0:
155,315,158579,1,0,3:0:0:0:
179,325,158653,1,0,3:0:0:0:
210,333,158726,1,0,3:0:0:0:
249,333,158800,1,8,3:3:0:0:
292,318,158873,1,0,3:0:0:0:
337,289,158947,6,0,P|369:286|402:290,1,65.9999979858399,8|0,0:0|0:0,0:0:0:0:
481,177,159094,2,0,P|499:203|512:234,1,65.9999979858399
476,377,159241,6,0,L|481:311,1,65.9999979858399
395,204,159388,2,0,L|389:138,1,65.9999979858399
507,26,159535,6,0,B|482:23|456:30|456:30|433:23|433:23|393:34|352:30,1,153.999995300293,8|0,0:3|0:0,0:0:0:0:
265,113,159756,5,0,0:0:0:0:
251,131,159829,2,0,L|246:169,4,38.4999988250733,0|0|0|0|8,0:0|0:0|0:0|0:0|0:3,0:0:0:0:
171,73,160050,5,0,0:0:0:0:
157,91,160123,2,0,B|151:157|151:157|139:165|139:165|157:228|157:228|144:234|144:234|138:304,1,230.99999295044,8|0,0:0|0:0,0:0:0:0:
50,362,160417,6,0,L|56:285,1,60.5000018463135,10|0,0:3|0:0,0:0:0:0:
4,183,160564,2,0,L|-1:244,1,60.5000018463135,2|0,0:0|0:0,0:0:0:0:
137,304,160712,6,0,B|185:323|224:304|224:304|264:284|314:302,1,181.500005538941,2|0,0:0|0:0,0:0:0:0:
379,376,161006,1,10,0:3:0:0:
368,142,161153,5,2,0:0:0:0:
368,142,161226,1,0,0:0:0:0:
368,142,161300,2,0,B|439:186|406:277|406:277|399:249|375:226,1,214.49999018097,10|0,0:0|0:0,0:0:0:0:
267,77,161594,6,0,B|322:69|348:18|348:18|384:65|444:62,1,214.49999018097,2|0,0:0|0:0,0:0:0:0:
249,168,161888,6,0,L|217:167,6,30.2500009231568,8|0|0|0|0|0|0,0:3|0:0|0:0|0:0|0:0|0:0|0:0,0:0:0:0:
157,91,162182,2,0,L|105:61,6,30.2500009231568,0|0|0|0|0|0|0,0:0|0:0|0:0|0:0|0:0|0:0|0:0,0:0:0:0:
52,17,162476,6,0,B|33:75|33:75|52:138,1,121.000003692627,8|0,0:0|0:0,0:0:0:0:
168,297,162770,6,0,L|107:302,1,60.5000018463135,10|0,0:3|0:0,0:0:0:0:
15,217,162917,2,0,L|75:222,1,60.5000018463135,2|0,0:0|0:0,0:0:0:0:
249,330,163064,6,0,B|297:294|302:237|268:199|268:199|233:225|250:267,1,214.49999018097,2|0,0:0|0:0,0:0:0:0:
357,342,163359,5,2,3:0:0:0:
368,314,163432,1,0,3:0:0:0:
375,284,163506,1,10,3:3:0:0:
378,254,163579,1,0,3:0:0:0:
375,223,163653,2,0,L|369:162,2,60.5000018463135,10|0|0,0:0|0:0|0:0,0:0:0:0:
453,272,163873,1,0,0:0:0:0:
512,188,163947,6,0,B|506:121|506:121|516:100|516:100|508:3,1,181.500005538941,10|0,0:3|0:0,0:0:0:0:
290,96,164241,6,0,B|330:92|330:92|363:79|363:79|394:86|394:86|440:82,1,153.999995300293,8|0,0:3|0:0,0:0:0:0:
254,179,164462,5,0,0:0:0:0:
245,200,164535,2,0,L|241:244,4,38.4999988250733,0|0|0|0|8,0:0|0:0|0:0|0:0|0:3,0:0:0:0:
152,83,164756,5,0,0:0:0:0:
143,104,164829,2,0,B|148:164|148:164|157:185|157:185|152:207|152:207|153:224|153:224|148:249|148:249|157:269|157:269|163:340,1,230.99999295044,8|0,0:0|0:0,0:0:0:0:
66,361,165123,6,0,L|60:300,1,60.5000018463135,2|0,0:0|0:0,0:0:0:0:
48,165,165270,2,0,L|53:225,1,60.5000018463135,2|0,0:0|0:0,0:0:0:0:
163,329,165417,6,0,B|212:352|259:320|259:320|258:306|258:306|301:273|351:296,1,214.49999018097,2|0,0:0|0:0,0:0:0:0:
502,373,165712,1,10,0:3:0:0:
401,198,165859,5,2,0:0:0:0:
401,198,165932,1,0,0:0:0:0:
401,198,166006,2,0,B|459:258|459:258|510:190,1,165,10|0,0:0|0:0,0:0:0:0:
511,98,166300,6,0,B|448:71|448:71|390:103,1,132,2|0,0:3|0:0,0:0:0:0:
324,254,166594,5,8,0:3:0:0:
275,147,166741,1,0,0:0:0:0:
175,222,166888,1,0,0:0:0:0:
126,115,167035,1,0,0:0:0:0:
238,297,167182,5,8,0:0:0:0:
275,147,167329,1,0,0:0:0:0:
84,200,167476,1,10,0:3:0:0:
317,251,167623,1,2,0:0:0:0:
317,251,167697,1,0,0:0:0:0:
317,251,167770,1,2,0:0:0:0:
459,83,167917,5,0,3:0:0:0:
434,73,167990,1,0,3:0:0:0:
408,68,168064,1,0,3:0:0:0:
382,68,168137,1,0,3:0:0:0:
356,72,168211,1,8,3:3:0:0:
331,81,168284,1,0,3:0:0:0:
275,147,168359,6,0,B|235:154|198:133|198:133|171:142|171:142|126:116|84:124,1,197.99999395752,10|0,0:0|0:0,0:0:0:0:
58,206,168653,6,0,B|19:244|56:294|56:294|115:280|106:222,1,197.99999395752,10|0,0:3|0:0,0:0:0:0:
238,297,168947,6,0,B|301:290|301:290|327:277|327:277|399:270,1,165.000006294251,8|0,0:3|0:0,0:0:0:0:
483,142,169167,5,0,0:0:0:0:
493,121,169241,2,0,L|497:70,4,41.2500015735627,0|0|0|0|8,0:0|0:0|0:0|0:0|0:3,0:0:0:0:
331,81,169462,5,0,0:0:0:0:
322,102,169535,2,0,B|326:158|326:158|349:181|349:181|339:192|339:192|342:217|342:217|316:232|316:232|334:260|334:260|340:314,1,247.500009441376,8|0,0:0|0:0,0:0:0:0:
425,384,169829,6,0,L|490:377,1,65.9999979858399,2|0,0:0|0:0,0:0:0:0:
503,223,169976,2,0,L|437:228,1,65.9999979858399,2|0,0:0|0:0,0:0:0:0:
220,384,170123,6,0,B|175:327|218:247|218:247|237:295,1,197.99999395752,2|0,0:0|0:0,0:0:0:0:
325,384,170417,1,10,0:3:0:0:
244,163,170564,5,2,0:0:0:0:
244,163,170638,1,0,0:0:0:0:
244,163,170712,2,0,B|207:130|158:120|158:120|116:139|98:182|98:182|122:176|145:183,1,230.99999295044,10|0,0:0|0:0,0:0:0:0:
317,233,171006,6,0,B|350:192|343:126|343:126|356:192|411:218,1,230.99999295044,2|0,0:0|0:0,0:0:0:0:
268,65,171300,6,0,L|265:32,6,32.99999899292,0|0|0|0|0|0|0,0:3|0:0|0:0|0:0|0:0|0:0|0:0,0:0:0:0:
159,121,171594,2,0,L|156:153,6,32.99999899292
48,23,171888,6,0,B|97:0|97:0|173:17,1,131.99999597168,8|0,0:0|0:0,0:0:0:0:
39,204,172182,6,0,L|44:138,1,65.9999979858399,10|0,0:3|0:0,0:0:0:0:
244,163,172329,2,0,L|249:228,1,65.9999979858399,2|0,0:0|0:0,0:0:0:0:
46,334,172476,6,0,B|122:332|160:257|160:257|177:302|220:318,1,230.99999295044,2|0,0:0|0:0,0:0:0:0:
436,292,172770,5,2,3:0:0:0:
404,282,172844,1,0,3:0:0:0:
371,280,172917,1,10,3:3:0:0:
337,282,172991,1,0,3:0:0:0:
308,297,173064,2,0,L|302:362,2,65.9999979858399,10|0|0,0:0|0:0|0:0,0:0:0:0:
249,228,173285,1,0,0:0:0:0:
160,258,173359,6,0,B|165:193|165:193|159:185|159:185|164:131|164:131|161:119|161:119|165:63,1,197.99999395752,10|0,0:3|0:0,0:0:0:0:
339,31,173653,6,0,B|334:80|334:80|345:106|345:106|337:122|337:122|331:192,1,165.000006294251,8|0,0:3|0:0,0:0:0:0:
79,222,173873,5,0,0:0:0:0:
66,243,173947,2,0,L|61:290,4,41.2500015735627,0|0|0|0|8,0:0|0:0|0:0|0:0|0:3,0:0:0:0:
245,140,174167,5,0,0:0:0:0:
254,162,174241,2,0,L|248:227,1,65.9999979858399,8|0,0:0|0:0,0:0:0:0:
436,294,174388,2,0,L|430:228,1,65.9999979858399,0|0,0:0|0:0,0:0:0:0:
339,31,174535,1,10,0:3:0:0:
495,172,174682,6,0,L|500:106,1,65.9999979858399,2|0,0:0|0:0,0:0:0:0:
510,17,174829,1,10,0:3:0:0:
430,228,174976,1,0,0:0:0:0:
247,53,175123,5,2,3:0:0:0:
215,43,175197,1,0,3:0:0:0:
182,39,175270,1,10,3:3:0:0:
149,44,175344,1,0,3:0:0:0:
121,61,175417,6,0,B|126:119|126:119|116:131|116:131|140:174|140:174|132:188|132:188|138:258,1,197.99999395752,10|0,0:0|0:0,0:0:0:0:
272,348,175712,2,0,B|212:342|212:342|191:332|191:332|160:347|160:347|112:343,1,165,10|0,0:3|0:0,0:0:0:0:
3,197,176006,5,8,0:3:0:0:
42,384,176153,1,0,0:0:0:0:
152,131,176300,1,0,0:0:0:0:
112,343,176447,1,8,0:3:0:0:
46,93,176594,1,8,0:0:0:0:
38,286,176741,1,0,0:0:0:0:
237,151,176888,6,0,P|238:123|232:96,1,55,10|0,0:3|0:0,0:0:0:0:
99,20,177035,2,0,P|121:35|148:43,1,55,2|0,0:0|0:0,0:0:0:0:
351,23,177182,5,2,3:0:0:0:
337,57,177256,1,0,3:0:0:0:
333,92,177329,1,8,3:3:0:0:
342,128,177403,1,0,3:0:0:0:
368,152,177476,1,0,3:0:0:0:
377,188,177550,1,0,3:0:0:0:
373,223,177623,1,0,3:0:0:0:
359,258,177697,1,0,3:0:0:0:
336,291,177770,6,0,P|314:292|292:288,1,44,2|0,0:0|0:0,0:0:0:0:
203,302,177917,2,0,P|190:283|183:263,1,44,2|0,0:0|0:0,0:0:0:0:
101,229,178064,6,0,P|125:169|134:103,1,132,2|0,0:0|0:0,0:0:0:0:
100,19,178359,6,0,B|168:1|210:54|210:54|251:16|251:16|250:103|299:160|383:147|419:104|419:33|380:2|320:16,1,528,8|0,0:3|0:0,0:0:0:0:
321,15,180417,5,8,0:1:0:0:
210,54,180564,1,8,0:1:0:0:
400,99,180711,6,0,B|461:84|512:140|512:140|466:203|397:189|397:189|353:247|396:318|396:318|468:294|472:220,1,528,8|0,0:1|0:0,0:0:0:0:
472,223,182770,5,8,0:1:0:0:
400,99,182917,1,8,0:1:0:0:
344,232,183064,6,0,B|272:261|211:222|211:222|150:180|83:211|83:211|136:296|136:296|211:269|285:313,1,528,8|0,0:1|0:0,0:0:0:0:
283,312,185123,5,8,0:1:0:0:
136,296,185270,1,8,0:1:0:0:
251,194,185417,5,8,0:1:0:0:
288,331,185564,1,8,0:1:0:0:
133,275,185712,6,0,B|114:234|132:195|132:195|163:140|133:103|133:103|89:129|35:119|35:119|61:144|61:182,1,352,8|0,0:1|0:0,0:0:0:0:
109,27,187182,6,0,P|141:22|173:31,1,65.9999979858399,8|0,0:1|0:0,0:0:0:0:
343,44,187476,6,0,P|302:60|271:91,1,88,8|0,0:1|0:0,0:0:0:0:
133,275,187770,6,0,L|242:265,1,110,8|0,0:3|0:0,0:0:0:0:
271,90,188064,1,0,0:0:0:0:
250,291,188212,1,0,0:0:0:0:
477,214,188358,6,0,B|395:206|395:206|383:200|383:200|258:189,1,220,8|8,0:0|0:3,0:0:0:0:
259,189,188799,1,8,0:3:0:0:
109,27,188946,6,0,L|118:136,1,110,8|0,0:3|0:0,0:0:0:0:
164,324,189241,2,0,L|173:214,1,110,8|0,0:3|0:0,0:0:0:0:
446,76,189534,6,0,B|404:97|356:83|356:83|309:68|269:89,1,181.500005538941,8|0,0:0|0:0,0:0:0:0:
259,189,189829,6,0,B|253:267|326:308|326:308|337:227,1,214.49999018097
118,136,190123,6,0,L|8:145,1,110,8|0,0:3|0:0,0:0:0:0:
125,235,190417,1,0,0:0:0:0:
41,61,190564,1,0,0:0:0:0:
32,315,190712,6,0,B|100:320|100:320|110:331|110:331|160:316|160:316|244:323,1,220,8|8,0:0|0:3,0:0:0:0:
244,323,191152,1,8,0:3:0:0:
364,170,191299,6,0,L|373:279,1,110,8|0,0:3|0:0,0:0:0:0:
490,357,191594,2,0,L|499:247,1,110,8|0,0:3|0:0,0:0:0:0:
432,96,191888,6,0,B|386:94|352:52|352:52|332:98|279:109,1,181.500005538941,8|0,0:0|0:0,0:0:0:0:
192,242,192182,2,0,B|132:175|201:106|201:106|203:139|222:162,1,214.49999018097,0|0,0:0|0:0,0:0:0:0:
295,258,192475,5,8,3:0:0:0:
295,258,192623,1,0,3:0:0:0:
123,323,192770,5,0,3:0:0:0:
123,323,192917,1,0,3:0:0:0:
0,206,193064,5,8,3:2:0:0:
0,206,193211,1,0,3:0:0:0:
188,209,193359,5,0,3:0:0:0:
190,225,193431,1,0,3:0:0:0:
192,242,193506,1,0,3:0:0:0:
112,76,193653,5,8,3:3:0:0:
97,158,193800,1,0,3:0:0:0:
32,103,193947,1,8,3:3:0:0:
161,5,194094,5,0,3:0:0:0:
177,3,194168,1,0,3:0:0:0:
194,1,194241,1,8,3:2:0:0:
48,16,194388,1,0,0:0:0:0:
175,130,194535,5,0,3:0:0:0:
190,131,194609,1,0,3:0:0:0:
206,132,194682,1,0,3:0:0:0:
222,134,194756,1,0,3:0:0:0:
240,135,194829,6,0,L|296:139,2,55,8|0|0,3:0|3:0|3:0,3:0:0:0:
188,209,195123,1,0,3:0:0:0:
287,56,195270,5,0,3:0:0:0:
285,39,195344,1,0,3:0:0:0:
284,22,195417,1,8,3:2:0:0:
298,160,195564,1,0,3:0:0:0:
410,67,195712,5,0,3:0:0:0:
408,50,195784,1,0,3:0:0:0:
407,33,195859,1,8,3:0:0:0:
436,262,196006,5,4,0:0:0:0:
490,149,196153,6,0,P|465:173|452:203,1,55,0|0,0:0|0:0,0:0:0:0:
309,270,196300,2,0,P|335:277|362:277,1,55,0|0,0:0|0:0,0:0:0:0:
505,369,196447,2,0,P|499:342|485:318,1,55,0|0,0:0|0:0,0:0:0:0:
221,146,196594,6,0,B|157:160|150:234|150:234|199:251|230:306|230:306|216:267|235:220,1,308,0|0,0:0|0:0,0:0:0:0:
300,68,197181,6,0,B|251:63|251:63|229:53|229:53|210:60|210:60|135:53,1,165,10|0,0:3|0:0,0:0:0:0:
47,172,197476,1,8,0:1:0:0:
47,172,197623,1,0,0:0:0:0:
221,146,197770,1,8,0:1:0:0:
221,146,197917,1,0,0:0:0:0:
75,305,198064,6,0,L|79:250,1,55,10|0,0:1|0:0,0:0:0:0:
127,136,198211,2,0,L|131:190,1,55,2|0,0:0|0:0,0:0:0:0:
147,382,198359,5,10,0:1:0:0:
159,276,198506,1,0,0:0:0:0:
266,340,198652,1,8,0:1:0:0:
251,238,198799,1,0,0:0:0:0:
414,305,198946,6,0,L|359:300,1,55,10|0,0:1|0:0,0:0:0:0:
297,171,199093,2,0,L|351:166,1,55,2|0,0:0|0:0,0:0:0:0:
512,249,199240,2,0,L|502:139,1,110,10|2,0:1|0:0,0:0:0:0:
384,80,199461,5,0,0:0:0:0:
384,80,199534,1,10,0:1:0:0:
429,193,199682,1,0,0:0:0:0:
305,35,199828,1,8,0:1:0:0:
287,193,199976,1,0,0:0:0:0:
118,125,200122,6,0,L|227:134,1,110,8|0,0:1|0:0,0:0:0:0:
29,200,200417,2,0,L|24:145,1,55,10|0,0:1|0:0,0:0:0:0:
68,6,200564,2,0,L|63:60,1,55,2|0,0:0|0:0,0:0:0:0:
89,279,200712,5,10,0:1:0:0:
118,125,200859,1,0,0:0:0:0:
181,371,201006,1,8,0:1:0:0:
164,206,201153,1,0,0:0:0:0:
37,357,201299,6,0,L|91:352,1,55,10|0,0:1|0:0,0:0:0:0:
171,290,201446,2,0,L|225:294,1,55,10|0,0:1|0:0,0:0:0:0:
336,378,201593,6,0,B|331:332|331:332|342:320|342:320|317:288|317:288|311:226,1,165,10|0,0:1|0:0,0:0:0:0:
173,55,201888,6,0,B|215:71|215:71|289:56,1,121.000003692627,8|0,0:3|0:0,0:0:0:0:
483,64,202109,1,0,0:0:0:0:
483,64,202181,1,10,0:1:0:0:
397,246,202329,1,0,0:0:0:0:
377,19,202476,1,8,0:1:0:0:
512,166,202623,1,0,0:0:0:0:
292,94,202770,1,10,0:1:0:0:
291,74,202844,1,8,0:1:0:0:
289,56,202917,1,8,0:1:0:0:
455,313,203064,6,0,B|406:331|406:331|327:316,1,131.99999597168,8|0,0:3|0:0,0:0:0:0:
164,206,203285,1,0,0:0:0:0:
164,206,203359,1,10,0:1:0:0:
394,209,203506,1,8,0:1:0:0:
395,227,203579,1,8,0:1:0:0:
397,246,203653,1,8,0:1:0:0:
292,94,203800,1,0,0:1:0:0:
222,290,203946,5,10,0:1:0:0:
203,299,204020,1,8,0:1:0:0:
184,304,204093,1,8,0:1:0:0:
164,306,204167,1,8,0:1:0:0:
91,269,204240,6,0,B|67:195|149:143|149:143|163:205,1,214.49999018097,10|0,0:3|0:0,0:0:0:0:
97,350,204534,1,8,0:1:0:0:
239,210,204681,6,0,B|280:196|317:216|317:216|337:205|337:205|381:245|441:227,1,214.49999018097,10|0,0:3|0:0,0:0:0:0:
310,113,204975,1,8,0:1:0:0:
342,308,205122,6,0,L|335:236,1,71.4999967269899,10|0,0:3|0:0,0:0:0:0:
463,144,205270,2,0,L|456:215,1,71.4999967269899,10|0,0:1|0:0,0:0:0:0:
410,362,205417,5,8,0:3:0:0:
367,384,205490,1,8,0:3:0:0:
320,383,205564,1,8,0:3:0:0:
279,360,205637,1,8,0:3:0:0:
253,322,205711,1,8,0:3:0:0:
212,299,205784,1,8,0:3:0:0:
165,298,205858,1,8,0:3:0:0:
122,317,205931,1,8,0:3:0:0:
97,350,206005,5,8,0:3:0:0:
97,350,206594,6,0,B|122:318|122:318|111:227,1,131.99999597168,8|0,0:3|0:0,0:0:0:0:
84,9,206888,1,8,0:0:0:0:
11,187,207035,1,0,0:0:0:0:
192,78,207181,1,8,0:3:0:0:
0,41,207329,1,0,0:0:0:0:
111,227,207476,1,8,0:0:0:0:
71,87,207623,1,0,0:0:0:0:
220,191,207770,6,0,L|285:185,1,65.9999979858399,8|0,0:3|0:0,0:0:0:0:
372,110,207917,2,0,L|437:115,1,65.9999979858399,0|0,0:0|0:0,0:0:0:0:
506,199,208064,1,8,0:0:0:0:
410,26,208212,1,0,0:0:0:0:
394,220,208359,1,8,0:3:0:0:
512,64,208506,1,0,0:0:0:0:
279,250,208652,2,0,L|286:172,1,65.9999979858399,8|0,0:0|0:0,0:0:0:0:
300,30,208799,1,0,0:0:0:0:
356,309,208947,5,8,0:3:0:0:
372,110,209094,1,0,0:0:0:0:
446,325,209240,1,8,0:0:0:0:
291,110,209388,1,0,0:0:0:0:
506,199,209534,5,8,0:3:0:0:
279,250,209682,1,0,0:0:0:0:
471,115,209828,1,8,0:0:0:0:
356,309,209976,1,0,0:0:0:0:
426,50,210122,5,8,0:3:0:0:
446,325,210270,1,0,0:0:0:0:
291,110,210417,1,8,0:0:0:0:
506,199,210564,1,0,0:0:0:0:
258,362,210711,5,8,0:3:0:0:
334,18,210859,1,8,0:3:0:0:
356,309,211005,6,0,B|314:305|314:305|281:278|281:278|251:281|251:281|156:273,1,197.99999395752,8|0,0:0|0:0,0:0:0:0:
18,361,211299,6,0,B|54:324|54:324|63:226,1,131.99999597168,8|0,0:3|0:0,0:0:0:0:
80,12,211593,1,8,0:0:0:0:
128,209,211740,1,0,0:0:0:0:
210,24,211887,1,8,0:3:0:0:
11,68,212034,1,0,0:0:0:0:
270,163,212181,1,8,0:0:0:0:
84,128,212328,1,0,0:0:0:0:
220,314,212475,6,0,L|215:249,1,65.9999979858399,8|0,0:3|0:0,0:0:0:0:
36,272,212622,2,0,L|41:206,1,65.9999979858399,0|0,0:0|0:0,0:0:0:0:
154,84,212770,1,8,0:0:0:0:
124,311,212917,1,0,0:0:0:0:
270,163,213064,1,8,0:3:0:0:
40,206,213211,1,0,0:0:0:0:
237,13,213358,2,0,L|243:79,1,65.9999979858399,8|0,0:0|0:0,0:0:0:0:
262,248,213505,1,0,0:0:0:0:
393,55,213652,5,8,0:3:0:0:
187,198,213799,1,0,0:0:0:0:
321,14,213946,1,8,0:0:0:0:
262,248,214093,1,0,0:0:0:0:
437,132,214240,5,8,0:3:0:0:
175,112,214387,1,0,0:0:0:0:
422,210,214534,1,8,0:0:0:0:
229,48,214681,1,0,0:0:0:0:
300,330,214828,6,0,P|245:336|193:321,1,110,4|0,0:0|0:0,0:0:0:0:
12,339,215049,1,0,0:0:0:0:
12,339,215122,2,0,P|29:317|39:292,1,55,0|0,0:0|0:0,0:0:0:0:
141,234,215270,2,0,P|130:208|114:186,1,55,0|0,0:0|0:0,0:0:0:0:
103,95,215417,5,8,0:0:0:0:
111,312,215564,1,0,0:0:0:0:
325,195,215711,6,0,B|283:191|283:191|278:193|278:193|260:191|260:191|255:194|255:194|216:190,1,110,0|8,0:0|0:3,0:0:0:0:
37,100,215931,5,0,0:0:0:0:
37,100,216005,2,0,L|102:94,1,65.9999979858399,8|0,0:3|0:0,0:0:0:0:
190,20,216152,2,0,L|256:26,1,65.9999979858399,0|0,0:0|0:0,0:0:0:0:
325,195,216299,5,8,0:0:0:0:
425,1,216446,1,0,0:0:0:0:
510,206,216593,1,8,0:3:0:0:
336,77,216740,1,0,0:0:0:0:
402,306,216887,1,8,0:0:0:0:
425,105,217034,1,0,0:0:0:0:
282,306,217181,6,0,L|216:300,1,65.9999979858399,8|0,0:3|0:0,0:0:0:0:
61,216,217328,2,0,L|126:210,1,65.9999979858399,0|0,0:0|0:0,0:0:0:0:
325,195,217475,1,8,0:0:0:0:
196,376,217622,1,0,0:0:0:0:
222,160,217770,1,8,0:3:0:0:
393,285,217917,1,0,0:0:0:0:
342,12,218064,2,0,L|334:93,1,65.9999979858399,8|0,0:0|0:0,0:0:0:0:
325,195,218211,1,0,0:0:0:0:
184,57,218358,5,8,0:3:0:0:
425,105,218505,1,0,0:0:0:0:
222,160,218652,1,8,0:0:0:0:
342,12,218799,1,0,0:0:0:0:
325,195,218946,5,8,0:3:0:0:
268,49,219093,1,0,0:0:0:0:
252,245,219240,1,8,0:0:0:0:
312,116,219387,1,0,0:0:0:0:
131,130,219534,5,8,0:3:0:0:
222,160,219681,1,0,0:0:0:0:
62,240,219828,1,8,0:0:0:0:
153,210,219975,1,0,0:0:0:0:
21,135,220122,5,8,0:3:0:0:
21,135,220270,1,0,0:0:0:0:
138,42,220417,2,0,L|130:129,1,88,8|0,0:0|0:0,0:0:0:0:
260,332,220711,6,0,L|252:245,1,88,8|0,0:3|0:0,0:0:0:0:
21,135,221005,5,8,0:0:0:0:
21,135,221153,1,0,0:0:0:0:
153,210,221299,5,8,0:3:0:0:
62,240,221446,1,0,0:0:0:0:
222,160,221593,1,8,0:0:0:0:
131,130,221740,1,0,0:0:0:0:
312,116,221887,5,8,0:3:0:0:
251,244,222034,1,0,0:0:0:0:
268,49,222181,1,8,0:0:0:0:
325,195,222328,1,0,0:0:0:0:
342,12,222475,5,8,0:3:0:0:
222,160,222622,1,0,0:0:0:0:
425,105,222770,1,8,0:0:0:0:
184,57,222917,1,0,0:0:0:0:
333,284,223064,5,8,0:3:0:0:
428,17,223211,1,0,0:0:0:0:
508,305,223358,1,8,0:0:0:0:
222,160,223505,1,0,0:0:0:0:
499,58,223652,5,8,0:3:0:0:
334,368,223799,1,0,0:0:0:0:
342,11,223946,1,8,0:0:0:0:
491,381,224093,1,0,0:0:0:0:
330,148,224240,6,0,P|275:146|221:159,1,110,0|0,0:0|0:0,0:0:0:0:
80,68,224461,1,0,0:0:0:0:
80,69,224534,2,0,P|100:87|112:111,1,55,0|0,0:0|0:0,0:0:0:0:
132,219,224681,2,0,P|126:245|110:268,1,55,0|0,0:0|0:0,0:0:0:0:
139,350,224828,1,8,0:0:0:0:
221,158,224975,1,0,0:0:0:0:
418,295,225122,6,0,L|363:290,1,55,8|0,0:3|0:0,0:0:0:0:
228,275,225270,1,8,0:3:0:0:
509,373,225417,6,0,B|504:319|504:319|517:305|517:305|514:275|514:275|485:240|485:240|489:226|489:226|482:155,1,214.49999018097,8|0,0:3|0:0,0:0:0:0:
378,15,225711,2,0,B|383:69|383:69|370:83|370:83|373:113|373:113|402:148|402:148|398:162|398:162|405:233,1,214.49999018097,8|0,0:0|0:0,0:0:0:0:
328,384,226005,2,0,B|323:329|323:329|308:318|308:318|306:288|306:288|328:248|328:248|322:235|322:235|316:164,1,214.49999018097,8|0,0:3|0:0,0:0:0:0:
163,17,226299,5,8,0:0:0:0:
289,101,226446,2,0,L|234:105,1,55,0|0,0:0|0:0,0:0:0:0:
83,185,226593,2,0,P|86:103|69:23,1,165,8|0,0:3|0:0,0:0:0:0:
18,252,226887,1,8,0:0:0:0:
260,257,227034,5,0,0:0:0:0:
260,257,227108,1,0,0:0:0:0:
260,257,227181,2,0,P|178:254|98:271,1,165,8|0,0:3|0:0,0:0:0:0:
233,349,227475,2,0,P|287:350|341:339,1,110,8|0,0:0|0:0,0:0:0:0:
507,46,227770,6,0,B|455:41|455:41|430:52|430:52|402:42|402:42|377:47|377:47|352:32|352:32|301:28,1,214.49999018097,8|0,0:3|0:0,0:0:0:0:
119,93,228064,2,0,B|170:97|170:97|193:112|193:112|222:108|222:108|246:117|246:117|273:106|273:106|324:110,1,214.49999018097,8|0,0:0|0:0,0:0:0:0:
508,204,228358,2,0,B|456:199|456:199|431:210|431:210|403:200|403:200|378:205|378:205|353:190|353:190|302:186,1,214.49999018097,8|0,0:3|0:0,0:0:0:0:
97,271,228652,5,8,0:0:0:0:
231,364,228799,2,0,L|226:309,1,55,0|0,0:0|0:0,0:0:0:0:
13,223,228946,6,0,B|61:213|87:164|87:164|121:208|174:207,1,197.99999395752,8|0,0:3|0:0,0:0:0:0:
3,123,229240,1,8,0:0:0:0:
98,270,229387,1,0,0:0:0:0:
168,110,229534,6,0,L|222:105,1,55,8|0,0:3|0:0,0:0:0:0:
314,194,229681,2,0,L|259:189,1,55,8|0,0:3|0:0,0:0:0:0:
88,165,229828,2,0,L|78:55,1,110,8|0,0:0|0:0,0:0:0:0:
398,36,230122,6,0,B|393:83|393:83|400:95|400:95|395:159|395:159|402:171|402:171|395:246,1,214.49999018097,8|0,0:3|0:0,0:0:0:0:
314,384,230417,2,0,B|318:336|318:336|311:324|311:324|316:260|316:260|309:248|309:248|316:173,1,214.49999018097,8|0,0:0|0:0,0:0:0:0:
232,28,230711,2,0,B|227:75|227:75|234:87|234:87|229:151|229:151|236:163|236:163|229:238,1,214.49999018097,8|0,0:3|0:0,0:0:0:0:
20,311,231005,5,8,0:0:0:0:
86,183,231152,2,0,L|81:237,1,55,0|0,0:0|0:0,0:0:0:0:
67,383,231299,6,0,P|147:366|230:368,1,165,8|0,0:3|0:0,0:0:0:0:
369,341,231593,2,0,P|342:330|321:314,1,55,8|0,0:0|0:0,0:0:0:0:
177,251,231740,2,0,P|205:247|229:237,1,55,0|0,0:0|0:0,0:0:0:0:
387,131,231887,2,0,P|400:185|397:240,1,110,8|0,0:3|0:0,0:0:0:0:
275,133,232108,1,0,0:0:0:0:
275,133,232181,2,0,P|271:78|284:24,1,110,8|0,0:0|0:0,0:0:0:0:
0,156,232475,6,0,B|40:159|40:159|54:152|54:152|76:154|76:154|87:162|87:162|103:164|103:164|116:171|116:171|149:174|149:174|167:169|167:169|212:173,1,214.49999018097,8|0,0:3|0:0,0:0:0:0:
384,268,232770,2,0,B|343:264|343:264|329:271|329:271|307:269|307:269|296:261|296:261|280:259|280:259|267:252|267:252|234:249|234:249|216:254|216:254|171:250,1,214.49999018097,8|0,0:0|0:0,0:0:0:0:
0,317,233064,2,0,B|40:320|40:320|54:313|54:313|76:315|76:315|87:323|87:323|103:325|103:325|116:332|116:332|149:335|149:335|167:330|167:330|212:334,1,214.49999018097,8|0,0:3|0:0,0:0:0:0:
320,188,233358,5,8,0:0:0:0:
375,371,233505,1,0,0:0:0:0:
375,371,233578,1,0,0:0:0:0:
375,371,233652,1,8,0:3:0:0:
467,215,233799,6,0,L|471:160,1,55,0|0,0:0|0:0,0:0:0:0:
349,97,233946,2,0,L|394:128,1,55,0|0,0:0|0:0,0:0:0:0:
508,54,234093,2,0,L|458:77,1,55,0|0,0:0|0:0,0:0:0:0:
320,188,234240,5,8,0:0:0:0:
222,25,234387,2,0,L|217:79,1,55,0|0,0:0|0:0,0:0:0:0:
120,206,234534,2,0,L|229:196,1,110,0|8,0:0|0:3,0:0:0:0:
55,69,234755,5,0,0:0:0:0:
55,69,234828,2,0,L|61:140,1,71.4999967269899,8|0,0:3|0:0,0:0:0:0:
229,196,234975,2,0,L|222:267,1,71.4999967269899,8|0,0:3|0:0,0:0:0:0:
45,353,235122,6,0,B|96:348|96:348|134:370|134:370|155:354|155:354|264:344,1,214.49999018097,8|0,0:0|0:0,0:0:0:0:
425,260,235417,2,0,B|373:264|373:264|335:242|335:242|314:258|314:258|205:268,1,214.49999018097,8|0,0:3|0:0,0:0:0:0:
61,140,235711,5,8,0:0:0:0:
131,280,235858,2,0,L|135:225,1,55,0|0,0:0|0:0,0:0:0:0:
305,149,236005,2,0,P|229:138|145:106,1,165,8|0,0:3|0:0,0:0:0:0:
374,87,236299,1,8,0:0:0:0:
336,243,236446,5,0,0:0:0:0:
336,243,236520,1,0,0:0:0:0:
336,243,236593,2,0,P|406:213|495:200,1,165,8|0,0:3|0:0,0:0:0:0:
373,337,236887,2,0,P|318:335|266:318,1,110,8|0,0:0|0:0,0:0:0:0:
55,69,237181,6,0,B|61:142|61:142|49:134|49:134|59:163|59:163|54:189|54:189|64:197|64:197|69:254,1,214.49999018097,8|0,0:3|0:0,0:0:0:0:
158,384,237475,2,0,B|151:310|151:310|163:318|163:318|153:289|153:289|158:263|158:263|148:255|148:255|143:198,1,214.49999018097,8|0,0:0|0:0,0:0:0:0:
221,58,237770,2,0,B|227:131|227:131|215:123|215:123|225:152|225:152|220:178|220:178|230:186|230:186|235:243,1,214.49999018097,8|0,0:3|0:0,0:0:0:0:
451,376,238064,5,8,0:0:0:0:
344,183,238211,2,0,L|340:238,1,55,0|0,0:0|0:0,0:0:0:0:
487,295,238358,2,0,B|431:278|392:311|392:311|348:341|300:318,1,197.99999395752,8|0,0:3|0:0,0:0:0:0:
143,199,238652,5,8,0:0:0:0:
239,371,238799,1,0,0:0:0:0:
269,150,238946,2,0,L|214:154,1,55,8|0,0:3|0:0,0:0:0:0:
63,169,239093,1,8,0:3:0:0:
239,371,239240,2,0,L|248:261,1,110,8|0,0:0|0:0,0:0:0:0:
504,32,239534,6,0,B|439:37|439:37|425:46|425:46|412:48|412:48|387:31|387:31|354:45|354:45|300:49,1,214.49999018097,8|0,0:3|0:0,0:0:0:0:
138,143,239828,2,0,B|202:137|202:137|218:143|218:143|231:142|231:142|252:121|252:121|287:129|287:129|341:125,1,214.49999018097,8|0,0:0|0:0,0:0:0:0:
512,193,240122,2,0,B|447:198|447:198|433:207|433:207|420:209|420:209|395:192|395:192|362:206|362:206|308:210,1,214.49999018097,8|0,0:3|0:0,0:0:0:0:
140,357,240417,5,8,0:0:0:0:
247,261,240564,2,0,L|192:265,1,55,0|0,0:0|0:0,0:0:0:0:
44,363,240711,2,0,P|76:288|88:207,1,165,8|0,0:3|0:0,0:0:0:0:
2,75,241005,2,0,P|26:87|53:93,1,55,8|0,0:0|0:0,0:0:0:0:
138,143,241152,2,0,P|161:128|179:107,1,55,0|0,0:0|0:0,0:0:0:0:
341,18,241299,6,0,P|321:69|312:123,1,110,8|0,0:3|0:0,0:0:0:0:
462,188,241520,1,0,0:0:0:0:
462,188,241593,2,0,P|481:239|490:293,1,110,8|0,0:0|0:0,0:0:0:0:
132,346,241887,6,0,B|135:307|135:307|124:289|124:289|127:255|127:255|117:233|117:233|121:194|121:194|134:178|134:178|137:142,1,214.49999018097,8|0,0:3|0:0,0:0:0:0:
208,44,242181,2,0,B|204:82|204:82|215:100|215:100|212:134|212:134|222:156|222:156|218:195|218:195|205:211|205:211|202:247,1,214.49999018097,8|0,0:0|0:0,0:0:0:0:
307,328,242475,2,0,B|310:289|310:289|299:271|299:271|302:237|302:237|292:215|292:215|296:176|296:176|309:160|309:160|312:124,1,214.49999018097,8|0,0:3|0:0,0:0:0:0:
506,5,242770,5,8,0:0:0:0:
386,210,242917,1,0,0:0:0:0:
386,210,242990,1,0,0:0:0:0:
386,210,243064,6,0,B|457:252|496:182|496:182|462:189,1,165,8|0,0:3|0:0,0:0:0:0:
312,123,243358,2,0,L|202:113,1,110,0|0,0:0|0:0,0:0:0:0:
5,212,243578,5,0,0:0:0:0:
5,212,243652,2,0,L|56:193,1,55,8|0,0:0|0:0,0:0:0:0:
169,187,243799,2,0,L|126:151,1,55,0|0,0:0|0:0,0:0:0:0:
65,59,243946,2,0,L|55:113,1,55,0|0,0:0|0:0,0:0:0:0:
20,300,244093,1,8,0:3:0:0:
312,123,244240,6,0,B|335:164|335:164|323:254,1,131.99999597168,10|0,0:3|0:0,0:0:0:0:
186,384,244461,1,0,0:0:0:0:
184,364,244534,2,0,L|178:298,1,65.9999979858399,8|0,0:0|0:0,0:0:0:0:
169,187,244681,1,2,0:0:0:0:
312,333,244828,1,8,0:3:0:0:
79,379,244975,1,0,0:0:0:0:
282,251,245122,5,10,0:0:0:0:
323,248,245196,1,0,0:0:0:0:
366,254,245270,1,0,0:0:0:0:
404,271,245343,1,0,0:0:0:0:
437,308,245417,6,0,B|442:249|442:249|448:239|448:239|457:138,1,165.000006294251,10|0,0:3|0:0,0:0:0:0:
169,187,245711,1,10,0:0:0:0:
452,61,245858,5,0,0:0:0:0:
413,46,245931,1,0,0:0:0:0:
371,51,246005,6,0,B|311:56|311:56|289:70|289:70|249:47|249:47|207:65|207:65|124:72,1,247.500009441376,10|0,0:3|0:0,0:0:0:0:
0,215,246299,2,0,B|54:170|50:76|50:76|59:141|124:160,1,247.500009441376,10|0,0:0|0:0,0:0:0:0:
286,357,246593,6,0,B|244:382|244:382|159:359,1,131.99999597168,10|0,0:3|0:0,0:0:0:0:
96,237,246814,1,0,0:0:0:0:
114,235,246887,2,0,L|183:228,1,65.9999979858399,8|0,0:0|0:0,0:0:0:0:
342,212,247034,1,2,0:0:0:0:
163,361,247181,1,8,0:3:0:0:
256,155,247328,1,0,0:0:0:0:
426,348,247475,5,10,0:0:0:0:
448,314,247549,1,0,0:0:0:0:
462,277,247622,1,0,0:0:0:0:
465,238,247696,1,0,0:0:0:0:
458,200,247770,6,0,B|453:143|453:143|470:126|470:126|462:30|462:30|407:75,1,247.500009441376,10|0,0:3|0:0,0:0:0:0:
177,121,248064,2,0,B|222:125|222:125|259:117|259:117|292:131|292:131|338:135,1,165.000006294251,10|0,0:0|0:0,0:0:0:0:
79,88,248284,1,0,0:0:0:0:
79,88,248358,2,0,L|86:172,1,82.5000031471254,10|0,0:3|0:0,0:0:0:0:
249,211,248505,2,0,L|242:294,1,82.5000031471254,10|0,0:3|0:0,0:0:0:0:
94,350,248652,6,0,B|51:374|12:346|12:346|21:278|79:254|129:276,1,247.500009441376,10|0,0:0|0:0,0:0:0:0:
381,384,248946,6,0,B|355:353|355:353|365:239,1,131.99999597168,10|0,0:3|0:0,0:0:0:0:
444,40,249167,1,0,0:0:0:0:
445,58,249240,2,0,L|450:123,1,65.9999979858399,8|0,0:0|0:0,0:0:0:0:
464,293,249387,1,2,0:0:0:0:
292,119,249534,1,8,0:3:0:0:
512,183,249681,1,0,0:0:0:0:
289,220,249828,5,10,0:0:0:0:
245,219,249902,1,0,0:0:0:0:
204,206,249975,1,0,0:0:0:0:
164,184,250049,1,0,0:0:0:0:
139,149,250122,6,0,B|88:119|33:124|33:124|22:163|-12:187|-12:187|16:170|44:172,1,247.500009441376,10|0,0:3|0:0,0:0:0:0:
297,303,250417,6,0,L|289:220,1,82.5000031471254,10|0,0:0|0:0,0:0:0:0:
148,67,250564,2,0,L|140:149,1,82.5000031471254,2|0,0:0|0:0,0:0:0:0:
210,376,250711,6,0,B|257:371|257:371|279:383|279:383|356:377,1,142.99999345398,10|0,0:3|0:0,0:0:0:0:
512,233,250931,1,0,0:0:0:0:
512,233,251005,2,0,B|464:237|464:237|444:252|444:252|367:259,1,142.99999345398,10|0,0:0|0:0,0:0:0:0:
77,323,251299,6,0,B|54:277|54:277|77:191,1,131.99999597168,10|0,0:3|0:0,0:0:0:0:
170,9,251520,1,0,0:0:0:0:
171,27,251593,2,0,L|176:92,1,65.9999979858399,8|0,0:0|0:0,0:0:0:0:
192,261,251740,1,2,0:0:0:0:
263,58,251887,1,8,0:3:0:0:
32,127,252034,1,0,0:0:0:0:
277,175,252181,5,10,0:0:0:0:
343,173,252255,1,0,0:0:0:0:
406,155,252328,1,0,0:0:0:0:
457,112,252402,1,0,0:0:0:0:
481,52,252475,5,10,0:3:0:0:
356,297,252622,5,0,0:0:0:0:
352,330,252696,1,0,0:0:0:0:
356,362,252770,1,0,0:0:0:0:
469,253,252953,1,0,0:0:0:0:
277,175,253064,6,0,L|225:156,1,55,10|0,0:0|0:0,0:0:0:0:
126,258,253211,2,0,L|168:222,1,55,2|0,0:0|0:0,0:0:0:0:
129,85,253358,2,0,L|138:139,1,55,2|0,0:0|0:0,0:0:0:0:
182,340,253505,1,8,0:3:0:0:
0,187,253652,6,0,L|65:192,1,65.9999979858399,10|0,0:3|0:0,0:0:0:0:
182,340,253799,2,0,L|247:334,1,65.9999979858399,8|0,0:3|0:0,0:0:0:0:
277,175,253946,6,0,L|279:142,1,32.99999899292,8|0,0:0|0:0,0:0:0:0:
356,362,254093,1,2,0:0:0:0:
126,258,254240,1,8,0:3:0:0:
384,219,254387,1,0,0:0:0:0:
204,10,254534,6,0,L|171:-9,1,32.99999899292,10|0,0:0|0:0,0:0:0:0:
179,42,254608,1,0,0:0:0:0:
170,81,254681,1,0,0:0:0:0:
170,121,254755,1,0,0:0:0:0:
184,157,254828,2,0,B|241:151|241:151|262:116|262:116|286:131|286:131|309:128|309:128|334:138|334:138|405:132,1,247.500009441376,10|0,0:3|0:0,0:0:0:0:
260,325,255122,6,0,L|256:366,1,41.2500015735627,10|0,0:0|0:0,0:0:0:0:
512,243,255270,1,2,0:0:0:0:
475,225,255343,1,0,0:0:0:0:
433,219,255417,6,0,B|399:211|370:224|370:224|359:239|359:239|332:217|293:219|293:219|282:232|282:232|243:250|206:243,1,247.500009441376,10|0,0:3|0:0,0:0:0:0:
404,132,255711,6,0,L|408:78,1,41.2500015735627,10|0,0:0|0:0,0:0:0:0:
416,304,255858,1,0,0:0:0:0:
461,24,256005,6,0,B|414:8|414:8|329:24,1,131.99999597168,10|0,0:3|0:0,0:0:0:0:
142,92,256225,5,0,0:0:0:0:
142,92,256299,2,0,L|86:87,1,32.99999899292,8|0,0:0|0:0,0:0:0:0:
313,247,256446,1,2,0:0:0:0:
235,6,256593,1,8,0:3:0:0:
150,208,256740,1,0,0:0:0:0:
409,87,256887,6,0,L|429:51,1,32.99999899292,10|0,0:0|0:0,0:0:0:0:
435,122,256961,1,0,0:0:0:0:
454,165,257034,1,0,0:0:0:0:
458,211,257108,1,0,0:0:0:0:
447,256,257181,6,0,B|391:260|391:260|356:255|356:255|319:291|319:291|284:275|284:275|205:282,1,247.500009441376,10|0,0:3|0:0,0:0:0:0:
20,343,257475,6,0,L|16:384,1,41.2500015735627,10|0,0:0|0:0,0:0:0:0:
150,208,257622,1,0,0:0:0:0:
150,208,257696,1,0,0:0:0:0:
150,208,257770,2,0,L|142:121,1,82.5000031471254,10|0,0:3|0:0,0:0:0:0:
7,20,257917,2,0,L|0:102,1,82.5000031471254,2|0,0:0|0:0,0:0:0:0:
20,343,258064,6,0,L|16:384,1,41.2500015735627,10|0,0:0|0:0,0:0:0:0:
58,169,258211,1,0,0:0:0:0:
233,359,258358,6,0,B|281:372|281:372|361:343,1,131.99999597168,10|0,0:3|0:0,0:0:0:0:
404,132,258578,5,0,0:0:0:0:
404,132,258652,2,0,L|406:99,1,32.99999899292,8|0,0:0|0:0,0:0:0:0:
464,364,258799,1,2,0:0:0:0:
233,247,258946,1,8,0:3:0:0:
506,267,259093,1,0,0:0:0:0:
223,163,259240,6,0,L|236:132,1,32.99999899292,10|0,0:0|0:0,0:0:0:0:
169,158,259314,1,0,0:0:0:0:
116,166,259387,1,0,0:0:0:0:
70,186,259461,1,0,0:0:0:0:
37,225,259534,6,0,B|-12:290|31:365|31:365|90:353|84:295,1,247.500009441376,10|0,0:3|0:0,0:0:0:0:
133,47,259828,6,0,L|129:5,1,41.2500015735627,10|0,0:0|0:0,0:0:0:0:
233,247,259975,1,2,0:0:0:0:
431,44,260122,6,0,B|377:49|377:49|364:59|364:59|271:68,1,165.000006294251,10|0,0:3|0:0,0:0:0:0:
37,225,260343,1,0,0:0:0:0:
37,225,260417,2,0,B|90:229|90:229|103:239|103:239|197:248,1,165.000006294251,10|0,0:0|0:0,0:0:0:0:
499,366,260711,6,0,B|521:326|521:326|512:240,1,131.99999597168,10|0,0:3|0:0,0:0:0:0:
431,44,260931,5,0,0:0:0:0:
431,44,261005,2,0,L|428:11,1,32.99999899292,8|0,0:0|0:0,0:0:0:0:
233,247,261152,1,2,0:0:0:0:
512,98,261299,1,8,0:3:0:0:
210,17,261446,1,0,0:0:0:0:
439,275,261593,6,0,L|441:307,1,32.99999899292,10|0,0:0|0:0,0:0:0:0:
428,11,261740,1,0,0:0:0:0:
350,316,261887,5,8,0:3:0:0:
309,332,261961,1,8,0:3:0:0:
265,336,262034,1,8,0:3:0:0:
224,318,262108,1,8,0:3:0:0:
192,288,262181,1,8,0:3:0:0:
151,270,262255,1,8,0:3:0:0:
107,274,262328,1,8,0:3:0:0:
66,290,262402,1,8,0:3:0:0:
24,356,262475,6,0,B|18:297|18:297|6:285|6:285|2:234|2:234|11:215|11:215|7:165|7:165|51:147|51:147|58:219,1,308,0|0,0:0|0:0,0:0:0:0:
151,270,263064,6,0,L|140:149,1,121.000003692627,10|0,0:3|0:0,0:0:0:0:
265,336,263358,1,8,0:0:0:0:
66,290,263505,1,2,0:0:0:0:
280,237,263652,1,8,0:3:0:0:
148,384,263799,1,0,0:0:0:0:
269,116,263946,6,0,L|280:237,1,121.000003692627,10|0,0:0|0:0,0:0:0:0:
185,55,264240,1,8,0:3:0:0:
358,174,264387,1,2,0:0:0:0:
151,270,264534,1,8,0:0:0:0:
279,99,264681,1,0,0:0:0:0:
436,324,264828,6,0,B|498:260|440:185|440:185|434:218|412:237,1,214.49999018097,10|0,0:3|0:0,0:0:0:0:
287,276,265122,2,0,B|248:326|295:371|295:371|355:345|334:286,1,214.49999018097,10|0,0:0|0:0,0:0:0:0:
269,116,265417,6,2,L|148:126,1,121.000003692627,10|0,0:3|0:0,0:0:0:0:
287,276,265711,1,8,0:0:0:0:
356,87,265858,1,2,0:0:0:0:
148,126,266005,1,8,0:3:0:0:
379,82,266152,1,0,0:0:0:0:
166,286,266299,6,0,L|286:275,1,121.000003692627,10|0,0:0|0:0,0:0:0:0:
78,215,266593,1,8,0:3:0:0:
209,377,266740,1,2,0:0:0:0:
300,192,266887,1,8,0:0:0:0:
145,298,267034,1,0,0:0:0:0:
372,308,267181,6,0,L|365:236,1,71.4999967269899,10|0,0:3|0:0,0:0:0:0:
227,153,267328,2,0,L|221:225,1,71.4999967269899,10|0,0:3|0:0,0:0:0:0:
129,379,267475,6,0,B|181:384|215:337|215:337|252:387|317:374,1,214.49999018097,10|0,0:0|0:0,0:0:0:0:
444,269,267770,6,0,L|433:148,1,121.000003692627,10|0,0:3|0:0,0:0:0:0:
292,283,268064,1,8,0:0:0:0:
345,89,268211,1,2,0:0:0:0:
128,130,268358,1,8,0:3:0:0:
365,85,268505,1,0,0:0:0:0:
105,134,268652,6,0,L|115:254,1,121.000003692627,10|0,0:0|0:0,0:0:0:0:
13,84,268946,1,8,0:3:0:0:
193,191,269093,1,2,0:0:0:0:
24,301,269240,1,8,0:0:0:0:
112,114,269387,1,0,0:0:0:0:
157,322,269534,6,0,B|198:339|242:314|242:314|266:325|266:325|314:303|363:314,1,214.49999018097,10|0,0:3|0:0,0:0:0:0:
472,201,269828,2,0,B|520:267|455:332|455:332|459:297|443:268,1,214.49999018097,10|0,0:0|0:0,0:0:0:0:
313,201,270122,6,0,L|192:190,1,121.000003692627,10|0,0:3|0:0,0:0:0:0:
0,170,270417,1,8,0:0:0:0:
146,47,270564,1,2,0:0:0:0:
89,243,270711,1,8,0:3:0:0:
17,41,270858,1,0,0:0:0:0:
97,265,271005,6,0,L|217:275,1,121.000003692627,10|2,0:0|0:0,0:0:0:0:
406,298,271225,1,0,0:0:0:0:
406,298,271299,1,10,0:3:0:0:
192,190,271446,6,0,B|163:132|224:76|224:76|239:121,1,176,10|0,0:3|0:0,0:0:0:0:
457,220,271887,6,0,L|414:208,1,44,8|0,0:0|0:0,0:0:0:0:
304,248,272034,2,0,L|335:216,1,44,0|0,0:0|0:0,0:0:0:0:
355,101,272181,2,0,L|366:143,1,44,0|0,0:0|0:0,0:0:0:0:
406,298,272328,1,8,0:3:0:0:
239,121,272475,6,0,L|178:126,1,60.5000018463135,10|0,0:3|0:0,0:0:0:0:
53,221,272622,2,0,L|113:226,1,60.5000018463135,8|0,0:3|0:0,0:0:0:0:
304,248,272770,6,0,L|334:250,1,30.2500009231568,8|0,0:0|0:0,0:0:0:0:
134,336,272917,2,0,L|13:325,1,121.000003692627,2|8,0:0|0:3,0:0:0:0:
232,204,273211,1,0,0:0:0:0:
47,43,273358,6,0,L|16:40,1,30.2500009231568,10|0,0:0|0:0,0:0:0:0:
178,126,273505,2,0,L|238:120,1,60.5000018463135,0|0,0:0|0:0,0:0:0:0:
289,39,273652,2,0,L|349:44,1,60.5000018463135,8|0,0:3|0:0,0:0:0:0:
427,113,273799,1,2,0:0:0:0:
232,204,273946,6,0,L|201:206,1,30.2500009231568,8|0,0:0|0:0,0:0:0:0:
289,39,274093,1,0,0:0:0:0:
495,250,274240,6,0,L|489:184,1,65.9999979858399,10|0,0:3|0:0,0:0:0:0:
333,126,274387,2,0,L|327:191,1,65.9999979858399,0|0,0:0|0:0,0:0:0:0:
382,309,274534,6,0,L|385:349,1,38.4999988250733,10|0,0:0|0:0,0:0:0:0:
489,184,274681,1,0,0:0:0:0:
299,335,274828,6,0,L|178:324,1,121.000003692627,10|0,0:3|0:0,0:0:0:0:
333,126,275122,6,0,L|335:95,1,30.2500009231568,8|0,0:0|0:0,0:0:0:0:
382,309,275270,1,2,0:0:0:0:
111,214,275417,2,0,L|231:203,1,121.000003692627,8|0,0:3|0:0,0:0:0:0:
47,43,275711,6,0,L|44:12,1,30.2500009231568,10|0,0:0|0:0,0:0:0:0:
236,143,275858,6,0,L|230:205,1,60.5000018463135,0|0,0:0|0:0,0:0:0:0:
116,274,276005,2,0,L|110:213,1,60.5000018463135,8|0,0:3|0:0,0:0:0:0:
157,61,276152,1,2,0:0:0:0:
249,301,276299,6,0,L|251:331,1,30.2500009231568,8|0,0:0|0:0,0:0:0:0:
236,143,276446,1,0,0:0:0:0:
157,354,276593,6,0,L|91:359,1,65.9999979858399,10|0,0:3|0:0,0:0:0:0:
44,208,276740,2,0,L|109:213,1,65.9999979858399,2|0,0:0|0:0,0:0:0:0:
321,260,276887,6,0,L|359:256,1,38.4999988250733,10|0,0:0|0:0,0:0:0:0:
236,143,277034,1,0,0:0:0:0:
449,325,277181,6,0,L|459:204,1,121.000003692627,10|0,0:3|0:0,0:0:0:0:
236,143,277402,5,0,0:0:0:0:
236,143,277475,2,0,L|232:102,1,30.2500009231568,8|0,0:0|0:0,0:0:0:0:
321,260,277622,1,2,0:0:0:0:
441,109,277770,2,0,L|291:122,1,121.000003692627,8|0,0:3|0:0,0:0:0:0:
109,213,278064,6,0,L|77:190,1,30.2500009231568,10|0,0:0|0:0,0:0:0:0:
112,183,278137,1,0,0:0:0:0:
115,152,278211,1,0,0:0:0:0:
163,331,278358,1,8,0:3:0:0:
22,272,278505,1,2,0:0:0:0:
321,260,278652,6,0,L|351:257,1,30.2500009231568,8|0,0:0|0:0,0:0:0:0:
163,331,278799,1,0,0:0:0:0:
133,328,278873,1,0,0:0:0:0:
103,325,278946,1,10,0:3:0:0:
280,384,279093,1,0,0:0:0:0:
209,219,279240,6,0,L|179:213,1,30.2500009231568,10|0,0:0|0:0,0:0:0:0:
205,188,279314,1,0,0:0:0:0:
203,157,279387,1,2,0:0:0:0:
200,126,279461,1,0,0:0:0:0:
197,95,279534,6,0,L|190:25,2,60.5000018463135,10|0|2,0:3|0:0|0:0,0:0:0:0:
24,241,279828,6,0,L|21:271,1,30.2500009231568,8|0,0:0|0:0,0:0:0:0:
68,124,279975,5,2,0:0:0:0:
70,93,280049,1,0,0:0:0:0:
73,62,280122,1,8,0:3:0:0:
124,251,280270,1,0,0:0:0:0:
197,95,280417,6,0,L|238:71,1,30.2500009231568,10|0,0:0|0:0,0:0:0:0:
199,64,280490,1,0,0:0:0:0:
202,33,280564,1,2,0:0:0:0:
321,260,280711,5,8,0:3:0:0:
402,162,280858,6,0,P|375:172|354:189,1,55
199,215,281005,2,0,P|221:232|246:242,1,55,0|0,0:0|0:0,0:0:0:0:
375,372,281152,2,0,P|379:344|375:317,1,55,0|0,0:0|0:0,0:0:0:0:
124,251,281299,6,0,B|67:241|28:285|33:330|33:330|71:354|108:326,1,220,8|8,0:0|0:3,0:0:0:0:
199,215,281740,1,8,0:3:0:0:
73,62,281887,6,0,L|160:69,1,88,8|0,0:3|0:0,0:0:0:0:
305,78,282181,1,0,0:0:0:0:
232,125,282328,1,0,0:0:0:0:
458,143,282475,6,0,L|371:136,1,88,8|0,0:0|0:0,0:0:0:0:
305,78,282770,1,0,0:0:0:0:
321,260,282917,1,8,0:3:0:0:
458,143,283064,6,0,P|432:201|423:270,1,132,8|0,0:3|0:0,0:0:0:0:
355,384,283358,2,0,P|347:318|320:258,1,132,8|0,0:3|0:0,0:0:0:0:
232,125,283652,6,0,B|177:129|177:129|168:124|168:124|141:143|141:143|131:137|131:137|76:142,1,165,8|0,0:0|0:0,0:0:0:0:
18,231,283946,2,0,B|72:226|72:226|81:231|81:231|108:212|108:212|118:218|118:218|173:213,1,165,0|0,0:0|0:0,0:0:0:0:
320,91,284240,6,0,L|312:178,1,88,8|0,0:3|0:0,0:0:0:0:
259,264,284534,1,0,0:0:0:0:
173,213,284681,1,0,0:0:0:0:
120,384,284828,6,0,L|112:296,1,88,8|0,0:0|0:0,0:0:0:0:
173,213,285122,1,0,0:0:0:0:
9,285,285270,1,8,0:3:0:0:
106,90,285417,6,0,P|165:117|231:124,1,132,8|0,0:3|0:0,0:0:0:0:
404,87,285711,2,0,P|350:124|311:178,1,132,8|0,0:3|0:0,0:0:0:0:
215,346,286005,6,0,B|259:342|259:342|294:349|294:349|309:337|309:337|375:331,1,165,8|0,0:0|0:0,0:0:0:0:
277,260,286299,1,8,0:1:0:0:
277,260,286446,1,8,0:1:0:0:
96,206,286593,6,0,L|172:212,1,76.9999976501466,8|0,0:3|0:0,0:0:0:0:
277,260,286887,1,0,0:0:0:0:
254,171,287034,1,0,0:0:0:0:
435,117,287181,6,0,L|358:123,1,76.9999976501466,8|0,0:0|0:0,0:0:0:0:
254,171,287475,1,0,0:0:0:0:
286,0,287622,1,8,0:3:0:0:
126,108,287770,6,0,P|187:100|237:78,1,115.49999647522,8|0,0:3|0:0,0:0:0:0:
366,36,288064,2,0,P|341:92|336:147,1,115.49999647522,8|0,0:3|0:0,0:0:0:0:
423,262,288358,6,0,B|369:257|369:257|348:265|348:265|272:258,1,148.49999546814,8|0,0:0|0:0,0:0:0:0:
128,289,288652,1,8,0:1:0:0:
128,289,288799,1,8,0:1:0:0:
214,209,288946,5,8,0:3:0:0:
238,334,289093,1,8,0:1:0:0:
112,276,289240,1,8,0:1:0:0:
112,276,289534,6,0,L|106:210,1,65.9999979858399,8|0,0:0|0:0,0:0:0:0:
98,116,289828,1,0,0:0:0:0:
0,230,289975,5,8,0:3:0:0:
214,209,290122,1,8,0:3:0:0:
256,192,290196,12,0,291005,0:0:0:0:
214,209,291299,5,8,0:3:0:0:
193,132,291446,1,0,0:0:0:0:
223,59,291593,1,0,0:0:0:0:
300,44,291740,1,0,0:0:0:0:
371,194,291887,6,0,L|305:199,1,65.9999979858399,8|0,0:0|0:0,0:0:0:0:
214,209,292181,1,0,0:0:0:0:
343,287,292328,1,8,0:3:0:0:
198,356,292475,6,0,L|203:290,1,65.9999979858399,8|0,0:3|0:0,0:0:0:0:
84,200,292770,2,0,L|89:265,1,65.9999979858399,8|0,0:3|0:0,0:0:0:0:
39,113,293064,6,0,L|137:121,1,98.9999969787599,8|0,0:0|0:0,0:0:0:0:
211,63,293358,2,0,L|309:54,1,98.9999969787599,0|0,0:0|0:0,0:0:0:0:
408,112,293652,5,8,0:3:0:0:
408,112,293799,1,0,0:0:0:0:
493,61,293946,1,0,0:0:0:0:
493,61,294093,1,0,0:0:0:0:
415,195,294240,6,0,L|420:260,1,65.9999979858399,8|0,0:0|0:0,0:0:0:0:
429,346,294534,1,0,0:0:0:0:
501,215,294681,1,8,0:3:0:0:
345,326,294828,5,8,0:3:0:0:
429,346,294975,1,0,0:0:0:0:
281,268,295122,1,8,0:3:0:0:
365,248,295269,1,0,0:0:0:0:
260,356,295417,5,8,0:0:0:0:
303,182,295564,1,0,0:0:0:0:
187,291,295711,1,0,0:0:0:0:
144,117,295858,1,0,0:0:0:0:
9,253,296005,5,8,3:3:0:0:
206,194,296152,1,0,3:0:0:0:
88,322,296299,1,0,3:0:0:0:
122,131,296446,1,0,3:0:0:0:
161,371,296593,5,8,3:2:0:0:
85,209,296740,1,0,3:0:0:0:
265,305,296887,5,0,3:0:0:0:
280,303,296961,1,0,3:0:0:0:
296,302,297034,1,8,3:0:0:0:
206,194,297181,5,8,3:0:0:0:
161,371,297328,1,0,3:0:0:0:
122,131,297475,1,8,3:0:0:0:
8,252,297622,5,0,3:0:0:0:
7,268,297696,1,0,3:0:0:0:
6,284,297769,1,8,3:2:0:0:
22,151,297917,1,0,3:0:0:0:
187,291,298064,5,0,3:0:0:0:
202,289,298137,1,0,3:0:0:0:
218,288,298211,1,0,3:0:0:0:
234,286,298284,1,0,3:0:0:0:
250,285,298358,2,0,L|295:280,2,32.99999899292,8|0|0,3:0|3:0|3:0,3:0:0:0:
161,371,298652,1,0,3:0:0:0:
206,194,298799,5,0,3:0:0:0:
204,177,298872,1,0,3:0:0:0:
203,160,298946,1,8,3:2:0:0:
187,291,299093,1,0,3:0:0:0:
301,185,299240,5,0,3:0:0:0:
299,168,299313,1,0,3:0:0:0:
298,151,299387,1,8,3:0:0:0:
393,293,299534,5,8,3:0:0:0:
443,200,299681,2,0,P|427:206|414:216,1,32.99999899292,0|0,0:0|0:0,0:0:0:0:
282,282,299828,2,0,P|295:291|310:298,1,32.99999899292,0|0,0:0|0:0,0:0:0:0:
451,384,299975,2,0,P|453:367|451:351,1,32.99999899292,0|0,0:0|0:0,0:0:0:0:
301,185,300122,6,0,B|289:152|305:123|305:123|333:82|312:52|312:52|276:69|235:57|235:57|254:78|251:108,1,263.99999194336
