osu file format v14

[General]
AudioFilename: audio.mp3
AudioLeadIn: 0
PreviewTime: 118115
Countdown: 0
SampleSet: Normal
StackLeniency: 0.2
Mode: 0
LetterboxInBreaks: 0
WidescreenStoryboard: 1

[Editor]
Bookmarks: 1375,14175,26975,33375,39775,52575,65375,71775,78175,81323,84277,89924,95571,98394,109688,120982,132276,137924,143571,149218,154865,166159,177453,188747,200041,209622,216022
DistanceSpacing: 0.6
BeatDivisor: 4
GridSize: 32
TimelineZoom: 3.399999

[Metadata]
Title:FREEDOM (Extended Mix)
TitleUnicode:FREEDOM (Extended Mix)
Artist:USAO
ArtistUnicode:USAO
Creator:C00L
Version:Reform's Extra
Source:beatmania IIDX 25 CANNON BALLERS
Tags:drumstep hyper dubstep electronic japanese dnb cool krovesia reform kujinn
BeatmapID:1714884
BeatmapSetID:749304

[Difficulty]
HPDrainRate:6
CircleSize:4
OverallDifficulty:8
ApproachRate:9.3
SliderMultiplier:2
SliderTickRate:1

[Events]
//Background and Video events
0,0,"Flying_Amongst_Birds.jpg",0,0
//Break Periods
2,2575,4021
2,65575,68021
//Storyboard Layer 0 (Background)
//Storyboard Layer 1 (Fail)
//Storyboard Layer 2 (Pass)
//Storyboard Layer 3 (Foreground)
//Storyboard Sound Samples

[TimingPoints]
1375,400,4,1,1,25,1,0
1375,-133.333333333333,4,1,1,25,0,0
4575,-133.333333333333,4,1,1,35,0,0
7775,-117.647058823529,4,1,1,40,0,0
10975,-100,4,1,1,45,0,0
14175,-79.9999999999998,4,1,1,55,0,0
14575,-95.2380952380952,4,1,1,55,0,0
21975,-95.2380952380952,4,1,1,50,0,0
26975,-80,4,1,1,45,0,0
27375,-80,4,1,1,40,0,0
28575,-95.2380952380952,4,1,1,45,0,0
29775,-95.2380952380952,4,1,1,40,0,0
30175,-80,4,1,1,50,0,0
30575,-80,4,1,1,40,0,0
31175,-80,4,1,1,45,0,0
31775,-95.2380952380952,4,1,1,45,0,0
32975,-181.818181818182,4,1,1,40,0,0
33375,-95.2380952380953,4,1,1,45,0,0
36575,-95.2380952380953,4,1,1,50,0,0
37375,-95.2380952380953,4,1,1,60,0,0
38175,-95.2380952380953,4,1,1,40,0,0
38975,-95.2380952380953,4,1,1,45,0,0
39775,-48.780487804878,4,1,1,65,0,0
40175,-37.7358490566038,4,1,1,65,0,0
40975,-57.1428571428571,4,1,1,65,0,0
41175,-80,4,1,1,65,0,0
41375,-57.1428571428571,4,1,1,65,0,0
41775,-57.1428571428571,4,1,1,65,0,0
42575,-48.780487804878,4,1,1,65,0,0
43175,-35.0877192982456,4,1,1,65,0,0
44575,-86.9565217391304,4,1,1,65,0,0
45775,-57.1428571428571,4,1,1,65,0,0
46175,-80,4,1,1,65,0,0
46575,-36.3636363636364,4,1,1,65,0,0
47375,-48.780487804878,4,1,1,65,0,0
47775,-86.9565217391304,4,1,1,65,0,0
48175,-68.9655172413793,4,1,1,65,0,0
48575,-54.054054054054,4,1,1,65,0,0
48975,-54.054054054054,4,1,1,50,0,0
49375,-64.5161290322581,4,1,1,55,0,0
52175,-64.5161290322581,4,1,1,50,0,0
52575,-46.5116279069767,4,1,1,65,0,0
52975,-35.0877192982456,4,1,1,65,0,0
54125,-80,4,1,1,65,0,0
55375,-54.054054054054,4,1,1,65,0,0
55775,-57.1428571428571,4,1,1,65,0,0
56175,-54.054054054054,4,1,1,65,0,0
56575,-44.4444444444445,4,1,1,65,0,0
58175,-54.054054054054,4,1,1,65,0,0
58975,-44.4444444444445,4,1,1,65,0,0
60175,-44.4444444444445,4,1,1,65,0,0
60575,-46.5116279069767,4,1,1,65,0,0
61175,-54.054054054054,4,1,1,65,0,0
61375,-64.5161290322581,4,1,1,65,0,0
61575,-80,4,1,1,65,0,0
62175,-48.780487804878,4,1,1,55,0,0
63375,-48.780487804878,4,1,1,45,0,0
63775,-95.2380952380952,4,1,1,40,0,0
64975,-57.1428571428571,4,1,1,40,0,0
65375,-57.1428571428571,4,1,1,60,0,0
68575,-57.1428571428571,4,1,1,30,0,0
70675,-57.1428571428571,4,1,1,5,0,0
70775,-80,4,1,1,40,0,0
71375,-80,4,1,1,35,0,0
71775,-80,4,1,1,45,0,0
76575,-54.054054054054,4,1,1,50,0,0
77375,-54.054054054054,4,1,1,45,0,0
78175,400,4,1,1,65,1,0
78175,-66.6666666666667,4,1,1,65,0,0
79775,387.096774193548,4,1,1,65,1,0
79775,-66.6666666666667,4,1,1,65,0,0
81323,375,4,1,1,55,1,0
81323,-95.2380952380951,4,1,1,55,0,0
81698,-58.8235294117647,4,1,1,55,0,0
82073,-95.2380952380951,4,1,1,55,0,0
82448,-58.8235294117647,4,1,1,55,0,0
82823,363.636363636364,4,1,1,55,1,0
82823,-95.2380952380951,4,1,1,55,0,0
83186,-58.8235294117647,4,1,1,55,0,0
83550,-95.2380952380951,4,1,1,55,0,0
83913,-58.8235294117647,4,1,1,55,0,0
84280,352.941176470588,4,1,1,60,1,0
95574,-133.333333333333,4,1,1,60,0,0
95927,-80,4,1,1,65,0,0
98397,-44.4444444444445,4,1,1,75,0,0
98662,-44.4444444444445,4,1,1,10,0,0
98750,-60.6060606060606,4,1,1,75,0,0
99456,-51.2820512820513,4,1,1,75,0,0
99809,-44.4444444444445,4,1,1,75,0,0
100074,-44.4444444444445,4,1,1,10,0,0
100162,-60.6060606060606,4,1,1,75,0,0
100868,-44.4444444444445,4,1,1,75,0,0
101221,-95.2380952380952,4,1,1,75,0,0
101485,-95.2380952380952,4,1,1,10,0,0
101574,-95.2380952380952,4,1,1,75,0,0
102632,-68.9655172413793,4,1,1,75,0,0
102897,-68.9655172413793,4,1,1,10,0,0
102985,-68.9655172413793,4,1,1,75,0,0
103691,-48.780487804878,4,1,1,75,0,0
104044,-133.333333333333,4,1,1,75,0,0
104221,-60.6060606060606,4,1,1,75,0,0
104927,-117.647058823529,4,1,1,75,0,0
105103,-60.6060606060606,4,1,1,75,0,0
106162,-25.974025974026,4,1,1,75,0,0
106515,-60.6060606060606,4,1,1,75,0,0
106868,-44.4444444444445,4,1,1,75,0,0
107132,-44.4444444444445,4,1,1,10,0,0
107221,-44.4444444444445,4,1,1,75,0,0
108279,-86.9565217391304,4,1,1,55,0,0
109691,-44.4444444444445,4,1,1,75,0,0
110044,-60.6060606060606,4,1,1,75,0,0
111809,-25.974025974026,4,1,1,75,0,0
112162,-60.6060606060606,4,1,1,75,0,0
112515,-95.2380952380952,4,1,1,75,0,0
112779,-95.2380952380952,4,1,1,10,0,0
112868,-95.2380952380952,4,1,1,75,0,0
113927,-68.9655172413793,4,1,1,75,0,0
114191,-68.9655172413793,4,1,1,10,0,0
114279,-68.9655172413793,4,1,1,75,0,0
115029,-68.9655172413793,4,1,1,10,0,0
115338,-44.4444444444445,4,1,1,75,0,0
115691,-60.6060606060606,4,1,1,75,0,0
116750,-44.4444444444445,4,1,1,75,0,0
117103,-60.6060606060606,4,1,1,75,0,0
118162,-60.6060606060606,4,1,1,75,0,0
119574,-60.6060606060606,4,1,1,55,0,0
120279,-44.4444444444445,4,1,1,60,0,0
120985,-44.4444444444445,4,1,1,80,0,1
121338,-60.6060606060606,4,1,1,80,0,1
122397,-48.780487804878,4,1,1,80,0,1
122750,-60.6060606060606,4,1,1,80,0,1
123809,-48.780487804878,4,1,1,80,0,1
124162,-60.6060606060606,4,1,1,80,0,1
126456,-117.647058823529,4,1,1,80,0,1
126632,-60.6060606060606,4,1,1,80,0,1
130868,-68.9655172413793,4,1,1,55,0,1
132279,-44.4444444444445,4,1,1,80,0,1
132632,-60.6060606060606,4,1,1,80,0,1
133691,-44.4444444444445,4,1,1,80,0,1
134044,-60.6060606060606,4,1,1,80,0,1
135103,-44.4444444444445,4,1,1,80,0,1
135456,-60.6060606060606,4,1,1,80,0,1
136515,-44.4444444444445,4,1,1,80,0,1
136868,-60.6060606060606,4,1,1,80,0,1
137618,-60.6060606060606,4,1,1,5,0,1
137927,-68.9655172413793,4,1,1,60,0,0
140750,-68.9655172413793,4,1,1,65,0,0
141456,-68.9655172413793,4,1,1,70,0,0
142162,-68.9655172413793,4,1,1,55,0,0
143574,-68.9655172413793,4,1,1,60,0,0
144985,-60.6060606060606,4,1,1,60,0,0
146397,-68.9655172413793,4,1,1,60,0,0
148515,-60.6060606060606,4,1,1,60,0,0
148868,-60.6060606060606,4,1,1,30,0,0
149221,-68.9655172413793,4,1,1,60,0,0
150632,-60.6060606060606,4,1,1,60,0,0
153456,-60.6060606060606,4,1,1,40,0,0
153809,-60.6060606060606,4,1,1,50,0,0
154162,-60.6060606060606,4,1,1,60,0,0
154515,-60.6060606060606,4,1,1,55,0,0
154868,-68.9655172413793,4,1,1,60,0,0
160162,-68.9655172413793,4,1,1,55,0,0
160515,-95.2380952380952,4,1,1,50,0,0
163338,-68.9655172413793,4,1,1,45,0,0
164750,-68.9655172413793,4,1,1,50,0,0
165809,-68.9655172413793,4,1,1,65,0,0
166162,-86.9565217391304,4,1,1,80,0,1
170397,-86.9565217391304,4,1,1,55,0,1
171456,-86.9565217391304,4,1,1,65,0,1
171809,-86.9565217391304,4,1,1,80,0,1
176044,-86.9565217391304,4,1,1,55,0,1
177456,-86.9565217391304,4,1,1,80,0,1
181691,-86.9565217391304,4,1,1,55,0,1
183103,-86.9565217391304,4,1,1,80,0,1
187338,-86.9565217391304,4,1,1,40,0,1
187691,-86.9565217391304,4,1,1,50,0,1
188044,-86.9565217391304,4,1,1,60,0,1
188397,-64.5161290322581,4,1,1,55,0,1
188750,-80,4,1,1,60,0,0
190162,-68.9655172413793,4,1,1,60,0,0
191574,-80,4,1,1,60,0,0
191927,-68.9655172413793,4,1,1,60,0,0
194397,-68.9655172413793,4,1,1,55,0,0
200041,400,4,1,1,60,1,0
200441,454.545454545455,4,1,1,50,1,0
200895,612.244897959184,4,1,1,40,1,0
201507,800,4,1,1,30,1,0
202307,652.173913043478,4,1,1,45,1,0
202307,-200,4,1,1,45,0,0
202796,-100,4,1,1,10,0,0
202959,526.315789473684,4,1,1,50,1,0
203222,400,4,1,1,60,1,0
203222,-68.9655172413793,4,1,1,60,0,0
209622,-80,4,1,1,60,0,0
213622,-60.6060606060606,4,1,1,60,0,0
214422,-44.4444444444445,4,1,1,45,0,0
214822,-68.9655172413793,4,1,1,45,0,0
216022,-400,4,1,1,60,0,0
216222,-400,4,1,1,10,0,0

[Colours]
Combo1 : 255,124,62
Combo2 : 136,68,68
Combo3 : 0,74,149
Combo4 : 0,170,170

[HitObjects]
79,327,1375,6,0,P|69:284|88:236,1,75.0000028610231,0|0,0:0|0:0,0:0:0:0:
147,179,1775,5,2,0:0:0:0:
177,280,2075,5,2,0:0:0:0:
77,255,2375,5,2,0:0:0:0:
441,327,4575,6,0,P|451:284|434:242,1,75.0000028610231,2|0,0:0|0:0,0:0:0:0:
371,180,4975,5,2,0:0:0:0:
343,281,5275,5,2,0:0:0:0:
443,256,5575,5,2,0:0:0:0:
467,157,5775,1,2,0:0:0:0:
378,101,5975,1,2,0:0:0:0:
281,177,6175,5,0,0:0:0:0:
281,177,6275,1,0,0:0:0:0:
281,177,6375,1,0,0:0:0:0:
182,117,6575,6,0,L|175:70,1,37.5000014305115,2|0,0:0|0:0,0:0:0:0:
144,216,6875,6,0,L|137:263,1,37.5000014305115,2|0,0:0|0:0,0:0:0:0:
79,149,7175,6,0,L|72:102,1,37.5000014305115,2|0,0:0|0:0,0:0:0:0:
6,222,7375,1,2,0:0:0:0:
9,241,7475,1,2,0:0:0:0:
12,260,7575,1,2,0:0:0:0:
15,279,7675,1,2,0:0:0:0:
17,301,7775,6,0,L|9:390,1,85.0000016212464,0|0,0:0|0:0,0:0:0:0:
128,275,8175,5,2,0:0:0:0:
229,348,8475,5,2,0:0:0:0:
334,282,8775,5,2,0:0:0:0:
334,282,8875,1,0,0:0:0:0:
334,282,8975,1,0,0:0:0:0:
404,193,9175,1,0,0:0:0:0:
327,109,9375,1,0,0:0:0:0:
305,100,9475,1,0,0:0:0:0:
282,97,9575,1,0,0:0:0:0:
259,102,9675,1,0,0:0:0:0:
237,110,9775,6,0,P|193:122|138:94,1,85.0000016212464,0|0,0:0|0:0,0:0:0:0:
128,93,10075,2,0,P|90:86|45:104,1,85.0000016212464,0|0,0:0|0:0,0:0:0:0:
18,128,10375,1,0,0:0:0:0:
116,192,10575,1,2,0:0:0:0:
114,214,10675,1,2,0:0:0:0:
112,236,10775,1,2,0:0:0:0:
110,258,10875,1,2,0:0:0:0:
107,284,10975,6,0,B|154:303|154:303|210:284,1,100,2|0,0:0|0:0,0:0:0:0:
408,159,11375,6,0,P|409:208|375:253,1,100,2|0,0:0|0:0,0:0:0:0:
269,285,11675,2,0,P|312:264|365:273,1,100,2|0,0:0|0:0,0:0:0:0:
423,337,11975,5,2,0:0:0:0:
330,347,12175,1,2,0:0:0:0:
237,357,12375,1,2,0:0:0:0:
200,211,12575,5,2,0:0:0:0:
199,228,12675,1,2,0:0:0:0:
199,246,12775,1,2,0:0:0:0:
119,369,12975,1,0,0:0:0:0:
97,262,13175,5,0,0:0:0:0:
97,262,13275,1,0,0:0:0:0:
97,262,13375,2,0,L|31:255,1,50,0|0,0:0|0:0,0:0:0:0:
223,327,13575,2,0,L|289:320,1,50,0|0,0:0|0:0,0:0:0:0:
119,369,13775,2,0,L|53:376,1,50,0|0,0:0|0:0,0:0:0:0:
200,211,13975,2,0,L|194:278,1,50,0|0,0:0|0:0,0:0:0:0:
295,337,14175,6,0,B|397:291|379:393|481:335,1,187.5,0|0,3:0|0:0,0:0:0:0:
512,323,14575,1,2,0:0:0:0:
443,162,14775,1,2,0:0:0:0:
443,162,14875,2,0,P|435:226|427:279,1,104.999996795654,2|0,0:0|0:0,0:0:0:0:
407,357,15175,5,2,0:0:0:0:
312,277,15375,1,2,0:0:0:0:
202,340,15575,1,2,0:0:0:0:
129,185,15775,5,0,3:0:0:0:
129,185,15875,1,0,0:0:0:0:
129,185,15975,2,0,P|126:141|132:118,1,52.4999983978272,0|0,0:0|0:0,0:0:0:0:
227,152,16175,2,0,L|210:277,1,104.999996795654,2|2,0:0|0:0,0:0:0:0:
305,330,16475,1,2,0:0:0:0:
305,330,16575,6,0,L|296:251,1,52.4999983978272,0|0,0:0|0:0,0:0:0:0:
309,154,16775,2,0,L|300:233,1,52.4999983978272,0|0,0:0|0:0,0:0:0:0:
405,273,16975,1,2,0:0:0:0:
409,244,17075,1,2,0:0:0:0:
412,215,17175,1,2,0:0:0:0:
415,186,17275,1,2,0:0:0:0:
415,157,17375,6,0,L|404:76,2,52.4999983978272,0|0|0,3:0|0:0|0:0,0:0:0:0:
299,283,17775,6,0,P|244:293|200:272,1,104.999996795654,2|2,0:0|0:0,0:0:0:0:
166,204,18075,1,0,0:0:0:0:
166,204,18175,2,0,L|175:118,1,52.4999983978272,2|0,0:0|0:0,0:0:0:0:
263,28,18375,1,0,0:0:0:0:
117,82,18575,1,2,0:0:0:0:
254,178,18775,1,2,0:0:0:0:
84,245,18975,6,0,P|72:194|106:129,1,104.999996795654,0|0,3:0|0:0,0:0:0:0:
171,281,19375,1,2,0:0:0:0:
198,273,19475,1,2,0:0:0:0:
226,274,19575,1,2,0:0:0:0:
252,283,19675,1,2,0:0:0:0:
274,300,19775,1,2,0:0:0:0:
300,309,19875,1,2,0:0:0:0:
328,310,19975,1,2,0:0:0:0:
354,300,20075,1,2,0:0:0:0:
387,274,20175,5,2,0:0:0:0:
403,234,20275,1,2,0:0:0:0:
402,191,20375,1,2,0:0:0:0:
382,153,20475,1,2,0:0:0:0:
342,133,20575,6,0,B|317:201|317:201|357:292,1,157.499995193482,0|0,3:0|0:0,0:0:0:0:
419,312,20975,6,0,L|478:307,1,52.4999983978272,0|0,0:0|0:0,0:0:0:0:
243,213,21175,2,0,L|184:218,1,52.4999983978272,0|0,0:0|0:0,0:0:0:0:
239,299,21375,6,0,L|180:294,1,52.4999983978272,0|0,0:0|0:0,0:0:0:0:
412,202,21575,2,0,L|471:207,1,52.4999983978272,2|0,0:0|0:0,0:0:0:0:
332,364,21775,6,0,P|325:339|334:292,1,52.4999983978272,2|0,0:0|0:0,0:0:0:0:
330,235,21975,2,0,P|337:210|328:163,1,52.4999983978272,0|0,0:0|0:0,0:0:0:0:
304,87,22175,5,0,3:0:0:0:
304,87,22275,1,2,0:0:0:0:
304,87,22375,2,0,L|224:77,1,52.4999983978272,2|0,0:0|0:0,0:0:0:0:
108,157,22575,2,0,L|226:149,1,104.999996795654,2|2,0:0|0:0,0:0:0:0:
249,227,22875,1,2,0:0:0:0:
249,227,22975,2,0,L|239:290,1,52.4999983978272,0|0,0:0|0:0,0:0:0:0:
157,350,23175,2,0,L|147:287,1,52.4999983978272,0|0,0:0|0:0,0:0:0:0:
72,239,23375,1,2,0:0:0:0:
74,210,23475,1,2,0:0:0:0:
76,181,23575,1,2,0:0:0:0:
79,152,23675,1,2,0:0:0:0:
80,123,23775,6,0,L|74:57,2,52.4999983978272,0|0|0,3:0|0:0|0:0,0:0:0:0:
193,219,24175,2,0,P|253:207|308:241,1,104.999996795654,2|2,0:0|0:0,0:0:0:0:
347,279,24475,1,0,0:0:0:0:
347,279,24575,2,0,P|392:291|451:271,1,104.999996795654,2|0,0:0|0:0,0:0:0:0:
502,232,24875,1,0,0:0:0:0:
502,232,24975,2,0,L|511:163,1,52.4999983978272,2|0,0:0|0:0,0:0:0:0:
385,79,25175,2,0,L|391:134,1,52.4999983978272,2|0,0:0|0:0,0:0:0:0:
282,218,25375,5,0,3:0:0:0:
219,110,25575,2,0,L|211:179,1,52.4999983978272,0|0,0:0|0:0,0:0:0:0:
197,311,25775,2,0,L|205:242,1,52.4999983978272,0|0,0:0|0:0,0:0:0:0:
142,200,25975,2,0,P|128:189|89:181,1,52.4999983978272,0|0,0:0|0:0,0:0:0:0:
282,218,26175,2,0,P|296:207|335:199,1,52.4999983978272,0|0,0:0|0:0,0:0:0:0:
346,341,26375,5,0,0:0:0:0:
324,352,26475,1,0,0:0:0:0:
264,343,26575,5,0,0:0:0:0:
239,350,26675,1,0,0:0:0:0:
185,344,26775,5,0,0:0:0:0:
162,352,26875,1,0,0:0:0:0:
96,315,26975,6,0,B|78:179|78:179|126:232,1,187.5,0|0,3:0|0:0,0:0:0:0:
246,274,27375,6,0,P|214:271|186:258,1,62.5,0|0,0:0|0:0,0:0:0:0:
248,138,27575,2,0,P|216:140|188:153,1,62.5,0|0,0:0|0:0,0:0:0:0:
285,245,27775,6,0,P|255:253|223:252,1,62.5,0|0,0:0|0:0,0:0:0:0:
238,117,27975,2,0,P|210:130|187:152,1,62.5,0|0,0:0|0:0,0:0:0:0:
310,206,28175,6,0,P|284:224|255:233,1,62.5,0|0,0:0|0:0,0:0:0:0:
222,101,28375,2,0,P|200:123|186:151,1,62.5,0|0,0:0|0:0,0:0:0:0:
281,309,28575,6,0,B|373:283|348:349|445:317,1,157.499995193482,0|0,0:0|0:0,0:0:0:0:
445,298,28975,2,0,P|455:235|471:177,1,104.999996795654,0|0,0:0|0:0,0:0:0:0:
451,161,29275,2,0,P|392:176|342:138,1,104.999996795654,0|0,0:0|0:0,0:0:0:0:
330,130,29575,1,0,0:0:0:0:
233,212,29775,2,0,L|230:274,1,52.4999983978272,0|0,0:0|0:0,0:0:0:0:
232,112,29975,2,0,L|229:50,1,52.4999983978272,0|0,0:0|0:0,0:0:0:0:
311,290,30175,6,0,B|211:351|219:235|102:320,1,187.5,0|0,3:0|0:0,0:0:0:0:
59,315,30575,6,0,P|50:285|34:257,1,62.5,0|0,0:0|0:0,0:0:0:0:
139,215,30775,2,0,P|147:185|163:157,1,62.5,0|0,0:0|0:0,0:0:0:0:
49,310,30975,6,0,P|35:281|16:257,1,62.5,0|0,0:0|0:0,0:0:0:0:
149,210,31175,2,0,P|162:181|181:157,1,62.5,2|0,0:0|0:0,0:0:0:0:
38,307,31375,6,0,P|21:280|0:258,1,62.5,2|0,0:0|0:0,0:0:0:0:
160,207,31575,2,0,P|176:180|198:158,1,62.5,2|0,0:0|0:0,0:0:0:0:
314,262,31775,5,2,0:0:0:0:
316,286,31875,1,2,0:0:0:0:
319,310,31975,1,2,0:0:0:0:
432,198,32175,6,0,P|444:141|415:78,1,104.999996795654,2|0,0:0|0:0,0:0:0:0:
347,56,32475,1,2,0:0:0:0:
347,56,32575,2,0,P|291:74|251:130,1,104.999996795654,0|2,0:0|0:0,0:0:0:0:
244,197,32875,1,0,0:0:0:0:
244,197,32975,6,0,P|269:235|322:252,1,82.5000025177003,0|0,0:0|0:0,0:0:0:0:
358,288,33375,5,0,3:0:0:0:
334,279,33475,1,0,0:0:0:0:
309,271,33575,1,0,0:0:0:0:
283,272,33675,1,0,0:0:0:0:
258,278,33775,1,0,0:0:0:0:
236,289,33875,1,0,0:0:0:0:
218,306,33975,1,0,0:0:0:0:
203,327,34075,1,0,0:0:0:0:
173,349,34175,5,0,0:0:0:0:
138,349,34275,1,0,0:0:0:0:
106,333,34375,1,0,0:0:0:0:
86,305,34475,1,0,0:0:0:0:
76,272,34575,1,0,0:0:0:0:
79,237,34675,1,0,0:0:0:0:
93,205,34775,1,0,0:0:0:0:
118,182,34875,1,0,0:0:0:0:
159,166,34975,5,0,3:0:0:0:
187,193,35075,1,0,0:0:0:0:
222,211,35175,1,0,0:0:0:0:
263,217,35275,1,0,0:0:0:0:
305,211,35375,1,0,0:0:0:0:
341,194,35475,1,0,0:0:0:0:
367,162,35575,1,0,0:0:0:0:
383,123,35675,1,0,0:0:0:0:
385,81,35775,5,0,0:0:0:0:
346,50,35875,1,0,0:0:0:0:
301,39,35975,1,0,0:0:0:0:
256,40,36075,1,0,0:0:0:0:
216,57,36175,6,0,P|177:103|186:216,1,157.499995193482,0|0,0:0|0:0,0:0:0:0:
240,318,36575,6,0,L|243:351,10,26.2499991989136,0|0|0|0|0|0|0|0|0|0|0,3:0|0:0|0:0|0:0|0:0|0:0|0:0|0:0|0:0|0:0|0:0,0:0:0:0:
371,235,37175,1,0,3:0:0:0:
372,264,37275,1,0,3:0:0:0:
373,291,37375,6,0,L|370:324,4,26.2499991989136,0|0|0|0|0,3:0|0:0|0:0|0:0|0:0,0:0:0:0:
262,207,37675,6,0,L|265:240,4,26.2499991989136,0|0|0|0|0,3:0|0:0|0:0|0:0|0:0,0:0:0:0:
369,117,37975,6,0,L|366:150,2,26.2499991989136,0|0|0,3:0|0:0|0:0,0:0:0:0:
257,24,38175,5,0,3:0:0:0:
123,52,38475,5,0,3:0:0:0:
115,188,38775,5,0,3:0:0:0:
236,259,39075,5,0,0:0:0:0:
236,259,39175,2,0,P|286:269|327:254,1,52.4999983978272,0|0,0:0|0:0,0:0:0:0:
366,174,39375,1,0,3:0:0:0:
370,205,39475,1,0,0:0:0:0:
375,236,39575,1,0,0:0:0:0:
375,236,39775,6,0,B|298:196|240:244|240:244|231:242|231:242|228:252|228:252|151:319|61:244,1,307.500004692078,8|0,3:1|0:0,0:0:0:0:
59,152,40175,6,0,P|86:113|103:181,1,132.500005559922,0|0,0:0|0:0,0:0:0:0:
295,254,40575,6,0,P|268:293|251:225,1,132.500005559922,0|0,0:0|0:0,0:0:0:0:
300,28,40975,6,0,P|288:68|312:136,1,87.500000834465,0|0,0:0|0:0,0:0:0:0:
366,174,41175,2,0,L|458:171,1,62.5,0|0,0:0|0:0,0:0:0:0:
288,260,41375,6,0,B|199:255|199:255|189:246|189:246|137:286|137:286|129:279|129:279|-5:270,1,262.500002503395,8|0,3:1|0:0,0:0:0:0:
93,183,41775,6,0,B|82:141|82:141|151:175,1,87.500000834465,0|0,0:0|0:0,0:0:0:0:
211,340,41975,2,0,B|200:382|200:382|269:348,1,87.500000834465,0|0,0:0|0:0,0:0:0:0:
325,65,42175,6,0,B|301:230|419:137|379:358,1,262.500002503395,0|0,0:0|0:0,0:0:0:0:
251,327,42575,6,0,P|211:252|295:259,2,205.000003128052,0|0|8,0:0|0:0|3:1,0:0:0:0:
394,133,43175,6,0,P|397:88|414:52,1,71.250000679493,0|0,0:0|0:0,0:0:0:0:
403,272,43375,2,0,P|421:312|450:340,1,71.250000679493,0|0,0:0|0:0,0:0:0:0:
254,127,43575,6,0,L|246:18,1,71.250000679493,0|0,0:0|0:0,0:0:0:0:
266,275,43775,2,0,L|274:384,1,71.250000679493,0|0,0:0|0:0,0:0:0:0:
140,134,43975,6,0,P|119:93|89:67,1,71.250000679493,0|0,0:0|0:0,0:0:0:0:
147,271,44175,2,0,P|146:314|86:233,1,285.000002717972,0|0,0:0|0:0,0:0:0:0:
169,339,44575,6,0,P|256:330|355:320,1,172.500003290176,8|0,3:1|0:0,0:0:0:0:
447,366,44975,5,0,0:0:0:0:
436,348,45075,1,0,0:0:0:0:
416,294,45175,5,0,0:0:0:0:
435,262,45275,1,0,0:0:0:0:
458,180,45375,5,0,0:0:0:0:
430,140,45475,1,0,0:0:0:0:
343,106,45575,5,0,0:0:0:0:
296,135,45675,1,0,0:0:0:0:
279,216,45775,6,0,L|303:329,1,87.500000834465,0|0,0:0|0:0,0:0:0:0:
167,383,45975,2,0,L|143:270,1,87.500000834465,0|0,0:0|0:0,0:0:0:0:
104,54,46175,6,0,B|85:110|85:110|58:127|58:127|69:160|69:160|44:251,1,187.5,8|0,3:1|0:0,0:0:0:0:
167,383,46575,6,0,B|197:342|197:342|171:224,1,137.500001311302,0|0,0:0|0:0,0:0:0:0:
316,160,46975,6,0,B|286:201|286:201|312:319,1,137.500001311302,0|0,0:0|0:0,0:0:0:0:
430,173,47375,6,0,P|388:77|213:131,1,307.500004692078,0|0,0:0|0:0,0:0:0:0:
268,134,47775,6,0,P|308:105|375:195,1,172.500003290176,8|0,3:1|0:0,0:0:0:0:
216,210,48175,6,0,P|159:203|116:199,1,72.5000022125245,0|0,0:0|0:0,0:0:0:0:
320,293,48375,2,0,P|377:286|420:282,1,72.5000022125245,0|0,0:0|0:0,0:0:0:0:
216,330,48575,6,0,B|112:277|139:412|-2:376|-11:222|132:266,1,277.499998941422,0|0,0:0|0:0,0:0:0:0:
144,201,48975,5,2,0:0:0:0:
164,215,49075,1,2,0:0:0:0:
254,226,49175,5,2,0:0:0:0:
274,212,49275,1,2,0:0:0:0:
258,112,49375,6,0,L|156:102,1,77.5000005912781,0|0,3:1|0:0,0:0:0:0:
348,160,49575,2,0,L|450:150,1,77.5000005912781,0|0,0:0|0:0,0:0:0:0:
229,271,49775,6,0,B|237:218|279:204|279:204|328:277|275:351,1,232.500001773834,0|0,0:0|0:0,0:0:0:0:
194,352,50175,2,0,P|162:342|111:339,1,77.5000005912781,0|0,0:0|0:0,0:0:0:0:
37,195,50375,6,0,L|51:292,1,77.5000005912781,0|0,0:0|0:0,0:0:0:0:
161,184,50575,2,0,L|149:107,1,77.5000005912781,0|0,0:0|0:0,0:0:0:0:
43,171,50775,2,0,L|57:268,1,77.5000005912781,0|0,0:0|0:0,0:0:0:0:
144,320,50975,5,8,0:0:0:0:
259,143,51175,1,0,0:0:0:0:
382,324,51375,1,8,0:0:0:0:
259,126,51575,5,0,0:0:0:0:
259,126,51675,1,0,0:0:0:0:
259,126,51775,2,0,L|250:213,1,77.5000005912781,0|0,0:0|0:0,0:0:0:0:
128,351,52075,1,0,0:0:0:0:
128,351,52175,2,0,L|119:264,1,77.5000005912781,0|0,0:0|0:0,0:0:0:0:
104,112,52375,2,0,L|113:199,1,77.5000005912781,0|0,0:0|0:0,0:0:0:0:
250,278,52575,6,0,B|371:239|328:373|483:314,1,215.00000328064,8|0,3:1|0:0,0:0:0:0:
401,126,52975,6,0,P|404:81|421:45,1,71.250000679493,0|0,0:0|0:0,0:0:0:0:
410,265,53175,2,0,P|428:305|457:333,1,71.250000679493,0|0,0:0|0:0,0:0:0:0:
254,127,53375,6,0,L|246:18,1,71.250000679493,0|0,0:0|0:0,0:0:0:0:
266,275,53575,2,0,L|274:384,1,71.250000679493,0|0,0:0|0:0,0:0:0:0:
133,110,53775,6,0,P|112:69|71:178,1,285.000002717972,0|0,0:0|0:0,0:0:0:0:
327,44,54175,6,0,B|224:12|256:102|135:57,1,187.5,8|0,3:1|0:0,0:0:0:0:
76,161,54575,5,0,0:0:0:0:
93,166,54675,1,0,0:0:0:0:
142,186,54775,5,0,0:0:0:0:
173,179,54875,1,0,0:0:0:0:
234,137,54975,5,0,0:0:0:0:
274,148,55075,1,0,0:0:0:0:
336,196,55175,5,0,0:0:0:0:
382,182,55275,1,0,0:0:0:0:
333,64,55375,6,0,L|163:54,1,92.4999996471405,0|0,0:0|0:0,0:0:0:0:
181,203,55575,2,0,L|11:213,1,92.4999996471405,0|0,0:0|0:0,0:0:0:0:
37,66,55775,6,0,P|122:37|107:144,1,175.00000166893,8|0,3:1|0:0,0:0:0:0:
35,291,56175,6,0,B|14:253|14:253|23:204,1,92.4999996471405,0|0,0:0|0:0,0:0:0:0:
169,289,56375,2,0,B|190:252|190:252|181:203,1,92.4999996471405,0|0,0:0|0:0,0:0:0:0:
81,133,56575,6,0,B|273:205|207:56|425:117,1,337.500012874604,8|0,0:0|0:0,0:0:0:0:
320,359,56975,6,0,P|299:222|259:18,1,337.500012874604,8|0,0:0|0:0,0:0:0:0:
31,191,57375,6,0,P|112:273|124:120,1,337.500012874604,8|0,0:0|0:0,0:0:0:0:
372,315,57775,6,0,P|211:298|-31:297,1,337.500012874604,8|0,0:0|0:0,0:0:0:0:
125,38,58175,6,0,P|151:77|160:139,1,92.4999996471405,0|0,3:1|0:1,0:0:0:0:
269,58,58375,2,0,P|272:109|255:162,1,92.4999996471405,0|0,0:0|0:0,0:0:0:0:
228,335,58575,6,0,P|254:296|263:234,1,92.4999996471405,0|0,0:0|0:0,0:0:0:0:
372,315,58775,2,0,P|375:264|358:211,1,92.4999996471405,0|0,0:0|0:0,0:0:0:0:
261,148,58975,6,0,B|290:118|360:106|394:231|275:313|231:132|112:228,1,337.500012874604,0|0,0:0|0:0,0:0:0:0:
142,345,59375,6,0,B|120:240|120:240|108:232|108:232|141:128|141:128|129:122|129:122|104:-1,1,337.500012874604,8|0,0:0|0:0,0:0:0:0:
194,18,59775,6,0,B|212:109|212:109|224:115|224:115|191:219|191:219|203:227|203:227|225:332,1,337.500012874604,8|0,0:0|0:0,0:0:0:0:
427,270,60175,6,0,B|349:314|288:264|288:264|279:264|279:264|279:258|279:258|182:185|77:262,1,337.500012874604,8|0,0:0|0:0,0:0:0:0:
139,128,60575,6,0,B|234:126|234:126|247:114|247:114|335:156|335:156|343:145|343:145|485:139,1,322.50000492096,8|0,3:1|0:0,0:0:0:0:
333,53,60975,6,0,P|322:123|361:185,1,107.50000164032,0|0,0:0|0:0,0:0:0:0:
249,114,61175,6,0,P|267:162|321:208,1,92.4999996471405,0|0,0:0|0:0,0:0:0:0:
216,168,61375,6,0,P|258:214|308:231,1,77.5000005912781,0|0,0:0|0:0,0:0:0:0:
212,200,61575,6,0,P|251:228|281:234,1,62.5,0|0,0:0|0:0,0:0:0:0:
406,286,61775,6,0,B|311:247|333:374|196:298,1,187.5,8|0,0:0|0:0,0:0:0:0:
453,340,62175,6,0,B|435:259|435:259|437:248|437:248|413:103|413:103|416:94|416:94|403:29,1,307.500004692078,8|0,3:1|0:0,0:0:0:0:
258,110,62575,6,0,P|268:165|327:196,1,102.500001564026,0|0,0:0|0:0,0:0:0:0:
512,216,62775,6,0,P|459:197|403:232,1,102.500001564026,0|0,3:0|0:0,0:0:0:0:
304,328,62975,1,8,3:0:0:0:
304,328,63075,2,0,B|207:320|207:320|196:323|196:323|43:309,1,205.000003128052,0|0,3:0|3:0,0:0:0:0:
19,216,63375,2,0,L|192:233,1,102.500001564026,0|0,3:0|0:0,0:0:0:0:
302,136,63575,2,0,L|129:153,1,102.500001564026,0|0,3:0|0:0,0:0:0:0:
91,111,63775,5,0,0:0:0:0:
82,91,63875,1,0,0:0:0:0:
80,70,63975,1,0,0:0:0:0:
85,49,64075,1,0,0:0:0:0:
98,20,64175,5,0,0:0:0:0:
114,58,64275,1,0,0:0:0:0:
123,98,64375,1,0,0:0:0:0:
117,139,64475,1,0,0:0:0:0:
97,193,64575,5,0,0:0:0:0:
92,250,64675,1,0,0:0:0:0:
115,302,64775,1,0,0:0:0:0:
170,320,64875,1,0,0:0:0:0:
226,308,64975,6,0,P|290:278|311:247,1,87.500000834465,0|0,0:0|0:0,0:0:0:0:
304,138,65175,2,0,P|271:109|230:96,1,87.500000834465,0|0,0:0|0:0,0:0:0:0:
218,201,65375,5,4,0:0:0:0:
256,192,68575,12,0,70775,0:0:0:0:
182,238,70975,5,0,0:0:0:0:
182,238,71075,2,0,P|245:224|310:259,1,125,0|0,0:0|0:0,0:0:0:0:
396,203,71375,1,0,0:0:0:0:
411,176,71475,1,0,0:0:0:0:
413,144,71575,1,0,0:0:0:0:
405,113,71675,1,0,0:0:0:0:
393,83,71775,6,0,B|311:75|311:75|280:88|280:88|196:80,1,187.5,0|0,0:0|0:0,0:0:0:0:
177,79,72175,1,8,0:0:0:0:
271,187,72375,1,0,0:0:0:0:
149,315,72575,1,0,0:0:0:0:
149,315,72675,1,0,0:0:0:0:
149,315,72775,2,0,P|145:258|144:225,1,62.5,0|0,0:0|0:0,0:0:0:0:
241,177,72975,2,0,L|250:350,1,125,8|0,0:0|0:0,0:0:0:0:
335,358,73275,1,0,0:0:0:0:
335,358,73375,6,0,P|373:343|413:342,1,62.5,0|0,0:0|0:0,0:0:0:0:
204,269,73575,2,0,P|166:254|126:253,1,62.5,0|0,0:0|0:0,0:0:0:0:
351,244,73775,2,0,P|389:229|429:228,1,62.5,8|0,0:0|0:0,0:0:0:0:
259,90,73975,1,0,0:0:0:0:
259,90,74075,1,0,0:0:0:0:
259,90,74175,6,0,B|236:165|293:145|258:245,1,125,0|0,0:0|0:0,0:0:0:0:
194,280,74475,1,0,0:0:0:0:
194,280,74575,2,0,P|179:230|182:200,1,62.5,8|0,0:0|0:0,0:0:0:0:
351,244,74775,2,0,P|366:194|363:164,1,62.5,0|0,0:0|0:0,0:0:0:0:
229,57,74975,5,0,0:0:0:0:
198,61,75075,1,0,0:0:0:0:
166,64,75175,1,0,0:0:0:0:
135,69,75275,1,0,0:0:0:0:
98,93,75375,5,8,0:0:0:0:
140,102,75475,1,0,0:0:0:0:
182,110,75575,1,0,0:0:0:0:
225,116,75675,1,0,0:0:0:0:
256,122,75775,6,0,L|251:171,6,31.25,0|0|0|0|0|0|0,0:0|0:0|0:0|0:0|0:0|0:0|0:0,0:0:0:0:
116,164,76175,6,0,L|121:213,6,31.25,8|0|0|0|0|0|0,0:0|0:0|0:0|0:0|0:0|0:0|0:0,0:0:0:0:
17,251,76575,6,0,P|52:185|79:297,1,277.499998941422,0|0,0:0|0:0,0:0:0:0:
82,296,77375,5,0,0:0:0:0:
82,296,78175,6,0,B|195:242|181:373|324:290,1,225.000008583069,0|0,0:0|0:0,0:0:0:0:
357,193,78575,6,0,L|380:318,1,75.0000028610231,0|0,0:0|0:0,0:0:0:0:
367,186,78775,2,0,L|390:311,1,75.0000028610231,0|0,0:0|0:0,0:0:0:0:
282,67,78975,6,0,P|200:54|283:113,1,225.000008583069,0|0,0:0|0:0,0:0:0:0:
361,83,79375,6,0,L|468:71,1,75.0000028610231,0|0,0:0|0:0,0:0:0:0:
370,72,79575,2,0,L|477:60,1,75.0000028610231,0|0,0:0|0:0,0:0:0:0:
280,204,79775,6,0,B|177:141|180:274|49:187,1,225.000008583069,0|0,0:0|0:0,0:0:0:0:
119,59,80162,6,0,L|132:152,1,75.0000028610231,0|0,0:0|0:0,0:0:0:0:
106,52,80355,2,0,L|119:145,1,75.0000028610231,0|0,0:0|0:0,0:0:0:0:
256,340,80549,6,0,B|270:246|270:246|301:220|301:220|323:89,1,225.000008583069,0|0,0:0|0:0,0:0:0:0:
407,112,80936,6,0,L|394:205,1,75.0000028610231,0|0,0:0|0:0,0:0:0:0:
420,105,81129,2,0,L|407:198,1,75.0000028610231,0|0,0:0|0:0,0:0:0:0:
271,248,81323,6,0,B|205:211|200:293|114:248,1,157.499995193482,0|0,0:0|0:0,0:0:0:0:
54,223,81698,6,0,P|123:228|34:272,1,255.000004863739,0|0,0:0|0:0,0:0:0:0:
51,113,82073,6,0,P|128:106|233:97,1,157.499995193482,0|0,0:0|0:0,0:0:0:0:
374,124,82448,6,0,B|229:159|297:35|116:79,1,255.000004863739,0|0,0:0|0:0,0:0:0:0:
185,166,82823,6,0,P|198:268|211:364,1,157.499995193482,0|0,0:0|0:0,0:0:0:0:
333,350,83186,6,0,P|334:264|253:347,1,255.000004863739,0|0,0:0|0:0,0:0:0:0:
53,215,83550,6,0,P|172:206|240:201,1,157.499995193482,0|0,0:0|0:0,0:0:0:0:
404,138,83913,2,0,B|221:126|221:126|273:133|297:193,1,255.000004863739,0|0,0:0|0:0,0:0:0:0:
111,340,84280,5,0,0:0:0:0:
73,98,84456,1,0,0:0:0:0:
208,323,84632,5,8,0:0:0:0:
191,65,84809,1,0,0:0:0:0:
301,322,84985,5,0,0:0:0:0:
310,64,85162,1,0,0:0:0:0:
398,339,85338,5,8,0:0:0:0:
428,97,85515,1,0,0:0:0:0:
209,310,85691,5,0,0:0:0:0:
471,230,85868,1,0,0:0:0:0:
157,135,86044,5,8,0:0:0:0:
365,282,86221,1,0,0:0:0:0:
43,192,86397,5,0,0:0:0:0:
309,84,86574,1,0,0:0:0:0:
158,328,86750,5,8,0:0:0:0:
73,83,86927,1,0,0:0:0:0:
258,272,87103,5,0,0:0:0:0:
318,51,87280,1,0,0:0:0:0:
318,51,87368,1,0,0:0:0:0:
318,51,87456,1,8,0:0:0:0:
385,308,87632,5,0,0:0:0:0:
182,127,87809,1,0,0:0:0:0:
455,114,87985,1,0,0:0:0:0:
455,114,88074,1,0,0:0:0:0:
455,114,88162,1,8,0:0:0:0:
165,270,88338,5,0,0:0:0:0:
319,64,88515,1,0,0:0:0:0:
392,313,88691,1,0,0:0:0:0:
392,313,88780,1,0,0:0:0:0:
392,313,88868,1,8,0:0:0:0:
148,54,89044,5,0,0:0:0:0:
111,317,89221,1,0,0:0:0:0:
111,317,89309,1,0,0:0:0:0:
111,317,89397,1,0,0:0:0:0:
111,317,89485,1,0,0:0:0:0:
111,317,89574,1,8,0:0:0:0:
244,151,89750,1,0,0:0:0:0:
415,338,89927,5,0,0:0:0:0:
385,319,90015,1,0,0:0:0:0:
350,312,90103,1,0,0:0:0:0:
315,316,90191,1,0,0:0:0:0:
282,330,90280,1,8,0:0:0:0:
252,348,90368,1,0,0:0:0:0:
217,351,90456,1,0,0:0:0:0:
183,341,90544,1,0,0:0:0:0:
154,320,90632,5,0,0:0:0:0:
139,287,90721,1,0,0:0:0:0:
139,252,90809,1,0,0:0:0:0:
157,222,90897,1,0,0:0:0:0:
183,199,90985,1,8,0:0:0:0:
205,171,91074,1,0,0:0:0:0:
216,137,91162,1,0,0:0:0:0:
217,102,91250,1,0,0:0:0:0:
207,68,91338,5,0,0:0:0:0:
181,43,91427,1,0,0:0:0:0:
146,37,91515,1,0,0:0:0:0:
111,44,91603,1,0,0:0:0:0:
82,63,91691,1,8,0:0:0:0:
67,95,91780,1,0,0:0:0:0:
69,129,91868,1,0,0:0:0:0:
80,161,91956,1,0,0:0:0:0:
104,185,92044,5,0,0:0:0:0:
137,195,92132,1,0,0:0:0:0:
172,191,92221,1,0,0:0:0:0:
204,179,92309,1,0,0:0:0:0:
233,160,92397,1,8,0:0:0:0:
265,147,92485,1,0,0:0:0:0:
299,141,92574,1,0,0:0:0:0:
332,149,92662,1,0,0:0:0:0:
361,169,92750,6,0,L|356:212,14,25,0|0|0|0|0|0|0|0|8|0|0|0|0|0|0,0:0|0:0|0:0|0:0|0:0|0:0|0:0|0:0|0:0|0:0|0:0|0:0|0:0|0:0|0:0,0:0:0:0:
285,249,93456,6,0,L|290:292,14,25,0|0|0|0|0|0|0|0|8|0|0|0|0|0|0,0:0|0:0|0:0|0:0|0:0|0:0|0:0|0:0|0:0|0:0|0:0|0:0|0:0|0:0|0:0,0:0:0:0:
241,338,94162,5,0,0:0:0:0:
206,336,94250,1,0,0:0:0:0:
171,333,94338,1,0,0:0:0:0:
135,331,94427,1,0,0:0:0:0:
90,302,94515,5,0,0:0:0:0:
125,300,94603,1,0,0:0:0:0:
160,297,94691,1,0,0:0:0:0:
196,295,94780,1,0,0:0:0:0:
233,253,94868,6,0,L|147:243,1,50,0|0,0:0|0:0,0:0:0:0:
66,199,95044,2,0,L|152:189,1,50,0|0,0:0|0:0,0:0:0:0:
247,177,95221,2,0,L|161:167,1,50,0|0,0:0|0:0,0:0:0:0:
80,123,95397,2,0,L|166:113,1,50,0|0,0:0|0:0,0:0:0:0:
304,29,95574,6,0,P|311:108|317:172,1,112.500004291535,8|0,0:2|0:0,0:0:0:0:
404,115,95927,6,0,P|412:64|391:31,1,62.5,0|0,0:0|0:0,0:0:0:0:
212,66,96103,2,0,P|206:100|215:129,1,62.5,0|0,0:0|0:0,0:0:0:0:
417,253,96280,5,8,0:2:0:0:
219,335,96456,2,0,L|262:290,1,62.5,0|0,0:0|0:0,0:0:0:0:
310,187,96632,2,0,L|326:247,1,62.5,0|0,0:0|0:0,0:0:0:0:
386,345,96809,2,0,L|295:321,1,62.5,0|0,0:0|0:0,0:0:0:0:
43,230,96985,6,0,P|120:222|251:208,1,187.5,8|0,0:2|0:0,0:0:0:0:
226,178,97338,6,0,B|132:137|139:232|15:175,1,187.5,8|0,0:2|0:0,0:0:0:0:
21,164,97691,6,0,L|137:151,1,62.5,8|0,0:2|0:0,0:0:0:0:
264,91,97868,2,0,L|148:78,1,62.5,0|0,0:0|0:0,0:0:0:0:
31,57,98044,5,0,0:2:0:0:
286,329,98397,6,0,B|212:363|175:272|247:220|314:214|320:419|499:280,1,337.500012874604,8|0,0:3|0:0,0:0:0:0:
394,237,98750,6,0,P|405:192|432:150,1,82.5000007867813,0|0,0:0|0:0,0:0:0:0:
276,96,98927,2,0,P|261:41|247:-14,1,82.5000007867813,2|0,0:0|0:0,0:0:0:0:
150,169,99103,6,0,P|104:162|58:156,1,82.5000007867813,0|0,0:0|0:0,0:0:0:0:
298,184,99279,1,8,0:3:0:0:
161,302,99456,6,0,P|130:305|164:343,1,97.500000371933,2|0,0:0|0:0,0:0:0:0:
364,353,99632,2,0,P|392:322|353:306,1,97.500000371933,2|0,0:0|0:0,0:0:0:0:
296,195,99809,6,0,B|251:169|224:103|224:103|256:227|259:344,1,337.500012874604,8|0,0:3|0:0,0:0:0:0:
454,266,100162,6,0,P|462:209|480:147,1,82.5000007867813,0|0,0:0|0:0,0:0:0:0:
321,101,100338,2,0,P|315:55|305:11,1,82.5000007867813,2|0,0:0|0:0,0:0:0:0:
229,216,100515,6,0,P|183:209|109:202,1,82.5000007867813,0|0,0:0|0:0,0:0:0:0:
426,86,100691,1,8,0:3:0:0:
329,325,100868,6,0,B|383:317|421:358|421:358|342:244|188:311,1,337.500012874604,2|0,0:0|0:0,0:0:0:0:
163,339,101221,6,0,P|113:326|178:309,1,157.499995193482,8|0,0:3|0:0,0:0:0:0:
230,218,101574,5,0,0:0:0:0:
207,170,101662,1,0,0:0:0:0:
214,118,101750,1,2,0:0:0:0:
253,83,101838,1,0,0:0:0:0:
305,79,101927,1,0,0:0:0:0:
348,107,102015,1,0,0:0:0:0:
371,154,102103,1,8,0:3:0:0:
364,205,102191,1,0,0:0:0:0:
334,248,102279,5,2,0:0:0:0:
285,207,102368,1,0,0:0:0:0:
222,202,102456,1,2,0:0:0:0:
171,240,102544,1,0,0:0:0:0:
158,301,102632,6,0,B|287:367|247:237|392:308,1,217.500006637573,8|0,0:3|0:0,0:0:0:0:
437,293,102985,5,0,0:0:0:0:
441,271,103074,1,0,0:0:0:0:
445,249,103162,1,2,0:0:0:0:
450,228,103250,1,0,0:0:0:0:
453,199,103338,1,0,0:0:0:0:
449,177,103427,1,0,0:0:0:0:
445,155,103515,1,8,0:3:0:0:
440,134,103603,1,0,0:0:0:0:
356,87,103691,6,0,B|291:55|282:90|368:47,1,102.500001564026,2|0,0:0|0:0,0:0:0:0:
461,56,103868,2,0,B|526:88|535:53|449:96,1,102.500001564026,2|0,0:0|0:0,0:0:0:0:
307,151,104044,6,0,L|310:197,1,37.5000014305115,8|0,0:3|0:0,0:0:0:0:
205,286,104221,6,0,B|185:243|185:243|206:183,1,82.5000007867813,0|0,0:0|0:0,0:0:0:0:
307,151,104397,2,0,B|352:156|352:156|395:203,1,82.5000007867813,0|0,0:0|0:0,0:0:0:0:
384,310,104574,2,0,B|360:344|360:344|294:360,1,82.5000007867813,2|0,0:0|0:0,0:0:0:0:
97,200,104750,6,0,L|-29:193,1,82.5000007867813,0|0,0:0|0:0,0:0:0:0:
76,313,104927,6,0,L|82:372,1,42.5000008106232,8|0,0:3|0:0,0:0:0:0:
210,187,105103,6,0,B|197:144|197:144|220:62,1,82.5000007867813,2|0,0:0|0:0,0:0:0:0:
233,289,105279,2,0,B|249:337|249:337|223:414,1,82.5000007867813,2|0,0:0|0:0,0:0:0:0:
336,140,105456,5,8,0:3:0:0:
158,328,105632,2,0,L|43:307,1,82.5000007867813,0|0,0:0|0:0,0:0:0:0:
337,265,105809,2,0,L|452:244,1,82.5000007867813,0|0,0:0|0:0,0:0:0:0:
222,185,105985,2,0,L|107:164,1,82.5000007867813,2|0,0:0|0:0,0:0:0:0:
383,47,106162,6,0,P|418:81|426:154,1,96.2500009179115,0|0,0:0|0:0,0:0:0:0:
418,250,106338,1,8,0:3:0:0:
222,185,106515,6,0,L|238:54,1,82.5000007867813,2|0,0:0|0:0,0:0:0:0:
114,242,106691,2,0,L|129:367,1,82.5000007867813,2|0,0:0|0:0,0:0:0:0:
234,89,106868,6,0,B|102:26|12:119|12:119|61:92|107:95,1,337.500012874604,8|0,0:3|0:0,0:0:0:0:
303,145,107221,5,0,0:0:0:0:
293,177,107309,1,0,0:0:0:0:
294,210,107397,1,2,0:0:0:0:
305,241,107485,1,0,0:0:0:0:
339,286,107574,5,0,0:0:0:0:
379,247,107662,1,0,0:0:0:0:
393,192,107750,1,8,0:3:0:0:
385,136,107838,1,0,0:0:0:0:
354,74,107927,5,2,0:0:0:0:
311,125,108015,1,0,0:0:0:0:
304,192,108103,1,2,0:0:0:0:
335,251,108191,1,0,0:0:0:0:
389,290,108279,6,0,B|296:252|319:346|196:288,1,172.500003290176,0|0,3:2|0:0,0:0:0:0:
173,233,108632,2,0,P|188:310|194:365,1,115.000002193451,0|0,0:0|0:0,0:0:0:0:
267,219,108897,2,0,P|275:155|284:95,1,115.000002193451,0|0,0:0|0:0,0:0:0:0:
205,42,109162,6,0,L|124:34,1,57.5000010967255,0|0,0:0|0:0,0:0:0:0:
357,135,109338,2,0,L|424:128,1,57.5000010967255,0|0,0:0|0:0,0:0:0:0:
181,194,109515,2,0,L|114:187,1,57.5000010967255,0|0,0:0|0:0,0:0:0:0:
326,270,109691,6,0,B|277:300|264:345|264:345|378:265|528:302,1,337.500012874604,8|0,0:3|0:0,0:0:0:0:
416,197,110044,6,0,P|363:183|313:150,1,82.5000007867813,0|0,0:0|0:0,0:0:0:0:
225,248,110221,2,0,P|172:262|122:295,1,82.5000007867813,2|0,0:0|0:0,0:0:0:0:
182,145,110397,6,0,P|175:89|164:19,1,82.5000007867813,0|0,0:0|0:0,0:0:0:0:
326,271,110574,1,8,0:3:0:0:
330,164,110750,6,0,P|337:108|348:38,1,82.5000007867813,2|0,0:0|0:0,0:0:0:0:
179,277,110927,2,0,P|172:333|161:403,1,82.5000007867813,2|0,0:0|0:0,0:0:0:0:
71,198,111103,5,8,0:3:0:0:
254,290,111279,2,0,P|295:276|338:231,1,82.5000007867813,0|0,0:0|0:0,0:0:0:0:
328,74,111456,2,0,P|319:116|336:176,1,82.5000007867813,0|0,0:0|0:0,0:0:0:0:
481,248,111632,2,0,P|448:218|388:203,1,82.5000007867813,2|0,0:0|0:0,0:0:0:0:
166,368,111809,6,0,L|312:358,1,128.333334557215,0|0,0:0|0:0,0:0:0:0:
392,291,111985,1,8,0:3:0:0:
225,111,112162,6,0,L|182:17,1,82.5000007867813,2|0,0:0|0:0,0:0:0:0:
113,212,112338,2,0,L|26:168,1,82.5000007867813,2|0,0:0|0:0,0:0:0:0:
185,307,112515,6,0,B|275:286|258:364|357:335,1,157.499995193482,8|0,0:3|0:0,0:0:0:0:
409,312,112868,5,0,0:0:0:0:
396,289,112956,1,0,0:0:0:0:
388,263,113044,1,2,0:0:0:0:
387,236,113132,1,0,0:0:0:0:
388,198,113221,1,0,0:0:0:0:
402,164,113309,1,0,0:0:0:0:
405,127,113397,1,8,0:3:0:0:
393,92,113485,1,0,0:0:0:0:
358,58,113574,1,2,0:0:0:0:
313,43,113662,1,0,0:0:0:0:
266,52,113750,1,2,0:0:0:0:
231,83,113838,1,0,0:0:0:0:
222,129,113927,6,0,B|204:252|291:208|269:344,1,217.500006637573,8|0,0:3|0:0,0:0:0:0:
174,300,114279,2,0,P|132:286|53:289,1,72.5000022125245,0|0,0:0|0:0,0:0:0:0:
320,168,114456,2,0,P|362:154|441:157,1,72.5000022125245,2|0,0:0|0:0,0:0:0:0:
138,170,114632,6,0,L|123:53,1,72.5000022125245,0|0,0:0|0:0,0:0:0:0:
286,291,114809,2,0,L|271:408,1,72.5000022125245,0|0,0:0|0:0,0:0:0:0:
480,139,114985,5,8,0:0:0:0:
480,139,115338,6,0,B|339:190|385:42|211:30|224:200|323:166,1,337.500012874604,8|0,0:3|0:0,0:0:0:0:
371,224,115691,6,0,P|358:283|346:345,1,82.5000007867813,0|0,0:0|0:0,0:0:0:0:
204,288,115868,2,0,P|217:347|229:409,1,82.5000007867813,2|0,0:0|0:0,0:0:0:0:
97,196,116044,2,0,P|46:184|-17:170,1,82.5000007867813,0|0,0:0|0:0,0:0:0:0:
33,334,116221,1,8,0:3:0:0:
237,163,116397,6,0,P|308:148|361:138,1,82.5000007867813,2|0,0:0|0:0,0:0:0:0:
176,53,116574,2,0,P|105:38|52:28,1,82.5000007867813,2|0,0:0|0:0,0:0:0:0:
124,306,116750,6,0,B|34:340|4:183|189:157|124:308|242:338|324:234,1,337.500012874604,8|0,0:3|0:0,0:0:0:0:
233,202,117103,6,0,P|251:129|268:58,1,82.5000007867813,0|0,0:0|0:0,0:0:0:0:
365,283,117279,2,0,P|383:356|400:427,1,82.5000007867813,2|0,0:0|0:0,0:0:0:0:
467,129,117456,2,0,P|421:119|376:108,1,82.5000007867813,0|0,0:0|0:0,0:0:0:0:
176,53,117632,1,8,0:3:0:0:
325,213,117809,6,0,P|388:200|440:193,1,82.5000007867813,2|0,0:0|0:0,0:0:0:0:
211,287,117985,2,0,P|148:274|96:267,1,82.5000007867813,2|0,0:0|0:0,0:0:0:0:
65,175,118162,6,0,P|83:271|94:361,1,165.000001573563,8|0,0:0|0:0,0:0:0:0:
178,202,118427,1,0,0:0:0:0:
178,202,118515,2,0,P|189:136|202:83,1,82.5000007867813,0|0,0:0|0:0,0:0:0:0:
279,249,118691,2,0,P|290:315|303:368,1,82.5000007867813,8|0,0:0|0:0,0:0:0:0:
431,181,118868,1,8,0:0:0:0:
413,206,118956,6,0,P|339:147|435:108,1,165.000001573563,0|0,0:0|0:0,0:0:0:0:
426,68,119221,2,0,L|309:53,1,82.5000007867813,8|0,0:0|0:0,0:0:0:0:
124,112,119397,2,0,L|241:97,1,82.5000007867813,8|0,0:0|0:0,0:0:0:0:
308,204,119574,5,0,0:0:0:0:
268,313,119750,1,0,0:0:0:0:
146,326,119927,1,0,0:0:0:0:
84,229,120103,1,0,0:0:0:0:
84,229,120191,1,0,0:0:0:0:
84,229,120279,6,0,B|187:226|187:226|198:217|198:217|277:268|277:268|285:257|285:257|445:247,1,337.500012874604,0|0,0:0|0:0,0:0:0:0:
442,169,120632,5,0,0:0:0:0:
444,146,120721,1,0,0:0:0:0:
448,122,120809,1,0,0:0:0:0:
451,100,120897,1,0,0:0:0:0:
455,78,120985,6,0,B|357:26|357:26|401:271,1,337.500012874604,8|0,0:3|0:0,0:0:0:0:
283,202,121338,6,0,P|270:143|247:78,1,82.5000007867813,0|0,0:0|0:0,0:0:0:0:
122,246,121515,2,0,P|108:290|99:335,1,82.5000007867813,2|0,0:0|0:0,0:0:0:0:
31,121,121691,1,0,0:0:0:0:
225,322,121868,5,8,0:3:0:0:
225,322,121956,1,0,0:0:0:0:
225,322,122044,2,0,P|273:316|331:314,1,82.5000007867813,2|0,0:0|0:0,0:0:0:0:
189,176,122221,2,0,P|142:173|96:167,1,82.5000007867813,2|0,0:0|0:0,0:0:0:0:
321,123,122397,6,0,P|360:49|397:184,1,307.500004692078,8|0,0:3|0:0,0:0:0:0:
353,245,122750,6,0,P|367:319|374:364,1,82.5000007867813,0|0,0:0|0:0,0:0:0:0:
241,150,122927,2,0,P|227:76|220:31,1,82.5000007867813,2|0,0:0|0:0,0:0:0:0:
166,294,123103,1,0,0:0:0:0:
43,133,123279,5,8,0:3:0:0:
43,133,123368,1,0,0:0:0:0:
43,133,123456,2,0,P|109:125|157:116,1,82.5000007867813,2|0,0:0|0:0,0:0:0:0:
261,232,123632,2,0,P|327:240|375:249,1,82.5000007867813,2|0,0:0|0:0,0:0:0:0:
187,373,123809,6,0,B|233:269|136:275|203:153,1,205.000003128052,8|0,0:3|0:0,0:0:0:0:
266,117,124074,1,0,0:0:0:0:
266,117,124162,2,0,P|281:70|299:8,1,82.5000007867813,0|0,0:0|0:0,0:0:0:0:
382,146,124338,2,0,P|397:193|415:255,1,82.5000007867813,2|0,0:0|0:0,0:0:0:0:
288,315,124515,5,0,0:0:0:0:
251,310,124603,1,0,0:0:0:0:
214,304,124691,1,8,0:3:0:0:
177,300,124779,1,0,0:0:0:0:
132,275,124868,2,0,P|201:267|259:259,1,82.5000007867813,2|0,0:0|0:0,0:0:0:0:
299,188,125044,1,2,0:0:0:0:
299,188,125132,1,0,0:0:0:0:
299,188,125221,6,0,P|231:178|186:172,1,82.5000007867813,8|0,0:3|0:0,0:0:0:0:
79,41,125397,2,0,P|95:107|107:152,1,82.5000007867813,0|0,0:0|0:0,0:0:0:0:
100,340,125574,5,0,0:0:0:0:
81,308,125662,1,0,0:0:0:0:
90,272,125750,1,2,0:0:0:0:
120,250,125838,1,0,0:0:0:0:
157,248,125927,2,0,P|218:258|276:265,1,82.5000007867813,0|0,0:0|0:0,0:0:0:0:
329,365,126103,2,0,P|390:355|448:348,1,82.5000007867813,8|0,0:3|0:0,0:0:0:0:
507,226,126279,1,2,0:0:0:0:
354,95,126456,6,0,L|345:169,1,42.5000008106232,2|0,0:0|0:0,0:0:0:0:
248,261,126632,6,0,P|236:181|231:144,1,82.5000007867813,8|0,0:3|0:0,0:0:0:0:
115,284,126809,2,0,P|103:364|98:401,1,82.5000007867813,0|0,0:0|0:0,0:0:0:0:
39,186,126985,1,0,0:0:0:0:
221,349,127162,5,2,0:0:0:0:
221,349,127250,1,0,0:0:0:0:
221,349,127338,2,0,P|269:343|324:339,1,82.5000007867813,0|0,0:0|0:0,0:0:0:0:
441,253,127515,2,0,P|393:247|338:243,1,82.5000007867813,8|0,0:3|0:0,0:0:0:0:
241,73,127691,5,2,0:0:0:0:
255,113,127779,1,0,0:0:0:0:
231,148,127868,1,2,0:0:0:0:
244,184,127956,1,0,0:0:0:0:
235,213,128044,6,0,L|241:343,1,82.5000007867813,8|0,0:3|0:0,0:0:0:0:
94,171,128221,2,0,L|88:41,1,82.5000007867813,0|0,0:0|0:0,0:0:0:0:
326,168,128397,5,0,0:0:0:0:
326,168,128485,1,0,0:0:0:0:
326,168,128574,2,0,P|392:160|449:153,1,82.5000007867813,2|0,0:0|0:0,0:0:0:0:
184,264,128750,2,0,P|118:256|61:249,1,82.5000007867813,0|0,0:0|0:0,0:0:0:0:
311,358,128927,1,8,0:3:0:0:
255,127,129103,6,0,B|217:234|298:198|246:341,1,165.000001573563,2|2,0:0|0:0,0:0:0:0:
182,354,129368,1,0,0:0:0:0:
182,354,129456,6,0,P|138:341|88:327,1,82.5000007867813,8|0,0:3|0:0,0:0:0:0:
310,243,129632,2,0,P|354:230|404:216,1,82.5000007867813,0|0,0:0|0:0,0:0:0:0:
153,152,129809,5,0,0:0:0:0:
153,152,129897,1,0,0:0:0:0:
153,152,129985,2,0,P|165:226|174:278,1,82.5000007867813,2|0,0:0|0:0,0:0:0:0:
290,122,130162,2,0,P|302:48|311:-4,1,82.5000007867813,0|0,0:0|0:0,0:0:0:0:
414,239,130338,1,8,0:3:0:0:
196,354,130515,6,0,P|207:270|291:277,1,165.000001573563,2|2,0:0|0:0,0:0:0:0:
399,337,130779,1,0,0:0:0:0:
399,337,130868,6,0,P|434:332|465:314,1,72.5000022125245,0|0,0:3|0:0,0:0:0:0:
479,182,131044,2,0,P|450:161|415:155,1,72.5000022125245,0|0,0:0|0:0,0:0:0:0:
325,226,131221,1,0,0:0:0:0:
325,226,131309,1,0,0:0:0:0:
325,226,131397,2,0,L|317:313,1,72.5000022125245,0|0,0:0|0:0,0:0:0:0:
213,172,131574,6,0,P|167:180|121:168,1,72.5000022125245,0|0,0:0|0:0,0:0:0:0:
325,226,131750,2,0,P|373:216|413:228,1,72.5000022125245,0|0,0:0|0:0,0:0:0:0:
305,122,131927,6,0,P|300:86|299:49,1,72.5000022125245,0|0,0:0|0:0,0:0:0:0:
221,277,132103,2,0,P|225:312|226:349,1,72.5000022125245,0|0,0:0|0:0,0:0:0:0:
146,97,132279,6,0,P|25:86|132:184,1,337.500012874604,8|0,0:3|0:0,0:0:0:0:
216,184,132632,6,0,P|269:178|362:165,1,82.5000007867813,0|0,0:0|0:0,0:0:0:0:
435,310,132809,2,0,P|382:304|289:291,1,82.5000007867813,2|0,0:0|0:0,0:0:0:0:
405,177,132985,2,0,P|415:113|422:50,1,82.5000007867813,0|0,0:0|0:0,0:0:0:0:
246,319,133162,1,8,0:3:0:0:
103,187,133338,6,0,P|91:112|84:63,1,82.5000007867813,2|0,0:0|0:0,0:0:0:0:
194,21,133515,1,2,0:0:0:0:
194,21,133603,1,0,0:0:0:0:
194,21,133691,6,0,B|338:-2|251:144|457:97,1,225.000008583069,8|0,0:3|0:0,0:0:0:0:
460,35,133956,1,0,0:0:0:0:
460,35,134044,6,0,P|406:30|350:24,1,82.5000007867813,0|0,0:0|0:0,0:0:0:0:
216,110,134221,2,0,P|162:115|106:121,1,82.5000007867813,2|0,0:0|0:0,0:0:0:0:
361,211,134397,2,0,P|415:216|471:222,1,82.5000007867813,0|0,0:0|0:0,0:0:0:0:
277,313,134574,1,8,0:3:0:0:
53,179,134750,6,0,P|45:111|35:42,1,82.5000007867813,0|0,0:0|0:0,0:0:0:0:
184,256,134927,2,0,P|177:301|172:347,1,82.5000007867813,2|0,0:0|0:0,0:0:0:0:
357,220,135103,6,0,B|233:268|278:93|64:202,1,225.000008583069,8|0,0:3|0:0,0:0:0:0:
320,144,135456,6,0,P|330:69|337:22,1,82.5000007867813,0|0,0:0|0:0,0:0:0:0:
184,256,135632,2,0,P|194:331|201:378,1,82.5000007867813,2|0,0:0|0:0,0:0:0:0:
465,331,135809,5,0,0:0:0:0:
478,296,135897,1,0,0:0:0:0:
474,259,135985,1,8,0:3:0:0:
456,225,136074,1,0,0:0:0:0:
423,207,136162,2,0,P|358:217|310:228,1,82.5000007867813,2|0,0:0|0:0,0:0:0:0:
223,323,136338,2,0,P|158:313|110:302,1,82.5000007867813,2|0,0:0|0:0,0:0:0:0:
83,131,136515,6,0,B|38:63|129:22|217:82|113:277,1,225.000008583069,8|0,0:3|0:0,0:0:0:0:
83,243,136779,1,0,0:0:0:0:
83,243,136868,6,0,P|96:320|101:370,1,82.5000007867813,0|0,0:0|0:0,0:0:0:0:
241,192,137044,2,0,P|247:146|255:100,1,82.5000007867813,2|0,0:0|0:0,0:0:0:0:
403,331,137221,2,0,P|341:324|283:316,1,82.5000007867813,0|0,0:0|0:0,0:0:0:0:
225,355,137397,1,8,0:3:0:0:
225,355,137485,1,0,0:0:0:0:
225,355,137574,5,2,0:0:0:0:
225,355,137927,6,0,P|220:307|204:242,2,72.5000022125245,8|0|0,0:0|0:0|0:0,0:0:0:0:
315,244,138191,1,0,0:0:0:0:
315,244,138279,2,0,P|320:196|336:131,2,72.5000022125245,8|0|0,0:0|0:0|0:0,0:0:0:0:
421,116,138544,1,0,0:0:0:0:
421,116,138632,1,8,0:0:0:0:
386,78,138721,1,0,0:0:0:0:
336,68,138809,1,0,0:0:0:0:
288,85,138897,1,0,0:0:0:0:
255,124,138985,1,8,0:0:0:0:
214,154,139074,1,0,0:0:0:0:
163,152,139162,1,0,0:0:0:0:
120,125,139250,1,0,0:0:0:0:
85,88,139338,5,8,0:0:0:0:
107,134,139427,1,0,0:0:0:0:
108,184,139515,1,0,0:0:0:0:
86,229,139603,1,0,0:0:0:0:
70,277,139691,1,8,0:0:0:0:
82,325,139779,1,0,0:0:0:0:
126,350,139868,1,0,0:0:0:0:
176,348,139956,1,0,0:0:0:0:
218,321,140044,5,8,0:0:0:0:
245,278,140132,1,0,0:0:0:0:
291,256,140221,1,0,0:0:0:0:
341,254,140309,1,0,0:0:0:0:
386,276,140397,1,8,0:0:0:0:
403,323,140485,1,0,0:0:0:0:
385,371,140574,1,0,0:0:0:0:
335,378,140662,1,0,0:0:0:0:
289,355,140750,6,0,L|284:313,10,36.2500011062622,0|0|0|0|0|0|0|0|0|0|0,3:0|0:0|0:0|0:0|0:0|0:0|0:0|0:0|0:0|0:0|0:0,0:0:0:0:
366,241,141279,1,0,3:0:0:0:
376,255,141368,1,0,3:0:0:0:
386,270,141456,6,0,L|391:237,8,18.1250005531311,0|0|0|0|0|0|0|0|0,3:0|0:0|0:0|0:0|0:0|0:0|0:0|0:0|0:0,0:0:0:0:
282,192,141721,6,0,L|279:157,8,18.1250005531311,0|0|0|0|0|0|0|0|0,3:0|0:0|0:0|0:0|0:0|0:0|0:0|0:0|0:0,0:0:0:0:
370,62,141985,6,0,L|402:64,4,18.1250005531311,0|0|0|0|0,3:0|0:0|0:0|0:0|0:0,0:0:0:0:
286,53,142162,6,0,L|197:46,1,72.5000022125245,0|0,0:0|0:0,0:0:0:0:
64,141,142338,2,0,L|153:134,1,72.5000022125245,0|0,0:0|0:0,0:0:0:0:
163,332,142515,5,0,0:0:0:0:
163,332,142603,1,0,0:0:0:0:
163,332,142691,2,0,P|156:277|146:218,1,72.5000022125245,0|0,0:0|0:0,0:0:0:0:
362,283,142868,1,0,0:0:0:0:
362,283,142956,1,0,0:0:0:0:
362,283,143044,2,0,P|369:228|379:172,1,72.5000022125245,0|0,0:0|0:0,0:0:0:0:
261,83,143221,5,0,0:0:0:0:
247,131,143309,1,0,0:0:0:0:
247,181,143397,1,0,0:0:0:0:
259,230,143485,1,0,0:0:0:0:
285,279,143574,6,0,P|201:244|117:306,1,145.000004425049,8|0,0:0|0:0,0:0:0:0:
71,199,143838,1,0,0:0:0:0:
71,199,143927,6,0,P|60:138|49:91,1,72.5000022125245,0|0,0:0|0:0,0:0:0:0:
210,140,144103,2,0,P|221:79|232:32,1,72.5000022125245,0|0,0:0|0:0,0:0:0:0:
65,200,144279,6,0,P|54:139|43:92,1,72.5000022125245,0|0,0:0|0:0,0:0:0:0:
218,140,144455,2,0,P|229:79|240:32,1,72.5000022125245,0|0,0:0|0:0,0:0:0:0:
57,200,144632,6,0,P|46:139|35:92,1,72.5000022125245,0|0,0:0|0:0,0:0:0:0:
225,138,144808,2,0,P|236:77|247:30,1,72.5000022125245,0|0,0:0|0:0,0:0:0:0:
146,287,144985,6,0,B|238:257|216:353|328:313,1,165.000001573563,8|0,0:0|0:0,0:0:0:0:
358,374,145250,1,0,0:0:0:0:
358,374,145338,2,0,P|345:285|331:192,1,165.000001573563,0|0,0:0|0:0,0:0:0:0:
407,135,145603,1,0,0:0:0:0:
407,135,145691,6,0,P|468:142|509:147,1,82.5000007867813,0|0,0:0|0:0,0:0:0:0:
292,72,145868,2,0,P|231:79|190:84,1,82.5000007867813,0|0,0:0|0:0,0:0:0:0:
208,263,146044,6,0,P|225:228|219:165,1,82.5000007867813,0|0,0:0|0:0,0:0:0:0:
86,65,146221,2,0,L|98:201,1,82.5000007867813,0|0,0:0|0:0,0:0:0:0:
111,337,146397,5,8,0:0:0:0:
111,337,146485,1,0,0:0:0:0:
111,337,146574,2,0,P|166:343|231:358,1,72.5000022125245,0|0,0:0|0:0,0:0:0:0:
294,340,146750,6,0,P|287:244|282:147,1,145.000004425049,0|0,0:0|0:0,0:0:0:0:
375,123,147015,1,0,0:0:0:0:
375,123,147103,2,0,P|384:176|363:214,1,72.5000022125245,0|0,0:0|0:0,0:0:0:0:
216,226,147279,6,0,L|119:234,1,72.5000022125245,0|0,0:0|0:0,0:0:0:0:
223,87,147456,2,0,L|126:79,1,72.5000022125245,0|0,0:0|0:0,0:0:0:0:
214,233,147632,2,0,L|117:241,1,72.5000022125245,0|0,0:0|0:0,0:0:0:0:
339,339,147809,5,8,0:0:0:0:
339,339,147897,2,0,P|411:356|466:303,1,145.000004425049,0|0,0:0|0:0,0:0:0:0:
370,137,148162,2,0,P|384:232|393:299,1,145.000004425049,0|0,0:0|0:0,0:0:0:0:
471,171,148427,1,0,0:0:0:0:
471,171,148515,6,0,P|477:106|483:56,1,82.5000007867813,0|0,0:0|0:0,0:0:0:0:
261,106,148691,2,0,P|273:145|284:185,1,82.5000007867813,0|0,0:0|0:0,0:0:0:0:
390,280,148868,5,0,0:0:0:0:
390,280,149221,6,0,P|310:277|272:344,1,145.000004425049,8|0,0:0|0:0,0:0:0:0:
184,279,149485,1,0,0:0:0:0:
184,279,149574,6,0,P|122:291|75:299,1,72.5000022125245,0|0,0:0|0:0,0:0:0:0:
4,174,149750,2,0,P|66:186|113:194,1,72.5000022125245,0|0,0:0|0:0,0:0:0:0:
185,273,149927,6,0,P|123:285|76:293,1,72.5000022125245,0|0,0:0|0:0,0:0:0:0:
5,168,150103,2,0,P|67:180|114:188,1,72.5000022125245,0|0,0:0|0:0,0:0:0:0:
186,267,150279,6,0,P|124:279|77:287,1,72.5000022125245,0|0,0:0|0:0,0:0:0:0:
6,162,150455,2,0,P|68:174|115:182,1,72.5000022125245,0|0,0:0|0:0,0:0:0:0:
196,92,150632,6,0,P|301:78|400:59,1,165.000001573563,8|0,0:0|0:0,0:0:0:0:
446,140,150897,1,0,0:0:0:0:
446,140,150985,2,0,P|380:148|362:62,1,165.000001573563,0|0,0:0|0:0,0:0:0:0:
274,159,151250,1,0,0:0:0:0:
274,159,151338,6,0,P|290:221|300:275,1,82.5000007867813,0|0,0:0|0:0,0:0:0:0:
437,275,151515,2,0,P|421:337|411:391,1,82.5000007867813,0|0,0:0|0:0,0:0:0:0:
249,328,151691,6,0,P|199:319|155:311,1,82.5000007867813,0|0,0:0|0:0,0:0:0:0:
378,201,151868,2,0,P|428:192|472:184,1,82.5000007867813,0|0,0:0|0:0,0:0:0:0:
206,25,152044,6,0,P|131:58|160:157,1,165.000001573563,8|0,0:0|0:0,0:0:0:0:
206,191,152309,1,0,0:0:0:0:
206,191,152397,2,0,P|276:184|310:181,1,82.5000007867813,0|0,0:0|0:0,0:0:0:0:
121,263,152574,2,0,P|51:256|17:253,1,82.5000007867813,0|0,0:0|0:0,0:0:0:0:
250,303,152750,6,0,P|261:371|266:404,1,82.5000007867813,0|0,0:0|0:0,0:0:0:0:
390,244,152927,2,0,P|396:203|403:162,1,82.5000007867813,0|0,0:0|0:0,0:0:0:0:
280,32,153103,5,0,0:0:0:0:
280,32,153191,1,0,0:0:0:0:
280,32,153279,2,0,P|267:86|288:140,1,82.5000007867813,0|0,0:0|0:0,0:0:0:0:
422,213,153456,5,8,0:0:0:0:
392,197,153544,1,0,0:0:0:0:
359,196,153632,1,0,0:0:0:0:
326,201,153721,1,0,0:0:0:0:
297,217,153809,1,0,0:0:0:0:
275,241,153897,1,0,0:0:0:0:
244,254,153985,1,0,0:0:0:0:
210,256,154074,1,0,0:0:0:0:
153,246,154162,5,0,0:0:0:0:
124,196,154250,1,0,0:0:0:0:
128,138,154338,1,0,0:0:0:0:
170,98,154427,1,0,0:0:0:0:
227,95,154515,2,0,P|241:202|261:350,1,247.500002360344,0|0,0:0|0:0,0:0:0:0:
374,308,154868,6,0,P|307:290|259:340,1,145.000004425049,8|0,0:0|0:0,0:0:0:0:
59,218,155221,2,0,P|126:200|174:250,1,145.000004425049,0|0,0:0|0:0,0:0:0:0:
246,207,155485,1,0,0:0:0:0:
246,207,155574,2,0,P|240:115|234:49,1,145.000004425049,0|0,0:0|0:0,0:0:0:0:
349,262,155927,1,0,0:0:0:0:
441,73,156103,1,0,0:0:0:0:
226,236,156279,5,8,0:0:0:0:
189,232,156368,1,0,0:0:0:0:
153,228,156456,1,0,0:0:0:0:
306,351,156632,1,0,0:0:0:0:
52,284,156809,1,0,0:0:0:0:
52,284,156897,2,0,P|34:211|69:138,1,145.000004425049,0|0,0:0|0:0,0:0:0:0:
85,118,157162,1,0,0:0:0:0:
204,342,157338,1,0,0:0:0:0:
208,305,157427,1,0,0:0:0:0:
212,269,157515,1,0,0:0:0:0:
217,233,157603,1,0,0:0:0:0:
221,197,157691,5,8,0:0:0:0:
221,197,157779,2,0,B|290:223|290:223|391:193,1,145.000004425049,0|0,0:0|0:0,0:0:0:0:
480,243,158044,2,0,P|446:204|353:205,1,145.000004425049,0|0,0:0|0:0,0:0:0:0:
305,356,158309,1,0,0:0:0:0:
305,356,158397,2,0,P|355:346|400:265,1,145.000004425049,0|0,0:0|0:0,0:0:0:0:
281,62,158750,1,0,0:0:0:0:
480,125,158927,1,0,0:0:0:0:
317,273,159103,5,8,0:0:0:0:
281,276,159191,1,0,0:0:0:0:
245,281,159279,1,0,0:0:0:0:
78,165,159456,1,0,0:0:0:0:
127,349,159633,1,0,0:0:0:0:
127,349,159721,1,0,0:0:0:0:
127,349,159809,6,0,P|118:299|109:256,1,72.5000022125245,0|0,0:0|0:0,0:0:0:0:
217,205,159985,2,0,P|226:155|235:112,1,72.5000022125245,0|0,0:0|0:0,0:0:0:0:
103,46,160162,1,0,0:0:0:0:
103,46,160250,1,0,0:0:0:0:
103,46,160338,1,0,0:0:0:0:
103,46,160427,1,0,0:0:0:0:
103,46,160515,6,0,P|163:58|225:31,1,104.999996795654,8|0,0:0|0:0,0:0:0:0:
347,112,160868,2,0,P|315:101|285:104,1,52.4999983978272,0|0,0:0|0:0,0:0:0:0:
268,216,161044,2,0,P|294:215|318:205,1,52.4999983978272,0|0,0:0|0:0,0:0:0:0:
158,166,161221,1,0,0:0:0:0:
158,166,161309,2,0,P|142:222|176:298,1,104.999996795654,0|0,0:0|0:0,0:0:0:0:
253,348,161574,2,0,P|315:335|380:332,1,104.999996795654,0|0,0:0|0:0,0:0:0:0:
458,263,161838,1,0,0:0:0:0:
458,263,161927,6,0,P|413:263|377:197,1,104.999996795654,8|0,0:0|0:0,0:0:0:0:
460,72,162279,2,0,P|446:134|444:191,1,104.999996795654,0|0,0:0|0:0,0:0:0:0:
365,86,162544,1,0,0:0:0:0:
365,86,162632,2,0,P|304:74|268:123,1,104.999996795654,0|0,0:0|0:0,0:0:0:0:
185,188,162897,2,0,P|175:121|159:52,1,104.999996795654,0|0,0:0|0:0,0:0:0:0:
156,37,163162,1,0,0:0:0:0:
100,212,163338,5,8,0:0:0:0:
80,259,163427,1,0,0:0:0:0:
94,307,163515,1,0,0:0:0:0:
131,341,163603,1,0,0:0:0:0:
180,349,163691,1,0,0:0:0:0:
228,334,163779,1,0,0:0:0:0:
257,292,163868,1,0,0:0:0:0:
293,256,163956,1,0,0:0:0:0:
341,241,164044,6,0,P|364:243|401:258,6,36.2500011062622,0|0|0|0|0|0|0,0:0|0:0|0:0|0:0|0:0|0:0|0:0,0:0:0:0:
409,284,164397,2,0,P|431:304|445:330,6,36.2500011062622,0|0|0|0|0|0|0,0:0|0:0|0:0|0:0|0:0|0:0|0:0,0:0:0:0:
357,362,164750,6,0,P|301:355|260:349,1,72.5000022125245,8|0,0:0|0:0,0:0:0:0:
99,282,164927,2,0,P|155:275|196:269,1,72.5000022125245,0|0,0:0|0:0,0:0:0:0:
339,164,165103,2,0,P|283:157|242:151,1,72.5000022125245,0|0,0:0|0:0,0:0:0:0:
138,80,165279,5,0,0:0:0:0:
138,80,165368,1,0,0:0:0:0:
138,80,165456,2,0,P|147:140|152:170,1,72.5000022125245,0|0,0:0|0:0,0:0:0:0:
170,272,165632,1,0,0:0:0:0:
439,65,165809,5,0,0:0:0:0:
390,51,165897,1,0,0:0:0:0:
342,68,165985,1,0,0:0:0:0:
325,116,166074,1,0,0:0:0:0:
333,163,166162,6,0,P|345:259|352:314,1,115.000002193451,8|0,3:2|0:0,0:0:0:0:
459,158,166515,1,0,0:0:0:0:
200,256,166691,2,0,P|188:352|181:407,1,115.000002193451,0|0,0:0|0:0,0:0:0:0:
122,126,167044,1,0,0:0:0:0:
41,281,167221,1,0,0:0:0:0:
291,187,167397,6,0,P|284:113|236:57,1,115.000002193451,0|8,0:0|3:2,0:0:0:0:
174,301,167750,1,0,0:0:0:0:
396,217,167927,1,0,0:0:0:0:
177,154,168103,2,0,B|35:142,1,115.000002193451,0|0,0:0|0:0,0:0:0:0:
306,226,168456,1,0,0:0:0:0:
141,266,168632,1,0,0:0:0:0:
207,76,168809,1,0,0:0:0:0:
426,250,168985,6,0,P|437:330|447:408,1,115.000002193451,8|0,3:2|0:0,0:0:0:0:
507,142,169338,1,0,0:0:0:0:
311,286,169515,2,0,L|172:267,1,115.000002193451,0|0,0:0|0:0,0:0:0:0:
95,112,169868,1,0,0:0:0:0:
264,179,170044,1,0,0:0:0:0:
97,327,170221,1,0,0:0:0:0:
97,327,170310,1,0,0:0:0:0:
97,327,170397,6,0,P|91:280|84:236,1,57.5000010967255,8|0,3:2|0:0,0:0:0:0:
198,209,170574,2,0,P|204:162|211:118,1,57.5000010967255,0|0,0:0|0:0,0:0:0:0:
95,87,170750,1,0,0:0:0:0:
179,292,170927,1,0,0:0:0:0:
306,107,171103,2,0,P|272:63|200:52,1,115.000002193451,0|0,0:0|0:0,0:0:0:0:
254,234,171456,5,0,0:0:0:0:
294,233,171544,1,0,0:0:0:0:
334,230,171632,1,0,0:0:0:0:
374,227,171721,1,0,0:0:0:0:
414,223,171809,6,0,L|271:212,1,115.000002193451,8|0,3:2|0:0,0:0:0:0:
207,313,172162,1,0,0:0:0:0:
53,172,172338,2,0,L|196:161,1,115.000002193451,0|0,0:0|0:0,0:0:0:0:
288,75,172691,1,0,0:0:0:0:
224,270,172868,1,0,0:0:0:0:
53,172,173044,6,0,P|36:115|68:41,1,115.000002193451,0|8,0:0|3:2,0:0:0:0:
275,200,173397,1,0,0:0:0:0:
75,311,173574,1,0,0:0:0:0:
118,116,173750,2,0,L|254:122,1,115.000002193451,0|0,0:0|0:0,0:0:0:0:
351,317,174103,1,0,0:0:0:0:
206,215,174279,1,0,0:0:0:0:
375,135,174456,1,0,0:0:0:0:
466,314,174632,6,0,L|322:319,1,115.000002193451,8|0,3:2|0:0,0:0:0:0:
235,212,174985,1,0,0:0:0:0:
423,110,175162,2,0,L|411:257,1,115.000002193451,0|0,0:0|0:0,0:0:0:0:
278,108,175515,1,0,0:0:0:0:
191,281,175691,1,0,0:0:0:0:
94,151,175868,1,0,0:0:0:0:
301,358,176044,5,8,3:2:0:0:
301,358,176132,1,0,0:0:0:0:
301,358,176221,2,0,P|341:346|380:343,1,57.5000010967255,0|0,0:0|0:0,0:0:0:0:
461,237,176397,1,0,0:0:0:0:
461,237,176485,1,0,0:0:0:0:
461,237,176574,2,0,P|421:225|382:222,1,57.5000010967255,0|0,0:0|0:0,0:0:0:0:
301,122,176750,2,0,L|297:34,1,57.5000010967255,0|0,0:0|0:0,0:0:0:0:
204,227,176927,2,0,L|199:320,1,57.5000010967255,0|0,0:0|0:0,0:0:0:0:
71,189,177103,5,0,0:0:0:0:
66,149,177191,1,0,0:0:0:0:
61,109,177279,1,0,0:0:0:0:
56,68,177368,1,0,0:0:0:0:
52,27,177456,6,0,L|42:173,1,115.000002193451,8|0,3:2|0:0,0:0:0:0:
173,269,177809,1,0,0:0:0:0:
315,135,177985,2,0,P|260:110|185:134,1,115.000002193451,0|0,0:0|0:0,0:0:0:0:
63,267,178338,1,0,0:0:0:0:
302,281,178515,1,0,0:0:0:0:
138,62,178691,6,0,P|119:122|153:193,1,115.000002193451,0|8,0:0|0:2,0:0:0:0:
267,317,179044,1,0,0:0:0:0:
424,174,179221,1,0,0:0:0:0:
207,118,179397,2,0,L|218:249,1,115.000002193451,0|0,0:0|0:0,0:0:0:0:
333,88,179750,1,0,0:0:0:0:
428,297,179927,1,0,0:0:0:0:
320,118,180103,1,0,0:0:0:0:
122,284,180279,6,0,P|167:239|233:236,1,115.000002193451,8|0,3:2|0:0,0:0:0:0:
289,370,180632,1,0,0:0:0:0:
50,348,180809,2,0,P|27:290|45:231,1,115.000002193451,0|0,0:0|0:0,0:0:0:0:
284,171,181162,2,0,P|307:229|289:288,1,115.000002193451,0|0,0:0|0:0,0:0:0:0:
120,128,181515,1,0,0:0:0:0:
289,35,181691,5,8,3:2:0:0:
289,35,181779,1,0,0:0:0:0:
289,35,181868,2,0,P|341:42|374:47,1,57.5000010967255,0|0,0:0|0:0,0:0:0:0:
460,136,182044,2,0,P|408:143|375:148,1,57.5000010967255,0|0,0:0|0:0,0:0:0:0:
274,227,182221,2,0,P|278:198|283:170,1,57.5000010967255,0|0,0:0|0:0,0:0:0:0:
405,308,182397,5,0,0:0:0:0:
405,308,182485,1,0,0:0:0:0:
405,308,182574,1,0,0:0:0:0:
405,308,182662,1,0,0:0:0:0:
405,308,182750,2,0,L|339:300,1,57.5000010967255,0|0,0:0|0:0,0:0:0:0:
251,374,182927,2,0,L|185:382,1,57.5000010967255,0|0,0:0|0:0,0:0:0:0:
101,327,183103,6,0,P|76:263|106:193,1,115.000002193451,8|0,0:0|0:0,0:0:0:0:
153,173,183368,1,0,0:0:0:0:
153,173,183456,2,0,L|235:184,1,57.5000010967255,8|0,0:0|0:0,0:0:0:0:
283,240,183632,2,0,L|363:235,1,57.5000010967255,0|0,0:0|0:0,0:0:0:0:
406,177,183809,1,8,0:0:0:0:
406,177,183897,2,0,P|413:116|431:35,1,115.000002193451,0|0,0:0|0:0,0:0:0:0:
339,18,184162,2,0,L|270:27,1,57.5000010967255,8|0,0:0|0:0,0:0:0:0:
201,87,184338,1,0,0:0:0:0:
201,87,184427,1,0,0:0:0:0:
201,87,184515,6,0,P|110:77|45:73,1,115.000002193451,8|0,0:0|0:0,0:0:0:0:
21,153,184779,1,0,0:0:0:0:
21,153,184868,2,0,P|30:203|36:238,1,57.5000010967255,8|0,0:0|0:0,0:0:0:0:
142,284,185044,1,0,0:0:0:0:
142,284,185132,1,0,0:0:0:0:
142,284,185221,2,0,P|149:206|170:150,1,115.000002193451,8|0,0:0|0:0,0:0:0:0:
276,144,185486,1,0,0:0:0:0:
276,144,185574,2,0,P|307:188|321:215,1,57.5000010967255,8|0,0:0|0:0,0:0:0:0:
348,272,185750,1,0,0:0:0:0:
68,301,185927,5,8,0:0:0:0:
100,327,186015,1,0,0:0:0:0:
140,334,186103,1,0,0:0:0:0:
179,324,186191,1,0,0:0:0:0:
206,294,186280,1,0,0:0:0:0:
233,264,186368,1,0,0:0:0:0:
271,250,186456,1,0,0:0:0:0:
312,252,186544,1,0,0:0:0:0:
348,272,186632,6,0,L|343:218,6,28.7500005483627,8|0|0|0|0|0|0,0:0|0:0|0:0|0:0|0:0|0:0|0:0,0:0:0:0:
402,176,186985,6,0,L|407:122,6,28.7500005483627,8|0|0|0|0|0|0,0:0|0:0|0:0|0:0|0:0|0:0|0:0,0:0:0:0:
349,81,187338,5,8,0:0:0:0:
326,76,187427,1,0,0:0:0:0:
303,72,187515,1,0,0:0:0:0:
280,70,187603,1,0,0:0:0:0:
251,105,187691,5,0,0:0:0:0:
296,104,187779,1,0,0:0:0:0:
342,101,187868,1,0,0:0:0:0:
387,97,187956,1,0,0:0:0:0:
404,147,188044,5,0,0:0:0:0:
346,145,188132,1,0,0:0:0:0:
288,141,188221,1,0,0:0:0:0:
230,136,188309,1,0,0:0:0:0:
184,178,188397,6,0,P|231:172|285:193,1,77.5000005912781,0|0,0:0|0:0,0:0:0:0:
419,286,188574,2,0,P|372:280|318:301,1,77.5000005912781,0|0,0:0|0:0,0:0:0:0:
144,354,188750,6,0,P|121:283|215:312,1,187.5,8|0,0:0|0:0,0:0:0:0:
334,348,189103,6,0,L|346:267,1,62.5,0|0,0:0|0:0,0:0:0:0:
253,206,189279,2,0,L|241:125,1,62.5,0|0,0:0|0:0,0:0:0:0:
339,344,189456,6,0,L|351:263,1,62.5,0|0,0:0|0:0,0:0:0:0:
258,202,189632,2,0,L|246:121,1,62.5,0|0,0:0|0:0,0:0:0:0:
344,340,189809,6,0,L|356:259,1,62.5,0|0,0:0|0:0,0:0:0:0:
263,198,189985,2,0,L|251:117,1,62.5,0|0,0:0|0:0,0:0:0:0:
380,41,190162,6,0,P|449:36|418:108,1,145.000004425049,8|0,0:0|0:0,0:0:0:0:
323,106,190427,1,0,0:0:0:0:
323,106,190515,2,0,P|242:101|162:97,1,145.000004425049,0|0,0:0|0:0,0:0:0:0:
107,170,190779,1,0,0:0:0:0:
107,170,190868,6,0,P|119:225|124:263,1,72.5000022125245,0|0,0:0|0:0,0:0:0:0:
258,342,191044,2,0,P|264:306|272:271,1,72.5000022125245,0|0,0:0|0:0,0:0:0:0:
405,308,191221,6,0,P|440:302|477:300,1,72.5000022125245,0|0,0:0|0:0,0:0:0:0:
357,123,191397,2,0,P|348:158|342:193,1,72.5000022125245,0|0,0:0|0:0,0:0:0:0:
258,342,191574,6,0,P|182:355|138:293,1,125,8|0,0:0|0:0,0:0:0:0:
76,337,191838,1,0,0:0:0:0:
76,337,191927,2,0,P|71:283|57:167,1,145.000004425049,0|0,0:0|0:0,0:0:0:0:
155,120,192191,1,0,0:0:0:0:
155,120,192279,2,0,P|161:57|166:12,1,72.5000022125245,0|0,0:0|0:0,0:0:0:0:
254,212,192456,6,0,P|189:218|144:228,1,72.5000022125245,0|0,0:0|0:0,0:0:0:0:
374,301,192632,2,0,P|409:306|446:308,1,72.5000022125245,0|0,0:0|0:0,0:0:0:0:
360,175,192809,2,0,P|370:111|380:63,1,72.5000022125245,0|0,0:0|0:0,0:0:0:0:
188,225,192985,5,8,0:0:0:0:
188,225,193074,2,0,P|194:273|205:377,1,145.000004425049,0|0,0:0|0:0,0:0:0:0:
364,363,193338,2,0,P|354:296|288:286,1,145.000004425049,0|0,0:0|0:0,0:0:0:0:
165,341,193603,1,0,0:0:0:0:
165,341,193691,2,0,P|113:332|68:328,1,72.5000022125245,0|0,0:0|0:0,0:0:0:0:
7,219,193868,2,0,P|42:214|78:207,1,72.5000022125245,0|0,0:0|0:0,0:0:0:0:
180,107,194044,5,0,0:0:0:0:
180,107,194397,6,0,B|290:181|286:43|406:120,1,217.500006637573,8|0,0:0|0:0,0:0:0:0:
339,196,194750,6,0,P|325:262|313:306,1,72.5000022125245,0|0,0:0|0:0,0:0:0:0:
183,276,194927,2,0,P|197:342|209:386,1,72.5000022125245,0|0,0:0|0:0,0:0:0:0:
345,196,195103,6,0,P|331:262|319:306,1,72.5000022125245,0|0,0:0|0:0,0:0:0:0:
177,277,195280,2,0,P|191:343|203:387,1,72.5000022125245,0|0,0:0|0:0,0:0:0:0:
351,197,195456,6,0,P|337:263|325:307,1,72.5000022125245,0|0,0:0|0:0,0:0:0:0:
177,277,195632,2,0,P|191:343|203:387,1,72.5000022125245,0|0,0:0|0:0,0:0:0:0:
428,132,195809,6,0,B|342:118|342:118|301:137|301:137|197:122,1,217.500006637573,8|0,0:0|0:0,0:0:0:0:
111,110,196162,2,0,P|104:46|95:-6,1,72.5000022125245,0|0,0:0|0:0,0:0:0:0:
184,204,196338,1,0,0:0:0:0:
184,204,196427,1,0,0:0:0:0:
184,204,196515,6,0,P|177:271|171:316,1,72.5000022125245,0|0,0:0|0:0,0:0:0:0:
270,356,196691,2,0,P|327:348|373:341,1,72.5000022125245,0|0,0:0|0:0,0:0:0:0:
478,261,196868,6,0,P|421:253|375:246,1,72.5000022125245,0|0,0:0|0:0,0:0:0:0:
294,91,197044,2,0,P|303:155|312:214,1,72.5000022125245,0|0,0:0|0:0,0:0:0:0:
326,322,197221,5,8,0:0:0:0:
297,344,197309,1,0,0:0:0:0:
261,351,197397,1,0,0:0:0:0:
224,348,197485,1,0,0:0:0:0:
189,336,197574,1,0,0:0:0:0:
162,311,197662,1,0,0:0:0:0:
149,277,197750,1,0,0:0:0:0:
148,240,197838,1,0,0:0:0:0:
160,205,197927,6,0,L|154:147,4,36.2500011062622,0|0|0|0|0,0:0|0:0|0:0|0:0|0:0,0:0:0:0:
221,113,198191,6,0,L|257:110,2,36.2500011062622,0|0|0,0:0|0:0|0:0,0:0:0:0:
112,74,198368,5,0,0:0:0:0:
112,74,198456,2,0,L|60:66,2,36.2500011062622,0|0|0,0:0|0:0|0:0,0:0:0:0:
271,39,198632,6,0,P|261:86|253:143,1,72.5000022125245,8|0,0:0|0:0,0:0:0:0:
63,159,198809,2,0,P|73:206|81:263,1,72.5000022125245,0|0,0:0|0:0,0:0:0:0:
207,323,198985,6,0,P|265:314|319:310,1,72.5000022125245,0|0,0:0|0:0,0:0:0:0:
419,218,199162,2,0,P|383:213|347:207,1,72.5000022125245,0|0,0:0|0:0,0:0:0:0:
188,138,199338,1,0,0:0:0:0:
188,138,199427,2,0,P|201:205|206:246,1,72.5000022125245,0|0,0:0|0:0,0:0:0:0:
357,308,199603,1,0,0:0:0:0:
357,308,199691,1,0,0:0:0:0:
343,259,199779,1,0,0:0:0:0:
347,207,199868,1,0,0:0:0:0:
367,160,199956,1,0,0:0:0:0:
391,118,200041,6,0,P|320:118|258:62,1,150,0|0,0:0|0:0,0:0:0:0:
197,39,200441,6,0,P|259:43|340:111,1,150,0|0,0:0|0:0,0:0:0:0:
359,107,200895,6,0,P|336:172|362:286,1,150,0|0,0:0|0:0,0:0:0:0:
351,312,201507,6,0,P|317:265|214:230,1,150,0|0,0:0|0:0,0:0:0:0:
234,229,202307,6,0,P|192:253|163:255,1,75,0|0,0:0|0:0,0:0:0:0:
127,261,202959,5,0,0:0:0:0:
127,261,203222,6,0,P|112:211|126:144,1,72.5000022125245,8|0,0:0|0:0,0:0:0:0:
208,146,203422,2,0,P|231:99|285:65,1,72.5000022125245,0|0,0:0|0:0,0:0:0:0:
391,181,203622,6,0,P|406:231|392:298,1,72.5000022125245,0|0,0:0|0:0,0:0:0:0:
305,304,203822,2,0,P|281:350|227:384,1,72.5000022125245,0|0,0:0|0:0,0:0:0:0:
132,261,204022,6,0,P|117:211|131:144,1,72.5000022125245,0|0,0:0|0:0,0:0:0:0:
218,138,204222,2,0,P|241:91|295:57,1,72.5000022125245,0|0,0:0|0:0,0:0:0:0:
401,173,204422,6,0,P|416:223|402:290,1,72.5000022125245,0|0,0:0|0:0,0:0:0:0:
315,296,204622,2,0,P|291:342|237:376,1,72.5000022125245,0|0,0:0|0:0,0:0:0:0:
151,355,204822,5,8,0:0:0:0:
54,195,205022,2,0,L|41:124,1,72.5000022125245,0|0,0:0|0:0,0:0:0:0:
185,320,205222,5,0,0:0:0:0:
281,165,205422,2,0,L|295:94,1,72.5000022125245,0|0,0:0|0:0,0:0:0:0:
281,331,205622,5,0,0:0:0:0:
167,143,205822,2,0,L|153:71,1,72.5000022125245,0|0,0:0|0:0,0:0:0:0:
335,305,206022,5,0,0:0:0:0:
335,305,206122,1,0,0:0:0:0:
334,305,206222,2,0,L|347:233,1,72.5000022125245,0|0,0:0|0:0,0:0:0:0:
454,47,206422,5,8,0:0:0:0:
315,143,206622,2,0,L|328:215,1,72.5000022125245,0|0,0:0|0:0,0:0:0:0:
227,302,206822,1,0,0:0:0:0:
227,302,206922,1,0,0:0:0:0:
226,302,207022,2,0,P|190:304|154:302,1,72.5000022125245,0|0,0:0|0:0,0:0:0:0:
79,236,207222,6,0,L|68:139,1,72.5000022125245,0|0,0:0|0:0,0:0:0:0:
211,57,207422,1,0,0:0:0:0:
211,57,207522,1,0,0:0:0:0:
211,57,207622,2,0,L|200:154,1,72.5000022125245,0|0,0:0|0:0,0:0:0:0:
330,262,207822,1,0,0:0:0:0:
330,262,207922,1,0,0:0:0:0:
330,262,208022,6,0,P|393:254|444:247,1,72.5000022125245,8|0,0:0|0:0,0:0:0:0:
233,342,208222,2,0,P|170:334|119:327,1,72.5000022125245,0|0,0:0|0:0,0:0:0:0:
221,156,208422,1,0,0:0:0:0:
221,156,208522,2,0,P|236:228|241:259,1,72.5000022125245,0|0,0:0|0:0,0:0:0:0:
399,353,208722,1,0,0:0:0:0:
399,353,208822,6,0,P|411:288|421:243,1,72.5000022125245,0|0,0:0|0:0,0:0:0:0:
362,131,209022,2,0,P|350:66|340:21,1,72.5000022125245,0|0,0:0|0:0,0:0:0:0:
149,85,209222,5,0,0:0:0:0:
120,117,209322,1,0,0:0:0:0:
115,160,209422,1,0,0:0:0:0:
133,199,209522,1,0,0:0:0:0:
166,226,209622,6,0,B|263:185|260:280|372:222,1,187.5,8|0,0:0|0:0,0:0:0:0:
374,198,210022,6,0,P|391:265|398:296,1,62.5,0|0,0:0|0:0,0:0:0:0:
403,102,210222,2,0,P|452:53|475:32,1,62.5,0|0,0:0|0:0,0:0:0:0:
308,118,210422,2,0,P|241:99|211:89,1,62.5,0|0,0:0|0:0,0:0:0:0:
147,178,210622,1,0,0:0:0:0:
147,178,210722,1,0,0:0:0:0:
147,178,210822,2,0,P|129:222|109:260,1,62.5,0|0,0:0|0:0,0:0:0:0:
220,353,211022,1,0,0:0:0:0:
220,353,211122,1,0,0:0:0:0:
220,353,211222,6,0,P|238:308|257:278,1,62.5,8|0,0:0|0:0,0:0:0:0:
423,283,211422,2,0,P|391:281|361:276,1,62.5,0|0,0:0|0:0,0:0:0:0:
277,139,211622,2,0,P|291:166|301:196,1,62.5,0|0,0:0|0:0,0:0:0:0:
364,355,211822,5,0,0:0:0:0:
364,355,211922,1,0,0:0:0:0:
364,355,212022,2,0,P|307:348|277:346,1,62.5,0|0,0:0|0:0,0:0:0:0:
152,230,212222,1,0,0:0:0:0:
152,230,212322,1,0,0:0:0:0:
152,230,212423,2,0,P|182:225|214:222,1,62.5,0|0,0:0|0:0,0:0:0:0:
375,94,212622,2,0,P|344:89|312:86,1,62.5,0|0,0:0|0:0,0:0:0:0:
96,48,212822,5,8,0:0:0:0:
78,81,212922,1,0,0:0:0:0:
72,118,213022,1,0,0:0:0:0:
74,155,213122,1,0,0:0:0:0:
91,188,213222,1,0,0:0:0:0:
104,222,213322,1,0,0:0:0:0:
109,259,213422,1,0,0:0:0:0:
103,296,213522,1,0,0:0:0:0:
93,332,213622,6,0,L|28:323,6,41.2500003933907,0|0|0|0|0|0|0,0:0|0:0|0:0|0:0|0:0|0:0|0:0,0:0:0:0:
201,276,214022,6,0,L|246:271,6,41.2500003933907,0|0|0|0|0|0|0,0:0|0:0|0:0|0:0|0:0|0:0|0:0,0:0:0:0:
133,199,214422,6,0,B|41:254|-7:108|165:6|158:287|338:134,1,337.500012874604,8|0,0:0|0:0,0:0:0:0:
364,131,214822,6,0,P|373:79|381:30,1,72.5000022125245,0|0,0:0|0:0,0:0:0:0:
443,237,215022,2,0,P|452:289|460:338,1,72.5000022125245,0|0,0:0|0:0,0:0:0:0:
329,333,215222,5,0,0:0:0:0:
285,326,215322,1,0,0:0:0:0:
241,319,215422,1,0,0:0:0:0:
198,310,215522,1,0,0:0:0:0:
148,296,215622,5,0,0:0:0:0:
191,289,215722,1,0,0:0:0:0:
235,282,215822,1,0,0:0:0:0:
278,273,215922,1,0,0:0:0:0:
324,268,216022,6,0,L|369:261,1,37.5,8|0,0:0|0:0,0:0:0:0:
