osu file format v14

[General]
AudioFilename: audio.mp3
AudioLeadIn: 1500
PreviewTime: 102179
Countdown: 0
SampleSet: Soft
StackLeniency: 0.3
Mode: 0
LetterboxInBreaks: 0
WidescreenStoryboard: 0

[Editor]
Bookmarks: 11102,29564,35718,55410,75102,84949,94795,104641,114487,124333,134179,144026,163641,183410,193256,210179,212949,252333,262179,272026,291718,301564
DistanceSpacing: 0.3
BeatDivisor: 4
GridSize: 32
TimelineZoom: 5.85

[Metadata]
Title:Extra Mode
TitleUnicode:Extra Mode
Artist:USAO
ArtistUnicode:USAO
Creator:_MiaoFUuU_
Version:Rhythm Crisis
Source:
Tags:hardcore tano*c speed ball evolution kick's for liberation 5 dj noriken remix long ver.
BeatmapID:1226973
BeatmapSetID:579451

[Difficulty]
HPDrainRate:5.5
CircleSize:4.2
OverallDifficulty:9
ApproachRate:9.5
SliderMultiplier:2
SliderTickRate:1

[Events]
//Background and Video events
0,0,"BG.jpg",0,0
//Break Periods
2,144226,148424
2,183609,187808
//Storyboard Layer 0 (Background)
//Storyboard Layer 1 (Fail)
//Storyboard Layer 2 (Pass)
//Storyboard Layer 3 (Foreground)
//Storyboard Sound Samples

[TimingPoints]
26,307.692307692308,4,2,2,30,1,0
1718,-200,4,2,2,30,0,0
1872,-200,4,2,2,5,0,0
2026,-181.818181818182,4,2,2,32,0,0
2179,-181.818181818182,4,2,2,5,0,0
2333,-166.666666666667,4,2,2,34,0,0
2487,-166.666666666667,4,2,2,5,0,0
2641,-153.846153846154,4,2,2,36,0,0
2795,-153.846153846154,4,2,2,5,0,0
2949,-142.857142857143,4,2,2,38,0,0
3102,-142.857142857143,4,2,2,5,0,0
3256,-133.333333333333,4,2,2,40,0,0
3410,-125,4,2,2,40,0,0
3872,-117.647058823529,4,2,2,40,0,0
4026,-117.647058823529,4,2,2,5,0,0
4179,-111.111111111111,4,2,2,42,0,0
4333,-111.111111111111,4,2,2,5,0,0
4487,-105.263157894737,4,2,2,44,0,0
4641,-105.263157894737,4,2,2,5,0,0
4795,-100,4,2,2,46,0,0
4949,-100,4,2,2,5,0,0
5102,-95.2380952380952,4,2,2,48,0,0
6179,-90.9090909090909,4,2,2,50,0,0
10333,-111.111111111111,4,2,2,50,0,0
10641,-200,4,2,2,50,0,0
10949,-83.3333333333333,4,2,2,50,0,0
11026,-83.3333333333333,4,2,2,5,0,0
11102,-80,4,2,2,60,0,0
16333,-80,4,2,2,65,0,0
20641,-66.6666666666667,4,2,2,65,0,0
20949,-80,4,2,2,65,0,0
29795,-90.9090909090909,4,2,2,65,0,0
30026,-105.263157894737,4,2,2,65,0,0
30256,-142.857142857143,4,2,2,65,0,0
30487,-95.2380952380952,4,2,2,65,0,0
30872,-95.2380952380952,4,2,2,25,0,0
34487,-95.2380952380952,4,2,2,5,0,0
34795,-200,4,2,2,25,0,0
35641,-200,4,2,2,5,0,0
35718,-100,4,2,3,50,0,0
39410,-111.111111111111,4,2,3,50,0,0
41872,-100,4,2,3,50,0,0
45487,-100,4,2,3,5,0,0
45564,-100,4,2,3,50,0,0
48026,-100,4,2,3,55,0,0
48641,-100,4,2,3,60,0,0
51102,-100,4,2,3,65,0,0
53564,-100,4,2,3,70,0,0
55102,-66.6666666666667,4,2,3,50,0,0
55410,-80,4,2,2,75,0,0
56641,-66.6666666666667,4,2,2,75,0,0
57872,-80,4,2,2,75,0,0
59102,-66.6666666666667,4,2,2,75,0,0
60333,-80,4,2,2,75,0,0
61564,-66.6666666666667,4,2,2,75,0,0
62795,-80,4,2,2,75,0,0
64026,-66.6666666666667,4,2,2,75,0,0
64795,-80,4,2,2,75,0,0
65564,-80,4,2,2,75,0,0
69872,-66.6666666666667,4,2,2,75,0,0
70179,-80,4,2,2,75,0,0
72641,-80,4,2,2,70,0,0
73872,-100,4,2,2,75,0,0
74102,-100,4,2,2,5,0,0
74179,-100,4,2,2,65,0,0
74795,-66.6666666666667,4,2,5,100,0,0
75102,-74.0740740740741,4,2,2,75,0,0
87102,-90.9090909090909,4,2,2,75,0,0
87410,-74.0740740740741,4,2,2,75,0,0
89564,-90.9090909090909,4,2,2,75,0,0
89872,-74.0740740740741,4,2,2,75,0,0
92026,-90.9090909090909,4,2,2,75,0,0
92333,-74.0740740740741,4,2,2,75,0,0
93564,-66.6666666666667,4,2,2,75,0,0
94487,-50,4,2,2,75,0,0
94795,-74.0740740740741,4,2,2,75,0,0
96949,-90.9090909090909,4,2,2,75,0,0
97256,-74.0740740740741,4,2,2,75,0,0
99410,-90.9090909090909,4,2,2,75,0,0
99718,-74.0740740740741,4,2,2,75,0,0
101872,-90.9090909090909,4,2,2,75,0,0
102179,-74.0740740740741,4,2,2,75,0,0
103410,-66.6666666666667,4,2,2,75,0,0
104333,-66.6666666666667,4,2,2,75,0,0
105564,-80,4,2,2,75,0,0
106179,-66.6666666666667,4,2,2,75,0,0
106641,-50,4,2,2,75,0,0
107410,-80,4,2,2,75,0,0
108026,-66.6666666666667,4,2,2,75,0,0
109102,-50,4,2,2,75,0,0
109256,-66.6666666666667,4,2,2,75,0,0
112333,-80,4,2,2,75,0,0
112949,-66.6666666666667,4,2,2,75,0,0
114179,-57.1428571428571,4,2,2,75,0,0
114487,-66.6666666666667,4,2,2,75,0,0
115410,-80,4,2,2,75,0,0
116026,-66.6666666666667,4,2,2,75,0,0
116487,-50,4,2,2,75,0,0
116641,-66.6666666666667,4,2,2,75,0,0
117564,-58.8235294117647,4,2,2,75,0,0
117872,-52.6315789473684,4,2,2,75,0,0
118179,-66.6666666666667,4,2,2,75,0,0
118949,-50,4,2,2,75,0,0
119102,-66.6666666666667,4,2,2,75,0,0
121872,-133.333333333333,4,2,2,75,0,0
122179,-66.6666666666667,4,2,2,75,0,0
123102,-80,4,2,2,75,0,0
124026,-57.1428571428571,4,2,2,75,0,0
124333,-66.6666666666667,4,2,2,75,0,0
131718,-80,4,2,2,75,0,0
133872,-50,4,2,5,75,0,0
134179,-66.6666666666667,4,2,2,75,0,0
134487,-90.9090909090909,4,2,2,75,0,0
136333,-66.6666666666667,4,2,2,75,0,0
136949,-83.3333333333333,4,2,2,75,0,0
138795,-66.6666666666667,4,2,2,75,0,0
139410,-76.9230769230769,4,2,2,75,0,0
141256,-66.6666666666667,4,2,2,75,0,0
142179,-71.4285714285714,4,2,2,75,0,0
148949,-100,4,2,2,60,0,0
150487,-100,4,2,2,55,0,0
151410,-80,4,2,2,55,0,0
151641,-80,4,2,2,5,0,0
151718,-80,4,2,2,60,0,0
153872,-80,4,2,2,65,0,0
157564,-80,4,2,2,60,0,0
158795,-80,4,2,2,65,0,0
161256,-80,4,2,2,70,0,0
162487,-66.6666666666667,4,2,2,55,0,0
163333,-57.1428571428571,4,2,2,55,0,0
163564,-66.6666666666667,4,2,2,55,0,0
163718,-133.333333333333,4,2,2,80,0,1
164333,-66.6666666666667,4,2,2,80,0,0
166179,-133.333333333333,4,2,2,80,0,1
166795,-66.6666666666667,4,2,2,80,0,0
168333,-80,4,2,2,80,0,0
168641,-133.333333333333,4,2,2,80,0,1
169256,-66.6666666666667,4,2,2,80,0,0
171102,-133.333333333333,4,2,2,80,0,1
171718,-66.6666666666667,4,2,2,80,0,0
173256,-80,4,2,2,80,0,0
173564,-133.333333333333,4,2,2,80,0,1
174179,-66.6666666666667,4,2,2,80,0,0
176026,-133.333333333333,4,2,2,80,0,1
176641,-66.6666666666667,4,2,2,80,0,0
178179,-80,4,2,2,80,0,0
178487,-80,4,2,2,70,0,0
183102,-133.333333333333,4,2,2,80,0,0
188333,-100,4,2,3,50,0,0
188564,-100,4,2,3,5,0,0
188641,-100,4,2,3,50,0,0
188872,-100,4,2,3,5,0,0
188949,-100,4,2,3,50,0,0
190256,-100,4,2,3,5,0,0
190333,-100,4,2,3,50,0,0
191026,-100,4,2,3,5,0,0
191102,-100,4,2,3,50,0,0
191333,-100,4,2,3,5,0,0
191410,-100,4,2,3,50,0,0
192795,-80,4,2,3,50,0,0
192949,-66.6666666666667,4,2,2,60,0,0
193256,-80,4,2,2,75,0,0
194487,-66.6666666666667,4,2,2,75,0,0
195718,-80,4,2,2,75,0,0
196949,-66.6666666666667,4,2,2,75,0,0
198179,-80,4,2,2,75,0,0
199410,-66.6666666666667,4,2,2,75,0,0
200641,-80,4,2,2,75,0,0
201872,-66.6666666666667,4,2,2,75,0,0
202641,-80,4,2,2,75,0,0
203102,-80,4,2,2,70,0,0
208026,-80,4,2,2,65,0,0
210487,-80,4,2,2,70,0,0
211718,-66.6666666666667,4,2,2,75,0,0
211949,-66.6666666666667,4,2,2,75,0,0
212026,-66.6666666666667,4,2,2,75,0,0
212641,-80,4,2,5,75,0,0
212949,-66.6666666666667,4,2,2,80,0,1
217564,-66.6666666666667,4,2,2,80,0,0
217872,-66.6666666666667,4,2,2,80,0,1
222487,-66.6666666666667,4,2,2,80,0,0
222795,-66.6666666666667,4,2,2,80,0,1
227410,-66.6666666666667,4,2,2,80,0,0
227718,-66.6666666666667,4,2,2,80,0,1
230179,-100,4,2,2,80,0,1
231410,-80,4,2,2,80,0,1
232179,-100,4,2,2,80,0,0
232641,-66.6666666666667,4,2,2,80,0,1
237256,-66.6666666666667,4,2,2,80,0,0
237564,-66.6666666666667,4,2,2,80,0,1
242179,-66.6666666666667,4,2,2,80,0,0
242487,-66.6666666666667,4,2,2,80,0,1
247102,-66.6666666666667,4,2,2,80,0,0
247410,-66.6666666666667,4,2,2,80,0,1
249872,-100,4,2,2,80,0,1
251102,-80,4,2,2,80,0,1
251872,-66.6666666666667,4,2,2,75,0,1
252026,-66.6666666666667,4,2,2,75,0,0
252333,-74.0740740740741,4,2,2,75,0,0
254487,-90.9090909090909,4,2,2,75,0,0
254795,-74.0740740740741,4,2,2,75,0,0
256949,-90.9090909090909,4,2,2,75,0,0
257256,-74.0740740740741,4,2,2,75,0,0
259410,-90.9090909090909,4,2,2,75,0,0
259718,-74.0740740740741,4,2,2,75,0,0
260949,-66.6666666666667,4,2,2,75,0,0
261872,-50,4,2,2,75,0,0
262179,-66.6666666666667,4,2,2,75,0,0
264333,-74.0740740740741,4,2,2,75,0,0
264641,-66.6666666666667,4,2,2,75,0,0
266795,-74.0740740740741,4,2,2,75,0,0
267102,-66.6666666666667,4,2,2,75,0,0
269256,-74.0740740740741,4,2,2,75,0,0
269564,-66.6666666666667,4,2,2,75,0,0
270795,-100,4,2,2,75,0,0
271256,-80,4,2,2,75,0,0
271410,-66.6666666666667,4,2,2,75,0,0
272026,-66.6666666666667,4,2,2,80,0,1
280641,-66.6666666666667,4,2,2,80,0,0
281564,-50,4,2,2,80,0,0
281872,-66.6666666666667,4,2,2,80,0,1
290487,-66.6666666666667,4,2,2,70,0,0
291718,-80,4,2,2,60,0,0
300795,-100,4,2,2,60,0,0
301564,-100,4,2,2,50,0,0
304026,-111.111111111111,4,2,2,45,0,0
306487,-125,4,2,2,40,0,0
308949,-142.857142857143,4,2,2,35,0,0
310256,-166.666666666667,4,2,2,30,0,0
310795,-166.666666666667,4,2,2,25,0,0
311410,-166.666666666667,4,2,2,20,0,0
312026,-166.666666666667,4,2,2,15,0,0
312641,-166.666666666667,4,2,2,10,0,0
313256,-166.666666666667,4,2,2,5,0,0

[Colours]
Combo1 : 255,0,0
Combo2 : 98,49,49
Combo3 : 0,255,255
Combo4 : 255,255,98

[HitObjects]
256,192,26,5,0,0:0:0:0:
256,192,102,12,2,1256,0:0:0:0:
199,359,1718,6,0,L|195:309,1,50
312,360,2026,2,0,L|317:305,1,55.0000016784668
195,309,2333,6,0,P|193:279|192:249,1,59.9999981689454
317,305,2641,2,0,P|320:273|323:241,1,64.9999970245363
192,249,2949,6,0,P|190:214|188:179,1,69.9999978637696
323,240,3256,1,0,0:0:0:0:
211,98,3410,6,0,B|131:87,1,80,2|0,0:0|2:3,2:3:0:0:
192,249,3718,1,2,0:0:0:0:
192,249,3872,6,0,B|107:238,1,85.0000016212464
300,110,4179,2,0,L|210:97,1,89.9999972534181
386,226,4487,6,0,L|292:211,1,94.9999974632264
393,48,4795,2,0,L|491:63,1,100
211,98,5102,6,0,P|266:30|300:111,2,209.999993591309
65,223,6026,1,0,0:0:0:0:
216,224,6179,6,0,L|222:333,2,110.000003356934,2|0|0,0:0|0:0|0:0,0:0:0:0:
7,119,6641,6,0,B|116:128,1,110.000003356934
11,319,6949,2,0,B|120:309,1,110.000003356934
116,128,7256,6,0,B|225:137,1,110.000003356934
120,308,7564,2,0,B|229:298,1,110.000003356934
225,137,7872,6,0,B|334:146,1,110.000003356934
229,298,8180,2,0,B|338:288,1,110.000003356934
334,146,8487,1,0,0:0:0:0:
461,326,8641,6,0,B|478:177|478:177|453:201|417:210,1,220.000006713867,2|0,0:0|0:0,0:0:0:0:
338,288,9102,6,0,B|284:307|284:307|239:278,1,110.000003356934
334,146,9410,2,0,B|280:126|280:126|236:154,1,110.000003356934
157,303,9718,6,0,B|110:336|110:336|59:320,1,110.000003356934
161,124,10026,2,0,B|114:90|114:90|64:105,1,110.000003356934
99,259,10333,6,0,L|100:169,1,89.9999972534181
9,197,10641,2,0,L|15:246,1,50
195,350,10949,1,0,0:0:0:0:
195,350,11026,1,0,0:0:0:0:
195,350,11102,6,0,B|186:281|186:281|225:241,1,125,6|0,0:0|0:0,0:0:0:0:
315,118,11410,1,8,0:0:0:0:
225,241,11564,1,0,0:0:0:0:
391,259,11718,6,0,B|420:278|420:278|413:187,1,125,2|0,0:0|0:0,0:0:0:0:
408,92,12026,1,8,0:0:0:0:
217,164,12179,1,0,0:0:0:0:
313,301,12333,6,0,L|308:177,1,125,2|0,0:0|0:0,0:0:0:0:
330,27,12641,1,8,0:0:0:0:
330,27,12795,1,0,0:0:0:0:
198,71,12949,5,2,0:0:0:0:
118,258,13102,1,0,0:0:0:0:
198,71,13256,2,0,B|226:106|226:106|227:153|196:177,1,125,8|0,0:0|0:0,0:0:0:0:
117,257,13564,6,0,P|83:207|85:146,1,125,2|0,0:0|0:0,0:0:0:0:
295,22,13872,1,8,0:0:0:0:
295,22,14026,1,0,0:0:0:0:
105,47,14179,5,2,0:0:0:0:
295,173,14333,1,0,0:0:0:0:
219,68,14487,2,0,B|181:119|181:119|197:178,1,125,8|0,0:0|0:0,0:0:0:0:
395,173,14795,6,0,B|411:114|411:114|373:63,1,125,2|0,0:0|0:0,0:0:0:0:
295,173,15102,1,8,0:0:0:0:
428,304,15256,1,0,0:0:0:0:
401,183,15410,5,2,0:0:0:0:
312,342,15564,1,0,0:0:0:0:
290,152,15718,1,8,0:0:0:0:
315,359,15872,1,2,0:0:0:0:
207,223,16026,6,0,B|165:226|165:226|132:254|132:254|93:258,1,125,6|0,0:0|0:0,0:0:0:0:
34,56,16333,5,8,0:0:0:0:
6,131,16487,1,0,0:0:0:0:
133,53,16641,5,2,0:0:0:0:
102,139,16795,1,0,0:0:0:0:
228,48,16949,5,8,0:0:0:0:
195,146,17102,1,0,0:0:0:0:
422,87,17256,5,2,0:0:0:0:
303,112,17410,1,0,0:0:0:0:
436,177,17564,5,8,0:0:0:0:
306,195,17718,1,0,0:0:0:0:
453,256,17872,5,2,0:0:0:0:
311,278,18026,1,0,0:0:0:0:
475,341,18179,5,8,0:0:0:0:
322,362,18333,1,0,0:0:0:0:
385,164,18487,5,2,0:0:0:0:
453,256,18641,1,0,0:0:0:0:
302,122,18795,5,8,0:0:0:0:
330,239,18949,1,0,0:0:0:0:
220,75,19102,5,2,0:0:0:0:
218,219,19256,1,0,0:0:0:0:
133,34,19410,5,8,0:0:0:0:
115,210,19564,1,0,0:0:0:0:
56,112,19718,5,2,0:0:0:0:
159,297,19872,1,0,0:0:0:0:
174,139,20026,5,8,0:0:0:0:
64,344,20179,1,0,0:0:0:0:
304,183,20333,5,0,0:0:0:0:
318,348,20487,1,0,0:0:0:0:
373,83,20641,6,0,B|406:47|406:47|444:103|444:103|442:170|442:170|401:159,1,225.000008583069,8|0,0:0|0:0,0:0:0:0:
304,183,20949,6,0,B|307:142|307:142|289:98|289:98|293:62,1,125,6|0,0:0|0:0,0:0:0:0:
296,57,21179,1,0,0:0:0:0:
298,52,21256,2,0,P|267:51|236:47,1,62.5,8|0,0:0|0:0,0:0:0:0:
222,178,21410,2,0,P|191:178|160:182,1,62.5
155,32,21564,1,2,0:0:0:0:
76,21,21872,5,8,0:0:0:0:
107,248,22026,1,0,0:0:0:0:
0,97,22179,6,0,B|39:91|39:91|80:108|80:108|120:101,1,125,2|0,0:0|0:0,0:0:0:0:
155,32,22410,1,0,0:0:0:0:
155,32,22487,2,0,L|93:23,1,62.5,8|0,0:0|0:0,0:0:0:0:
60,182,22641,2,0,L|0:196,1,62.5
244,264,22795,5,2,0:0:0:0:
267,51,22949,1,2,0:0:0:0:
244,264,23102,2,0,B|258:134|258:134|275:188,1,187.5,8|0,0:0|0:0,0:0:0:0:
365,130,23410,6,0,B|372:160|387:189|387:189|372:222|368:247,1,125,2|0,0:0|0:0,0:0:0:0:
365,253,23641,1,0,0:0:0:0:
362,258,23718,2,0,L|424:263,1,62.5,8|0,0:0|0:0,0:0:0:0:
448,129,23872,2,0,L|510:123,1,62.5
506,273,24026,1,2,0:0:0:0:
508,197,24333,5,8,0:0:0:0:
334,362,24487,1,0,0:0:0:0:
505,355,24641,6,0,B|473:352|448:329|448:329|447:362|422:382,1,125,2|0,0:0|0:0,0:0:0:0:
334,362,24872,1,0,0:0:0:0:
334,362,24949,2,0,L|336:299,1,62.5,8|0,0:0|0:0,0:0:0:0:
344,141,25102,2,0,L|341:203,1,62.5
210,217,25256,5,2,0:0:0:0:
249,17,25410,1,2,0:0:0:0:
210,217,25564,2,0,B|234:187|229:148|193:121|151:122|151:122|128:136|127:157,1,187.5,8|0,0:0|0:0,0:0:0:0:
84,294,25872,6,0,B|116:287|141:267|141:267|161:290|191:302,1,125,2|0,0:0|0:0,0:0:0:0:
194,307,26102,1,0,0:0:0:0:
196,311,26179,2,0,P|200:279|205:249,1,62.5,8|0,0:0|0:0,0:0:0:0:
84,212,26333,2,0,P|83:180|78:149,1,62.5
260,149,26487,1,2,0:0:0:0:
272,58,26795,5,8,0:0:0:0:
79,32,26949,1,0,0:0:0:0:
124,214,27102,6,0,B|103:240|103:240|91:150,1,125,2|0,0:0|0:0,0:0:0:0:
164,77,27333,1,0,0:0:0:0:
164,76,27410,2,0,P|192:64|223:59,1,62.5,8|0,0:0|0:0,0:0:0:0:
254,175,27564,2,0,P|285:184|316:184,1,62.5
488,140,27718,5,2,0:0:0:0:
298,98,27872,1,2,0:0:0:0:
489,140,28026,2,0,B|495:108|495:108|438:103|438:103|382:124|382:124|403:155,1,187.5,8|0,0:0|0:0,0:0:0:0:
282,270,28333,6,0,L|405:251,1,125,2|0,0:0|0:0,0:0:0:0:
474,216,28564,1,0,0:0:0:0:
474,216,28641,2,0,B|490:247|490:247|482:273,1,62.5,8|0,0:0|0:0,0:0:0:0:
403,384,28795,2,0,B|390:354|390:354|399:325,1,62.5
365,178,28949,6,0,L|241:160,1,125,2|0,0:0|0:0,0:0:0:0:
241,160,29179,1,0,0:0:0:0:
241,160,29256,1,8,0:0:0:0:
262,361,29410,1,0,0:0:0:0:
242,161,29564,6,0,L|180:152,1,62.5,2|0,0:0|0:0,0:0:0:0:
59,305,29795,2,0,L|123:314,1,55.0000016784668
218,147,30026,6,0,P|194:147|171:152,1,47.4999987316132
89,322,30256,2,0,P|106:319|122:314,1,34.9999989318848
231,231,30487,6,0,B|183:243|183:243|123:220|123:220|80:232,1,157.499995193482
57,242,30795,1,2,0:0:0:0:
256,192,30872,12,0,34487,0:0:0:0:
381,68,34795,6,0,P|426:164|329:121,1,275
302,44,35718,5,6,0:0:0:0:
237,304,36026,1,2,0:0:0:0:
87,94,36333,5,2,0:0:0:0:
183,79,36487,1,2,0:0:0:0:
193,176,36641,1,2,0:0:0:0:
98,189,36795,1,2,0:0:0:0:
87,94,36949,5,2,0:0:0:0:
356,250,37256,1,2,0:0:0:0:
356,250,37410,1,2,0:0:0:0:
393,146,37718,1,2,0:0:0:0:
396,149,37872,1,2,0:0:0:0:
399,152,38026,1,2,0:0:0:0:
467,235,38179,5,2,0:0:0:0:
197,273,38487,1,2,0:0:0:0:
348,316,38795,5,2,0:0:0:0:
212,177,38949,1,2,0:0:0:0:
348,316,39102,1,2,0:0:0:0:
212,177,39256,1,2,0:0:0:0:
361,218,39410,6,0,B|297:227|297:227|258:264|258:264|196:271,1,179.999994506836,2|2,0:0|0:0,0:0:0:0:
111,202,39872,1,2,0:0:0:0:
122,352,40179,1,2,0:0:0:0:
119,349,40333,1,2,0:0:0:0:
116,346,40487,1,2,0:0:0:0:
38,275,40641,5,2,0:0:0:0:
256,79,40949,1,2,0:0:0:0:
166,42,41256,5,2,0:0:0:0:
351,128,41410,1,2,0:0:0:0:
337,32,41564,5,2,0:0:0:0:
185,136,41718,1,2,0:0:0:0:
256,79,41872,6,0,B|277:132|277:132|263:172,1,100,2|0,0:0|0:0,0:0:0:0:
171,239,42179,1,2,0:0:0:0:
353,237,42333,6,0,B|326:224|326:224|294:228|294:228|265:210|265:210|237:229|237:229|202:223|202:223|171:240,1,200,2|2,0:0|0:0,0:0:0:0:
350,126,42795,1,2,0:0:0:0:
350,126,42949,1,2,0:0:0:0:
350,328,43102,6,0,B|331:275|331:275|352:237,1,100,2|0,0:0|0:0,0:0:0:0:
474,238,43410,2,0,B|496:276|496:276|477:328,1,100,2|0,0:0|0:0,0:0:0:0:
427,152,43718,5,2,0:0:0:0:
412,283,43871,1,2,0:0:0:0:
264,133,44026,5,2,0:0:0:0:
262,302,44180,1,2,0:0:0:0:
344,99,44333,6,0,P|351:148|331:194,1,100,2|0,0:0|0:0,0:0:0:0:
176,144,44641,1,2,0:0:0:0:
268,24,44795,2,0,P|316:40|348:77,1,100,2|0,0:0|0:0,0:0:0:0:
188,222,45102,6,0,P|99:154|168:65,1,250,2|0,0:0|0:0,0:0:0:0:
268,24,45564,6,0,B|240:72|262:118|262:118|287:169|265:215,1,200,6|2,0:0|0:0,0:0:0:0:
182,319,46179,5,2,0:0:0:0:
356,192,46333,1,2,0:0:0:0:
190,194,46487,5,2,0:0:0:0:
356,278,46641,1,2,0:0:0:0:
367,106,46795,5,2,0:0:0:0:
356,278,46949,1,2,0:0:0:0:
260,150,47102,5,2,0:0:0:0:
446,284,47256,2,0,B|404:262|404:262|356:280|356:280|306:264|306:264|262:286,1,200,2|2,0:0|0:0,0:0:0:0:
457,158,47718,1,2,0:0:0:0:
457,158,48026,6,0,B|470:114|470:114|446:65,1,100,2|0,0:0|0:0,0:0:0:0:
260,150,48333,2,0,B|246:106|246:106|270:57,1,100,2|0,0:0|0:0,0:0:0:0:
361,117,48641,5,2,0:0:0:0:
162,119,48795,1,2,0:0:0:0:
346,84,48949,5,2,0:0:0:0:
154,156,49102,1,2,0:0:0:0:
263,19,49256,5,2,0:0:0:0:
294,238,49410,1,0,0:0:0:0:
263,19,49564,1,2,0:0:0:0:
294,238,49718,6,0,B|232:217|157:237|157:237|189:228|214:247,1,200,2|0,0:0|0:0,0:0:0:0:
372,201,50179,1,2,0:0:0:0:
372,201,50487,6,0,P|381:250|363:296,1,100,2|0,0:0|0:0,0:0:0:0:
208,257,50795,2,0,P|210:207|239:167,1,100,2|0,0:0|0:0,0:0:0:0:
316,96,51102,5,2,0:0:0:0:
118,262,51256,1,2,0:0:0:0:
140,61,51410,5,2,0:0:0:0:
239,167,51564,1,2,0:0:0:0:
80,161,51718,5,2,0:0:0:0:
294,238,51872,1,0,0:0:0:0:
80,161,52026,1,2,0:0:0:0:
294,238,52179,6,0,B|177:193|177:193|126:248,1,200,2|2,0:0|0:0,0:0:0:0:
234,36,52641,1,2,0:0:0:0:
234,36,52949,6,0,B|248:79|248:79|218:124,1,100,2|0,0:0|0:0,0:0:0:0:
68,97,53256,2,0,B|53:53|53:53|83:8,1,100,2|0,0:0|0:0,0:0:0:0:
337,27,53564,5,2,0:0:0:0:
184,238,53718,1,2,0:0:0:0:
149,64,53872,5,2,0:0:0:0:
331,250,54026,1,2,0:0:0:0:
424,100,54179,5,2,0:0:0:0:
424,100,54333,1,2,0:0:0:0:
263,112,54487,1,2,0:0:0:0:
400,191,54641,5,2,0:0:0:0:
400,191,54718,1,0,0:0:0:0:
400,191,54795,1,0,0:0:0:0:
179,19,54949,1,2,0:0:0:0:
241,194,55102,6,0,B|282:197|312:180|312:180|350:162|400:192|400:192|366:193|351:220,1,225.000008583069
184,139,55410,6,0,B|146:187|146:187|177:242,1,125,10|0,0:1|0:0,0:0:0:0:
394,87,55718,2,0,B|431:135|431:135|400:191,1,125,10|0,0:1|0:0,0:0:0:0:
222,16,56026,5,6,0:1:0:0:
284,281,56179,1,6,0:1:0:0:
222,16,56333,1,10,0:1:0:0:
284,281,56487,1,2,0:1:0:0:
179,106,56641,6,0,B|245:112|245:112|309:75|309:75|392:87,1,225.000008583069,6|0,0:1|0:0,0:0:0:0:
473,74,56949,2,0,L|462:148,1,75.0000028610231,10|0,0:1|0:0,0:0:0:0:
332,186,57102,1,2,0:1:0:0:
421,0,57256,5,2,0:0:0:0:
421,0,57410,1,6,0:1:0:0:
215,192,57564,1,8,0:0:0:0:
215,192,57718,1,2,0:1:0:0:
163,305,57872,6,0,B|108:336|108:336|53:307,1,125,6|0,0:1|0:0,0:0:0:0:
319,259,58179,2,0,B|374:287|374:287|428:255,1,125,10|0,0:1|0:0,0:0:0:0:
268,96,58487,5,6,0:1:0:0:
307,364,58641,1,6,0:1:0:0:
268,96,58795,1,10,0:1:0:0:
307,364,58949,1,2,0:1:0:0:
441,162,59102,6,0,B|394:114|350:59|350:59|366:109|341:143,1,225.000008583069,6|0,0:1|0:0,0:0:0:0:
194,88,59410,2,0,L|268:96,1,75.0000028610231,10|0,0:1|0:1,0:1:0:0:
341,143,59564,1,2,0:1:0:0:
26,226,59718,5,2,0:0:0:0:
117,34,59872,2,0,L|111:108,1,75.0000028610231,6|0,0:1|0:0,0:0:0:0:
298,216,60026,2,0,B|268:183|223:195|223:195|174:248|174:248|141:259|106:236,1,225.000008583069,10|0,0:1|0:0,0:0:0:0:
301,88,60333,6,0,B|365:70|365:70|413:105,1,125,10|0,0:1|0:0,0:0:0:0:
216,332,60641,2,0,B|152:350|152:350|104:315,1,125,10|0,0:1|0:0,0:0:0:0:
182,73,60949,5,6,0:1:0:0:
343,317,61102,1,6,0:1:0:0:
182,73,61256,1,10,0:1:0:0:
343,317,61410,1,2,0:1:0:0:
330,182,61564,6,0,B|247:153|247:153|181:171|181:171|116:146,1,225.000008583069,6|0,0:1|0:0,0:0:0:0:
182,73,61872,2,0,L|175:-1,1,75.0000028610231,10|0,0:1|0:0,0:0:0:0:
243,252,62026,1,2,0:1:0:0:
298,20,62179,5,2,0:0:0:0:
298,20,62333,1,6,0:1:0:0:
78,218,62487,1,8,0:0:0:0:
78,218,62641,1,2,0:1:0:0:
202,324,62795,6,0,B|261:341|261:341|312:304,1,125,6|0,0:1|0:0,0:0:0:0:
182,73,63102,2,0,B|123:56|123:56|72:93,1,125,10|0,0:1|0:0,0:0:0:0:
95,299,63410,5,6,0:1:0:0:
314,107,63564,1,6,0:1:0:0:
95,299,63718,1,10,0:1:0:0:
314,107,63872,1,2,0:1:0:0:
334,215,64026,6,0,B|280:236|232:191|232:191|185:143|128:165,1,225.000008583069,6|0,0:1|0:0,0:0:0:0:
128,166,64333,1,10,0:1:0:0:
232,342,64487,5,2,0:1:0:0:
309,119,64641,1,2,0:0:0:0:
454,324,64795,6,0,B|492:272|475:218|451:172|401:162|401:162|423:199|423:239|401:268,1,312.5,6|0,0:1|0:0,0:0:0:0:
203,252,65256,6,0,B|251:206|251:206|309:213,1,125,6|0,0:1|0:0,0:0:0:0:
184,346,65564,1,8,0:0:0:0:
184,346,65718,1,0,0:0:0:0:
138,190,65872,5,6,0:1:0:0:
268,308,66026,2,0,P|271:339|268:370,1,62.5
184,346,66179,2,0,P|158:363|129:376,1,62.5,8|0,0:0|0:0,0:0:0:0:
117,282,66333,2,0,P|88:269|63:250,1,62.5
309,213,66487,5,6,0:1:0:0:
138,190,66641,2,0,P|133:160|137:130,1,62.5
225,162,66795,2,0,P|249:143|279:132,1,62.5,8|0,0:0|0:0,0:0:0:0:
289,221,66949,2,0,P|317:235|342:254,1,62.5
118,283,67102,5,6,0:1:0:0:
225,162,67256,1,0,0:0:0:0:
268,307,67410,2,0,P|276:246|308:193,1,125,8|0,0:0|0:0,0:0:0:0:
452,77,67718,6,0,B|391:101|391:101|341:68,1,125,6|0,0:1|0:0,0:0:0:0:
244,3,68026,1,8,0:0:0:0:
244,3,68179,1,0,0:0:0:0:
64,126,68333,5,6,0:1:0:0:
155,15,68487,2,0,L|150:77,1,62.5
146,163,68641,2,0,L|142:225,1,62.5,8|0,0:0|0:0,0:0:0:0:
137,305,68795,2,0,L|133:367,1,62.5
47,277,68949,5,6,0:1:0:0:
221,269,69102,2,0,P|230:239|227:209,1,62.5
61,187,69256,2,0,P|56:156|65:126,1,62.5,8|0,0:0|0:0,0:0:0:0:
227,114,69410,2,0,P|236:84|231:53,1,62.5
75,16,69564,5,6,0:1:0:0:
332,88,69718,1,0,0:0:0:0:
332,88,69872,6,0,B|268:167|298:236|351:264|405:234|411:147|326:150,1,300.000011444092,8|6,0:0|0:1,0:0:0:0:
351,331,70487,1,8,0:0:0:0:
351,331,70641,1,0,0:0:0:0:
463,149,70795,6,0,B|491:207|491:207|454:255,1,125,6|0,0:1|0:0,0:0:0:0:
340,20,71102,1,8,0:0:0:0:
340,20,71256,1,0,0:0:0:0:
237,257,71410,6,0,B|201:205|201:205|227:149,1,125,6|0,0:1|0:0,0:0:0:0:
351,331,71718,1,8,0:0:0:0:
351,331,71872,1,0,0:0:0:0:
343,101,72026,5,6,0:1:0:0:
346,210,72179,1,2,0:0:0:0:
182,142,72333,2,0,B|245:152|245:152|284:198|284:198|346:210,1,187.5,8|0,0:0|0:0,0:0:0:0:
346,210,72641,6,0,L|347:272,1,62.5,6|0,0:1|0:0,0:0:0:0:
443,384,72795,2,0,L|441:321,1,62.5,6|0,0:1|0:0,0:0:0:0:
362,227,72949,6,0,L|348:287,1,62.5,6|0,0:1|0:0,0:0:0:0:
427,367,73103,2,0,L|440:306,1,62.5,6|0,0:1|0:0,0:0:0:0:
228,267,73256,5,2,0:0:0:0:
231,270,73333,1,2,0:0:0:0:
234,273,73410,1,2,0:0:0:0:
237,276,73487,1,2,0:0:0:0:
240,279,73564,1,2,0:0:0:0:
243,282,73641,1,2,0:0:0:0:
246,285,73718,1,2,0:0:0:0:
249,288,73795,1,2,0:0:0:0:
252,291,73872,6,0,B|200:283|200:283|154:301|154:301|104:292,1,150,2|0,0:0|0:0,0:0:0:0:
106,292,74179,1,0,0:0:0:0:
151,204,74333,1,2,0:0:0:0:
66,152,74487,5,0,0:0:0:0:
36,329,74641,1,2,0:0:0:0:
85,53,74795,6,0,B|148:-6|148:-6|223:29|205:107,1,225.000008583069,2|0,0:0|0:0,0:0:0:0:
277,171,75102,6,0,B|263:129|263:129|205:106|205:106|155:135|155:135|145:171,1,202.500000772476,6|0,0:0|0:0,0:0:0:0:
145,171,75410,1,8,0:0:0:0:
250,316,75564,2,0,P|253:350|257:384,1,67.5000002574921
112,290,75718,6,0,B|140:287|168:295|168:295|225:238|225:238|257:237|289:247,1,202.500000772476,2|0,0:0|0:0,0:0:0:0:
377,227,76026,1,8,0:0:0:0:
377,227,76102,1,0,0:0:0:0:
377,227,76179,2,0,P|373:260|371:294,1,67.5000002574921
487,175,76333,6,0,B|443:57|443:57|437:105|406:120,1,202.500000772476,2|0,0:0|0:0,0:0:0:0:
363,54,76641,1,8,0:0:0:0:
250,159,76795,2,0,P|280:142|312:133,1,67.5000002574921
377,227,76949,5,2,0:0:0:0:
272,54,77102,1,2,0:0:0:0:
298,327,77256,5,8,0:0:0:0:
312,132,77410,2,0,P|284:151|261:177,1,67.5000002574921
168,328,77564,6,0,P|213:252|128:229,1,202.500000772476,2|0,0:0|0:0,0:0:0:0:
51,230,77872,2,0,B|51:259|66:282|66:282|57:312|57:312|68:359,1,135.000000514984,8|0,0:0|0:0,0:0:0:0:
75,358,78102,1,0,0:0:0:0:
81,354,78179,1,2,0:0:0:0:
111,149,78333,6,0,L|175:129,1,67.5000002574921
370,193,78487,2,0,B|379:153|379:153|266:173|266:173|295:209,1,202.500000772476,8|0,0:0|0:0,0:0:0:0:
238,52,78795,5,2,0:0:0:0:
238,52,78872,1,0,0:0:0:0:
237,51,78949,2,0,P|205:43|172:38,1,67.5000002574921
207,248,79102,2,0,B|164:194|164:194|175:129,1,135.000000514984,8|0,0:0|0:0,0:0:0:0:
346,74,79410,5,2,0:0:0:0:
329,299,79564,1,2,0:0:0:0:
264,124,79718,5,8,0:0:0:0:
422,117,79872,2,0,L|404:182,1,67.5000002574921
333,332,80026,6,0,B|321:188|321:188|330:224|346:239,1,202.500000772476,6|0,0:0|0:0,0:0:0:0:
402,329,80333,2,0,B|357:320|357:320|311:342|311:342|273:340,1,135.000000514984,8|0,0:0|0:0,0:0:0:0:
266,336,80564,1,0,0:0:0:0:
260,332,80641,1,2,0:0:0:0:
300,81,80795,6,0,L|233:91,1,67.5000002574921
117,200,80949,2,0,B|147:191|171:160|171:160|199:178|234:178,1,135.000000514984,8|0,0:0|0:0,0:0:0:0:
190,266,81256,5,2,0:0:0:0:
190,266,81333,1,0,0:0:0:0:
190,266,81410,2,0,P|182:299|173:332,1,67.5000002574921
52,52,81564,2,0,B|62:97|100:118|100:118|91:91|93:71,1,135.000000514984,8|0,2:0|2:0,2:0:0:0:
175,30,81872,5,2,0:0:0:0:
16,186,82026,1,2,0:0:0:0:
249,122,82179,5,8,0:0:0:0:
51,51,82333,2,0,P|75:76|100:98,1,67.5000002574921
192,269,82487,6,0,B|167:208|173:135|173:135|156:166|125:177,1,202.500000772476,2|0,0:0|0:0,0:0:0:0:
124,177,82795,6,0,B|143:176|163:167|163:167|209:175|209:175|232:166|255:164,1,135.000000514984,8|0,0:0|0:0,0:0:0:0:
261,160,83026,1,0,0:0:0:0:
266,155,83102,2,0,L|270:222,1,67.5000002574921,2|0,0:0|0:0,0:0:0:0:
261,372,83256,2,0,L|270:305,1,67.5000002574921
441,150,83410,6,0,B|488:173|488:173|504:209|477:253,1,135.000000514984,8|0,0:0|0:0,0:0:0:0:
471,82,83718,6,0,B|431:47|431:47|338:68|358:155,1,202.500000772476,2|0,0:0|0:0,0:0:0:0:
364,232,84026,2,0,B|428:207|428:207|477:251,1,135.000000514984,8|0,0:0|0:0,0:0:0:0:
465,350,84333,2,0,B|401:375|401:375|351:330,1,135.000000514984,2|2,0:0|0:0,0:0:0:0:
196,130,84641,5,8,0:0:0:0:
196,130,84795,1,0,0:0:0:0:
70,218,84949,6,0,B|136:200|136:200|189:226|189:226|260:204,1,202.500000772476,6|0,0:1|0:0,0:0:0:0:
281,196,85256,2,0,L|266:330,1,135.000000514984,8|0,0:0|0:0,0:0:0:0:
217,10,85564,5,6,0:1:0:0:
260,124,85718,2,0,B|227:137|227:137|195:129,1,67.5000002574921
112,97,85872,2,0,B|103:131|103:131|114:162,1,67.5000002574921,8|0,0:0|0:0,0:0:0:0:
341,93,86026,2,0,B|351:124|351:124|343:158,1,67.5000002574921
248,272,86179,5,6,0:1:0:0:
341,93,86333,2,0,L|406:78,1,67.5000002574921
497,86,86487,2,0,P|491:119|490:153,1,67.5000002574921,8|0,0:0|0:0,0:0:0:0:
260,124,86641,2,0,P|271:155|280:188,1,67.5000002574921
402,303,86795,5,6,0:1:0:0:
354,16,86949,1,2,0:0:0:0:
248,272,87102,6,0,B|284:229|280:187|280:187|284:229|313:253,1,165.000005035401,8|0,0:0|0:0,0:0:0:0:
402,303,87410,6,0,B|427:248|391:208|391:208|353:166|379:115,1,202.500000772476,6|0,0:1|0:0,0:0:0:0:
461,146,87718,2,0,B|491:128|491:128|481:227,1,135.000000514984,8|0,0:0|0:0,0:0:0:0:
297,378,88026,5,6,0:1:0:0:
250,230,88179,2,0,P|217:230|186:242,1,67.5000002574921
105,286,88333,2,0,L|109:218,1,67.5000002574921,8|0,0:0|0:0,0:0:0:0:
338,182,88487,2,0,L|333:250,1,67.5000002574921
186,351,88641,5,6,0:1:0:0:
205,87,88795,2,0,L|199:155,1,67.5000002574921
251,231,88949,2,0,P|218:231|186:245,1,67.5000002574921,8|0,0:0|0:0,0:0:0:0:
260,15,89102,2,0,P|226:15|195:4,1,67.5000002574921
105,286,89256,5,6,0:1:0:0:
81,17,89410,1,0,0:0:0:0:
264,166,89564,6,0,B|209:150|209:150|165:177|165:177|111:160,1,165.000005035401,8|0,0:0|0:0,0:0:0:0:
7,189,89872,6,0,B|78:142|78:142|142:168|146:228,1,202.500000772476,6|0,0:1|0:0,0:0:0:0:
68,359,90179,2,0,B|22:313|22:313|36:275|64:257,1,135.000000514984,8|0,0:0|0:0,0:0:0:0:
249,362,90487,5,6,0:1:0:0:
240,177,90641,2,0,L|243:244,1,67.5000002574921
342,340,90795,2,0,L|353:273,1,67.5000002574921,8|0,0:0|0:0,0:0:0:0:
382,98,90949,2,0,L|448:111,1,67.5000002574921
446,303,91102,5,6,0:1:0:0:
448,111,91256,2,0,L|447:178,1,67.5000002574921
353,273,91410,2,0,L|339:206,1,67.5000002574921,8|0,0:0|0:0,0:0:0:0:
297,31,91564,2,0,L|230:44,1,67.5000002574921
122,300,91718,5,6,0:1:0:0:
231,44,91872,1,0,0:0:0:0:
245,255,92026,6,0,B|281:225|281:225|164:202,1,165.000005035401,8|0,0:0|0:0,0:0:0:0:
77,164,92333,6,0,B|130:170|130:170|203:134|203:134|269:147,1,202.500000772476,6|0,0:1|0:0,0:0:0:0:
361,94,92641,2,0,B|341:158|341:158|353:228,1,135.000000514984,8|0,0:0|0:0,0:0:0:0:
479,296,92949,5,6,0:1:0:0:
501,172,93102,2,0,P|469:164|436:166,1,67.5000002574921
398,307,93256,2,0,P|367:319|334:321,1,67.5000002574921,8|0,0:0|0:0,0:0:0:0:
400,23,93410,2,0,P|367:13|332:18,1,67.5000002574921
163,170,93564,6,0,P|246:163|218:242,1,200.000007629395,6|2,0:1|0:0,0:0:0:0:
223,334,93872,2,0,B|147:318|147:318|123:249,1,150.000005722046,8|0,0:0|0:0,0:0:0:0:
57,378,94179,5,2,0:0:0:0:
163,171,94487,2,0,B|166:226|166:226|84:248|84:248|0:204|0:204|27:144,1,300
110,46,94795,6,0,B|82:246,1,202.500000772476,6|0,0:1|0:0,0:0:0:0:
180,93,95102,2,0,B|243:65|243:65|295:104,1,135.000000514984,8|0,0:0|0:0,0:0:0:0:
313,273,95410,5,6,0:1:0:0:
361,55,95564,2,0,P|377:85|379:118,1,67.5000002574921
228,285,95718,2,0,P|229:251|244:221,1,67.5000002574921,8|0,0:0|0:0,0:0:0:0:
460,81,95872,2,0,P|463:114|455:147,1,67.5000002574921
295,104,96026,5,6,0:1:0:0:
394,308,96179,2,0,P|397:275|389:242,1,67.5000002574921
295,104,96333,2,0,P|297:137|312:168,1,67.5000002574921,8|0,0:0|0:0,0:0:0:0:
295,335,96487,2,0,P|311:305|313:272,1,67.5000002574921
131,38,96641,5,6,0:1:0:0:
100,336,96795,1,2,0:0:0:0:
53,83,96949,6,0,B|2:58|2:58|24:163,1,165.000005035401,8|0,0:0|0:0,0:0:0:0:
93,213,97256,6,0,P|170:183|100:140,1,202.500000772476,6|0,0:1|0:0,0:0:0:0:
198,80,97564,2,0,P|237:135|241:202,1,135.000000514984,8|0,0:0|0:0,0:0:0:0:
235,353,97872,5,6,0:1:0:0:
371,148,98026,2,0,P|342:165|320:192,1,67.5000002574921
110,134,98179,2,0,P|142:144|167:165,1,67.5000002574921,8|0,0:0|0:0,0:0:0:0:
238,286,98333,2,0,P|240:319|236:353,1,67.5000002574921
249,23,98487,5,6,0:1:0:0:
241,202,98641,2,0,L|244:133,1,67.5000002574921
157,0,98795,2,0,L|151:70,1,67.5000002574921,8|0,0:0|0:0,0:0:0:0:
133,317,98949,2,0,L|140:237,1,67.5000002574921
47,40,99102,5,6,0:1:0:0:
55,312,99256,1,0,0:0:0:0:
21,139,99410,6,0,B|70:131|70:131|126:166|126:166|174:160,1,165.000005035401,8|0,0:0|0:0,0:0:0:0:
309,151,99718,6,0,B|266:150|243:134|243:134|193:183|193:183|162:164|132:166,1,202.500000772476,6|0,0:1|0:0,0:0:0:0:
80,56,100026,2,0,B|147:30|147:30|172:87,1,135.000000514984,8|0,0:0|0:0,0:0:0:0:
282,242,100333,5,6,0:1:0:0:
141,251,100487,2,0,B|133:281|133:281|149:314,1,67.5000002574921
414,214,100641,2,0,B|430:247|430:247|422:277,1,67.5000002574921,8|0,0:0|0:0,0:0:0:0:
244,169,100795,2,0,L|308:150,1,67.5000002574921
337,312,100949,5,6,0:1:0:0:
347,65,101102,2,0,B|315:51|315:51|284:59,1,67.5000002574921
282,242,101256,2,0,B|249:255|249:255|218:248,1,67.5000002574921,8|0,0:0|0:0,0:0:0:0:
199,18,101410,2,0,L|205:85,1,67.5000002574921
88,203,101564,5,6,0:1:0:0:
393,125,101718,1,0,0:0:0:0:
199,18,101872,6,0,B|161:89|161:89|199:163,1,165.000005035401,8|0,0:0|0:0,0:0:0:0:
300,135,102179,6,0,B|323:85|379:77|379:77|422:111|416:164,1,202.500000772476,6|0,0:1|0:0,0:0:0:0:
506,291,102487,2,0,B|483:198|483:198|474:217|457:227,1,135.000000514984,8|0,0:0|0:0,0:0:0:0:
395,353,102795,5,6,0:1:0:0:
301,162,102949,2,0,L|304:229,1,67.5000002574921
224,245,103102,2,0,L|220:177,1,67.5000002574921,8|0,0:0|0:0,0:0:0:0:
140,195,103256,2,0,L|144:262,1,67.5000002574921
72,287,103410,6,0,B|120:288|145:263|145:263|207:301|207:301|238:284|277:283,1,225.000008583069,2|0,0:0|0:0,0:0:0:0:
304,229,103718,6,0,B|302:268|302:268|318:300,1,75.0000028610231
398,287,103872,2,0,B|401:248|401:248|387:214,1,75.0000028610231
307,79,104026,1,2,0:0:0:0:
307,79,104102,2,0,L|378:100,2,75.0000028610231,0|0|2,0:0|0:0|0:0,0:0:0:0:
447,51,104333,6,0,B|493:38|493:38|501:104|501:104|488:171|488:171|447:157,1,225.000008583069,2|0,0:0|0:0,0:0:0:0:
480,254,104641,6,0,L|339:202,1,150.000005722046,2|0,0:0|0:0,0:0:0:0:
234,210,104872,1,0,0:0:0:0:
234,210,104949,2,0,B|262:184|263:146|263:146|329:169|305:277,1,225.000008583069,8|0,0:0|0:0,0:0:0:0:
204,308,105256,6,0,L|196:382,1,75.0000028610231,2|0,0:0|0:0,0:0:0:0:
169,123,105410,2,0,L|161:197,1,75.0000028610231,2|0,0:0|0:0,0:0:0:0:
56,215,105564,6,0,B|88:204|88:204|123:214|123:214|160:197|160:197|198:212|198:212|233:209,1,187.5,8|0,0:0|0:0,0:0:0:0:
448,93,105872,2,0,B|408:91|385:63|385:63|343:83|343:83|316:57|280:57,1,187.5,2|0,0:0|0:0,0:0:0:0:
280,57,106179,6,0,L|288:131,1,75.0000028610231,8|0,0:0|0:3,0:0:0:0:
304,250,106333,2,0,L|310:324,1,75.0000028610231
388,197,106487,5,2,0:0:0:0:
111,46,106641,2,0,P|76:80|73:128,1,100
174,174,106795,6,0,P|211:91|135:40,1,200,8|0,0:0|0:0,0:0:0:0:
16,197,107102,6,0,B|78:199|78:199|117:258|117:258|184:260,1,200,2|0,0:0|0:0,0:0:0:0:
196,263,107333,1,0,0:0:0:0:
208,264,107410,6,0,B|164:287|164:287|119:283|119:283|83:304|83:304|32:302,1,187.5,8|0,0:0|0:0,0:0:0:0:
0,191,107718,2,0,B|44:168|44:168|89:172|89:172|125:151|125:151|175:152,1,187.5,2|0,0:0|0:0,0:0:0:0:
282,176,108026,6,0,L|270:101,1,75.0000028610231,8|0,0:0|0:0,0:0:0:0:
96,87,108179,2,0,L|106:161,1,75.0000028610231
200,253,108333,5,2,0:0:0:0:
311,28,108487,2,0,P|274:18|238:25,1,75.0000028610231
281,304,108641,1,10,0:0:0:0:
370,106,108795,5,0,0:0:0:0:
370,106,108872,1,0,0:0:0:0:
370,106,108949,2,0,P|334:118|297:119,1,75.0000028610231,2|0,0:0|0:0,0:0:0:0:
166,33,109102,6,0,L|181:131,1,100
316,213,109256,2,0,B|242:198|242:198|174:253|174:253|112:241,1,225.000008583069,8|0,0:0|0:0,0:0:0:0:
80,127,109564,6,0,B|104:119|19:149,1,75.0000028610231,2|0,0:0|0:0,0:0:0:0:
31,295,109718,1,0,0:0:0:0:
31,295,109795,1,0,0:0:0:0:
31,295,109872,2,0,B|0:72,1,225.000008583069,8|0,0:0|0:0,0:0:0:0:
166,33,110179,6,0,B|95:59,1,75.0000028610231,2|0,0:0|0:0,0:0:0:0:
92,206,110333,1,0,0:0:0:0:
92,206,110410,1,0,0:0:0:0:
92,206,110487,2,0,B|134:207|163:157|163:157|202:218|155:281,1,225.000008583069,8|0,0:0|0:0,0:0:0:0:
255,367,110795,6,0,L|256:292,1,75.0000028610231,2|0,0:0|0:0,0:0:0:0:
260,135,110949,1,0,0:0:0:0:
260,135,111026,1,0,0:0:0:0:
260,135,111102,1,8,0:0:0:0:
169,360,111256,5,0,0:0:0:0:
169,360,111333,1,0,0:0:0:0:
169,360,111410,1,2,0:0:0:0:
350,189,111564,1,0,0:0:0:0:
350,189,111641,1,0,0:0:0:0:
349,189,111718,2,0,P|381:278|448:212,1,225.000008583069,8|0,0:0|0:0,0:0:0:0:
441,98,112026,6,0,P|405:109|368:115,1,75.0000028610231,2|0,0:0|0:0,0:0:0:0:
264,52,112179,1,0,0:0:0:0:
264,52,112256,1,0,0:0:0:0:
264,52,112333,6,0,L|256:239,1,187.5,8|0,0:0|0:0,0:0:0:0:
164,267,112641,2,0,L|172:79,1,187.5,2|0,0:0|0:0,0:0:0:0:
172,79,112949,6,0,P|136:66|99:71,1,75.0000028610231,8|0,0:0|0:0,0:0:0:0:
237,325,113102,2,0,P|274:334|311:329,1,75.0000028610231
277,246,113256,6,0,B|201:234|201:234|147:284|147:284|74:275,1,225.000008583069,2|0,0:0|0:0,0:0:0:0:
75,183,113564,5,2,0:0:0:0:
75,183,113641,1,0,0:0:0:0:
75,183,113718,2,0,L|78:108,1,75.0000028610231
295,157,113872,1,2,0:0:0:0:
295,157,113949,1,0,0:0:0:0:
295,157,114026,1,0,0:0:0:0:
172,79,114179,6,0,B|157:52|171:20|213:2|250:31|250:67|250:67|196:99|197:162,1,262.500002503395
186,246,114487,5,2,0:0:0:0:
295,157,114641,1,0,0:0:0:0:
295,157,114718,1,0,0:0:0:0:
295,157,114795,6,0,L|368:140,1,75.0000028610231,8|0,0:0|0:0,0:0:0:0:
459,125,114949,2,0,L|451:199,1,75.0000028610231
353,266,115102,5,2,0:0:0:0:
356,45,115256,1,2,0:0:0:0:
353,266,115410,2,0,L|229:285,1,125,8|0,0:0|0:0,0:0:0:0:
202,92,115718,6,0,L|77:97,1,125,2|0,0:0|0:0,0:0:0:0:
55,266,116026,6,0,P|41:299|52:334,1,75.0000028610231,8|0,0:0|0:0,0:0:0:0:
145,335,116179,2,0,P|156:300|142:266,1,75.0000028610231
4,175,116333,5,2,0:0:0:0:
238,158,116487,2,0,P|286:167|314:207,1,100
229,290,116641,6,0,P|182:236|210:169,1,150.000005722046,8|0,0:0|0:0,0:0:0:0:
377,134,116949,5,2,0:0:0:0:
315,293,117102,1,0,0:0:0:0:
315,293,117179,1,0,0:0:0:0:
315,293,117256,2,0,L|387:273,1,75.0000028610231,8|0,0:0|0:0,0:0:0:0:
475,251,117410,2,0,L|469:176,1,75.0000028610231
459,56,117564,5,2,0:0:0:0:
387,273,117718,2,0,L|381:188,1,85.0000016212464
367,62,117872,5,8,0:0:0:0:
299,295,118026,2,0,L|295:200,1,94.9999974632264
367,62,118179,6,0,B|264:54|264:54|290:62|302:80,1,150.000005722046,2|0,0:0|0:0,0:0:0:0:
182,41,118410,1,0,0:0:0:0:
182,41,118487,2,0,P|191:77|188:114,1,75.0000028610231,8|0,0:0|0:0,0:0:0:0:
37,94,118641,6,0,L|111:83,1,75.0000028610231
201,296,118795,1,2,0:0:0:0:
201,296,118872,1,0,0:0:0:0:
200,295,118949,2,0,P|181:251|193:203,1,100
268,177,119102,6,0,P|320:227|298:294,1,150.000005722046,8|0,0:0|0:0,0:0:0:0:
88,186,119410,5,2,0:0:0:0:
121,361,119564,1,0,0:0:0:0:
121,361,119641,1,0,0:0:0:0:
121,361,119718,2,0,L|108:287,1,75.0000028610231,8|0,0:0|0:0,0:0:0:0:
88,186,119872,2,0,L|14:203,1,75.0000028610231
22,305,120026,5,2,0:0:0:0:
72,96,120179,1,0,0:0:0:0:
72,96,120256,1,0,0:0:0:0:
72,96,120333,2,0,L|145:81,1,75.0000028610231,8|0,0:0|0:0,0:0:0:0:
246,54,120487,2,0,B|234:91|234:91|248:124,1,75.0000028610231
448,47,120641,5,2,0:0:0:0:
335,81,120795,1,0,0:0:0:0:
335,81,120872,1,0,0:0:0:0:
335,82,120949,2,0,L|338:7,1,75.0000028610231,8|0,0:0|0:0,0:0:0:0:
330,191,121102,1,0,0:0:0:0:
330,191,121179,1,0,0:0:0:0:
330,192,121256,6,0,L|334:117,1,75.0000028610231,2|0,0:0|0:0,0:0:0:0:
317,376,121410,1,0,0:0:0:0:
317,376,121487,1,0,0:0:0:0:
317,377,121564,2,0,L|325:227,1,150.000005722046,8|0,0:0|0:0,0:0:0:0:
161,232,121872,6,0,L|149:196,3,37.5000014305115,2|0|0|0,0:0|0:0|0:0|0:0,0:0:0:0:
234,280,122179,6,0,P|240:244|240:206,1,75.0000028610231,8|0,0:0|0:0,0:0:0:0:
242,124,122333,2,0,L|315:110,1,75.0000028610231
322,308,122487,2,0,L|396:301,1,75.0000028610231,2|0,0:0|0:0,0:0:0:0:
401,151,122641,2,0,P|395:187|395:225,1,75.0000028610231
310,199,122795,5,8,0:0:0:0:
313,202,122872,1,0,0:0:0:0:
316,205,122949,1,0,0:0:0:0:
319,208,123026,1,0,0:0:0:0:
322,211,123102,6,0,L|315:86,1,125,8|0,0:0|0:0,0:0:0:0:
233,35,123333,2,0,L|171:44,2,62.5,8|0|0,0:0|0:0|0:0,0:0:0:0:
171,204,123564,2,0,L|110:214,2,62.5,8|0|0,0:0|0:0|0:0,0:0:0:0:
90,67,123795,2,0,L|97:129,2,62.5,8|0|0,0:0|0:0|0:0,0:0:0:0:
268,203,124026,6,0,B|227:196|198:213|198:213|148:192|148:192|113:220|75:209|75:209|113:221|126:238,1,262.500002503395
359,196,124333,6,0,B|464:178|464:178|435:211,1,150.000005722046,2|0,0:0|0:0,0:0:0:0:
243,293,124641,5,8,0:0:0:0:
274,128,124795,2,0,L|267:202,1,75.0000028610231
238,296,124949,5,2,0:0:0:0:
191,102,125102,2,0,L|185:176,1,75.0000028610231
233,299,125256,5,8,0:0:0:0:
107,75,125410,2,0,L|102:149,1,75.0000028610231
228,302,125564,5,2,0:0:0:0:
25,54,125718,2,0,L|19:128,1,75.0000028610231
223,305,125872,5,8,0:0:0:0:
110,27,126026,2,0,L|105:101,1,75.0000028610231
218,308,126179,5,2,0:0:0:0:
189,6,126333,1,0,0:0:0:0:
189,6,126410,1,0,0:0:0:0:
189,6,126487,2,0,B|237:159|237:159|296:132,1,225.000008583069,8|0,0:0|0:0,0:0:0:0:
448,267,126795,6,0,B|398:222|398:222|322:256,1,150.000005722046,2|0,0:0|0:0,0:0:0:0:
365,56,127102,5,8,0:0:0:0:
397,222,127256,2,0,L|389:147,1,75.0000028610231
360,53,127410,5,2,0:0:0:0:
323,257,127564,2,0,L|314:182,1,75.0000028610231
355,50,127718,5,8,0:0:0:0:
248,286,127872,2,0,L|240:211,1,75.0000028610231
350,47,128026,5,2,0:0:0:0:
171,309,128179,2,0,L|164:234,1,75.0000028610231
156,121,128333,2,0,B|86:96|86:96|21:136,1,150.000005722046,8|0,0:0|0:0,0:0:0:0:
345,44,128641,5,2,0:0:0:0:
254,344,128795,2,0,L|246:269,1,75.0000028610231
232,81,128949,2,0,B|160:51|160:51|97:87,1,150.000005722046,8|0,0:0|0:0,0:0:0:0:
340,40,129256,5,2,0:0:0:0:
483,166,129410,1,2,0:0:0:0:
483,166,129487,1,0,0:0:0:0:
483,166,129564,2,0,B|434:162|434:162|397:194|397:194|344:189,1,150.000005722046,8|0,0:0|0:0,0:0:0:0:
255,118,129872,5,2,0:0:0:0:
255,118,130026,2,0,L|329:110,1,75.0000028610231
105,139,130179,5,8,0:0:0:0:
105,139,130333,2,0,L|179:129,1,75.0000028610231
258,234,130487,5,2,0:0:0:0:
258,234,130641,2,0,L|183:227,1,75.0000028610231
410,255,130795,5,8,0:0:0:0:
410,255,130949,2,0,L|335:247,1,75.0000028610231
183,227,131102,5,2,0:0:0:0:
495,263,131256,1,0,0:0:0:0:
495,263,131333,1,0,0:0:0:0:
495,263,131410,6,0,B|516:221|516:221|390:207|390:207|409:254,1,225.000008583069,8|0,0:0|0:0,0:0:0:0:
396,332,131718,6,0,L|313:341,1,83.3333333333333,6|0,0:0|0:0,0:0:0:0:
207,344,131923,1,2,0:0:0:0:
207,344,132026,2,0,L|213:260,1,83.3333333333333,8|0,0:0|0:0,0:0:0:0:
107,202,132231,6,0,L|67:215,2,41.6666666666667,0|0|2,0:0|0:0|0:0,0:0:0:0:
347,183,132538,2,0,L|344:224,1,41.6666666666667
317,242,132641,2,0,L|326:159,1,83.3333333333333,8|0,0:0|0:0,0:0:0:0:
464,51,132949,6,0,B|413:11|413:11|359:36,1,125,2|0,0:0|0:0,0:0:0:0:
327,160,133256,2,0,B|395:215|395:215|466:178,1,166.666666666667,8|8,0:0|0:0,0:0:0:0:
405,111,133564,1,2,0:0:0:0:
209,92,133872,6,0,B|176:62|192:8|244:-10|294:16|294:70|261:100|261:100|226:134|240:177,1,300,4|0,0:0|0:0,0:0:0:0:
259,254,134179,6,0,B|220:259|193:241|193:241|173:269|173:269|118:247|118:247|116:278|90:301,1,225.000008583069,6|0,0:0|0:0,0:0:0:0:
185,380,134487,2,0,P|165:361|154:335,1,55.0000016784668,8|0,0:0|0:0,0:0:0:0:
38,382,134641,2,0,P|65:374|92:377,1,55.0000016784668
39,243,134795,5,2,0:0:0:0:
258,254,134949,2,0,P|264:227|265:199,1,55.0000016784668
136,181,135102,2,0,P|155:199|179:213,1,55.0000016784668,8|0,0:0|0:0,0:0:0:0:
257,111,135256,2,0,P|231:118|208:132,1,55.0000016784668
39,243,135410,5,2,0:0:0:0:
25,90,135564,2,0,L|79:83,1,55.0000016784668
107,291,135718,2,0,L|161:286,1,55.0000016784668,8|0,0:0|0:0,0:0:0:0:
152,79,135872,2,0,L|206:73,1,55.0000016784668
354,188,136026,5,2,0:0:0:0:
354,188,136102,1,0,0:0:0:0:
354,188,136179,2,0,L|299:179,1,55.0000016784668
268,297,136333,2,0,B|283:258|248:213|248:213|298:178|298:178|274:144|282:108,1,225.000008583069,8|0,0:0|0:0,0:0:0:0:
394,60,136641,6,0,P|459:119|371:121,1,225.000008583069,2|0,0:0|0:0,0:0:0:0:
312,27,136949,2,0,P|254:37|194:34,1,119.999996337891,8|0,0:0|0:0,0:0:0:0:
167,194,137256,5,2,0:0:0:0:
123,106,137410,2,0,P|105:131|78:144,1,59.9999981689454
262,215,137564,2,0,P|253:187|252:157,1,59.9999981689454,8|0,0:0|0:0,0:0:0:0:
102,270,137718,2,0,P|131:273|156:290,1,59.9999981689454
371,121,137872,5,2,0:0:0:0:
228,105,138026,2,0,P|245:130|254:159,1,59.9999981689454
504,105,138179,2,0,P|486:129|479:158,1,59.9999981689454,8|0,0:0|0:0,0:0:0:0:
378,0,138333,2,0,P|349:10|320:13,1,59.9999981689454
342,271,138487,5,2,0:0:0:0:
342,271,138564,1,0,0:0:0:0:
342,271,138641,2,0,P|370:264|401:263,1,59.9999981689454
372,137,138795,2,0,B|319:124|319:124|227:172|227:172|163:156,1,225.000008583069,8|0,0:0|0:0,0:0:0:0:
210,75,139102,6,0,L|192:299,1,225.000008583069,2|0,0:0|0:0,0:0:0:0:
118,358,139410,6,0,L|102:294,1,64.9999970245363,8|0,0:0|0:0,0:0:0:0:
280,260,139564,2,0,L|291:196,1,64.9999970245363
79,217,139718,5,2,0:0:0:0:
304,117,139872,2,0,L|315:53,1,64.9999970245363
192,299,140026,2,0,L|196:234,1,64.9999970245363,8|0,0:0|0:0,0:0:0:0:
209,74,140179,2,0,L|214:10,1,64.9999970245363
102,294,140333,5,2,0:0:0:0:
15,115,140487,2,0,P|47:125|78:132,1,64.9999970245363
14,318,140641,2,0,P|44:307|75:299,1,64.9999970245363,8|0,0:0|0:0,0:0:0:0:
166,147,140795,2,0,P|197:152|230:156,1,64.9999970245363
165,276,140949,5,2,0:0:0:0:
165,276,141026,1,0,0:0:0:0:
165,276,141102,2,0,P|196:267|228:263,1,64.9999970245363
392,196,141256,2,0,B|367:127|367:127|310:269,1,225.000008583069,8|0,0:0|0:0,0:0:0:0:
340,343,141564,6,0,P|241:312|252:209,1,225.000008583069,2|0,0:0|0:0,0:0:0:0:
174,137,141872,2,0,P|220:84|283:114,1,150.000005722046,8|0,0:0|0:0,0:0:0:0:
119,324,142179,5,2,0:0:0:0:
144,44,142333,2,0,P|171:21|205:14,1,69.9999978637696
348,74,142487,2,0,P|328:47|300:25,1,69.9999978637696,8|0,0:0|0:0,0:0:0:0:
125,194,142641,2,0,P|105:167|99:133,1,69.9999978637696
53,62,142795,5,6,0:0:0:0:
82,336,142949,1,0,0:0:0:0:
0,181,143102,5,8,0:0:0:0:
288,135,143256,1,2,0:0:0:0:
288,135,143333,1,2,0:0:0:0:
288,135,143410,1,2,0:0:0:0:
383,272,143564,5,2,0:0:0:0:
368,72,143718,2,0,B|386:155|386:155|364:202|364:202|383:272,1,209.999993591309,8|0,0:0|0:0,0:0:0:0:
462,210,144026,1,2,0:0:0:0:
201,172,148949,6,0,B|192:224|192:224|222:261,1,100,6|0,0:1|0:0,0:0:0:0:
330,240,149256,2,0,B|341:187|341:187|311:152,1,100,10|0,0:1|0:0,0:0:0:0:
165,32,149564,5,6,0:1:0:0:
201,172,149718,1,6,0:1:0:0:
267,68,149872,5,10,0:1:0:0:
101,124,150026,1,6,0:1:0:0:
328,143,150179,6,0,L|322:242,1,100,6|0,0:1|0:0,0:0:0:0:
332,31,150487,1,10,0:1:0:0:
235,152,150641,6,0,B|207:194|207:194|227:239,1,100,2|2,0:1|0:0,0:0:0:0:
414,252,150949,2,0,B|441:209|441:209|421:164,1,100,2|8,0:1|0:0,0:0:0:0:
96,76,151256,1,6,0:1:0:0:
96,76,151410,6,0,B|159:92|159:92|214:53|214:53|267:65,1,187.5,6|0,0:1|0:0,0:0:0:0:
267,65,151718,1,10,0:1:0:0:
429,15,152026,5,6,0:1:0:0:
327,152,152179,1,2,0:1:0:0:
330,38,152333,5,10,0:1:0:0:
459,160,152487,1,6,0:1:0:0:
452,13,152641,5,6,0:1:0:0:
331,166,152795,1,2,0:1:0:0:
331,14,152949,5,10,0:1:0:0:
447,258,153102,2,0,B|392:222|392:222|341:252,1,125,2|2,0:1|0:0,0:0:0:0:
331,166,153333,1,0,0:0:0:0:
331,166,153410,2,0,L|318:105,1,62.5,6|0,0:1|0:0,0:0:0:0:
454,275,153564,6,0,B|406:299|361:276|361:276|318:253|274:277,1,187.5,10|0,0:1|0:0,0:0:0:0:
154,335,153872,5,6,0:1:0:0:
136,68,154179,1,10,0:1:0:0:
136,68,154333,1,0,0:0:0:0:
263,150,154487,6,0,L|262:212,1,62.5,6|0,0:1|0:0,0:0:0:0:
102,237,154641,2,0,L|103:174,1,62.5,2|0,0:1|0:0,0:0:0:0:
185,163,154795,2,0,L|184:225,1,62.5,10|0,0:1|0:0,0:0:0:0:
19,251,154949,2,0,L|20:188,1,62.5,2|0,0:1|0:0,0:0:0:0:
136,68,155102,5,6,0:1:0:0:
313,48,155410,1,10,0:1:0:0:
313,48,155564,1,0,0:0:0:0:
323,213,155718,6,0,L|261:211,1,62.5,6|0,0:1|0:0,0:0:0:0:
286,51,155872,2,0,L|223:57,1,62.5,2|0,0:1|0:0,0:0:0:0:
83,115,156026,2,0,B|136:66|136:66|123:180,1,187.5,10|0,0:1|0:0,0:0:0:0:
119,265,156333,5,6,0:1:0:0:
412,163,156641,1,2,0:1:0:0:
412,163,156795,1,0,0:0:0:0:
286,51,156949,6,0,L|225:59,1,62.5,6|0,0:1|0:0,0:0:0:0:
236,217,157102,2,0,L|298:209,1,62.5,2|0,0:1|0:0,0:0:0:0:
291,129,157256,2,0,L|230:139,1,62.5,10|0,0:1|0:0,0:0:0:0:
244,299,157410,2,0,L|306:292,1,62.5,2|0,0:1|0:0,0:0:0:0:
412,163,157564,5,6,0:1:0:0:
498,280,157718,2,0,L|500:342,1,62.5,2|0,0:1|0:0,0:0:0:0:
489,140,157872,2,0,L|491:202,1,62.5,10|0,0:1|0:0,0:0:0:0:
478,0,158026,2,0,L|481:62,1,62.5,2|0,0:1|0:0,0:0:0:0:
412,163,158179,5,6,0:1:0:0:
379,47,158333,2,0,L|316:47,1,62.5
319,217,158487,2,0,B|269:253|269:253|291:129,1,187.5,10|0,0:1|0:0,0:0:0:0:
193,64,158795,6,0,L|199:126,2,62.5,6|0|0,0:1|0:0|0:0,0:0:0:0:
54,88,159102,6,0,L|111:112,2,62.5,10|0|0,0:1|0:0|0:0,0:0:0:0:
5,224,159410,6,0,L|54:186,2,62.5,6|0|0,0:1|0:0|0:0,0:0:0:0:
104,335,159718,6,0,L|95:273,2,62.5,10|0|0,0:1|0:0|0:0,0:0:0:0:
248,303,160026,6,0,L|190:279,2,62.5,6|0|0,0:1|0:0|0:0,0:0:0:0:
290,167,160333,6,0,L|240:205,2,62.5,10|0|0,0:1|0:0|0:0,0:0:0:0:
193,64,160641,6,0,L|199:126,1,62.5,6|0,0:1|0:0,0:0:0:0:
147,199,160795,1,2,0:0:0:0:
54,88,160949,1,10,0:1:0:0:
5,224,161256,6,0,L|54:185,1,62.5,6|0,0:1|0:0,0:0:0:0:
101,47,161410,2,0,L|54:88,1,62.5,6|0,0:1|0:0,0:0:0:0:
49,236,161564,6,0,L|63:175,1,62.5,6|0,0:1|0:0,0:0:0:0:
60,41,161718,2,0,L|45:101,1,62.5,6|0,0:1|0:0,0:0:0:0:
147,199,161872,5,2,0:0:0:0:
150,202,161949,1,2,0:0:0:0:
153,205,162026,1,2,0:0:0:0:
156,208,162102,1,2,0:0:0:0:
159,211,162179,1,2,0:0:0:0:
162,214,162256,1,2,0:0:0:0:
165,217,162333,1,2,0:0:0:0:
168,220,162410,1,2,0:0:0:0:
171,223,162487,6,0,B|221:217|221:217|261:243|261:243|312:238,1,150.000005722046,2|0,0:0|0:0,0:0:0:0:
321,233,162718,1,0,0:0:0:0:
329,226,162795,2,0,L|321:300,2,75.0000028610231
396,106,163102,1,10,0:0:0:0:
396,106,163179,1,0,0:0:0:0:
494,225,163333,6,0,B|449:234|449:234|396:208|396:208|329:225,1,175.00000166893,2|0,0:0|0:0,0:0:0:0:
308,76,163564,1,2,0:0:0:0:
123,292,163718,6,0,P|142:188|216:264,1,262.500010013581,6|0,0:0|0:0,0:0:0:0:
316,209,164333,6,0,P|336:178|339:141,1,75.0000028610231,10|0,0:1|0:0,0:0:0:0:
223,98,164487,2,0,P|202:128|197:164,1,75.0000028610231,2|0,0:1|0:0,0:0:0:0:
206,301,164641,5,6,0:1:0:0:
247,24,164795,1,6,0:1:0:0:
247,24,164872,1,2,0:0:0:0:
246,23,164949,2,0,P|210:17|176:32,1,75.0000028610231,6|0,0:1|0:0,0:0:0:0:
197,165,165102,2,0,P|233:170|267:155,1,75.0000028610231,2|0,0:1|0:0,0:0:0:0:
108,137,165256,6,0,P|101:173|111:209,1,75.0000028610231,6|0,0:1|0:0,0:0:0:0:
11,209,165410,2,0,P|16:171|9:133,1,75.0000028610231,2|0,0:1|0:0,0:0:0:0:
12,57,165564,6,0,L|85:70,1,75.0000028610231,10|0,0:1|0:0,0:0:0:0:
0,296,165718,2,0,L|72:277,1,75.0000028610231,2|0,0:1|0:0,0:0:0:0:
163,81,165872,2,0,L|237:91,1,75.0000028610231,2|0,0:1|0:0,0:0:0:0:
165,257,166026,2,0,L|237:238,1,75.0000028610231,2|0,0:1|0:0,0:0:0:0:
390,113,166179,6,0,B|342:82|342:82|354:211,1,187.500007152558,6|0,0:0|0:0,0:0:0:0:
447,205,166641,5,2,0:0:0:0:
447,205,166718,1,0,0:0:0:0:
447,204,166795,2,0,P|434:240|426:276,1,75.0000028610231,10|0,0:1|0:0,0:0:0:0:
276,239,166949,2,0,P|286:274|289:312,1,75.0000028610231,2|0,0:1|0:0,0:0:0:0:
423,367,167102,5,2,0:0:0:0:
462,136,167256,2,0,P|472:99|487:65,1,75.0000028610231,2|0,0:1|0:1,0:1:0:0:
507,259,167410,6,0,B|399:226|399:226|369:248,1,150.000005722046,12|2,0:1|0:1,0:0:0:0:
366,255,167641,1,0,0:0:0:0:
363,262,167718,2,0,L|352:187,1,75.0000028610231,2|0,0:0|0:0,0:0:0:0:
334,95,167872,1,2,0:0:0:0:
334,95,167949,1,2,0:0:0:0:
334,95,168026,6,0,L|259:86,1,75.0000028610231,10|0,0:1|0:0,0:0:0:0:
213,287,168179,2,0,L|139:300,1,75.0000028610231,2|0,0:1|0:0,0:0:0:0:
125,68,168333,6,0,B|157:55|188:24|188:24|156:83|166:129,1,187.5,2|0,0:1|0:0,0:0:0:0:
48,181,168641,6,0,B|95:176|130:208|130:208|184:151|184:151|219:181|271:185,1,262.500010013581,6|0,0:0|0:0,0:0:0:0:
412,147,169256,6,0,P|432:179|434:216,1,75.0000028610231,10|0,0:1|0:0,0:0:0:0:
292,252,169410,2,0,P|273:221|269:184,1,75.0000028610231,2|0,0:1|0:0,0:0:0:0:
380,17,169564,5,6,0:1:0:0:
453,289,169718,1,6,0:1:0:0:
453,289,169795,1,2,0:0:0:0:
452,289,169872,2,0,P|415:288|384:270,1,75.0000028610231,6|0,0:1|0:0,0:0:0:0:
412,148,170026,2,0,P|449:143|482:160,1,75.0000028610231,2|0,0:1|0:0,0:0:0:0:
303,279,170179,6,0,P|305:242|324:211,1,75.0000028610231,6|0,0:1|0:0,0:0:0:0:
296,69,170333,2,0,P|321:96|331:131,1,75.0000028610231,2|0,0:1|0:0,0:0:0:0:
230,247,170487,6,0,L|157:262,1,75.0000028610231,10|0,0:1|0:0,0:0:0:0:
251,134,170641,2,0,L|177:149,1,75.0000028610231,2|0,0:1|0:0,0:0:0:0:
80,311,170795,2,0,L|7:328,1,75.0000028610231,2|0,0:1|0:0,0:0:0:0:
147,75,170949,2,0,L|73:90,1,75.0000028610231,2|0,0:1|0:0,0:0:0:0:
0,220,171102,6,0,B|40:215|66:191|66:191|106:222|106:222|131:204|166:205,1,187.500007152558,6|0,0:0|0:0,0:0:0:0:
248,59,171564,5,2,0:0:0:0:
248,59,171641,1,0,0:0:0:0:
248,58,171718,2,0,P|244:96|250:133,1,75.0000028610231,10|0,0:1|0:0,0:0:0:0:
243,250,171872,2,0,P|254:214|252:176,1,75.0000028610231,2|0,0:1|0:0,0:0:0:0:
155,74,172026,5,2,0:0:0:0:
341,275,172179,2,0,P|335:239|338:202,1,75.0000028610231,2|0,0:1|0:0,0:0:0:0:
491,74,172333,6,0,B|406:41|406:41|367:85,1,150.000005722046,6|0,0:1|0:0,0:0:0:0:
363,90,172564,1,0,0:0:0:0:
360,96,172641,2,0,L|426:130,1,75.0000028610231,2|0,0:0|0:0,0:0:0:0:
512,208,172795,2,0,L|437:213,1,75.0000028610231,2|0,0:1|0:0,0:0:0:0:
302,32,172949,1,0,0:0:0:0:
302,32,173026,1,0,0:0:0:0:
302,32,173102,6,0,L|227:39,1,75.0000028610231,2|0,0:1|0:0,0:0:0:0:
122,218,173256,2,0,B|178:176|178:176|158:291,1,187.5,2|0,0:1|0:0,0:0:0:0:
35,284,173564,6,0,B|106:321|160:290|160:290|214:256|286:288,1,262.500010013581,6|0,0:0|0:0,0:0:0:0:
329,101,174179,6,0,P|308:133|304:170,1,75.0000028610231,10|0,0:1|0:0,0:0:0:0:
423,213,174333,2,0,P|443:182|446:145,1,75.0000028610231,2|0,0:1|0:0,0:0:0:0:
262,44,174487,5,6,0:1:0:0:
397,280,174641,1,6,0:1:0:0:
397,280,174718,1,2,0:0:0:0:
397,280,174795,2,0,P|433:286|467:271,1,75.0000028610231,6|0,0:1|0:0,0:0:0:0:
445,145,174949,2,0,P|409:143|376:159,1,75.0000028610231,2|0,0:1|0:0,0:0:0:0:
295,333,175102,6,0,P|302:297|299:260,1,75.0000028610231,6|0,0:1|0:0,0:0:0:0:
289,97,175256,2,0,P|274:132|273:169,1,75.0000028610231,2|0,0:1|0:0,0:0:0:0:
72,292,175410,6,0,L|0:311,1,75.0000028610231,10|0,0:1|0:0,0:0:0:0:
73,116,175564,2,0,L|-1:103,1,75.0000028610231,2|0,0:1|0:0,0:0:0:0:
218,297,175718,2,0,L|146:317,1,75.0000028610231,2|0,0:1|0:0,0:0:0:0:
212,91,175872,2,0,L|139:76,1,75.0000028610231,2|0,0:1|0:0,0:0:0:0:
331,218,176026,6,0,B|302:179|302:179|283:214|298:248|298:248|316:285|303:314,1,187.500007152558,6|0,0:0|0:0,0:0:0:0:
218,297,176487,5,2,0:0:0:0:
218,297,176564,1,0,0:0:0:0:
218,297,176641,2,0,P|203:262|198:225,1,75.0000028610231,10|0,0:1|0:0,0:0:0:0:
404,262,176795,2,0,P|412:226|411:189,1,75.0000028610231,2|0,0:1|0:0,0:0:0:0:
250,73,176949,5,2,0:0:0:0:
303,312,177102,2,0,P|304:266|318:224,1,75.0000028610231,2|0,0:1|0:0,0:0:0:0:
469,101,177256,6,0,B|400:62|400:62|349:112,1,150.000005722046,6|0,0:1|0:0,0:0:0:0:
345,118,177487,1,0,0:0:0:0:
340,124,177564,2,0,L|321:51,1,75.0000028610231,6|0,0:1|0:0,0:0:0:0:
234,0,177718,2,0,L|250:73,1,75.0000028610231,2|0,0:1|0:0,0:0:0:0:
275,198,177872,1,8,0:0:0:0:
0,168,178026,6,0,L|73:153,1,75.0000028610231,2|0,0:1|0:0,0:0:0:0:
197,147,178179,2,0,B|176:125|168:89|168:89|148:147|158:209,1,187.5,2|0,0:1|0:0,0:0:0:0:
91,272,178487,6,0,B|141:255|158:209|158:209|175:255|223:269,1,187.5,6|0,0:1|0:0,0:0:0:0:
220,370,178795,2,0,B|160:348|160:348|103:371,1,125,2|0,0:1|0:0,0:0:0:0:
92,376,179026,1,0,0:0:0:0:
84,381,179102,6,0,L|78:318,1,62.5,10|0,0:1|0:0,0:0:0:0:
161,146,179256,2,0,L|157:208,1,62.5,2|0,0:1|0:0,0:0:0:0:
302,307,179410,5,6,0:1:0:0:
409,167,179564,1,2,0:0:0:0:
409,167,179641,1,2,0:0:0:0:
409,167,179718,6,0,B|351:163|351:163|302:210|302:210|240:204,1,187.5,6|0,0:1|0:0,0:0:0:0:
274,126,180026,2,0,P|274:94|269:63,1,62.5,6|0,0:1|0:0,0:0:0:0:
416,93,180179,2,0,P|417:57|420:31,1,62.5,2|0,0:1|0:0,0:0:0:0:
341,2,180333,1,8,0:0:0:0:
341,2,180410,1,0,0:0:0:0:
341,2,180487,6,0,L|354:189,1,187.5,2|0,0:1|0:0,0:0:0:0:
275,126,180795,2,0,L|212:129,1,62.5,2|0,0:1|0:0,0:0:0:0:
215,325,180949,6,0,B|239:201|239:201|191:239,1,187.5,6|0,0:1|0:0,0:0:0:0:
182,335,181256,6,0,L|119:342,1,62.5,2|0,0:1|0:0,0:0:0:0:
100,234,181410,2,0,L|38:242,1,62.5
12,349,181564,5,10,0:1:0:0:
124,127,181718,1,2,0:1:0:0:
119,341,181872,5,6,0:1:0:0:
11,136,182026,1,6,0:1:0:0:
11,136,182102,1,2,0:0:0:0:
11,136,182179,6,0,B|38:132|56:121|56:121|84:141|84:141|104:129|124:128,1,125,2|0,0:1|0:0,0:0:0:0:
212,68,182410,1,0,0:0:0:0:
212,68,182487,2,0,L|203:6,1,62.5,6|0,0:1|0:0,0:0:0:0:
369,162,182641,6,0,L|306:158,1,62.5,2|0,0:1|0:0,0:0:0:0:
204,105,182795,1,8,0:1:0:0:
204,105,182872,1,0,0:0:0:0:
204,105,182949,2,0,L|212:166,1,62.5,2|0,0:1|0:0,0:0:0:0:
175,308,183102,6,0,B|210:289|218:243|218:243|221:281|248:302,1,150.000005722046,0|2,0:0|0:1,0:0:0:0:
272,290,188333,6,0,P|208:302|215:238,1,150,2|0,0:0|0:0,0:0:0:0:
263,170,188641,2,0,P|270:105|206:117,1,150,2|0,0:0|0:0,0:0:0:0:
138,65,188949,5,2,0:0:0:0:
108,185,189102,1,2,0:0:0:0:
129,53,189256,5,2,0:0:0:0:
118,227,189410,1,2,0:0:0:0:
50,44,189564,5,2,0:0:0:0:
20,239,189718,1,2,0:0:0:0:
19,27,189872,5,2,0:0:0:0:
0,152,190026,2,0,B|47:149|47:149|85:177|85:177|140:172,1,150,2|0,0:0|0:0,0:0:0:0:
187,107,190333,2,0,L|279:144,2,100,2|2|2,0:0|0:0|0:0,0:0:0:0:
462,125,190795,6,0,P|437:64|379:96,1,150,2|0,0:0|0:0,0:0:0:0:
352,190,191102,2,0,P|288:209|279:143,1,150,2|0,0:0|0:0,0:0:0:0:
297,57,191410,5,2,0:0:0:0:
439,213,191564,1,2,0:0:0:0:
279,144,191718,5,2,0:0:0:0:
461,125,191872,1,0,0:0:0:0:
377,286,192026,5,2,0:0:0:0:
370,294,192179,1,2,0:0:0:0:
363,302,192333,1,2,0:0:0:0:
198,100,192487,6,0,P|130:80|84:134,1,150
74,35,192795,6,0,L|79:98,1,62.5,2|0,0:0|0:0,0:0:0:0:
181,200,192949,2,0,B|222:203|252:186|252:186|290:168|340:198|340:198|306:199|291:226,1,225.000008583069
84,134,193256,6,0,B|55:160|55:160|56:210|56:210|83:233,1,125,10|0,0:1|0:0,0:0:0:0:
340,99,193564,2,0,B|367:122|367:122|369:174|369:174|339:198,1,125,10|0,0:1|0:0,0:0:0:0:
191,27,193872,5,6,0:1:0:0:
238,297,194026,1,6,0:1:0:0:
191,27,194179,1,10,0:1:0:0:
238,297,194333,1,2,0:1:0:0:
264,50,194487,6,0,B|191:26|191:26|228:169,1,225.000008583069,6|0,0:1|0:0,0:0:0:0:
301,230,194795,2,0,L|375:239,1,75.0000028610231,10|0,0:1|0:0,0:0:0:0:
467,179,194949,1,2,0:1:0:0:
312,337,195102,5,2,0:0:0:0:
312,337,195256,1,6,0:1:0:0:
349,106,195410,1,10,0:1:0:0:
349,106,195564,1,2,0:1:0:0:
414,301,195718,6,0,B|429:326|429:326|500:320|500:320|507:296,1,125,6|0,0:1|0:0,0:0:0:0:
203,320,196026,2,0,B|188:345|188:345|117:339|117:339|109:315,1,125,10|0,0:1|0:0,0:0:0:0:
204,80,196333,5,6,0:1:0:0:
312,337,196487,1,6,0:1:0:0:
204,80,196641,1,10,0:1:0:0:
312,337,196795,1,2,0:1:0:0:
253,150,196949,6,0,B|200:178|145:140|145:140|199:178|181:234,1,225.000008583069,6|0,0:1|0:0,0:0:0:0:
263,236,197256,2,0,L|249:309,1,75.0000028610231,10|0,0:1|0:0,0:0:0:0:
175,363,197410,1,2,0:1:0:0:
204,80,197564,5,6,0:1:0:0:
33,222,197718,2,0,L|107:214,1,75.0000028610231,6|0,0:1|0:0,0:0:0:0:
190,60,197872,2,0,B|157:113|191:169|191:169|218:216|188:273,1,225.000008583069,8|0,0:0|0:0,0:0:0:0:
385,132,198179,6,0,B|359:101|359:101|318:90|318:90|279:106,1,125,10|0,0:1|0:0,0:0:0:0:
370,327,198487,2,0,B|396:358|396:358|437:369|437:369|475:352,1,125,10|0,0:1|0:0,0:0:0:0:
453,41,198795,5,6,0:1:0:0:
276,309,198949,1,6,0:1:0:0:
453,41,199102,1,10,0:1:0:0:
276,309,199256,1,2,0:1:0:0:
464,136,199410,6,0,B|500:117|500:117|513:244|513:244|461:221,1,225.000008583069,6|0,0:1|0:0,0:0:0:0:
364,251,199718,2,0,L|371:176,1,75.0000028610231,10|0,0:1|0:0,0:0:0:0:
305,112,199872,1,2,0:1:0:0:
437,303,200026,5,6,0:1:0:0:
437,303,200179,1,0,0:0:0:0:
278,91,200333,1,0,0:0:0:0:
278,91,200487,1,2,0:1:0:0:
128,57,200641,6,0,B|146:26|146:26|201:18|201:18|225:40,1,125,6|0,0:1|0:0,0:0:0:0:
155,289,200949,2,0,B|136:321|136:321|81:329|81:329|58:306,1,125,10|0,0:1|0:0,0:0:0:0:
32,64,201256,5,6,0:1:0:0:
241,283,201410,1,6,0:1:0:0:
32,64,201564,1,10,0:1:0:0:
241,283,201718,1,2,0:1:0:0:
208,126,201872,6,0,B|126:129|126:129|78:177|78:177|3:181,1,225.000008583069,6|0,0:1|0:0,0:0:0:0:
3,181,202179,1,10,0:1:0:0:
49,282,202333,5,2,0:1:0:0:
68,49,202487,1,2,0:0:0:0:
173,229,202641,6,0,B|217:191|207:125|207:125|212:163|222:207|270:223|314:221|349:191,1,312.5,6|0,0:1|0:0,0:0:0:0:
461,140,203102,6,0,B|412:96|412:96|429:216,1,187.5,6|0,0:1|0:0,0:0:0:0:
379,346,203410,2,0,L|369:284,1,62.5,8|0,0:0|0:0,0:0:0:0:
350,192,203564,2,0,L|340:130,1,62.5
280,320,203718,6,0,B|231:364|231:364|248:243,1,187.5,6|0,0:1|0:0,0:0:0:0:
205,104,204026,2,0,L|193:165,1,62.5,8|0,0:0|0:0,0:0:0:0:
172,260,204179,2,0,L|161:321,1,62.5
84,113,204333,6,0,B|133:69|133:69|115:189,1,187.5,6|0,0:1|0:0,0:0:0:0:
9,312,204641,2,0,L|70:301,1,62.5,8|0,0:0|0:0,0:0:0:0:
174,241,204795,2,0,L|235:230,1,62.5
360,286,204949,6,0,B|311:330|311:330|328:209,1,187.5,6|0,0:1|0:0,0:0:0:0:
503,211,205256,2,0,B|438:195|438:195|392:224|392:224|328:209,1,187.5,8|0,0:0|0:0,0:0:0:0:
343,60,205564,6,0,B|392:16|392:16|374:136,1,187.5,6|0,0:1|0:0,0:0:0:0:
237,219,205872,2,0,L|249:157,1,62.5,8|0,0:0|0:0,0:0:0:0:
262,78,206026,2,0,L|274:16,1,62.5
173,156,206179,6,0,B|135:208|135:208|125:85,1,187.5,6|0,0:1|0:0,0:0:0:0:
48,30,206487,2,0,L|50:92,1,62.5,8|0,0:0|0:0,0:0:0:0:
56,173,206641,2,0,L|60:235,1,62.5
211,209,206795,6,0,B|173:156|173:156|163:277,1,187.5,6|0,0:1|0:0,0:0:0:0:
119,349,207102,2,0,P|149:359|180:357,1,62.5,8|0,0:0|0:0,0:0:0:0:
283,173,207256,2,0,P|313:165|344:168,1,62.5
295,309,207410,6,0,L|317:250,1,62.5,2|0,0:0|0:0,0:0:0:0:
379,77,207564,2,0,L|402:19,1,62.5
512,155,207718,2,0,B|447:141|447:141|403:181|403:181|343:167,1,187.5,8|0,0:0|0:0,0:0:0:0:
404,20,208026,6,0,L|379:77,2,62.5,6|0|0,0:1|0:0|0:0,0:0:0:0:
234,42,208333,6,0,L|272:91,2,62.5,6|0|0,0:1|0:0|0:0,0:0:0:0:
176,191,208641,6,0,L|237:181,2,62.5,6|0|0,0:1|0:0|0:0,0:0:0:0:
278,323,208949,6,0,L|301:264,2,62.5,6|0|0,0:1|0:0|0:0,0:0:0:0:
445,301,209256,6,0,L|406:252,2,62.5,6|0|0,0:1|0:0|0:0,0:0:0:0:
512,150,209564,6,0,L|450:158,2,62.5,6|0|0,0:1|0:0|0:0,0:0:0:0:
404,20,209872,6,0,L|379:77,1,62.5,6|0,0:1|0:0,0:0:0:0:
343,167,210026,1,2,0:0:0:0:
233,43,210179,1,10,0:1:0:0:
176,191,210487,6,0,L|237:182,1,62.5,6|0,0:1|0:0,0:0:0:0:
295,37,210641,2,0,L|233:43,1,62.5,6|0,0:1|0:0,0:0:0:0:
212,217,210795,6,0,L|251:168,1,62.5,6|0,0:1|0:0,0:0:0:0:
262,11,210949,2,0,L|222:59,1,62.5,6|0,0:1|0:0,0:0:0:0:
343,167,211102,5,2,0:0:0:0:
346,170,211179,1,2,0:0:0:0:
349,173,211256,1,2,0:0:0:0:
352,176,211332,1,2,0:0:0:0:
355,179,211409,1,2,0:0:0:0:
358,182,211486,1,2,0:0:0:0:
361,185,211563,1,2,0:0:0:0:
364,188,211640,1,2,0:0:0:0:
367,191,211718,6,0,B|340:32|340:32|382:79,1,225.000008583069,6|0,0:1|0:0,0:0:0:0:
262,32,212026,2,0,L|274:105,1,75.0000028610231,2|0,0:1|0:0,0:0:0:0:
302,267,212179,2,0,L|289:193,1,75.0000028610231,2|0,0:1|0:0,0:0:0:0:
188,54,212333,6,0,L|113:61,1,75.0000028610231,2|0,0:1|0:0,0:0:0:0:
198,209,212487,2,0,L|123:215,1,75.0000028610231,2|0,0:1|0:0,0:0:0:0:
48,105,212641,6,0,B|80:142|133:137|133:137|80:143|54:179,1,187.5,8|0,0:0|0:0,0:0:0:0:
35,274,212949,6,0,B|106:257|106:257|172:303|172:303|242:291,1,225.000008583069,6|0,0:1|0:0,0:0:0:0:
179,106,213256,2,0,B|227:105|227:105|190:225|190:225|148:194,1,225.000008583069,6|0,0:1|0:0,2:0:0:0:
172,28,213564,6,0,L|246:16,1,75.0000028610231,6|0,0:1|0:0,0:0:0:0:
293,194,213718,2,0,L|367:185,1,75.0000028610231,2|0,0:1|0:0,0:0:0:0:
481,141,213872,6,0,P|475:178|470:215,1,75.0000028610231,6|0,0:1|0:0,0:0:0:0:
363,288,214026,2,0,P|358:326|350:362,1,75.0000028610231,2|0,0:1|0:0,0:0:0:0:
410,97,214179,6,0,B|385:78|377:34|377:34|380:124|368:185,1,225.000008583069,6|0,0:1|0:0,0:0:0:0:
277,277,214487,2,0,P|239:280|204:292,1,75.0000028610231,6|0,0:1|0:1,0:1:0:0:
277,116,214641,2,0,P|239:112|204:100,1,75.0000028610231,2|0,0:1|0:1,0:1:0:0:
127,336,214795,5,2,0:0:0:0:
101,81,214949,2,0,P|112:118|127:152,1,75.0000028610231,2|0,0:1|0:0,0:0:0:0:
162,233,215102,6,0,L|87:237,1,75.0000028610231,2|0,0:0|0:0,0:0:0:0:
150,0,215256,2,0,L|75:4,1,75.0000028610231,2|0,0:1|0:0,0:0:0:0:
2,136,215410,6,0,B|43:81|103:82|103:82|130:129|192:129,1,225.000008583069,6|0,0:1|0:0,0:0:0:0:
233,46,215718,2,0,B|289:23|289:23|261:185,1,225.000008583069,6|0,0:1|0:0,0:0:0:0:
279,270,216026,6,0,P|241:269|206:257,1,75.0000028610231,6|0,0:1|0:0,0:0:0:0:
356,87,216179,2,0,P|391:75|428:76,1,75.0000028610231,2|0,0:1|0:0,0:0:0:0:
417,310,216333,6,0,L|422:384,1,75.0000028610231,6|0,0:1|0:0,0:0:0:0:
402,156,216487,2,0,L|407:230,1,75.0000028610231,2|0,0:1|0:0,0:0:0:0:
320,372,216641,6,0,B|337:225|337:225|315:263|278:271,1,225.000008583069,6|0,0:1|0:0,0:0:0:0:
190,317,216949,2,0,P|155:327|118:326,1,75.0000028610231,6|0,0:1|0:0,0:0:0:0:
261,185,217102,2,0,P|225:172|188:175,1,75.0000028610231,2|0,0:1|0:0,0:0:0:0:
95,208,217256,5,2,0:0:0:0:
207,82,217410,2,0,P|171:87|138:105,1,75.0000028610231,2|0,0:1|0:0,0:0:0:0:
0,221,217564,6,0,B|40:184|34:120|34:120|40:184|96:209,1,225.000008583069,6|0,0:1|0:0,0:0:0:0:
167,284,217872,6,0,P|128:201|77:278,1,225.000008583069,6|0,0:1|0:0,0:0:0:0:
4,360,218179,2,0,B|72:332|72:332|136:371|136:371|208:346,1,225.000008583069,6|0,0:1|0:0,0:0:0:0:
295,336,218487,6,0,L|287:261,1,75.0000028610231,6|0,0:1|0:0,0:0:0:0:
267,113,218641,2,0,L|259:39,1,75.0000028610231,2|0,0:1|0:0,0:0:0:0:
379,300,218795,6,0,L|384:226,1,75.0000028610231,6|0,0:1|0:0,0:0:0:0:
401,17,218949,2,0,L|393:91,1,75.0000028610231,2|0,0:1|0:0,0:0:0:0:
511,212,219102,6,0,B|522:131|477:85|477:85|477:136|439:161,1,225.000008583069,6|0,0:1|0:0,0:0:0:0:
383,224,219410,2,0,P|346:228|311:241,1,75.0000028610231,6|0,0:1|0:0,0:0:0:0:
392,90,219564,2,0,P|355:87|320:74,1,75.0000028610231,2|0,0:1|0:0,0:0:0:0:
220,229,219718,5,2,0:0:0:0:
242,31,219872,2,0,L|233:105,1,75.0000028610231,2|0,0:1|0:0,0:0:0:0:
212,304,220026,6,0,L|220:230,1,75.0000028610231,6|0,0:1|0:0,0:0:0:0:
126,27,220179,2,0,P|141:62|150:99,1,75.0000028610231,2|0,0:1|0:0,0:0:0:0:
57,211,220333,6,0,B|46:180|19:170|19:170|114:166|135:266,1,225.000008583069,6|0,0:1|0:0,0:0:0:0:
66,329,220641,2,0,P|45:239|134:266,1,225.000008583069,6|0,0:1|0:0,0:0:0:0:
215,281,220949,6,0,P|214:244|201:209,1,75.0000028610231,6|0,0:1|0:0,0:0:0:0:
182,34,221102,2,0,P|173:71|181:107,1,75.0000028610231,2|0,0:1|0:0,0:0:0:0:
343,258,221256,6,0,L|417:269,1,75.0000028610231,6|0,0:1|0:0,0:0:0:0:
265,67,221410,2,0,L|339:76,1,75.0000028610231,2|0,0:1|0:0,0:0:0:0:
495,143,221564,6,0,B|424:127|424:127|356:164|356:164|281:153,1,225.000008583069,14|0,0:1|0:0,0:0:0:0:
265,67,221872,1,14,0:1:0:0:
265,67,221949,1,0,0:0:0:0:
265,67,222026,2,0,L|339:77,1,75.0000028610231,2|0,0:1|0:0,0:0:0:0:
342,258,222179,6,0,P|309:274|272:278,1,75.0000028610231,10|0,0:0|0:0,0:0:0:0:
180,106,222333,2,0,P|146:93|108:91,1,75.0000028610231,2|0,0:1|0:0,0:0:0:0:
86,236,222487,6,0,B|126:178|126:178|107:331,1,225.000008583069
17,336,222795,6,0,B|79:316|79:316|151:354|151:354|228:335,1,225.000008583069,6|0,0:1|0:0,0:0:0:0:
264,153,223102,2,0,B|221:124|221:124|200:246|200:246|248:236,1,225.000008583069,6|0,0:1|0:0,0:0:0:0:
333,321,223410,6,0,P|332:284|338:247,1,75.0000028610231,6|0,0:1|0:0,0:0:0:0:
346,121,223564,2,0,P|347:84|344:47,1,75.0000028610231,2|0,0:1|0:0,0:0:0:0:
425,298,223718,6,0,L|495:323,1,75.0000028610231,6|0,0:1|0:0,0:0:0:0:
435,84,223872,2,0,L|507:63,1,75.0000028610231,2|0,0:1|0:0,0:1:0:0:
490,233,224026,6,0,B|521:184|521:184|357:216,1,225.000008583069,6|0,0:1|0:0,0:0:0:0:
256,272,224333,2,0,P|248:236|248:199,1,75.0000028610231,6|0,0:1|0:0,0:0:0:0:
276,29,224487,2,0,P|275:66|265:102,1,75.0000028610231,2|0,0:1|0:0,0:0:0:0:
107,137,224641,5,2,0:0:0:0:
197,54,224795,2,0,L|122:50,1,75.0000028610231,2|0,0:1|0:0,0:0:0:0:
1,256,224949,6,0,L|75:258,1,75.0000028610231,6|0,0:1|0:0,0:0:0:0:
197,54,225102,2,0,L|187:128,1,75.0000028610231,2|0,0:1|0:0,0:0:0:0:
178,214,225256,6,0,B|114:198|107:136|107:136|65:185|8:172,1,225.000008583069,6|0,0:1|0:0,0:0:0:0:
33,94,225564,2,0,B|74:60|74:60|41:228,1,225.000008583069,6|0,0:1|0:0,0:0:0:0:
181,303,225872,6,0,P|189:340|186:377,1,75.0000028610231,6|0,0:1|0:0,0:0:0:0:
186,127,226026,2,0,P|183:90|191:54,1,75.0000028610231,2|0,0:1|0:0,0:0:0:0:
270,314,226179,6,0,L|344:313,1,75.0000028610231,6|0,0:1|0:0,0:0:0:0:
274,95,226333,2,0,L|348:84,1,75.0000028610231,2|0,0:1|0:0,0:0:0:0:
444,215,226487,6,0,B|407:170|346:178|346:178|406:170|445:124,1,225.000008583069,6|0,0:1|0:0,0:0:0:0:
442,49,226795,2,0,L|445:123,1,75.0000028610231,6|0,0:1|0:0,0:0:0:0:
453,316,226949,2,0,L|449:241,1,75.0000028610231,2|0,0:1|0:0,0:0:0:0:
191,103,227102,5,2,0:0:0:0:
366,264,227256,2,0,P|329:254|292:252,1,75.0000028610231,2|0,0:1|0:0,0:0:0:0:
144,215,227410,6,0,B|182:205|222:174|222:174|177:231|191:302,1,225.000008583069,6|0,0:1|0:0,0:0:0:0:
268,342,227718,6,0,B|192:335|192:335|134:378|134:378|57:375,1,225.000008583069,6|0,0:1|0:0,0:0:0:0:
48,117,228026,2,0,B|-5:100|-5:100|5:228|5:228|43:215,1,225.000008583069,6|0,0:1|0:0,0:0:0:0:
150,38,228333,6,0,L|139:112,1,75.0000028610231,6|0,0:1|0:0,0:0:0:0:
127,222,228487,2,0,L|114:296,1,75.0000028610231,2|0,0:1|0:0,0:0:0:0:
237,80,228641,6,0,P|272:70|310:71,1,75.0000028610231,6|0,0:1|0:0,0:0:0:0:
380,258,228795,2,0,P|415:270|452:271,1,75.0000028610231,2|0,0:1|0:0,0:0:0:0:
410,61,228949,5,6,0:1:0:0:
428,195,229102,1,0,0:0:0:0:
309,71,229256,5,6,0:1:0:0:
297,236,229410,1,2,0:1:0:0:
155,89,229564,5,2,0:0:0:0:
177,279,229718,1,2,0:1:0:0:
19,101,229872,5,6,0:1:0:0:
11,329,230026,1,2,0:1:0:0:
155,89,230179,6,0,L|161:138,3,50,6|0|0|0,0:1|0:0|0:0|0:0,0:0:0:0:
177,279,230487,2,0,L|170:229,3,50,6|0|0|0,0:1|0:0|0:0|0:0,0:0:0:0:
285,126,230795,5,6,0:1:0:0:
308,120,230871,1,0,0:0:0:0:
330,131,230948,1,2,0:1:0:0:
339,154,231025,1,0,0:0:0:0:
331,177,231102,1,6,0:1:0:0:
310,189,231179,1,0,0:0:0:0:
286,184,231256,1,2,0:1:0:0:
271,165,231333,1,0,0:0:0:0:
272,142,231410,6,0,L|395:123,1,125,14|0,0:1|0:0,0:0:0:0:
194,154,231641,2,0,L|132:164,2,62.5,10|2|0,0:0|0:1|0:0,0:0:0:0:
260,266,231872,6,0,L|272:142,1,125,14|0,0:1|0:0,0:0:0:0:
281,59,232102,5,0,0:0:0:0:
281,59,232179,2,0,B|228:118|264:182|264:182|298:243|259:291,1,250,6|0,0:1|0:0,0:0:0:0:
158,283,232641,6,0,B|229:272|229:272|295:310|295:310|371:298,1,225.000008583069,6|0,0:1|0:0,0:0:0:0:
429,104,232949,2,0,B|446:261|446:261|425:231|394:221,1,225.000008583069,6|0,0:1|0:0,0:0:0:0:
327,35,233256,6,0,L|254:52,1,75.0000028610231,6|0,0:1|0:0,0:0:0:0:
325,179,233410,2,0,L|252:159,1,75.0000028610231,2|0,0:1|0:0,0:0:0:0:
170,0,233564,6,0,P|178:36|178:73,1,75.0000028610231,6|0,0:1|0:0,0:0:0:0:
177,226,233718,2,0,P|172:190|175:152,1,75.0000028610231,2|0,0:1|0:0,0:0:0:0:
20,121,233872,6,0,B|66:123|88:85|88:85|47:156|69:223,1,225.000008583069,6|0,0:1|0:0,0:0:0:0:
77,357,234179,6,0,L|152:347,1,75.0000028610231,6|0,0:1|0:0,0:0:0:0:
249,139,234333,2,0,L|175:152,1,75.0000028610231,2|0,0:1|0:0,0:0:0:0:
164,249,234487,1,2,0:0:0:0:
389,277,234641,6,0,L|464:282,1,75.0000028610231,2|0,0:1|0:0,0:0:0:0:
322,101,234795,2,0,P|326:139|322:176,1,75.0000028610231,6|0,0:1|0:0,0:0:0:0:
316,328,234949,2,0,P|306:290|310:253,1,75.0000028610231,2|0,0:1|0:0,0:0:0:0:
385,49,235102,6,0,B|438:-4|438:-4|416:144,1,225.000008583069,6|0,0:1|0:0,0:0:0:0:
299,180,235410,2,0,B|337:178|369:189|369:189|417:145|417:145|463:166|504:162,1,225.000008583069,6|0,0:1|0:0,0:0:0:0:
380,270,235718,6,0,P|343:267|308:254,1,75.0000028610231,6|0,2:1|0:0,0:0:0:0:
199,154,235872,2,0,P|161:154|125:166,1,75.0000028610231,2|0,0:1|0:0,0:0:0:0:
166,325,236026,6,0,P|166:288|174:251,1,75.0000028610231,6|0,0:1|0:0,0:0:0:0:
159,0,236179,2,0,P|166:36|164:74,1,75.0000028610231,2|0,0:1|0:0,0:0:0:0:
38,148,236333,6,0,B|97:138|97:138|175:174|175:174|253:160,1,225.000008583069,6|0,0:1|0:0,0:0:0:0:
236,52,236641,6,0,L|164:73,1,75.0000028610231,6|0,0:1|0:0,0:0:0:0:
393,197,236795,2,0,L|464:173,1,75.0000028610231,2|0,0:1|0:0,0:0:0:0:
321,38,236949,5,2,0:0:0:0:
288,299,237102,2,0,L|277:373,1,75.0000028610231,2|0,0:1|0:0,0:0:0:0:
307,150,237256,6,0,B|241:143|219:92|219:92|241:143|206:200,1,225.000008583069,6|0,0:1|0:0,0:0:0:0:
151,304,237564,6,0,B|102:288|102:288|93:162|93:162|134:139,1,225.000008583069,6|0,0:1|0:0,0:0:0:0:
254,173,237872,2,0,B|193:155|193:155|141:184|141:184|40:169,1,225.000008583069,6|0,0:1|0:0,0:0:0:0:
41,89,238179,6,0,P|43:51|38:14,1,75.0000028610231,6|0,0:1|0:0,0:0:0:0:
27,254,238333,2,0,P|23:292|29:329,1,75.0000028610231,2|0,0:1|0:0,0:0:0:0:
212,65,238487,6,0,L|139:45,1,75.0000028610231,6|0,0:1|0:0,0:0:0:0:
216,256,238641,2,0,L|148:287,1,75.0000028610231,2|0,0:1|0:0,0:0:0:0:
373,206,238795,6,0,B|315:240|315:240|340:84,1,225.000008583069,6|0,0:1|0:0,0:0:0:0:
290,16,239102,6,0,P|325:0|362:3,1,75.0000028610231,6|0,0:1|0:0,0:0:0:0:
433,149,239256,2,0,P|468:160|505:160,1,75.0000028610231
485,37,239410,5,2,0:0:0:0:
435,304,239564,2,0,P|436:267|446:231,1,75.0000028610231,2|0,0:1|0:0,0:0:0:0:
341,83,239718,6,0,L|330:157,1,75.0000028610231,6|0,0:1|0:0,0:0:0:0:
302,362,239872,2,0,L|313:287,1,75.0000028610231,2|0,0:1|0:0,0:0:0:0:
223,111,240026,6,0,B|185:106|166:48|166:48|188:118|173:182,1,225.000008583069,6|0,0:1|0:0,0:0:0:0:
39,197,240333,2,0,B|78:188|78:188|112:205|112:205|175:182|175:182|213:198|213:198|250:189,1,225.000008583069,6|0,0:1|0:0,0:0:0:0:
177,98,240641,6,0,L|162:24,1,75.0000028610231,6|0,0:1|0:0,0:0:0:0:
163,344,240795,2,0,L|172:270,1,75.0000028610231,2|0,0:1|0:0,0:0:0:0:
85,84,240949,6,0,P|48:92|11:87,1,75.0000028610231,6|0,0:1|0:0,0:0:0:0:
82,307,241102,2,0,P|44:307|7:312,1,75.0000028610231,2|0,0:1|0:0,0:0:0:0:
288,178,241256,6,0,B|246:134|246:134|261:297,1,225.000008583069,14|0,0:1|0:0,0:0:0:0:
331,384,241564,1,14,0:1:0:0:
331,384,241641,1,0,0:0:0:0:
331,384,241718,2,0,L|342:309,1,75.0000028610231,2|0,0:1|0:0,0:0:0:0:
379,57,241872,6,0,L|393:130,1,75.0000028610231,10|0,0:0|0:0,0:0:0:0:
424,312,242026,2,0,L|411:237,1,75.0000028610231,2|0,0:1|0:0,0:0:0:0:
482,19,242179,6,0,B|514:0|514:0|531:69|531:69|518:138|518:138|476:119,1,225.000008583069
387,218,242487,6,0,B|393:123|393:123|372:78|372:78|386:0,1,225.000008583069,6|0,0:1|0:0,0:0:0:0:
254,95,242795,2,0,B|209:116|209:116|309:194|309:194|315:146,1,225.000008583069,6|0,0:1|0:0,0:0:0:0:
302,28,243102,6,0,P|267:16|230:12,1,75.0000028610231,6|0,0:1|0:0,0:0:0:0:
196,215,243256,2,0,P|160:228|123:232,1,75.0000028610231,2|0,0:1|0:0,0:0:0:0:
142,67,243410,6,0,L|136:141,1,75.0000028610231,6|0,0:1|0:0,0:0:0:0:
116,384,243564,2,0,L|122:309,1,75.0000028610231,2|0,0:1|0:0,0:0:0:0:
8,107,243718,6,0,B|50:99|65:49|65:49|50:98|47:186,1,225.000008583069,6|0,0:1|0:0,0:0:0:0:
49,326,244026,6,0,L|122:309,1,75.0000028610231,6|0,0:1|0:0,0:0:0:0:
136,141,244179,2,0,L|209:125,1,75.0000028610231,2|0,0:1|0:0,0:0:0:0:
265,293,244333,6,0,L|262:218,1,75.0000028610231,6|0,0:1|0:0,0:0:0:0:
255,1,244487,1,2,0:1:0:0:
372,108,244641,6,0,P|336:116|299:114,1,75.0000028610231,6|0,0:1|0:0,0:0:0:0:
136,140,244795,2,0,P|171:128|208:125,1,75.0000028610231,2|0,0:1|0:0,0:0:0:0:
405,188,244949,6,0,B|448:173|459:121|459:121|473:199|436:250,1,225.000008583069,6|0,0:1|0:0,0:0:0:0:
473,339,245256,2,0,B|459:241|459:241|479:199|479:199|473:119,1,225.000008583069,6|0,0:1|0:0,0:0:0:0:
410,24,245564,6,0,P|373:22|336:15,1,75.0000028610231,6|0,0:1|0:0,0:0:0:0:
355,198,245718,2,0,P|318:201|282:211,1,75.0000028610231,2|0,0:1|0:0,0:0:0:0:
251,58,245872,6,0,L|244:132,1,75.0000028610231,6|0,0:1|0:0,0:0:0:0:
235,293,246026,2,0,L|229:368,1,75.0000028610231,0|0,0:1|0:0,0:0:0:0:
70,187,246179,6,0,B|132:156|181:195|181:195|224:231|281:211,1,225.000008583069,6|0,0:1|0:0,0:0:0:0:
107,81,246487,6,0,P|70:87|35:102,1,75.0000028610231,6|0,0:1|0:0,0:0:0:0:
50,292,246641,2,0,P|83:275|119:266,1,75.0000028610231,2|0,0:1|0:0,0:0:0:0:
243,132,246795,5,2,0:0:0:0:
25,172,246949,2,0,L|96:195,1,75.0000028610231,2|0,0:1|0:0,0:0:0:0:
235,293,247102,6,0,B|189:262|198:195|198:195|189:262|141:289,1,225.000008583069,6|0,0:1|0:0,0:0:0:0:
106,384,247410,6,0,B|118:323|118:323|87:261|87:261|102:168,1,225.000008583069,6|0,0:1|0:0,0:0:0:0:
187,28,247718,2,0,B|219:-2|219:-2|257:119|257:119|202:120,1,225.000008583069,6|0,0:1|0:0,0:0:0:0:
383,20,248026,6,0,L|309:13,1,75.0000028610231,6|0,0:1|0:0,0:0:0:0:
275,193,248179,2,0,L|201:207,1,75.0000028610231,0|0,0:1|0:0,0:0:0:0:
389,95,248333,6,0,P|381:132|383:170,1,75.0000028610231,6|0,0:1|0:0,0:0:0:0:
395,340,248487,2,0,P|399:303|394:266,1,75.0000028610231,2|0,0:1|0:0,0:0:0:0:
475,135,248641,5,6,0:1:0:0:
478,295,248795,1,0,0:1:0:0:
292,99,248949,5,6,0:1:0:0:
312,301,249102,1,2,0:1:0:0:
175,79,249256,5,2,0:0:0:0:
167,309,249410,1,2,0:1:0:0:
52,54,249564,5,6,0:1:0:0:
66,316,249718,1,2,0:1:0:0:
175,79,249872,6,0,L|223:65,3,50,6|0|0|0,0:1|0:0|0:0|0:0,0:0:0:0:
182,211,250179,2,0,L|230:200,3,50,6|0|0|0,0:1|0:0|0:0|0:0,0:0:0:0:
330,187,250487,5,6,0:1:0:0:
322,164,250563,1,0,0:0:0:0:
331,141,250640,1,2,0:1:0:0:
354,131,250717,1,0,0:0:0:0:
377,137,250794,1,6,0:1:0:0:
391,157,250871,1,0,0:0:0:0:
387,181,250948,1,2,0:1:0:0:
369,198,251025,1,0,0:0:0:0:
347,201,251102,6,0,L|335:76,1,125,14|0,0:1|0:0,0:0:0:0:
352,277,251333,2,0,L|355:339,2,62.5,10|2|0,0:0|0:1|0:0,0:0:0:0:
347,201,251564,6,0,L|223:222,1,125,14|0,0:1|0:0,0:0:0:0:
218,228,251795,1,0,0:0:0:0:
213,235,251872,2,0,L|139:249,1,75.0000028610231,14|0,0:1|0:0,0:0:0:0:
50,261,252026,6,0,P|-6:199|74:222,1,225.000008583069
60,357,252333,6,0,B|55:269|55:269|74:224|74:224|68:158,1,202.500000772476,6|0,0:1|0:0,0:0:0:0:
175,13,252641,2,0,B|155:146,1,135.000000514984,8|0,0:0|0:0,0:0:0:0:
89,43,252949,5,6,0:1:0:0:
283,22,253102,2,0,L|269:88,1,67.5000002574921
230,239,253256,2,0,L|245:173,1,67.5000002574921,8|0,0:0|0:0,0:0:0:0:
384,43,253410,2,0,L|368:108,1,67.5000002574921
175,13,253564,5,6,0:1:0:0:
207,250,253718,2,0,L|221:183,1,67.5000002574921
308,20,253872,2,0,L|294:86,1,67.5000002574921,8|0,0:0|0:0,0:0:0:0:
333,268,254026,2,0,L|347:202,1,67.5000002574921
384,43,254179,5,6,0:1:0:0:
121,94,254333,1,2,0:0:0:0:
308,20,254487,6,0,B|271:-9|271:-9|295:106,1,165.000005035401,8|0,0:0|0:0,0:0:0:0:
193,121,254795,6,0,B|255:110|255:110|325:152|325:152|382:142,1,202.500000772476,6|0,0:1|0:0,0:0:0:0:
411,227,255102,2,0,L|400:362,1,135.000000514984,8|0,0:0|0:0,0:0:0:0:
416,52,255410,5,6,0:1:0:0:
506,194,255564,2,0,P|494:225|490:258,1,67.5000002574921
310,178,255718,2,0,P|319:211|316:245,1,67.5000002574921,8|0,0:0|0:0,0:0:0:0:
400,361,255872,2,0,L|403:293,1,67.5000002574921
314,58,256026,5,6,0:1:0:0:
411,159,256179,2,0,P|416:193|410:226,1,67.5000002574921
212,141,256333,2,0,P|201:174|203:207,1,67.5000002574921,8|0,0:0|0:0,0:0:0:0:
294,378,256487,2,0,L|299:310,1,67.5000002574921
230,48,256641,5,6,0:1:0:0:
202,314,256795,1,2,0:0:0:0:
69,159,256949,6,0,B|126:139|126:139|140:242,1,165.000005035401,8|0,0:0|0:0,0:0:0:0:
2,157,257256,6,0,B|134:111|134:111|169:162,1,202.500000772476,6|0,0:1|0:0,0:0:0:0:
247,192,257564,2,0,P|206:243|140:242,1,135.000000514984,8|0,0:0|0:0,0:0:0:0:
106,38,257872,5,6,0:1:0:0:
72,279,258026,6,0,P|68:246|70:213,1,67.5000002574921
106,38,258179,2,8,P|108:71|102:104,1,67.5000002574921,8|0,0:0|0:0,0:0:0:0:
0,272,258333,2,0,P|-3:239|1:206,1,67.5000002574921
36,69,258487,5,6,0:1:0:0:
142,278,258641,2,0,P|138:245|141:211,1,67.5000002574921
177,33,258795,2,0,P|178:67|173:101,1,67.5000002574921,8|0,0:0|0:0,0:0:0:0:
213,278,258949,2,0,P|210:245|211:211,1,67.5000002574921
263,38,259102,5,6,0:1:0:0:
372,255,259256,1,0,0:0:0:0:
353,57,259410,6,0,P|425:18|505:33,1,165.000005035401,8|0,0:0|0:0,0:0:0:0:
495,133,259718,6,0,P|418:97|414:183,1,202.500000772476,6|0,0:1|0:0,0:0:0:0:
372,255,260026,2,0,B|431:275|431:275|487:229,1,135.000000514984,8|0,0:0|0:0,0:0:0:0:
281,132,260333,5,6,0:1:0:0:
292,320,260487,2,0,L|288:252,1,67.5000002574921
281,132,260641,2,0,L|214:142,1,67.5000002574921,8|0,0:0|0:0,0:0:0:0:
216,348,260795,2,0,L|149:358,1,67.5000002574921
110,145,260949,6,0,B|132:125|122:79|122:79|153:130|136:205,1,200.000007629395,6|2,0:1|0:0,0:0:0:0:
61,242,261256,2,0,B|45:207|10:192|10:192|24:157|12:116,1,150.000005722046,8|0,0:0|0:0,0:0:0:0:
1,320,261564,5,6,0:1:0:0:
208,131,261872,2,0,B|177:133|153:113|153:113|155:166|135:204|135:204|169:227|189:271|189:271|204:242|231:230,1,300
332,164,262179,6,0,B|250:154|250:154|203:212|203:212|135:205,1,225.000008583069,6|0,0:1|0:0,0:0:0:0:
46,289,262487,2,0,L|46:139,1,150.000005722046,8|0,0:0|0:0,0:0:0:0:
48,37,262795,5,6,0:1:0:0:
135,205,262949,2,0,L|209:197,1,75.0000028610231
202,109,263102,2,0,L|127:115,1,75.0000028610231,8|0,0:0|0:0,0:0:0:0:
215,282,263256,2,0,L|140:291,1,75.0000028610231
203,18,263410,5,6,0:1:0:0:
380,217,263564,2,0,L|394:143,1,75.0000028610231
300,122,263718,2,0,L|285:195,1,75.0000028610231,8|0,0:0|0:0,0:0:0:0:
488,163,263872,2,0,L|474:236,1,75.0000028610231
362,303,264026,5,6,0:1:0:0:
451,39,264179,1,2,0:0:0:0:
199,138,264333,6,0,B|258:90|258:90|330:104|330:104|312:131|316:154,1,202.500000772476,8|0,0:0|0:0,0:0:0:0:
380,217,264641,6,0,B|277:167|277:167|201:247,1,225.000008583069,6|0,0:1|0:0,0:0:0:0:
154,328,264949,2,0,P|227:338|282:291,1,150.000005722046,8|0,0:0|0:0,0:0:0:0:
97,83,265256,5,6,0:1:0:0:
111,245,265410,2,0,P|114:208|109:171,1,75.0000028610231
187,26,265564,2,0,P|191:64|201:100,1,75.0000028610231,8|0,0:1|0:0,0:0:0:0:
9,215,265718,2,0,P|19:178|21:141,1,75.0000028610231
81,2,265872,5,6,0:1:0:0:
111,245,266026,2,0,P|114:208|109:171,1,75.0000028610231
205,21,266179,2,0,L|278:35,1,75.0000028610231,8|0,0:0|0:0,0:0:0:0:
209,240,266333,2,0,L|282:224,1,75.0000028610231
363,22,266487,5,6,0:1:0:0:
412,280,266641,1,2,0:0:0:0:
505,157,266795,6,0,B|452:105|452:105|404:152|404:152|340:148,1,202.500000772476,8|0,0:0|0:0,0:0:0:0:
278,103,267102,6,0,B|309:160|309:160|407:167|407:167|452:124,1,225.000008583069,6|0,0:1|0:0,0:0:0:0:
485,43,267410,2,0,P|483:118|487:193,1,150.000005722046,8|0,0:0|0:0,0:0:0:0:
363,284,267718,5,6,0:1:0:0:
232,34,267872,2,0,P|203:59|194:94,1,75.0000028610231
216,264,268026,2,0,P|226:229|220:192,1,75.0000028610231,8|0,0:0|0:0,0:0:0:0:
352,93,268179,2,0,L|278:103,1,75.0000028610231
138,223,268333,5,6,0:1:0:0:
118,65,268487,2,0,P|113:102|126:138,1,75.0000028610231
116,376,268641,2,0,P|136:346|144:309,1,75.0000028610231,8|0,0:0|0:0,0:0:0:0:
118,66,268795,2,0,L|43:77,1,75.0000028610231
54,310,268949,5,6,0:1:0:0:
300,168,269102,1,0,0:0:0:0:
78,167,269256,6,0,B|144:178|144:178|172:232|172:232|245:246,1,202.500000772476,8|0,0:0|0:0,0:0:0:0:
189,332,269564,6,0,B|179:178|179:178|192:218|218:235,1,225.000008583069,6|0,0:1|0:0,0:0:0:0:
301,332,269872,2,0,B|372:311|372:311|379:235,1,150.000005722046,8|0,0:0|2:0,2:0:0:0:
388,57,270179,5,6,0:1:0:0:
218,235,270333,2,0,P|191:209|155:200,1,75.0000028610231
219,53,270487,2,0,P|211:89|221:125,1,75.0000028610231,8|0,0:0|0:0,0:0:0:0:
63,145,270641,2,0,P|98:134|125:109,1,75.0000028610231
342,255,270795,6,0,L|333:155,1,100,2|0,0:0|0:0,0:0:0:0:
155,199,271026,2,0,L|161:298,1,100
260,303,271256,6,0,L|260:261,2,41.6666666666667
306,173,271410,6,0,B|360:135|360:135|343:293,1,225.000008583069,2|2,0:0|0:0,0:0:0:0:
260,378,271718,2,0,L|260:303,1,75.0000028610231,2|0,0:0|0:0,0:0:0:0:
262,94,271872,1,0,0:0:0:0:
163,323,272026,6,0,B|144:347|115:355|115:355|46:281|111:206,1,225.000008583069,6|0,0:1|0:0,0:0:0:0:
115,114,272333,6,0,P|79:120|49:143,1,75.0000028610231,10|0,0:1|0:0,0:0:0:0:
262,94,272487,2,0,P|229:75|192:70,1,75.0000028610231,2|0,0:1|0:0,0:0:0:0:
378,248,272641,6,0,L|369:173,1,75.0000028610231,6|0,0:1|0:0,0:0:0:0:
359,58,272795,1,2,0:1:0:0:
359,58,272949,2,0,P|389:82|408:114,1,75.0000028610231,10|0,0:1|0:0,0:0:0:0:
500,149,273102,2,0,P|503:186|497:222,1,75.0000028610231,2|0,0:1|0:0,0:0:0:0:
275,261,273256,5,6,0:1:0:0:
443,31,273410,1,2,0:1:0:0:
497,222,273564,6,0,P|503:185|499:147,1,75.0000028610231,10|0,0:1|0:0,0:0:0:0:
261,92,273718,2,0,P|251:129|259:165,1,75.0000028610231,2|0,0:1|0:0,0:0:0:0:
378,248,273872,5,6,0:1:0:0:
339,12,274026,1,6,0:1:0:0:
275,261,274179,5,10,0:1:0:0:
407,113,274333,1,0,0:0:0:0:
447,319,274487,6,0,B|431:345|404:358|404:358|324:295|377:212,1,225.000008583069,6|0,0:1|0:0,0:0:0:0:
321,142,274795,6,0,P|354:123|391:123,1,75.0000028610231,10|0,0:1|0:0,0:0:0:0:
214,215,274949,2,0,P|218:178|235:145,1,75.0000028610231,2|0,0:1|0:0,0:0:0:0:
204,39,275102,5,6,0:1:0:0:
204,39,275179,1,2,0:1:0:0:
204,39,275256,1,2,0:1:0:0:
226,358,275410,1,10,0:1:0:0:
226,358,275487,1,2,0:1:0:0:
226,358,275564,2,0,L|221:283,1,75.0000028610231,2|2,0:1|0:1,0:0:0:0:
204,39,275718,1,6,0:1:0:0:
204,39,275795,1,2,0:1:0:0:
204,39,275872,2,0,L|209:113,1,75.0000028610231,2|0,0:1|0:1,0:0:0:0:
179,192,276026,6,0,P|215:197|250:186,1,75.0000028610231,10|0,0:1|0:0,0:0:0:0:
343,217,276179,2,0,P|365:187|375:152,1,75.0000028610231,2|0,0:1|0:0,0:0:0:0:
100,46,276333,5,6,0:1:0:0:
8,225,276487,1,2,0:1:0:0:
16,35,276641,5,10,0:1:0:0:
96,224,276795,1,0,0:1:0:0:
16,35,276949,6,0,B|32:9|59:-4|59:-4|139:59|85:141,1,225.000008583069,6|0,0:1|0:0,0:0:0:0:
95,224,277256,6,0,P|58:219|26:201,1,75.0000028610231,10|0,0:1|0:0,0:0:0:0:
258,176,277410,2,0,P|226:193|189:196,1,75.0000028610231,2|0,0:1|0:0,0:0:0:0:
273,332,277564,6,0,L|266:257,1,75.0000028610231,6|0,0:1|0:1,0:0:0:0:
243,94,277718,1,2,0:1:0:0:
243,93,277872,2,0,P|280:94|314:109,1,75.0000028610231,10|0,0:1|0:0,0:0:0:0:
415,86,278026,2,0,P|427:122|430:159,1,75.0000028610231,2|0,0:1|0:0,0:0:0:0:
350,309,278179,5,6,0:1:0:0:
366,0,278333,1,2,0:1:0:0:
422,239,278487,6,0,P|459:236|490:215,1,75.0000028610231,10|0,0:1|0:0,0:0:0:0:
314,109,278641,2,0,P|279:93|242:94,1,75.0000028610231,2|0,0:1|0:0,0:0:0:0:
164,241,278795,5,6,0:1:0:0:
245,11,278949,1,6,0:1:0:0:
261,291,279102,5,10,0:1:0:0:
242,94,279256,1,0,0:1:0:0:
151,266,279410,6,0,B|135:292|108:305|108:305|28:242|81:159,1,225.000008583069,6|0,0:1|0:0,0:0:0:0:
142,96,279718,6,0,P|112:76|75:72,1,75.0000028610231,10|0,0:1|0:0,0:0:0:0:
260,165,279872,2,0,P|255:128|241:94,1,75.0000028610231,2|0,0:1|0:0,0:0:0:0:
251,325,280026,5,6,0:1:0:0:
251,325,280102,1,2,0:1:0:0:
251,325,280179,1,2,0:1:0:0:
236,19,280333,1,10,0:1:0:0:
236,19,280410,1,2,0:1:0:0:
236,19,280487,2,0,L|240:93,1,75.0000028610231,2|2,0:1|0:1,0:0:0:0:
342,259,280641,6,0,B|369:285|369:285|387:173,1,150.000005722046,10|0,0:0|0:0,0:0:0:0:
336,96,280872,1,0,0:0:0:0:
336,96,280949,2,0,L|410:89,2,75.0000028610231,10|0|0,0:0|0:0|0:0,0:0:0:0:
155,195,281179,6,0,L|80:205,2,75.0000028610231,2|2|0,0:0|0:0|0:0,0:0:0:0:
285,321,281410,1,0,0:0:0:0:
285,321,281487,1,0,0:0:0:0:
285,321,281564,6,0,B|281:277|251:249|251:249|267:197|314:174|374:198|379:245|379:245|341:258,1,300
203,312,281872,6,0,B|182:334|153:342|153:342|86:264|154:194,1,225.000008583069,6|0,0:1|0:0,0:0:0:0:
179,114,282179,6,0,P|141:113|106:126,1,75.0000028610231,10|0,0:1|0:0,0:0:0:0:
27,113,282333,2,0,P|6:145|0:182,1,75.0000028610231,2|0,0:1|0:0,0:0:0:0:
276,44,282487,6,0,L|270:118,1,75.0000028610231,6|0,0:1|0:1,0:0:0:0:
261,216,282641,1,2,0:1:0:0:
261,215,282795,2,0,P|223:214|188:202,1,75.0000028610231,10|0,0:1|0:0,0:0:0:0:
413,110,282949,2,0,P|381:129|345:137,1,75.0000028610231,2|0,0:1|0:0,0:0:0:0:
333,322,283102,5,6,0:1:0:0:
350,27,283256,1,2,0:1:0:0:
451,270,283410,6,0,P|464:235|462:197,1,75.0000028610231,10|0,0:1|0:0,0:0:0:0:
431,39,283564,2,0,P|413:72|413:109,1,75.0000028610231,2|0,0:1|0:0,0:0:0:0:
380,219,283718,5,6,0:1:0:0:
217,25,283872,1,6,0:1:0:0:
219,287,284026,5,10,0:1:0:0:
269,118,284179,1,2,0:1:0:0:
219,287,284333,6,0,B|191:274|173:250|173:250|224:160|311:200,1,225.000008583069,6|0,0:1|0:0,0:0:0:0:
383,154,284641,6,0,P|394:189|391:226,1,75.0000028610231,10|0,0:1|0:0,0:0:0:0:
438,318,284795,2,0,P|413:347|381:367,1,75.0000028610231,2|0,0:1|0:0,0:0:0:0:
219,362,284949,5,6,0:1:0:0:
219,362,285026,1,2,0:1:0:0:
219,362,285102,1,2,0:1:0:0:
218,45,285256,1,10,0:1:0:0:
218,45,285333,1,2,0:1:0:0:
218,45,285410,2,0,L|218:120,1,75.0000028610231,2|2,0:1|0:1,0:0:0:0:
219,362,285564,1,6,0:1:0:0:
219,362,285641,1,2,0:1:0:0:
219,362,285718,2,0,L|219:287,1,75.0000028610231,2|0,0:1|0:0,0:0:0:0:
173,214,285872,6,0,P|208:201|246:202,1,75.0000028610231,10|0,0:1|0:0,0:0:0:0:
52,236,286026,2,0,P|65:202|89:173,1,75.0000028610231,2|0,0:1|0:0,0:0:0:0:
37,77,286179,5,6,0:1:0:0:
121,329,286333,1,6,0:1:0:0:
139,61,286487,5,10,0:1:0:0:
38,262,286641,1,0,0:1:0:0:
139,61,286795,6,0,B|150:32|173:13|173:13|266:59|229:148,1,225.000008583069,6|0,0:1|0:0,0:0:0:0:
243,234,287102,2,0,P|206:230|173:213,1,75.0000028610231,10|0,0:1|0:0,0:0:0:0:
77,234,287256,2,0,P|57:203|48:167,1,75.0000028610231,2|0,0:1|0:0,0:0:0:0:
240,384,287410,6,0,L|237:309,1,75.0000028610231,6|0,0:1|0:0,0:0:0:0:
243,191,287564,1,2,0:1:0:0:
242,190,287718,2,0,P|205:195|173:213,1,75.0000028610231,10|0,0:1|0:0,0:0:0:0:
383,137,287872,2,0,P|350:121|313:116,1,75.0000028610231,2|0,0:1|0:0,0:0:0:0:
441,252,288026,5,6,0:1:0:0:
489,13,288179,1,2,0:1:0:0:
511,196,288333,6,0,P|478:212|441:213,1,75.0000028610231,10|0,0:1|0:0,0:0:0:0:
240,69,288487,2,0,P|265:42|300:30,1,75.0000028610231,2|0,0:1|0:0,0:0:0:0:
323,199,288641,5,6,0:1:0:0:
433,0,288795,1,6,0:1:0:0:
352,311,288949,5,10,0:1:0:0:
384,138,289102,1,2,0:1:0:0:
352,311,289256,6,0,B|341:340|318:359|318:359|225:313|261:223,1,225.000008583069,6|0,0:1|0:0,0:0:0:0:
274,137,289564,6,0,P|237:138|205:157,1,75.0000028610231,10|0,0:1|0:0,0:0:0:0:
114,132,289718,2,0,P|91:161|83:197,1,75.0000028610231,2|0,0:1|0:0,0:0:0:0:
191,334,289872,5,6,0:1:0:0:
191,334,289949,1,2,0:1:0:0:
191,334,290026,1,2,0:1:0:0:
171,0,290179,1,10,0:1:0:0:
171,0,290256,1,2,0:1:0:0:
171,0,290333,2,0,L|175:74,1,75.0000028610231,2|2,0:1|0:1,0:0:0:0:
191,334,290487,6,0,B|222:232|222:232|191:200,1,150.000005722046,14|0,0:1|0:0,0:0:0:0:
264,119,290718,1,0,0:0:0:0:
264,119,290795,2,0,L|338:106,1,75.0000028610231,10|0,0:1|0:0,0:0:0:0:
106,143,290949,2,0,L|32:157,1,75.0000028610231,2|0,0:1|0:0,0:0:0:0:
274,258,291102,5,2,0:0:0:0:
274,258,291179,1,0,0:0:0:0:
274,258,291256,1,6,0:1:0:0:
274,258,291333,1,0,0:0:0:0:
274,258,291410,2,0,B|253:211|253:211|193:201|193:201|132:228|132:228|128:273,1,225.000008583069,8|0,0:0|0:0,0:0:0:0:
209,327,291718,6,0,B|192:203,1,125,6|0,0:0|0:0,0:0:0:0:
181,79,292026,1,8,0:0:0:0:
181,79,292179,1,0,0:0:0:0:
306,151,292333,6,0,B|347:145|347:145|386:160|386:160|427:157,1,125,2|0,0:0|0:0,0:0:0:0:
400,69,292641,1,8,0:0:0:0:
337,234,292795,1,0,0:0:0:0:
477,83,292949,6,0,B|521:133|521:133|505:189,1,125,2|0,0:0|0:0,0:0:0:0:
488,285,293256,1,8,0:0:0:0:
369,155,293410,1,0,0:0:0:0:
337,321,293564,6,0,B|274:305|274:305|221:331,1,125,2|0,0:0|0:0,0:0:0:0:
138,147,293872,1,8,0:0:0:0:
138,147,294026,1,0,0:0:0:0:
85,238,294179,6,0,B|145:259|145:259|200:232,1,125,2|0,0:0|0:0,0:0:0:0:
194,62,294487,2,0,B|134:41|134:41|78:67,1,125,8|0,0:0|0:0,0:0:0:0:
138,147,294795,5,2,0:0:0:0:
138,147,294949,1,0,0:0:0:0:
276,34,295102,2,0,B|287:64|276:94|276:94|265:126|276:157,1,125,8|0,0:0|0:0,0:0:0:0:
344,269,295410,5,2,0:0:0:0:
354,126,295564,1,0,0:0:0:0:
356,273,295718,5,8,0:0:0:0:
398,128,295872,1,0,0:0:0:0:
370,278,296026,5,2,0:0:0:0:
441,141,296179,1,0,0:0:0:0:
510,266,296333,5,8,0:0:0:0:
435,66,296487,1,2,0:0:0:0:
498,279,296641,6,0,B|440:306|440:306|384:283,1,125,6|0,0:0|0:0,0:0:0:0:
258,169,296949,1,8,0:0:0:0:
258,169,297102,1,0,0:0:0:0:
142,287,297256,6,0,B|171:276|186:249|186:249|210:272|245:273,1,125,2|0,0:0|0:0,0:0:0:0:
258,169,297564,1,8,0:0:0:0:
204,374,297718,1,0,0:0:0:0:
110,204,297872,5,2,0:0:0:0:
257,273,298026,1,0,0:0:0:0:
142,117,298179,5,8,0:0:0:0:
126,368,298333,1,0,0:0:0:0:
48,205,298487,6,0,B|83:192|83:192|130:211|130:211|166:201,1,125,2|0,0:0|0:0,0:0:0:0:
257,96,298795,1,8,0:0:0:0:
257,96,298949,1,0,0:0:0:0:
354,145,299102,6,0,B|337:233|337:233|369:216,1,125,2|0,0:0|0:0,0:0:0:0:
445,68,299410,1,8,0:0:0:0:
446,225,299564,1,0,0:0:0:0:
260,181,299718,5,2,0:0:0:0:
260,181,299872,1,0,0:0:0:0:
354,31,300026,1,8,0:0:0:0:
354,31,300179,1,0,0:0:0:0:
448,147,300333,6,0,B|411:143|411:143|376:113|376:113|334:119,1,125,2|0,0:0|0:0,0:0:0:0:
171,143,300641,1,8,0:0:0:0:
171,143,300795,2,0,L|174:192,1,50
215,331,300949,6,0,L|219:281,3,50,8|0|0|0,0:0|0:0|0:0|0:0,0:0:0:0:
203,269,301256,6,0,B|205:313|205:313|209:321|209:321|209:368,1,100,2|0,0:1|0:0,0:0:0:0:
78,173,301564,6,0,L|70:272,1,100,2|0,0:0|0:0,0:0:0:0:
91,86,301872,1,0,0:0:0:0:
91,86,302026,1,0,0:0:0:0:
91,86,302179,1,0,0:0:0:0:
170,41,302487,5,0,0:0:0:0:
9,133,302641,1,0,0:0:0:0:
85,0,302795,5,0,0:0:0:0:
90,176,302949,1,0,0:0:0:0:
7,40,303102,5,0,0:0:0:0:
167,129,303256,1,0,0:0:0:0:
91,86,303410,1,0,0:0:0:0:
91,86,303718,1,2,0:0:0:0:
152,216,304026,6,0,L|144:305,1,89.9999972534181
167,129,304333,1,0,0:0:0:0:
167,129,304487,1,0,0:0:0:0:
167,129,304641,1,0,0:0:0:0:
90,176,304949,5,0,0:0:0:0:
244,90,305102,1,0,0:0:0:0:
170,218,305256,5,0,0:0:0:0:
170,41,305410,1,0,0:0:0:0:
246,174,305564,5,0,0:0:0:0:
91,86,305718,1,0,0:0:0:0:
167,129,305872,1,0,0:0:0:0:
167,129,306179,1,0,0:0:0:0:
226,262,306487,6,0,L|214:341,1,80,2|0,0:0|0:0,0:0:0:0:
247,174,306795,1,0,0:0:0:0:
247,174,306949,1,0,0:0:0:0:
247,174,307102,1,0,0:0:0:0:
167,129,307410,5,0,0:0:0:0:
328,220,307564,1,0,0:0:0:0:
246,90,307718,5,0,0:0:0:0:
246,262,307872,1,0,0:0:0:0:
322,133,308026,5,0,0:0:0:0:
170,218,308179,1,0,0:0:0:0:
247,174,308333,1,0,0:0:0:0:
247,174,308641,1,0,0:0:0:0:
298,306,308949,6,0,L|282:374,1,69.9999978637696,2|0,0:0|0:0,0:0:0:0:
328,220,309256,1,0,0:0:0:0:
328,220,309410,1,0,0:0:0:0:
328,220,309564,1,0,0:0:0:0:
322,133,309872,5,0,0:0:0:0:
246,262,310026,1,0,0:0:0:0:
406,175,310179,5,0,0:0:0:0:
256,192,310256,12,0,314487,0:0:0:0:
