osu file format v14

[General]
AudioFilename: audio.mp3
AudioLeadIn: 0
PreviewTime: 83623
Countdown: 0
SampleSet: Soft
StackLeniency: 0.7
Mode: 0
LetterboxInBreaks: 0
WidescreenStoryboard: 1

[Editor]
DistanceSpacing: 1.5
BeatDivisor: 4
GridSize: 4
TimelineZoom: 2.799999

[Metadata]
Title:Extra Mode
TitleUnicode:Extra Mode
Artist:USAO
ArtistUnicode:USAO
Creator:Otosaka-Yu
Version:Insane
Source:グルーヴコースター 3EX ドリームパーティー
Tags:taito GROOVE COASTER 3EX DREAM PARTY hardcore tano*c speed ball evolution kick's for liberation 5 frenchcore hardtek Suzuki_1112 Ametrin [Kamiya] Oiso Firika -[Pino]- Atlust Necho Reincarnation electronic instrumental video game fa featured artist
BeatmapID:2103983
BeatmapSetID:811948

[Difficulty]
HPDrainRate:5
CircleSize:4
OverallDifficulty:8
ApproachRate:9
SliderMultiplier:1.6
SliderTickRate:1

[Events]
//Background and Video events
0,0,"2805A8081D6E29CC25D1AA7B45B2C714.jpg",0,0
//Break Periods
2,16208,24946
//Storyboard Layer 0 (Background)
//Storyboard Layer 1 (Fail)
//Storyboard Layer 2 (Pass)
//Storyboard Layer 3 (Foreground)
//Storyboard Layer 4 (Overlay)
//Storyboard Sound Samples

[TimingPoints]
8,307.692307692308,4,2,1,60,1,0
3546,-100,4,2,1,5,0,0
3700,-100,4,2,1,60,0,0
3854,-100,4,2,1,5,0,0
6161,-71.4285714285714,4,2,2,70,0,0
6777,-100,4,2,2,70,0,0
9854,-100,4,2,1,70,0,0
11084,-100,4,2,5,70,0,0
11161,-100,4,2,5,5,0,0
15084,-100,4,2,5,40,0,0
16008,-100,4,2,1,40,0,0
25546,-100,4,2,1,70,0,0
35700,-100,4,2,2,70,0,0
44777,-76.9230769230769,4,2,2,70,0,0
45238,-66.6666666666667,4,2,5,70,0,0
45546,-71.4285714285714,4,2,1,70,0,0
45854,-100,4,2,1,70,0,0
46469,-76.9230769230769,4,2,1,70,0,0
46777,-62.5,4,2,1,70,0,0
47238,-55.5555555555556,4,2,1,70,0,0
47392,-71.4285714285714,4,2,1,70,0,0
48008,-71.4285714285714,4,2,1,70,0,0
48315,-100,4,2,1,70,0,0
48623,-76.9230769230769,4,2,1,70,0,0
48931,-83.3333333333333,4,2,1,70,0,0
49392,-66.6666666666667,4,2,1,70,0,0
49546,-58.8235294117647,4,2,1,70,0,0
50008,-62.5,4,2,1,70,0,0
50161,-66.6666666666667,4,2,1,70,0,0
50469,-58.8235294117647,4,2,1,70,0,0
50777,-66.6666666666667,4,2,1,70,0,0
51084,-58.8235294117647,4,2,1,70,0,0
51392,-66.6666666666667,4,2,1,70,0,0
51700,-58.8235294117647,4,2,1,70,0,0
52623,-66.6666666666667,4,2,1,70,0,0
54161,-76.9230769230769,4,2,1,70,0,0
54392,-76.9230769230769,4,2,1,50,0,0
54623,-76.9230769230769,4,2,1,40,0,0
54854,-76.9230769230769,4,2,1,30,0,0
55084,-76.9230769230769,4,2,1,70,0,0
55392,-100,4,2,2,70,0,0
62777,-66.6666666666667,4,2,1,70,0,0
63341,-66.6666666666667,4,2,1,5,0,0
63392,-66.6666666666667,4,2,1,70,0,0
63649,-66.6666666666667,4,2,1,5,0,0
63700,-66.6666666666667,4,2,1,70,0,0
64931,-66.6666666666667,4,2,5,70,0,0
65008,-66.6666666666667,4,2,1,70,0,0
70161,-66.6666666666667,4,2,1,50,0,0
74623,-133.333333333333,4,2,1,50,0,0
75084,-100,4,2,2,60,0,0
84623,-100,4,2,5,70,0,0
84931,-83.3333333333333,4,2,1,70,0,1
93546,-83.3333333333333,4,2,1,50,0,1
94315,-83.3333333333333,4,2,1,70,0,1
94700,-83.3333333333333,4,2,1,70,0,0
94777,-83.3333333333333,4,2,1,70,0,1
103700,-83.3333333333333,4,2,1,50,0,1
104315,-83.3333333333333,4,2,1,70,0,0
104623,-83.3333333333333,4,2,1,70,0,1
113238,-83.3333333333333,4,2,1,50,0,1
114469,-66.6666666666667,4,2,1,50,0,0
114931,-133.333333333333,4,2,1,50,0,0
116623,-100,4,2,1,50,0,0
117392,-133.333333333333,4,2,1,50,0,0
123161,-133.333333333333,4,2,1,5,0,0

[Colours]
Combo1 : 255,164,119
Combo2 : 255,128,128

[HitObjects]
256,192,8,12,4,1238,1:2:0:0:
144,363,3392,6,0,P|141:293|41:271,1,160,0|0,1:0|1:0,0:0:0:0:
42,273,6161,6,0,B|171:296|116:186|266:218,1,223.999993164063,4|8,1:2|1:2,0:0:0:0:
274,225,6623,1,0,0:0:0:0:
442,119,6777,6,0,P|442:64|451:24,1,80,0|0,1:0|0:0,0:0:0:0:
360,117,7084,2,0,P|360:62|369:22,1,80,8|0,1:2|0:0,0:0:0:0:
269,145,7392,6,0,P|269:200|278:240,1,80,0|0,1:0|0:0,0:0:0:0:
187,147,7699,2,0,P|187:202|196:242,1,80,8|0,1:2|0:0,0:0:0:0:
104,106,8008,6,0,P|104:51|113:11,1,80,0|0,1:0|0:0,0:0:0:0:
22,104,8315,2,0,P|22:49|31:9,1,80,8|0,1:2|0:0,0:0:0:0:
97,208,8623,5,0,1:0:0:0:
97,208,8777,2,0,L|7:216,2,80,0|8|0,0:0|1:2|0:0,0:0:0:0:
119,302,9238,5,0,1:0:0:0:
119,302,9392,2,0,L|209:310,2,80,0|8|0,0:0|1:2|0:0,0:0:0:0:
25,365,9854,5,4,1:2:0:0:
256,192,9931,12,4,11084,0:0:0:0:
256,192,11161,12,2,16008,0:0:0:0:
387,59,25546,5,2,0:0:0:0:
387,59,25854,2,0,B|314:66|314:66|309:73|309:73|207:84,2,160,6|10|2,1:2|0:0|1:2,0:0:0:0:
460,22,26623,1,2,1:2:0:0:
460,22,26777,2,0,P|496:66|506:99,1,80,10|2,0:0|0:0,0:0:0:0:
405,277,27084,6,0,P|435:203|429:119,1,160,2|10,1:2|0:0,0:0:0:0:
387,59,27546,1,2,0:0:0:0:
219,152,27700,6,0,P|231:211|229:240,1,80,0|2,1:0|1:2,0:0:0:0:
302,147,28008,2,0,P|314:206|312:235,1,80,10|2,0:0|0:0,0:0:0:0:
177,301,28315,6,0,L|-8:291,2,160,2|10|2,1:2|0:0|1:2,0:0:0:0:
231,354,29084,1,2,1:2:0:0:
407,305,29238,2,0,B|426:318|426:318|420:393,1,80,10|2,0:0|0:0,0:0:0:0:
322,328,29546,6,0,P|333:260|439:227,1,160,2|10,1:2|0:0,0:0:0:0:
481,258,30008,1,2,0:0:0:0:
325,233,30161,2,0,P|274:221|252:192,1,80,0|2,1:0|1:2,0:0:0:0:
224,129,30469,1,10,0:0:0:0:
424,47,30777,6,0,P|348:65|341:170,2,160,2|10|2,1:2|0:0|1:2,0:0:0:0:
494,92,31546,1,2,1:2:0:0:
494,92,31700,2,0,P|505:46|499:14,1,80,10|2,0:0|0:0,0:0:0:0:
316,57,32008,6,0,B|223:45|265:116|161:93,1,160,2|10,1:2|0:0,0:0:0:0:
97,64,32469,1,2,0:0:0:0:
22,213,32623,6,0,P|88:196|128:208,1,80,0|2,1:0|1:2,0:0:0:0:
121,284,32931,2,0,P|55:301|15:289,1,80,10|2,0:0|0:0,0:0:0:0:
209,191,33238,6,0,L|199:382,2,160,2|10|2,1:2|0:0|1:2,0:0:0:0:
177,124,34008,1,2,1:2:0:0:
330,84,34161,2,0,P|341:121|335:161,1,80,10|2,0:0|0:0,0:0:0:0:
397,222,34469,6,0,P|440:155|445:76,1,160,2|10,1:2|0:0,0:0:0:0:
388,12,34931,1,2,0:0:0:0:
256,129,35084,2,0,L|162:123,2,80,0|2|0,1:0|0:0|0:0,0:0:0:0:
240,361,35700,6,0,B|218:338|218:338|80:347,1,160,6|8,1:2|0:0,0:0:0:0:
3,258,36315,2,0,B|25:235|25:235|163:244,1,160,2|8,1:2|0:0,0:0:0:0:
249,145,36931,6,0,B|227:122|227:122|89:131,1,160,2|8,1:2|0:0,0:0:0:0:
12,42,37546,2,0,B|34:19|34:19|172:28,1,160,2|8,1:2|0:0,0:0:0:0:
272,23,38161,6,0,B|294:46|294:46|432:37,1,160,6|8,1:2|0:0,0:0:0:0:
509,126,38776,2,0,B|487:149|487:149|349:140,1,160,2|8,1:2|0:0,0:0:0:0:
263,239,39392,6,0,B|285:262|285:262|423:253,1,160,2|8,1:2|0:0,0:0:0:0:
500,342,40007,2,0,B|478:365|478:365|340:356,1,160,2|8,1:2|0:0,0:0:0:0:
180,357,40623,5,6,1:2:0:0:
171,361,40931,2,0,L|177:268,1,80,8|0,0:0|0:0,0:0:0:0:
90,353,41238,5,2,1:2:0:0:
81,357,41546,2,0,L|87:264,1,80,8|0,0:0|0:0,0:0:0:0:
132,176,41854,5,2,1:2:0:0:
141,180,42162,2,0,L|135:87,1,80,8|0,0:0|0:0,0:0:0:0:
222,172,42469,5,2,1:2:0:0:
317,169,42623,1,0,1:0:0:0:
231,176,42777,2,0,L|225:83,1,80,8|0,0:0|0:0,0:0:0:0:
325,28,43084,6,0,L|391:23,1,40,0|0,1:0|0:0,0:0:0:0:
362,99,43238,2,0,L|428:94,1,40,0|0,1:0|0:0,0:0:0:0:
394,172,43392,2,0,L|460:167,1,40,0|0,1:0|0:0,0:0:0:0:
431,243,43546,2,0,L|497:238,1,40,0|0,1:0|0:0,0:0:0:0:
503,319,43700,6,0,L|496:373,3,40,0|0|0|0,1:0|1:0|1:0|1:0,0:0:0:0:
401,359,44008,1,0,1:0:0:0:
367,357,44084,1,0,1:0:0:0:
330,354,44161,1,0,1:0:0:0:
295,350,44238,1,0,1:0:0:0:
262,369,44315,6,0,P|228:299|316:282,1,160,2|2,0:0|0:0,0:0:0:0:
431,243,44777,6,0,P|440:184|294:153,1,207.999990478516,2|2,0:0|0:0,0:0:0:0:
209,7,45238,6,0,B|223:92|223:92|232:100|232:100|248:207,1,180.000006866455,2|0,0:0|0:0,0:0:0:0:
264,198,45546,6,0,L|105:193,1,111.999996582031,4|2,1:2|0:0,0:0:0:0:
128,207,45777,1,2,0:0:0:0:
102,220,45854,2,0,L|106:153,1,40,8|0,0:0|0:0,0:0:0:0:
29,234,46008,2,0,L|33:167,1,40,0|0,0:0|0:0,0:0:0:0:
59,120,46161,5,0,1:0:0:0:
82,308,46315,1,0,1:0:0:0:
82,308,46469,6,0,B|175:293|139:362|269:328,1,155.999992858887,8|0,0:0|0:0,0:0:0:0:
246,353,46777,6,0,P|346:356|373:237,1,192,0|0,1:0|0:0,0:0:0:0:
360,216,47084,1,8,0:0:0:0:
243,54,47238,6,0,B|227:86|227:86|259:151,1,71.9999978027344,0|0,0:0|0:0,0:0:0:0:
433,106,47392,2,0,B|410:92|410:92|385:12|385:12|349:78|349:78|305:91,1,223.999993164063,0|8,1:0|0:0,0:0:0:0:
228,130,47854,2,0,L|151:120,1,55.9999982910157,0|0,0:0|0:0,0:0:0:0:
54,26,48008,6,0,L|66:147,1,111.999996582031,0|2,1:0|0:0,0:0:0:0:
76,162,48238,1,2,0:0:0:0:
86,182,48315,6,0,L|146:195,1,40,8|0,0:0|0:0,0:0:0:0:
88,258,48469,2,0,L|128:267,1,40,0|0,0:0|0:0,0:0:0:0:
90,338,48623,6,0,P|34:318|16:225,1,155.999992858887,0|0,1:0|0:0,0:0:0:0:
88,258,48931,2,0,B|131:254|131:254|159:243|159:243|187:248|187:248|261:242,1,143.999995605469,8|0,0:0|0:0,0:0:0:0:
307,238,49238,5,0,1:0:0:0:
369,330,49392,2,0,P|382:303|369:250,1,60.0000022888184,0|0,0:0|0:0,0:0:0:0:
307,238,49546,2,0,B|346:233|346:233|374:238|374:238|402:227|402:227|445:223,1,136.000002593994,8|2,0:0|1:2,0:0:0:0:
467,222,49777,1,2,1:2:0:0:
492,218,49854,5,0,1:0:0:0:
448,40,50008,2,0,P|434:70|447:123,1,64,2|0,0:0|0:0,0:0:0:0:
509,83,50161,6,0,B|472:76|472:76|436:100|436:100|377:58|304:118,1,180.000006866455,10|0,0:0|0:0,0:0:0:0:
268,126,50469,6,0,B|246:138|246:138|128:129,1,136.000002593994,4|2,1:2|0:0,0:0:0:0:
121,127,50700,1,2,0:0:0:0:
106,125,50777,6,0,B|115:182|115:182|121:186|121:186|116:188|116:188|139:339,1,180.000006866455,8|0,0:0|0:0,0:0:0:0:
62,342,51084,6,0,B|84:330|84:330|202:339,1,136.000002593994,0|2,1:0|0:0,0:0:0:0:
209,341,51315,1,2,0:0:0:0:
224,343,51392,6,0,B|215:286|215:286|209:282|209:282|214:280|214:280|191:129,1,180.000006866455,8|0,0:0|0:0,0:0:0:0:
268,126,51700,6,0,B|290:114|290:114|408:123,1,136.000002593994,0|2,1:0|0:0,0:0:0:0:
415,125,51931,1,2,0:0:0:0:
428,127,52008,6,0,B|427:152|427:152|360:249,1,136.000002593994,8|2,0:0|0:0,0:0:0:0:
355,254,52239,1,2,0:0:0:0:
346,266,52315,6,0,B|324:252|324:252|273:146,1,136.000002593994,0|2,1:0|0:0,0:0:0:0:
273,140,52546,1,2,0:0:0:0:
268,126,52623,6,0,B|223:162|223:162|222:169|222:169|218:166|218:166|99:261,1,180.000006866455,8|0,0:0|0:0,0:0:0:0:
72,297,52931,6,0,B|51:294|51:294|43:298|43:298|4:291,1,60.0000022888184,0|0,1:0|1:0,0:0:0:0:
151,375,53084,1,0,1:0:0:0:
151,375,53161,1,0,1:0:0:0:
151,375,53238,6,0,B|130:372|130:372|122:376|122:376|83:369,1,60.0000022888184,8|0,0:0|0:0,0:0:0:0:
244,302,53392,6,0,B|223:299|223:299|215:303|215:303|176:296,1,60.0000022888184,2|0,0:0|0:0,0:0:0:0:
336,379,53546,6,0,B|315:376|315:376|307:380|307:380|268:373,3,60.0000022888184,0|0|2|0,1:0|0:0|0:0|0:0,0:0:0:0:
426,308,53854,6,0,B|405:305|405:305|397:309|397:309|358:302,3,60.0000022888184,8|0|2|0,0:0|0:0|0:0|0:0,0:0:0:0:
492,369,54161,6,0,B|444:343|444:343|469:236,1,155.999992858887,0|0,1:0|1:0,0:0:0:0:
473,220,54469,1,8,1:0:0:0:
479,199,54546,1,8,1:0:0:0:
487,179,54623,2,0,L|410:188,2,51.999997619629,0|8|8,1:0|1:0|1:0,0:0:0:0:
436,91,54854,2,0,L|487:97,2,51.999997619629,0|8|8,1:0|1:0|1:0,0:0:0:0:
364,138,55084,6,0,L|165:138,1,155.999992858887,0|0,0:0|0:0,0:0:0:0:
181,151,55392,6,0,P|81:136|77:57,1,160,4|8,1:2|0:0,0:0:0:0:
67,91,55854,6,0,P|69:50|56:10,1,80,0|0,0:0|1:0,0:0:0:0:
13,170,56161,2,0,P|11:211|24:251,1,80,0|8,0:0|0:0,0:0:0:0:
74,218,56469,6,0,P|46:187|8:168,1,80,0|0,0:0|1:0,0:0:0:0:
91,312,56776,2,0,P|118:342|156:361,1,80,0|8,0:0|0:0,0:0:0:0:
168,302,57084,6,0,P|127:299|87:312,1,80,0|0,0:0|1:0,0:0:0:0:
246,356,57391,1,0,0:0:0:0:
285,358,57469,1,0,0:0:0:0:
323,346,57546,1,8,0:0:0:0:
396,282,57700,1,0,0:0:0:0:
419,194,57854,6,0,L|433:379,1,160,0|8,1:0|0:0,0:0:0:0:
493,160,58315,2,0,P|464:126|418:115,1,80,0|0,0:0|1:0,0:0:0:0:
458,43,58623,2,8,P|413:39|373:64,1,80,0|8,0:0|0:0,0:0:0:0:
351,128,58931,1,0,0:0:0:0:
303,63,59084,5,0,1:0:0:0:
351,128,59238,2,2,L|345:190,1,40,2|0,0:0|0:0,0:0:0:0:
335,287,59392,2,2,L|348:148,1,120,8|0,0:0|0:0,0:0:0:0:
261,225,59700,5,0,1:0:0:0:
213,160,59854,2,2,L|219:98,1,40,2|0,0:0|0:0,0:0:0:0:
229,1,60008,2,2,L|216:140,1,120,8|0,0:0|0:0,0:0:0:0:
221,303,60315,5,0,1:0:0:0:
178,242,60469,1,0,1:0:0:0:
178,242,60546,1,0,1:0:0:0:
178,242,60623,1,8,0:0:0:0:
69,354,60777,6,0,B|122:348|122:348|152:378,1,80,0|0,0:0|1:0,0:0:0:0:
212,379,61084,2,0,B|159:385|159:385|129:355,1,80,0|8,0:0|0:0,0:0:0:0:
178,242,61392,6,0,B|125:236|125:236|95:266,1,80,0|0,0:0|1:0,0:0:0:0:
35,267,61699,2,0,B|88:273|88:273|118:243,1,80,0|8,0:0|0:0,0:0:0:0:
18,122,62008,6,0,B|71:116|71:116|101:146,1,80,0|0,0:0|1:0,0:0:0:0:
161,147,62315,1,0,0:0:0:0:
121,152,62391,1,0,0:0:0:0:
89,134,62468,1,8,0:0:0:0:
139,45,62623,1,0,0:0:0:0:
241,82,62777,6,0,B|232:107|232:107|265:185|189:232,1,160.000006103516,4|0,1:2|1:0,0:0:0:0:
168,259,63084,2,0,B|194:255|194:255|245:187|324:230,1,160.000006103516,8|0,0:0|0:0,0:0:0:0:
269,293,63392,1,0,1:0:0:0:
338,129,63597,1,0,0:0:0:0:
358,234,63700,2,0,B|341:213|341:213|257:203|254:113,1,160.000006103516,8|0,0:0|0:0,0:0:0:0:
417,85,64008,6,0,B|441:130|441:130|376:165|321:115,1,160.000006103516,0|0,1:0|0:0,0:0:0:0:
189,38,64315,2,0,B|151:2|86:37|86:37|110:82,1,160.000006103516,8|0,0:0|0:0,0:0:0:0:
255,127,64623,5,0,1:0:0:0:
336,288,64931,2,0,B|296:284|256:312|256:312|200:268|112:296,1,180.000006866455,4|0,0:0|0:0,0:0:0:0:
256,216,65238,5,4,1:2:0:0:
256,192,65315,12,0,70084,0:0:0:0:
256,192,70161,12,0,74469,0:0:0:0:
489,351,74623,6,0,B|422:357|422:357|414:365|414:365|332:372,1,150.000005722046,2|0,0:0|0:0,0:0:0:0:
269,360,75084,6,0,P|271:299|361:298,1,160,4|8,1:2|0:0,0:0:0:0:
471,257,75700,2,0,P|469:196|379:195,1,160,4|8,1:2|0:0,0:0:0:0:
257,182,76315,2,0,P|259:121|349:120,1,160,4|8,1:2|0:0,0:0:0:0:
459,79,76931,2,0,P|457:18|367:17,1,160,4|8,1:2|0:0,0:0:0:0:
243,24,77546,6,0,P|241:85|151:86,1,160,4|8,1:2|0:0,0:0:0:0:
41,127,78162,2,0,P|43:188|133:189,1,160,4|8,1:2|0:0,0:0:0:0:
255,202,78777,2,0,P|253:263|163:264,1,160,4|8,1:2|0:0,0:0:0:0:
53,305,79393,2,0,P|55:366|145:367,1,160,4|8,1:2|0:0,0:0:0:0:
332,357,80008,5,6,1:2:0:0:
341,361,80316,2,0,L|335:268,1,80,8|0,0:0|0:0,0:0:0:0:
422,353,80623,5,2,1:2:0:0:
431,357,80931,2,0,L|425:264,1,80,8|0,0:0|0:0,0:0:0:0:
380,176,81239,5,2,1:2:0:0:
371,180,81547,2,0,L|377:87,1,80,8|0,0:0|0:0,0:0:0:0:
290,172,81854,5,2,1:2:0:0:
195,169,82008,1,0,1:0:0:0:
281,176,82162,2,0,L|287:83,1,80,8|0,0:0|0:0,0:0:0:0:
187,28,82469,6,0,L|121:23,1,40,0|0,1:0|0:0,0:0:0:0:
150,99,82623,2,0,L|84:94,1,40,0|0,1:0|0:0,0:0:0:0:
118,172,82777,2,0,L|52:167,1,40,0|0,1:0|0:0,0:0:0:0:
81,243,82931,2,0,L|15:238,1,40,0|0,1:0|0:0,0:0:0:0:
9,319,83085,6,0,L|16:373,3,40,0|0|0|0,1:0|1:0|1:0|1:0,0:0:0:0:
111,359,83393,1,0,1:0:0:0:
145,357,83469,1,0,1:0:0:0:
182,354,83546,1,0,1:0:0:0:
217,350,83623,1,0,1:0:0:0:
250,347,83700,6,0,B|237:230|237:230|280:184,1,160,2|2,0:0|0:0,0:0:0:0:
340,127,84161,1,2,0:0:0:0:
427,272,84315,2,0,L|321:257,1,80,2|2,0:0|0:0,0:0:0:0:
340,127,84623,2,0,L|209:110,1,120,8|0,0:0|0:0,0:0:0:0:
203,108,84931,6,0,L|103:96,1,95.9999970703126,6|0,1:2|0:0,0:0:0:0:
174,270,85238,2,0,P|237:265|265:198,1,143.999995605469,10|0,0:0|0:0,0:0:0:0:
97,215,85546,2,0,P|54:197|6:191,1,95.9999970703126,2|2,1:2|0:0,0:0:0:0:
102,320,85854,2,0,P|58:337|20:367,1,95.9999970703126,10|2,0:0|0:0,0:0:0:0:
174,270,86161,6,0,B|281:249|252:322|372:287,1,191.999994140625,2|10,1:2|0:0,0:0:0:0:
433,326,86623,2,0,P|470:281|451:225,1,95.9999970703126,2|0,0:0|1:2,0:0:0:0:
364,371,86931,1,2,0:0:0:0:
393,215,87084,2,0,L|385:113,1,95.9999970703126,10|2,0:0|0:0,0:0:0:0:
358,34,87392,6,0,P|404:21|512:102,2,191.999994140625,2|10|2,1:2|0:0|1:2,0:0:0:0:
280,69,88161,1,2,0:0:0:0:
280,69,88315,2,0,P|216:62|185:22,1,95.9999970703126,10|2,0:0|0:0,0:0:0:0:
84,14,88623,6,0,B|106:37|106:37|119:212,1,191.999994140625,2|10,1:2|0:0,0:0:0:0:
180,370,89084,2,0,B|201:345|201:345|209:253,1,95.9999970703126,2|0,0:0|1:0,0:0:0:0:
209,152,89392,1,2,0:0:0:0:
133,272,89546,2,0,L|299:250,1,143.999995605469,10|0,0:0|0:0,0:0:0:0:
301,241,89854,6,0,L|289:353,1,95.9999970703126,6|0,1:2|0:0,0:0:0:0:
455,376,90161,2,0,L|469:232,1,143.999995605469,10|0,0:0|0:0,0:0:0:0:
361,177,90469,2,0,P|343:221|301:241,1,95.9999970703126,2|2,1:2|0:0,0:0:0:0:
426,32,90777,2,0,P|444:75|427:119,1,95.9999970703126,8|2,0:2|0:0,0:0:0:0:
334,0,91084,6,0,B|230:0|269:62|147:49,1,191.999994140625,2|10,1:2|0:0,0:0:0:0:
62,16,91546,2,0,B|46:61|46:61|74:108,1,95.9999970703126,2|0,0:0|1:0,0:0:0:0:
167,145,91854,1,2,0:0:0:0:
37,229,92008,2,0,P|85:231|131:247,1,95.9999970703126,10|2,0:0|0:0,0:0:0:0:
46,352,92315,6,0,L|280:333,2,191.999994140625,2|10|2,1:2|0:0|1:2,0:0:0:0:
128,150,93084,1,0,0:0:0:0:
130,246,93239,2,0,B|128:107,1,95.9999970703126,10|2,0:0|0:0,0:0:0:0:
95,34,93546,6,0,B|135:55|135:55|223:41,1,95.9999970703126,8|0,1:0|0:0,0:0:0:0:
267,28,93777,2,0,B|318:20|318:20|358:41,1,95.9999970703126,8|0,1:0|0:0,0:0:0:0:
435,101,94008,2,0,B|454:-15|454:-15|417:10,1,143.999995605469,8|8,1:0|1:0,0:0:0:0:
344,135,94315,2,0,B|372:285|372:285|326:226,1,191.999994140625,2|0,1:2|0:0,0:0:0:0:
183,189,94777,6,0,B|246:181|246:181|296:217,1,95.9999970703126,6|0,1:2|0:0,0:0:0:0:
163,346,95084,2,0,B|264:357|264:357|299:332,1,143.999995605469,10|0,0:0|0:0,0:0:0:0:
347,253,95392,2,0,P|344:206|361:161,1,95.9999970703126,2|2,1:2|0:0,0:0:0:0:
440,269,95700,2,0,P|457:199|447:160,1,95.9999970703126,10|2,0:0|0:0,0:0:0:0:
471,16,96008,6,0,B|361:-3|411:88|282:52,1,191.999994140625,2|10,1:2|0:0,0:0:0:0:
216,21,96469,2,0,L|96:39,1,95.9999970703126,2|0,0:0|1:0,0:0:0:0:
226,113,96777,1,2,0:0:0:0:
226,113,96931,2,0,L|106:131,1,95.9999970703126,10|2,0:0|0:0,0:0:0:0:
1,281,97238,6,0,B|-10:204|71:185|71:185|59:225|87:275,2,191.999994140625,2|10|2,1:2|0:0|1:2,0:0:0:0:
193,337,98008,1,2,0:0:0:0:
193,337,98161,2,0,B|143:348|143:348|94:316,1,95.9999970703126,10|2,0:0|0:0,0:0:0:0:
216,252,98469,6,0,L|419:238,1,191.999994140625,2|10,1:2|0:0,0:0:0:0:
474,181,98931,2,0,P|437:158|366:166,1,95.9999970703126,2|0,0:0|1:0,0:0:0:0:
407,238,99238,1,2,0:0:0:0:
474,181,99392,2,0,P|473:102|392:57,1,143.999995605469,10|0,0:0|0:0,0:0:0:0:
319,52,99700,6,0,L|415:58,1,95.9999970703126,6|0,1:2|0:0,0:0:0:0:
287,136,100008,2,0,B|224:105|224:105|155:131,1,143.999995605469,10|0,0:0|0:0,0:0:0:0:
70,2,100315,2,0,P|62:57|91:101,1,95.9999970703126,2|2,1:2|0:0,0:0:0:0:
27,163,100623,2,0,P|60:207|111:218,1,95.9999970703126,10|2,0:0|0:0,0:0:0:0:
193,315,100931,6,0,B|123:307|123:307|75:326|75:326|5:320,1,191.999994140625,2|10,1:2|0:0,0:0:0:0:
279,343,101392,2,0,P|282:295|265:251,1,95.9999970703126,2|0,0:0|1:0,0:0:0:0:
193,315,101700,1,2,0:0:0:0:
416,288,101854,2,0,P|397:332|361:363,1,95.9999970703126,10|2,0:0|0:0,0:0:0:0:
344,228,102161,6,0,B|388:166|470:192|470:192|518:143,2,191.999994140625,2|10|2,1:2|0:0|1:2,0:0:0:0:
284,59,102931,1,2,0:0:0:0:
284,59,103084,2,0,P|253:123|270:181,1,95.9999970703126,10|2,0:0|0:0,0:0:0:0:
270,292,103392,6,0,B|242:308|242:308|109:304,1,143.999995605469,2|0,1:2|0:0,0:0:0:0:
28,308,103700,1,8,1:0:0:0:
28,308,103777,1,8,0:1:0:0:
28,308,103854,2,0,L|24:247,1,47.9999985351563,8|0,0:1|0:0,0:0:0:0:
103,153,104008,1,8,0:1:0:0:
103,153,104085,1,8,0:1:0:0:
103,153,104162,2,0,L|107:214,1,47.9999985351563,8|0,1:0|0:0,0:0:0:0:
0,73,104315,6,0,B|28:57|28:57|161:61,1,143.999995605469,0|0,0:0|0:0,0:0:0:0:
201,109,104623,6,0,L|339:98,1,95.9999970703126,6|0,1:2|0:0,0:0:0:0:
419,95,104931,1,10,0:0:0:0:
419,95,105084,1,0,0:0:0:0:
355,144,105238,6,0,P|341:84|359:40,1,95.9999970703126,2|2,1:2|0:0,0:0:0:0:
439,238,105546,1,10,0:0:0:0:
439,238,105699,1,2,0:0:0:0:
359,228,105853,6,0,P|392:175|436:157,1,95.9999970703126,2|0,1:2|0:0,0:0:0:0:
353,355,106161,1,10,0:0:0:0:
353,355,106314,1,2,0:0:0:0:
304,291,106468,6,0,P|364:277|407:295,1,95.9999970703126,0|2,1:0|0:0,0:0:0:0:
209,375,106777,1,8,0:0:0:0:
209,375,106930,1,2,0:0:0:0:
219,295,107084,6,0,P|272:328|290:372,1,95.9999970703126,2|0,1:2|0:0,0:0:0:0:
92,289,107392,1,10,0:0:0:0:
92,289,107545,1,0,0:0:0:0:
157,240,107699,6,0,P|171:300|153:343,1,95.9999970703126,2|2,1:2|0:0,0:0:0:0:
72,145,108008,1,10,0:0:0:0:
72,145,108161,1,2,0:0:0:0:
152,155,108315,6,0,P|119:208|75:226,1,95.9999970703126,2|0,1:2|0:0,0:0:0:0:
159,28,108623,1,10,0:0:0:0:
159,28,108776,1,2,0:0:0:0:
208,93,108930,6,0,P|148:107|104:89,1,95.9999970703126,0|2,1:0|0:0,0:0:0:0:
92,20,109238,2,0,P|163:7|270:41,1,143.999995605469,10|0,0:0|0:0,0:0:0:0:
291,81,109546,6,0,L|398:75,1,95.9999970703126,6|0,1:2|0:0,0:0:0:0:
344,243,109854,1,10,0:0:0:0:
344,243,110008,1,0,0:0:0:0:
344,243,110161,6,0,B|324:199|324:199|355:128,1,95.9999970703126,2|2,1:2|0:0,0:0:0:0:
167,242,110469,1,10,0:0:0:0:
167,242,110623,1,2,0:0:0:0:
167,242,110776,6,0,B|215:247|215:247|261:309,1,95.9999970703126,2|0,1:2|0:0,0:0:0:0:
256,90,111084,1,10,0:0:0:0:
256,90,111238,1,2,0:0:0:0:
256,90,111392,6,0,B|228:129|228:129|151:138,1,95.9999970703126,0|2,1:2|0:0,0:0:0:0:
37,69,111700,2,0,L|193:58,1,143.999995605469,10|0,0:0|0:0,0:0:0:0:
201,56,112008,6,0,P|202:36|189:1,3,47.9999985351563,2|0|0|0,1:2|0:0|0:0|0:0,0:0:0:0:
180,134,112315,2,0,P|179:154|192:189,3,47.9999985351563,10|0|0|0,0:0|0:0|0:0|0:0,0:0:0:0:
266,214,112623,6,0,L|321:210,1,47.9999985351563,2|0,1:2|0:0,0:0:0:0:
332,135,112777,2,0,L|387:131,1,47.9999985351563,2|0,0:0|0:0,0:0:0:0:
399,209,112931,2,0,L|454:205,1,47.9999985351563,10|0,0:0|0:0,0:0:0:0:
465,130,113085,2,0,L|520:126,1,47.9999985351563,2|0,0:0|0:0,0:0:0:0:
485,7,113238,6,0,B|439:60|439:60|471:150,1,143.999995605469,8|8,1:0|1:0,0:0:0:0:
475,277,113700,2,0,L|358:284,1,95.9999970703126,8|8,1:0|1:0,0:0:0:0:
363,284,113931,1,8,1:0:0:0:
349,285,114008,1,8,1:0:0:0:
292,366,114161,6,0,B|246:313|246:313|278:222,1,143.999995605469,0|0,0:0|0:0,0:0:0:0:
369,166,114469,6,0,B|234:155|304:269|126:232,1,240.000009155274,4|0,1:2|0:0,0:0:0:0:
75,213,114931,1,0,0:0:0:0:
75,213,115084,1,0,0:0:0:0:
120,44,115392,6,0,L|204:42,1,60.0000022888184
286,100,115700,2,0,P|257:104|225:100,1,60.0000022888184,0|0,0:0|0:0,0:0:0:0:
332,43,116008,2,0,L|392:44,1,60.0000022888184
256,28,116315,1,0,0:0:0:0:
256,228,116623,6,0,L|255:326,1,80,0|0,1:0|0:0,0:0:0:0:
188,343,116931,6,0,P|237:379|328:323,1,160,0|0,1:0|0:0,0:0:0:0:
355,281,117392,1,0,0:0:0:0:
355,281,117546,1,0,0:0:0:0:
490,210,117854,6,0,P|440:203|408:203,1,60.0000022888184,0|0,0:0|0:0,0:0:0:0:
381,144,118161,2,0,P|331:151|299:151,1,60.0000022888184,0|0,0:0|0:0,0:0:0:0:
275,212,118469,2,0,P|225:205|193:205,1,60.0000022888184,0|0,0:0|0:0,0:0:0:0:
153,156,118777,1,0,0:0:0:0:
153,156,119084,1,0,0:0:0:0:
256,324,119392,5,0,1:0:0:0:
324,202,119700,2,0,L|387:210,2,60.0000022888184,0|0|0,0:0|0:0|0:0,0:0:0:0:
188,202,120315,2,0,L|125:210,1,60.0000022888184,0|0,0:0|0:0,0:0:0:0:
148,92,120623,6,0,P|195:113|207:135,1,60.0000022888184,0|0,0:0|0:0,0:0:0:0:
256,60,120931,2,0,L|256:-7,1,60.0000022888184,0|0,0:0|0:0,0:0:0:0:
364,92,121238,1,0,0:0:0:0:
364,92,121546,6,0,P|317:113|305:135,1,60.0000022888184,0|0,0:0|0:0,0:0:0:0:
304,224,121854,6,0,P|374:258|436:233,1,120.000004577637,0|0,1:0|0:0,0:0:0:0:
371,178,122315,1,0,0:0:0:0:
371,178,122469,1,0,0:0:0:0:
141,178,122777,5,0,0:0:0:0:
141,178,122931,1,0,0:0:0:0:
256,248,123084,1,4,1:2:0:0:
256,192,123161,12,0,127392,0:0:0:0:
