osu file format v14

[General]
AudioFilename: audio.mp3
AudioLeadIn: 0
PreviewTime: 83623
Countdown: 0
SampleSet: Soft
StackLeniency: 0.2
Mode: 0
LetterboxInBreaks: 0
WidescreenStoryboard: 1

[Editor]
DistanceSpacing: 0.1
BeatDivisor: 6
GridSize: 32
TimelineZoom: 2.899998

[Metadata]
Title:Extra Mode
TitleUnicode:Extra Mode
Artist:USAO
ArtistUnicode:USAO
Creator:Otosaka-Yu
Version:Firika's Another
Source:グルーヴコースター 3EX ドリームパーティー
Tags:taito GROOVE COASTER 3EX DREAM PARTY hardcore tano*c speed ball evolution kick's for liberation 5 frenchcore hardtek Suzuki_1112 Ametrin [Kamiya] Oiso Firika -[Pino]- Atlust Necho Reincarnation electronic instrumental video game fa featured artist
BeatmapID:2069551
BeatmapSetID:811948

[Difficulty]
HPDrainRate:6
CircleSize:3.3
OverallDifficulty:8.1
ApproachRate:9.2
SliderMultiplier:1.8
SliderTickRate:1

[Events]
//Background and Video events
0,0,"2805A8081D6E29CC25D1AA7B45B2C714.jpg",0,0
//Break Periods
2,65546,69591
//Storyboard Layer 0 (Background)
//Storyboard Layer 1 (Fail)
//Storyboard Layer 2 (Pass)
//Storyboard Layer 3 (Foreground)
//Storyboard Layer 4 (Overlay)
//Storyboard Sound Samples

[TimingPoints]
8,307.692307692308,4,2,1,60,1,0
1238,-200,4,2,1,60,0,0
3392,-100,4,2,1,60,0,0
3546,-133.333333333333,4,2,1,5,0,0
3700,-250,4,2,1,60,0,0
3854,-250,4,2,1,5,0,0
6161,-100,4,2,2,70,0,0
9854,-111.111111111111,4,2,1,70,0,0
10084,-125,4,2,1,70,0,0
10315,-142.857142857143,4,2,1,70,0,0
10546,-166.666666666667,4,2,1,70,0,0
10777,-200,4,2,1,70,0,0
11084,-200,4,2,5,70,0,0
11161,-200,4,2,5,5,0,0
15084,-200,4,2,5,40,0,0
16008,-133.333333333333,4,2,1,40,0,0
25546,-66.6666666666667,4,2,1,70,0,0
25854,-83.3333333333333,4,2,1,70,0,0
26084,-83.3333333333333,4,2,1,70,0,0
26161,-83.3333333333333,4,2,1,70,0,0
28546,-83.3333333333333,4,2,1,70,0,0
28623,-83.3333333333333,4,2,1,70,0,0
30700,-83.3333333333333,4,2,1,70,0,0
30777,-83.3333333333333,4,2,1,70,0,0
31315,-83.3333333333333,4,2,1,70,0,0
31392,-83.3333333333333,4,2,1,70,0,0
33238,-83.3333333333333,4,2,1,70,0,0
33469,-83.3333333333333,4,2,1,70,0,0
33546,-83.3333333333333,4,2,1,70,0,0
35238,-200,4,2,1,70,0,0
35700,-200,4,2,2,70,0,0
40623,-133.333333333333,4,2,2,70,0,0
43084,-83.3333333333333,4,2,2,70,0,0
45238,-66.6666666666667,4,2,5,70,0,0
45546,-66.6666666666667,4,2,1,70,0,0
46161,-71.4285714285714,4,2,1,70,0,0
46700,-71.4285714285714,4,2,1,70,0,0
46777,-71.4285714285714,4,2,1,70,0,0
47238,-55.5555555555556,4,2,1,70,0,0
47392,-71.4285714285714,4,2,1,70,0,0
47623,-71.4285714285714,4,2,1,70,0,0
47700,-71.4285714285714,4,2,1,70,0,0
54161,-100,4,2,1,70,0,0
54392,-100,4,2,1,50,0,0
54623,-100,4,2,1,40,0,0
54854,-100,4,2,1,30,0,0
55084,-55.5555555555556,4,2,1,70,0,0
55392,-83.3333333333333,4,2,2,70,0,0
62777,-55.5555555555556,4,2,1,70,0,0
63084,-76.9230769230769,4,2,1,70,0,0
63136,-76.9230769230769,4,2,1,5,0,0
63290,-76.9230769230769,4,2,1,70,0,0
63649,-76.9230769230769,4,2,1,5,0,0
63700,-76.9230769230769,4,2,1,70,0,0
64315,-133.333333333333,4,2,1,70,0,0
64623,-83.3333333333333,4,2,1,70,0,0
64931,-50,4,2,5,70,0,0
65084,-50,4,2,1,5,0,0
65238,-83.3333333333333,4,2,5,70,0,0
70161,-100,4,2,1,50,0,0
75084,-80,4,2,2,60,0,0
78777,-83.3333333333333,4,2,2,60,0,0
79392,-86.9565217391304,4,2,2,60,0,0
80008,-100,4,2,2,60,0,0
84623,-100,4,2,5,70,0,0
84931,-66.6666666666667,4,2,1,70,0,1
89854,-50,4,2,1,70,0,1
92008,-66.6666666666667,4,2,1,70,0,1
92315,-50,4,2,1,70,0,1
93546,-66.6666666666667,4,2,1,50,0,1
93777,-50,4,2,1,50,0,1
94315,-100,4,2,1,70,0,1
94700,-200,4,2,1,70,0,0
94777,-66.6666666666667,4,2,1,70,0,1
103700,-66.6666666666667,4,2,1,50,0,1
104315,-55.5555555555556,4,2,1,70,0,0
104623,-66.6666666666667,4,2,1,70,0,1
109238,-100,4,2,1,70,0,1
109546,-66.6666666666667,4,2,1,70,0,1
112008,-83.3333333333333,4,2,1,70,0,1
113238,-66.6666666666667,4,2,1,50,0,1
114469,-100,4,2,1,50,0,0
116623,-133.333333333333,4,2,1,50,0,0
123161,-100,4,2,1,5,0,0

[Colours]
Combo1 : 255,164,119
Combo2 : 255,128,128

[HitObjects]
371,50,1238,6,0,B|387:116|387:116|360:178|360:178|391:309|391:309|468:356|468:356|489:269|489:269|468:182,1,540,4|0,1:2|0:0,0:0:0:0:
294,107,3392,6,0,B|256:83|256:83|218:107,1,90,0|0,1:0|0:0,0:0:0:0:
44,182,3700,6,0,B|22:269|22:269|43:356|43:356|120:309|120:309|151:178|151:178|124:116|124:116|140:50,1,540,0|0,1:0|0:0,0:0:0:0:
294,107,6161,6,0,B|256:131|256:131|218:107,1,90,4|0,1:2|0:0,0:0:0:0:
256,25,6469,5,8,1:2:0:0:
256,25,6623,1,0,0:0:0:0:
354,56,6777,5,0,1:0:0:0:
354,56,6931,1,0,0:0:0:0:
414,140,7084,5,8,1:2:0:0:
414,140,7238,1,0,0:0:0:0:
414,243,7392,5,0,1:0:0:0:
414,243,7546,1,0,0:0:0:0:
354,327,7700,5,8,1:2:0:0:
354,327,7854,1,0,0:0:0:0:
255,359,8008,5,0,1:0:0:0:
256,359,8162,1,0,0:0:0:0:
157,327,8315,5,8,1:2:0:0:
157,327,8469,1,0,0:0:0:0:
97,243,8623,5,0,1:0:0:0:
96,244,8777,1,0,0:0:0:0:
97,140,8931,5,8,1:2:0:0:
97,140,9085,1,0,0:0:0:0:
157,56,9238,5,0,1:0:0:0:
157,56,9392,1,0,0:0:0:0:
256,25,9546,5,8,1:2:0:0:
256,25,9700,1,0,0:0:0:0:
354,56,9854,5,4,1:2:0:0:
256,192,9931,12,0,12315,0:0:0:0:
256,192,12392,12,0,15854,0:0:0:0:
423,262,16008,6,0,P|469:230|453:148,1,135.000005149842,2|2,0:0|0:0,0:0:0:0:
451,150,16623,2,0,L|369:158,1,67.5000025749208,2|2,0:0|0:0,0:0:0:0:
303,93,16931,2,0,L|296:25,1,67.5000025749208,2|2,0:0|0:0,0:0:0:0:
234,168,17238,6,0,P|182:117|112:124,1,135.000005149842,2|2,0:0|0:0,0:0:0:0:
36,66,17700,2,0,P|16:128|48:186,1,135.000005149842,2|2,0:0|0:0,0:0:0:0:
46,288,18161,1,2,0:0:0:0:
144,217,18315,1,2,0:0:0:0:
214,315,18469,6,0,B|264:323|264:323|298:315|298:315|346:322,1,135.000005149842,2|2,0:0|0:0,0:0:0:0:
357,331,19084,2,0,P|392:347|435:340,1,67.5000025749208,2|2,0:0|0:0,0:0:0:0:
476,260,19392,2,0,P|441:244|398:251,1,67.5000025749208,2|2,0:0|0:0,0:0:0:0:
234,172,19700,5,2,0:0:0:0:
310,239,19854,1,0,0:0:0:0:
332,140,20008,1,2,0:0:0:0:
213,272,20161,2,0,L|74:260,1,135.000005149842,2|2,0:0|0:0,0:0:0:0:
28,164,20623,2,0,L|97:158,1,67.5000025749208,2|2,0:0|0:0,0:0:0:0:
188,78,20931,6,0,P|223:116|308:124,1,135.000005149842,2|2,0:0|0:0,0:0:0:0:
316,122,21546,2,0,L|402:135,1,67.5000025749208,2|2,0:0|0:0,0:0:0:0:
450,208,21854,2,0,L|439:274,1,67.5000025749208,2|2,0:0|0:0,0:0:0:0:
342,347,22161,6,0,L|275:357,2,67.5000025749208,2|0|2,0:0|0:0|0:0,0:0:0:0:
259,257,22623,2,0,P|204:252|136:300,1,135.000005149842,2|2,0:0|0:0,0:0:0:0:
55,350,23084,1,2,0:0:0:0:
27,218,23238,1,2,0:0:0:0:
100,104,23392,5,2,0:0:0:0:
110,95,23700,5,2,0:0:0:0:
120,86,24008,5,2,0:0:0:0:
220,79,24161,1,2,0:0:0:0:
110,95,24315,5,2,0:0:0:0:
210,88,24468,1,2,0:0:0:0:
100,104,24623,5,2,0:0:0:0:
200,97,24776,1,2,0:0:0:0:
300,90,24931,1,2,0:0:0:0:
400,83,25084,2,0,B|390:138|390:138|397:171|397:171|391:217,1,135.000005149842,2|2,0:0|0:0,0:0:0:0:
331,367,25546,2,0,P|375:321|437:340,1,135.000005149842,2|0,0:0|0:0,0:0:0:0:
292,187,25854,6,0,P|266:260|190:275,1,161.999995056153,6|0,1:2|0:0,0:0:0:0:
123,229,26161,2,0,P|70:226|19:250,1,107.999996704102,10|0,0:0|0:0,0:0:0:0:
167,352,26469,5,2,1:2:0:0:
213,198,26623,1,2,1:2:0:0:
85,77,26777,1,10,0:0:0:0:
123,229,26931,1,2,0:0:0:0:
237,110,27084,6,0,B|314:87|368:167|445:137,1,215.999993408203,2|10,1:2|0:0,0:0:0:0:
504,20,27546,2,0,P|412:46|445:136,1,215.999993408203,2|2,0:0|1:2,0:0:0:0:
502,254,28008,2,0,B|456:227|456:227|389:243,1,107.999996704102,10|2,0:0|0:0,0:0:0:0:
294,360,28315,6,0,B|249:333|249:333|135:348,1,161.999995056153,2|0,1:2|0:0,0:0:0:0:
64,312,28623,2,0,P|38:267|48:215,1,107.999996704102,10|0,0:0|0:0,0:0:0:0:
164,99,28931,5,2,1:2:0:0:
121,254,29084,1,2,1:2:0:0:
10,108,29238,1,10,0:0:0:0:
170,80,29392,1,2,0:0:0:0:
330,52,29546,6,0,L|449:67,1,107.999996704102,2|0,1:2|0:0,0:0:0:0:
503,151,29854,1,10,0:0:0:0:
503,151,30008,1,2,0:0:0:0:
368,289,30161,1,0,1:0:0:0:
349,170,30315,1,2,1:2:0:0:
485,327,30469,2,0,P|440:266|368:288,1,161.999995056153,10|0,0:0|0:0,0:0:0:0:
315,352,30777,6,0,L|198:362,1,107.999996704102,2|0,1:2|0:0,0:0:0:0:
15,327,31084,2,0,P|76:279|151:302,1,161.999995056153,10|0,0:0|0:0,0:0:0:0:
217,253,31392,2,0,L|227:136,1,107.999996704102,2|2,1:2|1:2,0:0:0:0:
58,46,31700,2,0,L|68:163,1,107.999996704102,10|2,0:0|0:0,0:0:0:0:
238,41,32008,6,0,B|285:68|285:68|481:51,1,215.999993408203,2|10,1:2|0:0,0:0:0:0:
494,175,32469,2,0,P|466:227|319:227,1,215.999993408203,2|2,0:0|1:2,0:0:0:0:
226,145,32931,2,0,L|92:157,1,107.999996704102,10|2,0:0|0:0,0:0:0:0:
13,278,33238,6,0,B|120:267|120:267|167:293,1,161.999995056153,2|0,1:2|0:0,0:0:0:0:
222,352,33546,2,0,P|274:367|325:352,1,107.999996704102,10|0,0:0|0:0,0:0:0:0:
465,296,33854,1,2,1:2:0:0:
274,257,34008,1,2,1:2:0:0:
410,362,34161,1,10,0:0:0:0:
458,173,34315,1,2,0:0:0:0:
315,83,34469,6,0,L|329:191,1,107.999996704102,2|0,1:2|0:0,0:0:0:0:
370,17,34777,1,10,0:0:0:0:
370,17,34931,1,2,0:0:0:0:
274,257,35084,5,0,1:0:0:0:
167,175,35238,2,0,B|123:163|123:163|75:186,1,90,2|0,0:0|0:0,0:0:0:0:
16,331,35700,5,6,1:2:0:0:
133,254,36008,1,8,0:0:0:0:
133,254,36161,1,0,0:0:0:0:
215,367,36315,5,2,1:2:0:0:
222,368,36469,1,0,0:0:0:0:
229,370,36623,1,8,0:0:0:0:
236,372,36776,1,0,0:0:0:0:
337,332,36931,5,2,1:2:0:0:
344,333,37085,1,0,0:0:0:0:
351,335,37239,1,8,0:0:0:0:
358,337,37392,1,0,0:0:0:0:
459,297,37547,5,2,1:2:0:0:
466,298,37701,1,0,0:0:0:0:
473,299,37854,2,0,L|467:348,1,45,8|0,0:0|0:0,0:0:0:0:
496,175,38161,5,6,1:2:0:0:
379,98,38469,1,8,0:0:0:0:
379,98,38622,1,0,0:0:0:0:
297,211,38777,5,2,1:2:0:0:
290,212,38931,1,0,0:0:0:0:
283,214,39085,1,8,0:0:0:0:
276,216,39238,1,0,0:0:0:0:
175,176,39393,5,2,1:2:0:0:
168,177,39547,1,0,0:0:0:0:
161,179,39701,1,8,0:0:0:0:
154,181,39854,1,0,0:0:0:0:
53,141,40009,5,2,1:2:0:0:
46,142,40161,1,0,0:0:0:0:
39,143,40315,2,0,L|25:93,1,45,8|0,0:0|0:0,0:0:0:0:
24,259,40623,5,6,1:2:0:0:
222,300,40931,1,8,0:0:0:0:
222,300,41084,1,0,0:0:0:0:
56,341,41238,5,2,1:2:0:0:
310,314,41546,1,8,0:0:0:0:
310,314,41700,1,0,0:0:0:0:
112,273,41854,5,2,1:2:0:0:
398,328,42161,1,8,0:0:0:0:
398,328,42315,1,0,0:0:0:0:
144,355,42469,5,2,1:2:0:0:
310,314,42623,1,0,1:0:0:0:
476,273,42777,2,0,L|492:185,1,67.5000025749208,8|0,0:0|0:0,0:0:0:0:
393,63,43084,6,0,P|366:60|341:71,1,53.9999983520508,0|0,1:0|0:0,0:0:0:0:
363,173,43238,2,0,P|389:175|414:164,1,53.9999983520508,0|0,1:0|0:0,0:0:0:0:
239,48,43392,2,0,P|212:45|187:56,1,53.9999983520508,0|0,1:0|0:0,0:0:0:0:
209,158,43546,2,0,P|235:160|260:149,1,53.9999983520508,0|0,1:0|0:0,0:0:0:0:
89,61,43700,1,0,1:0:0:0:
50,60,43776,1,0,1:0:0:0:
17,83,43853,1,0,1:0:0:0:
5,121,43930,1,0,1:0:0:0:
19,158,44008,1,0,1:0:0:0:
47,187,44084,1,0,1:0:0:0:
63,224,44161,1,0,1:0:0:0:
64,264,44238,1,0,1:0:0:0:
21,348,44315,6,0,P|27:294|156:325,1,215.999993408203,2|2,0:0|0:0,0:0:0:0:
371,295,44777,2,0,P|364:241|235:272,1,215.999993408203,2|2,0:0|0:0,0:0:0:0:
150,204,45238,2,0,B|138:138|138:138|163:74,1,135.000005149842,2|0,0:0|0:0,0:0:0:0:
430,24,45546,6,0,P|481:73|460:146,1,135.000005149842,4|2,1:2|0:0,0:0:0:0:
358,114,45777,1,2,0:0:0:0:
358,114,45854,2,0,P|425:94|478:149,1,135.000005149842,8|0,0:0|0:0,0:0:0:0:
508,303,46161,2,0,L|499:365,1,62.9999980773926,0|0,1:0|0:0,0:0:0:0:
345,209,46315,2,0,L|336:271,1,62.9999980773926,0|0,1:0|0:0,0:0:0:0:
401,346,46469,2,0,B|348:309|348:309|221:328,1,188.999994232178,8|0,0:0|0:0,0:0:0:0:
63,350,46777,6,0,B|124:364|124:364|147:240,1,188.999994232178,0|0,1:0|0:0,0:0:0:0:
98,159,47084,2,0,L|32:166,1,62.9999980773926,8|0,0:0|0:0,0:0:0:0:
190,67,47238,2,0,B|225:85|225:85|266:79,1,80.9999975280763,0|0,0:0|0:0,0:0:0:0:
488,109,47392,2,0,P|455:35|368:71,1,188.999994232178,0|0,1:0|0:0,0:0:0:0:
330,153,47700,2,0,B|323:216|323:216|350:273|350:273|346:336,1,188.999994232178,8|0,0:0|0:0,0:0:0:0:
259,295,48008,6,0,L|128:309,1,125.999996154785,0|2,1:0|0:0,0:0:0:0:
57,352,48238,1,2,0:0:0:0:
56,351,48315,2,0,P|48:290|80:237,1,125.999996154785,8|0,0:0|0:0,0:0:0:0:
370,66,48623,2,0,B|319:104|319:104|184:81,1,188.999994232178,0|0,1:0|0:0,0:0:0:0:
121,32,48931,2,0,P|104:92|132:146,1,125.999996154785,8|0,0:0|0:0,0:0:0:0:
382,354,49238,6,0,B|445:346|445:346|432:209,1,188.999994232178,0|0,1:0|0:0,0:0:0:0:
346,181,49546,2,0,P|320:180|277:202,1,62.9999980773926,8|0,0:0|0:0,0:0:0:0:
221,288,49700,1,2,1:2:0:0:
216,308,49776,1,2,1:2:0:0:
212,329,49854,2,0,B|266:294|266:294|142:277,1,188.999994232178,0|0,1:0|0:0,0:0:0:0:
37,213,50161,2,0,P|57:295|141:278,1,188.999994232178,10|0,0:0|0:0,0:0:0:0:
198,200,50469,6,0,L|190:69,1,125.999996154785,4|2,1:2|0:0,0:0:0:0:
120,19,50700,1,2,0:0:0:0:
120,19,50777,2,0,B|168:60|168:60|302:50,1,188.999994232178,8|0,0:0|0:0,0:0:0:0:
384,22,51084,6,0,P|442:43|463:103,1,125.999996154785,0|2,1:0|0:0,0:0:0:0:
441,186,51315,1,2,0:0:0:0:
441,186,51392,2,0,L|310:194,1,125.999996154785,8|0,0:0|0:0,0:0:0:0:
69,255,51700,5,0,1:0:0:0:
36,133,51854,5,2,0:0:0:0:
39,112,51930,1,2,0:0:0:0:
43,91,52007,1,8,0:0:0:0:
69,255,52161,5,2,0:0:0:0:
72,234,52237,1,2,0:0:0:0:
76,213,52314,1,0,1:0:0:0:
102,377,52469,5,2,0:0:0:0:
105,356,52545,1,2,0:0:0:0:
109,335,52623,2,0,B|164:306|164:306|290:328,1,188.999994232178,8|0,0:0|0:0,0:0:0:0:
386,364,52931,6,0,L|448:355,3,62.9999980773926,0|0|0|0,1:0|1:0|1:0|1:0,0:0:0:0:
496,252,53238,2,0,L|434:243,3,62.9999980773926,8|0|2|0,0:0|0:0|0:0|0:0,0:0:0:0:
378,163,53546,1,0,1:0:0:0:
352,147,53622,1,0,0:0:0:0:
322,139,53699,1,2,0:0:0:0:
290,140,53776,1,0,0:0:0:0:
261,152,53853,1,8,0:0:0:0:
237,172,53930,1,0,0:0:0:0:
220,198,54008,2,0,L|208:271,1,62.9999980773926,2|0,0:0|0:0,0:0:0:0:
152,341,54161,6,0,B|114:321|114:321|68:326,1,90,0|0,1:0|0:0,0:0:0:0:
86,242,54392,2,0,P|56:208|55:164,1,90,0|8,1:0|1:0,0:0:0:0:
138,135,54623,2,0,P|152:93|189:70,1,90,0|8,1:0|1:0,0:0:0:0:
256,127,54854,2,0,P|299:118|337:139,1,90,0|8,1:0|1:0,0:0:0:0:
395,208,55084,6,0,B|424:169|424:169|415:48,1,161.999995056153,0|0,0:0|0:0,0:0:0:0:
494,342,55392,6,0,P|444:300|350:314,1,161.999995056153,4|0,1:2|0:0,0:0:0:0:
265,361,55700,2,0,B|216:338|216:338|163:352,1,107.999996704102,8|0,0:0|0:0,0:0:0:0:
9,300,56008,2,0,B|58:277|58:277|111:291,1,107.999996704102,0|0,1:0|0:0,0:0:0:0:
262,233,56315,2,0,B|213:210|213:210|160:224,1,107.999996704102,8|0,0:0|0:0,0:0:0:0:
16,149,56623,2,0,B|65:126|65:126|118:140,1,107.999996704102,0|0,1:0|0:0,0:0:0:0:
256,55,56931,2,0,B|207:32|207:32|154:46,1,107.999996704102,8|0,0:0|0:0,0:0:0:0:
16,149,57238,6,0,B|69:163|69:163|118:140,1,107.999996704102,0|0,1:0|0:0,0:0:0:0:
154,45,57469,1,0,0:0:0:0:
154,45,57546,2,0,L|330:62,1,161.999995056153,8|0,0:0|0:0,0:0:0:0:
412,24,57854,6,0,P|479:48|474:146,1,161.999995056153,0|0,1:0|0:0,0:0:0:0:
421,204,58161,2,0,B|398:253|398:253|412:306,1,107.999996704102,8|0,0:0|0:0,0:0:0:0:
326,162,58469,2,0,B|303:113|303:113|317:60,1,107.999996704102,0|0,1:0|0:0,0:0:0:0:
244,236,58777,2,0,B|221:285|221:285|235:338,1,107.999996704102,8|0,0:0|0:0,0:0:0:0:
164,147,59084,5,0,1:0:0:0:
36,169,59238,1,2,0:0:0:0:
190,152,59392,2,2,B|114:137|114:137|36:169,1,161.999995056153,8|0,0:0|0:0,0:0:0:0:
31,196,59700,5,0,1:0:0:0:
53,324,59854,1,2,0:0:0:0:
36,169,60008,2,2,B|20:245|20:245|52:323,1,161.999995056153,8|0,0:0|0:0,0:0:0:0:
79,328,60315,5,0,1:0:0:0:
207,306,60469,1,0,1:0:0:0:
335,284,60623,6,0,L|443:300,1,107.999996704102,8|0,0:0|0:0,0:0:0:0:
398,114,60931,2,0,L|290:98,1,107.999996704102,0|0,1:0|0:0,0:0:0:0:
207,306,61238,2,0,L|315:322,1,107.999996704102,8|0,0:0|0:0,0:0:0:0:
270,136,61547,2,0,L|162:120,1,107.999996704102,0|0,1:0|0:0,0:0:0:0:
79,328,61854,2,0,L|187:344,1,107.999996704102,8|0,0:0|0:0,0:0:0:0:
142,158,62161,2,0,L|34:142,1,107.999996704102,0|0,1:0|0:0,0:0:0:0:
19,49,62392,1,0,0:0:0:0:
19,49,62469,2,0,L|202:76,1,161.999995056153,8|0,0:0|0:0,0:0:0:0:
242,141,62777,6,0,P|349:157|394:44,1,215.999993408203,4|0,1:2|1:0,0:0:0:0:
249,15,63084,6,0,L|288:9,1,38.9999982147218,8|0,0:0|0:0,0:0:0:0:
464,171,63290,6,0,L|452:249,1,77.9999964294435,2|0,0:0|0:0,0:0:0:0:
216,302,63597,6,0,L|222:258,1,38.9999982147218,2|0,0:0|0:0,0:0:0:0:
349,179,63700,6,0,L|331:294,1,116.999994644165,10|0,0:0|0:0,0:0:0:0:
115,380,64008,6,0,P|55:366|51:300,1,116.999994644165,0|0,1:0|0:0,0:0:0:0:
213,233,64315,6,0,L|199:322,1,90.0000034332277,8|2,0:0|0:0,0:0:0:0:
31,216,64623,6,0,P|78:177|132:200,1,107.999996704102,0|0,1:0|0:0,0:0:0:0:
306,47,64931,6,0,P|251:103|155:79,1,180,4|0,0:0|0:0,0:0:0:0:
466,186,65238,5,4,1:2:0:0:
256,192,70161,12,0,74777,0:0:0:0:
48,64,75084,5,4,1:2:0:0:
186,242,75392,2,0,L|299:231,1,112.5,8|0,0:0|0:0,0:0:0:0:
425,156,75700,5,4,1:2:0:0:
426,149,75854,1,0,0:0:0:0:
428,142,76008,1,8,0:0:0:0:
430,135,76161,1,0,0:0:0:0:
469,320,76315,5,4,1:2:0:0:
331,142,76623,2,0,L|218:153,1,112.5,8|0,0:0|0:0,0:0:0:0:
92,228,76931,5,4,1:2:0:0:
91,235,77085,1,0,0:0:0:0:
89,242,77239,1,8,0:0:0:0:
87,249,77392,1,0,0:0:0:0:
48,64,77546,5,4,1:2:0:0:
186,242,77854,2,0,L|299:231,1,112.5,8|0,0:0|0:0,0:0:0:0:
425,156,78161,5,4,1:2:0:0:
426,149,78315,1,0,0:0:0:0:
428,142,78469,1,8,0:0:0:0:
430,135,78622,1,0,0:0:0:0:
316,32,78777,5,4,1:2:0:0:
309,34,78931,1,0,0:0:0:0:
302,36,79085,1,8,0:0:0:0:
295,38,79238,1,0,0:0:0:0:
263,188,79392,5,4,1:2:0:0:
268,193,79546,1,0,0:0:0:0:
273,198,79700,2,0,B|325:209|325:209|374:196|374:196|424:205,1,155.250002961159,8|0,0:0|0:0,0:0:0:0:
448,227,80008,6,0,L|456:320,1,90,6|0,1:2|0:0,0:0:0:0:
498,142,80315,1,8,0:0:0:0:
498,142,80469,1,0,0:0:0:0:
335,249,80623,6,0,L|343:342,1,90,2|0,1:2|0:0,0:0:0:0:
400,98,80931,1,8,0:0:0:0:
400,98,81085,1,0,0:0:0:0:
222,271,81238,6,0,L|230:364,1,90,2|0,1:2|0:0,0:0:0:0:
302,54,81546,1,8,0:0:0:0:
302,54,81700,1,0,0:0:0:0:
109,293,81854,6,0,L|57:287,1,45,2|0,1:2|0:0,0:0:0:0:
83,189,82008,2,0,L|31:183,1,45,0|0,1:0|0:0,0:0:0:0:
170,145,82161,2,0,L|265:138,1,90,8|0,0:0|0:0,0:0:0:0:
480,84,82469,6,0,L|487:25,1,45,0|0,1:0|0:0,0:0:0:0:
461,89,82623,2,0,L|468:30,1,45,0|0,1:0|0:0,0:0:0:0:
381,152,82777,6,0,L|388:211,1,45,0|0,1:0|0:0,0:0:0:0:
362,147,82931,2,0,L|369:206,1,45,0|0,1:0|0:0,0:0:0:0:
302,54,83084,5,0,1:0:0:0:
269,46,83160,1,0,0:0:0:0:
235,48,83237,1,0,0:0:0:0:
203,59,83314,1,0,0:0:0:0:
175,77,83392,1,0,1:0:0:0:
150,99,83468,1,0,1:0:0:0:
117,108,83545,1,0,1:0:0:0:
84,103,83622,1,0,1:0:0:0:
16,30,83700,6,0,P|83:88|57:168,1,180,2|2,0:0|0:0,0:0:0:0:
22,248,84161,1,2,0:0:0:0:
64,327,84315,1,2,0:0:0:0:
64,327,84469,1,2,0:0:0:0:
143,285,84623,2,0,P|212:285|276:325,1,135.000005149842,8|0,0:0|0:0,0:0:0:0:
360,362,84931,6,0,B|419:329|419:329|434:188,1,202.500007724762,6|0,1:2|0:0,0:0:0:0:
468,64,85238,2,0,P|499:148|412:174,1,202.500007724762,10|0,0:0|0:0,0:0:0:0:
338,116,85546,6,0,L|266:124,1,67.5000025749208,2|0,1:2|0:0,0:0:0:0:
323,208,85700,2,0,L|251:216,1,67.5000025749208,2|0,0:0|0:0,0:0:0:0:
197,64,85854,2,0,L|125:72,1,67.5000025749208,10|0,0:0|0:0,0:0:0:0:
182,156,86008,2,0,L|110:164,1,67.5000025749208,2|0,0:0|0:0,0:0:0:0:
0,322,86161,6,0,B|33:264|33:264|168:250,1,202.500007724762,2|0,1:2|0:0,0:0:0:0:
241,308,86469,2,0,L|310:316,1,67.5000025749208,10|0,0:0|0:0,0:0:0:0:
396,369,86623,2,0,P|479:289|376:238,1,270.000010299683,2|2,0:0|0:0,0:0:0:0:
96,352,87084,1,10,0:0:0:0:
25,176,87238,1,2,0:0:0:0:
103,33,87392,6,0,B|169:24|169:24|232:48|232:48|300:41,1,202.500007724762,2|0,1:2|0:0,0:0:0:0:
389,77,87700,2,0,B|323:86|323:86|260:62|260:62|192:69,1,202.500007724762,10|0,0:0|0:0,0:0:0:0:
116,127,88008,6,0,L|108:195,1,67.5000025749208,2|0,1:2|0:0,0:0:0:0:
26,141,88161,2,0,L|18:209,1,67.5000025749208,2|0,0:0|0:0,0:0:0:0:
129,231,88315,2,0,L|121:299,1,67.5000025749208,10|0,0:0|0:0,0:0:0:0:
39,245,88469,2,0,L|31:313,1,67.5000025749208,2|0,0:0|0:0,0:0:0:0:
208,166,88623,6,0,L|342:182,2,135.000005149842,2|0|10,1:2|0:0|0:0,0:0:0:0:
400,102,89084,2,0,P|430:224|317:276,1,270.000010299683,2|2,0:0|0:0,0:0:0:0:
57,49,89546,2,0,B|115:8|115:8|245:28,1,202.500007724762,10|0,0:0|0:0,0:0:0:0:
314,87,89854,6,0,P|385:106|463:40,1,180,6|0,1:2|0:0,0:0:0:0:
137,106,90161,1,10,0:0:0:0:
137,106,90315,1,0,0:0:0:0:
32,221,90469,5,2,1:2:0:0:
31,228,90623,1,2,0:0:0:0:
29,235,90777,1,10,0:0:0:0:
27,242,90930,1,2,0:0:0:0:
231,312,91084,5,2,1:2:0:0:
230,319,91238,1,0,0:0:0:0:
228,326,91392,1,10,0:0:0:0:
226,333,91545,1,2,0:0:0:0:
393,194,91700,5,0,1:0:0:0:
392,201,91854,1,2,0:0:0:0:
390,208,92008,2,0,L|399:354,1,135.000005149842,10|2,0:0|0:0,0:0:0:0:
472,73,92315,6,0,P|440:153|355:167,1,180,2|0,1:2|0:0,0:0:0:0:
46,90,92623,1,10,0:0:0:0:
46,90,92777,1,0,0:0:0:0:
181,211,92931,5,2,1:2:0:0:
174,212,93085,1,2,0:0:0:0:
167,214,93239,1,10,0:0:0:0:
160,216,93392,1,2,0:0:0:0:
330,355,93546,6,0,B|271:323|271:323|137:361,2,202.500007724762,8|8|8,1:0|1:0|1:0,0:0:0:0:
478,197,94161,1,8,1:0:0:0:
473,180,94238,1,8,1:0:0:0:
468,163,94315,2,0,P|404:137|325:209,1,180,2|0,1:2|0:0,0:0:0:0:
34,177,94777,6,0,P|89:236|216:214,1,202.500007724762,6|0,1:2|0:0,0:0:0:0:
248,141,95084,2,0,L|237:6,1,135.000005149842,10|0,0:0|0:0,0:0:0:0:
326,334,95392,6,0,L|393:340,1,67.5000025749208,2|0,1:2|0:0,0:0:0:0:
436,263,95546,2,0,L|503:269,1,67.5000025749208,2|0,0:0|0:0,0:0:0:0:
285,235,95700,2,0,L|352:241,1,67.5000025749208,10|0,0:0|0:0,0:0:0:0:
395,164,95854,2,0,L|462:170,1,67.5000025749208,2|0,0:0|0:0,0:0:0:0:
506,27,96008,6,0,B|459:74|459:74|324:60,1,202.500007724762,2|0,1:2|0:0,0:0:0:0:
237,6,96315,2,0,L|148:20,1,67.5000025749208,10|0,0:0|0:0,0:0:0:0:
66,121,96469,2,0,B|28:97|28:97|101:89|101:89|75:244,1,270.000010299683,2|2,0:0|0:0,0:0:0:0:
258,296,96931,1,10,0:0:0:0:
62,341,97084,1,2,0:0:0:0:
185,168,97238,6,0,B|245:198|245:198|382:184,1,202.500007724762,2|0,1:2|0:0,0:0:0:0:
456,126,97546,2,0,B|396:96|396:96|259:110,1,202.500007724762,10|0,0:0|0:0,0:0:0:0:
185,168,97854,6,0,L|177:242,1,67.5000025749208,2|0,1:2|0:0,0:0:0:0:
95,283,98008,2,0,L|87:357,1,67.5000025749208,2|0,0:0|0:0,0:0:0:0:
98,118,98161,2,0,L|90:192,1,67.5000025749208,10|0,0:0|0:0,0:0:0:0:
8,233,98315,2,0,L|0:307,1,67.5000025749208,2|0,0:0|0:0,0:0:0:0:
181,333,98469,6,0,P|243:307|307:326,2,135.000005149842,2|0|10,1:2|0:0|0:0,0:0:0:0:
390,372,98931,2,0,B|435:324|435:324|413:113,1,270.000010299683,2|2,0:0|0:0,0:0:0:0:
224,57,99392,2,0,P|227:139|340:161,1,202.500007724762,10|0,0:0|0:0,0:0:0:0:
425,225,99700,6,0,P|376:180|311:186,1,135.000005149842,6|0,1:2|0:0,0:0:0:0:
112,328,100008,2,0,P|177:333|197:213,1,202.500007724762,10|0,0:0|0:0,0:0:0:0:
123,174,100315,6,0,L|55:168,1,67.5000025749208,2|0,1:2|0:0,0:0:0:0:
112,79,100469,2,0,L|44:73,1,67.5000025749208,2|0,0:0|0:0,0:0:0:0:
275,135,100623,2,0,L|207:129,1,67.5000025749208,10|0,0:0|0:0,0:0:0:0:
264,40,100777,2,0,L|196:34,1,67.5000025749208,2|0,0:0|0:0,0:0:0:0:
428,100,100931,6,0,P|363:170|275:135,1,202.500007724762,2|0,1:2|0:0,0:0:0:0:
264,40,101238,2,0,L|196:34,1,67.5000025749208,10|0,0:0|0:0,0:0:0:0:
112,79,101392,2,0,B|68:131|68:131|90:331,1,270.000010299683,2|2,0:0|0:0,0:0:0:0:
415,372,101854,1,10,0:0:0:0:
484,196,102008,1,2,0:0:0:0:
318,311,102161,6,0,P|255:316|215:192,1,202.500007724762,2|0,1:2|0:0,0:0:0:0:
275,135,102469,2,0,P|338:130|378:254,1,202.500007724762,10|0,0:0|0:0,0:0:0:0:
318,311,102777,6,0,L|230:324,1,67.5000025749208,2|0,1:2|0:0,0:0:0:0:
161,288,102931,2,0,L|73:301,1,67.5000025749208,2|0,0:0|0:0,0:0:0:0:
275,195,103084,2,0,L|187:208,1,67.5000025749208,10|0,0:0|0:0,0:0:0:0:
118,172,103238,2,0,L|30:185,1,67.5000025749208,2|0,0:0|0:0,0:0:0:0:
27,47,103392,6,0,B|161:31|161:31|230:71,1,202.500007724762,2|0,1:2|0:0,0:0:0:0:
275,135,103700,5,8,1:0:0:0:
275,135,103777,1,8,0:1:0:0:
275,135,103854,2,0,L|343:125,1,67.5000025749208,8|0,0:1|0:0,0:0:0:0:
454,47,104008,5,8,0:1:0:0:
454,47,104084,1,8,0:1:0:0:
454,47,104161,2,0,L|444:115,1,67.5000025749208,8|0,1:0|0:0,0:0:0:0:
492,240,104315,6,0,B|432:205|432:205|254:233,1,242.999992584229,0|0,0:0|0:0,0:0:0:0:
199,313,104623,6,0,P|120:310|66:263,1,135.000005149842,6|0,1:2|0:0,0:0:0:0:
22,39,104931,5,10,0:0:0:0:
22,39,105084,1,0,0:0:0:0:
156,23,105238,5,2,1:2:0:0:
156,23,105392,1,2,0:0:0:0:
280,76,105546,5,10,0:0:0:0:
280,76,105700,1,2,0:0:0:0:
360,184,105854,5,2,1:2:0:0:
360,184,106008,1,0,0:0:0:0:
376,317,106162,5,10,0:0:0:0:
376,317,106315,1,2,0:0:0:0:
484,237,106469,5,0,1:0:0:0:
484,237,106623,1,2,0:0:0:0:
360,184,106777,5,8,0:0:0:0:
360,184,106931,1,2,0:0:0:0:
256,269,107084,5,2,1:2:0:0:
256,269,107238,1,0,0:0:0:0:
152,184,107392,5,10,0:0:0:0:
152,184,107546,1,0,0:0:0:0:
28,237,107700,5,2,1:2:0:0:
28,237,107854,1,2,0:0:0:0:
136,317,108008,5,10,0:0:0:0:
136,317,108161,1,2,0:0:0:0:
152,184,108315,5,2,1:2:0:0:
152,184,108469,1,0,0:0:0:0:
232,76,108623,5,10,0:0:0:0:
232,76,108777,1,2,0:0:0:0:
356,23,108931,5,0,1:0:0:0:
356,23,109085,1,2,0:0:0:0:
490,39,109238,6,0,L|478:129,1,90,10|0,0:0|0:0,0:0:0:0:
234,248,109546,2,0,P|296:177|384:212,1,202.500007724762,6|0,1:2|0:0,0:0:0:0:
480,226,109854,2,0,L|463:362,1,135.000005149842,10|0,0:0|0:0,0:0:0:0:
316,257,110161,5,2,1:2:0:0:
316,257,110315,1,2,0:0:0:0:
201,329,110469,5,10,0:0:0:0:
201,329,110623,1,2,0:0:0:0:
83,262,110777,5,2,1:2:0:0:
83,262,110931,1,0,0:0:0:0:
83,122,111084,5,10,0:0:0:0:
83,122,111238,1,2,0:0:0:0:
201,55,111392,5,0,1:2:0:0:
201,55,111546,1,2,0:0:0:0:
315,126,111700,6,0,P|381:139|445:118,1,135.000005149842,10|2,0:0|0:0,0:0:0:0:
201,55,112008,6,0,L|145:61,3,53.9999983520508,2|0|0|0,1:2|0:0|0:0|0:0,0:0:0:0:
28,127,112315,2,0,L|82:133,3,53.9999983520508,10|0|0|0,0:0|0:0|0:0|0:0,0:0:0:0:
154,198,112623,1,2,1:2:0:0:
176,182,112699,1,0,0:0:0:0:
201,172,112776,1,2,0:0:0:0:
227,168,112853,1,0,0:0:0:0:
254,171,112930,1,10,0:0:0:0:
279,181,113007,1,0,0:0:0:0:
301,196,113084,1,2,0:0:0:0:
319,217,113161,1,0,0:0:0:0:
370,297,113238,6,0,L|388:56,2,202.500007724762,8|8|8,1:0|1:0|1:0,0:0:0:0:
133,361,113854,2,0,L|49:356,1,67.5000025749208,8|8,1:0|1:0,0:0:0:0:
227,267,114008,1,8,1:0:0:0:
23,91,114469,5,4,1:2:0:0:
34,105,114777,5,0,0:0:0:0:
142,95,114931,1,0,0:0:0:0:
250,85,115084,1,0,0:0:0:0:
261,99,115392,5,0,0:0:0:0:
369,89,115546,1,0,0:0:0:0:
272,113,115700,5,0,0:0:0:0:
380,103,115854,1,0,0:0:0:0:
283,127,116008,5,0,0:0:0:0:
391,117,116162,1,0,0:0:0:0:
499,107,116315,1,0,0:0:0:0:
510,121,116623,6,0,L|499:37,1,67.5000025749208,0|0,1:0|0:0,0:0:0:0:
489,293,116931,5,0,1:0:0:0:
478,279,117239,5,0,0:0:0:0:
370,289,117393,1,0,0:0:0:0:
262,299,117546,1,0,0:0:0:0:
251,285,117854,5,0,0:0:0:0:
143,295,118008,1,0,0:0:0:0:
240,271,118162,5,0,0:0:0:0:
132,281,118316,1,0,0:0:0:0:
229,257,118470,5,0,0:0:0:0:
121,267,118624,1,0,0:0:0:0:
13,277,118777,1,0,0:0:0:0:
2,263,119084,6,0,L|13:179,1,67.5000025749208,0|0,0:0|0:0,0:0:0:0:
126,53,119392,5,0,1:0:0:0:
137,39,119700,5,0,0:0:0:0:
147,147,119854,1,0,0:0:0:0:
157,255,120007,1,0,0:0:0:0:
168,241,120315,5,0,0:0:0:0:
178,349,120469,1,0,0:0:0:0:
179,227,120623,5,0,0:0:0:0:
189,335,120777,1,0,0:0:0:0:
190,213,120931,5,0,0:0:0:0:
200,321,121085,1,0,0:0:0:0:
201,199,121239,1,0,0:0:0:0:
212,185,121546,6,0,L|299:193,1,67.5000025749208,0|0,0:0|0:0,0:0:0:0:
369,335,121854,5,0,1:0:0:0:
375,345,122161,5,0,0:0:0:0:
365,237,122315,1,0,0:0:0:0:
355,129,122468,1,0,0:0:0:0:
344,143,122776,5,0,0:0:0:0:
334,35,122930,1,0,0:0:0:0:
256,192,123084,5,4,1:2:0:0:
256,192,123161,12,0,127392,0:0:0:0:
