osu file format v14

[General]
AudioFilename: Audio.mp3
AudioLeadIn: 2500
PreviewTime: 35718
Countdown: 0
SampleSet: Soft
StackLeniency: 0.4
Mode: 0
LetterboxInBreaks: 0
WidescreenStoryboard: 1

[Editor]
Bookmarks: 20949,29564,35718,55410,65256,75102,84949,104641,114487,124333,134179,144026,153872,163718,183410,193256,203102,212949,232641,242487,252333,272026,291718,301564
DistanceSpacing: 2.4
BeatDivisor: 4
GridSize: 4
TimelineZoom: 1.8

[Metadata]
Title:Extra Mode
TitleUnicode:Extra Mode
Artist:USAO
ArtistUnicode:USAO
Creator:Imouto koko
Version:Extra Technique
Source:
Tags:hardcore tano*c speed ball evolution remix Kick's For Liberation 5 long ver. dj noriken
BeatmapID:1317124
BeatmapSetID:624963

[Difficulty]
HPDrainRate:7
CircleSize:4
OverallDifficulty:8
ApproachRate:9
SliderMultiplier:1.5
SliderTickRate:1

[Events]
//Background and Video events
0,0,"BG.jpg",0,0
//Break Periods
2,30995,35118
2,183609,190195
//Storyboard Layer 0 (Background)
//Storyboard Layer 1 (Fail)
//Storyboard Layer 2 (Pass)
//Storyboard Layer 3 (Foreground)
//Storyboard Sound Samples

[TimingPoints]
26,307.692307692308,4,2,1,60,1,0
26,-117.647058823529,4,2,1,60,0,0
1102,-100,4,2,1,5,0,0
1256,-100,4,2,1,60,0,0
20641,-76.9230769230769,4,2,1,60,0,0
20949,-100,4,2,2,70,0,0
30795,-100,4,2,1,70,0,0
35718,-100,4,2,1,50,0,0
36026,-100,4,2,4,50,0,0
40641,-100,4,2,4,60,0,0
42641,-100,4,2,4,50,0,0
43102,-100,4,2,4,40,0,0
43718,-100,4,2,4,50,0,0
45564,-100,4,2,1,60,0,0
45872,-100,4,2,4,60,0,0
48641,-100,4,2,4,65,0,0
49256,-100,4,2,4,70,0,0
50487,-100,4,2,4,80,0,0
54949,-83.3333333333333,4,2,1,80,0,0
55410,-100,4,2,3,80,0,0
74795,-66.6666666666667,4,2,3,80,0,0
75102,-100,4,2,3,80,0,0
83718,-66.6666666666667,4,2,1,90,0,0
84026,-100,4,2,1,80,0,0
84949,-100,4,2,3,80,0,0
94487,-76.9230769230769,4,2,3,80,0,0
94641,-100,4,2,3,80,0,0
103410,-90.9090909090909,4,2,3,80,0,0
104026,-100,4,2,3,80,0,0
104333,-66.6666666666667,4,2,1,80,0,0
104641,-100,4,2,1,80,0,0
104795,-100,4,2,3,80,0,0
124026,-66.6666666666667,4,2,3,80,0,0
124333,-100,4,2,3,80,0,0
131718,-66.6666666666667,4,2,3,80,0,0
132949,-100,4,2,3,80,0,0
133872,-66.6666666666667,4,2,3,80,0,0
134179,-100,4,2,3,80,0,0
144026,-100,4,2,1,80,0,0
148641,-100,4,2,1,5,0,0
148949,-100,4,2,1,80,0,0
153872,-100,4,2,2,60,0,0
162487,-66.6666666666667,4,2,1,80,0,0
162795,-100,4,2,1,80,0,0
163410,-50,4,2,1,80,0,0
163718,-200,4,2,1,80,0,0
164179,-100,4,2,3,80,0,0
166179,-200,4,2,3,80,0,0
166641,-100,4,2,3,80,0,0
168641,-200,4,2,3,80,0,0
169102,-100,4,2,3,80,0,0
171102,-200,4,2,3,80,0,0
171564,-100,4,2,3,80,0,0
176026,-200,4,2,3,80,0,0
176487,-100,4,2,3,80,0,0
183410,-100,4,2,2,80,0,0
192949,-66.6666666666667,4,2,2,80,0,0
193026,-66.6666666666667,4,2,2,5,0,0
193256,-100,4,2,2,80,0,0
212949,-100,4,2,3,80,0,1
251102,-66.6666666666667,4,2,3,80,0,1
251872,-50,4,2,3,80,0,1
252026,-100,4,2,3,80,0,1
252333,-100,4,2,3,80,0,0
271026,-125,4,2,3,80,0,0
271256,-41.6666666666667,4,2,3,80,0,0
271487,-100,4,2,3,80,0,0
272026,-66.6666666666667,4,2,3,80,0,1
280949,-100,4,2,3,80,0,1
281564,-66.6666666666667,4,2,3,80,0,1
291718,-100,4,2,1,50,0,0
300949,-149.253731343284,4,2,1,80,0,0
301256,-100,4,2,1,80,0,0
313872,-100,4,2,1,40,0,0
314179,-100,4,2,1,20,0,0
314487,-100,4,2,1,5,0,0

[Colours]
Combo1 : 174,74,255
Combo2 : 255,91,222
Combo3 : 70,186,255
Combo4 : 91,140,255

[HitObjects]
53,240,26,6,0,B|107:219|107:219|99:261|107:316|194:354|269:296|260:212|210:181|210:181|162:148|182:87,1,446.250008511543,2|0,0:0|0:0,0:0:0:0:
173,238,1256,1,4,0:0:0:0:
246,121,3410,1,4,0:0:0:0:
313,153,3718,1,4,0:0:0:0:
382,118,6179,5,4,0:0:0:0:
290,243,8641,1,4,0:0:0:0:
106,134,11102,6,0,L|32:149,1,75,4|0,0:0|0:0,0:0:0:0:
143,53,11410,2,0,L|221:36,1,75,8|0,0:0|0:0,0:0:0:0:
270,112,11718,2,0,L|192:129,1,75,4|0,0:0|0:0,0:0:0:0:
307,31,12026,2,0,L|385:14,1,75,8|0,0:0|0:0,0:0:0:0:
470,15,12333,6,0,L|451:100,1,75,4|0,0:0|0:0,0:0:0:0:
365,111,12641,2,0,L|384:196,1,75,8|0,0:0|0:0,0:0:0:0:
470,200,12949,2,0,L|451:285,1,75,4|0,0:0|0:0,0:0:0:0:
365,296,13256,2,0,L|384:381,1,75,8|0,0:0|0:0,0:0:0:0:
282,350,13564,6,0,L|181:333,1,75,4|0,0:0|0:0,0:0:0:0:
192,174,13872,2,0,L|265:186,1,75,8|0,0:0|0:0,0:0:0:0:
274,269,14179,2,0,L|173:252,1,75,4|0,0:0|0:0,0:0:0:0:
184,93,14487,2,0,L|257:105,1,75,8|0,0:0|0:0,0:0:0:0:
347,118,14795,6,0,P|401:109|437:82,1,75,4|0,0:0|0:0,0:0:0:0:
389,199,15102,2,0,P|443:194|481:170,1,75,8|0,0:0|0:0,0:0:0:0:
432,281,15410,2,0,P|469:284|505:274,1,75,4|0,0:0|0:0,0:0:0:0:
341,284,15718,1,8,0:0:0:0:
263,330,15872,1,4,0:0:0:0:
101,304,16026,6,0,L|172:330,1,75,6|0,0:0|0:0,0:0:0:0:
72,224,16333,2,0,L|1:249,1,75,8|0,0:0|0:0,0:0:0:0:
100,142,16641,2,0,L|170:167,1,75,4|0,0:0|0:0,0:0:0:0:
70,61,16949,2,0,L|0:86,1,75,8|0,0:0|0:0,0:0:0:0:
222,98,17256,6,0,L|292:72,1,75,4|0,0:0|0:0,0:0:0:0:
298,163,17564,2,0,L|368:137,1,75,8|0,0:0|0:0,0:0:0:0:
374,228,17872,2,0,L|444:202,1,75,4|0,0:0|0:0,0:0:0:0:
357,321,18179,2,0,L|427:295,1,75,8|0,0:0|0:0,0:0:0:0:
106,290,18487,6,0,L|176:264,1,75,4|0,0:0|0:0,0:0:0:0:
20,146,18795,2,0,L|90:120,1,75,8|0,0:0|0:0,0:0:0:0:
202,343,19102,2,0,L|272:317,1,75,4|0,0:0|0:0,0:0:0:0:
116,199,19410,2,0,L|186:173,1,75,8|0,0:0|0:0,0:0:0:0:
319,243,19718,6,0,L|389:217,1,75,4|0,0:0|0:0,0:0:0:0:
338,89,20026,2,0,L|408:63,1,75,0|0,0:0|0:0,0:0:0:0:
498,66,20333,1,0,0:0:0:0:
451,143,20487,1,0,0:0:0:0:
338,0,20641,1,0,0:0:0:0:
136,152,20949,6,0,L|216:152,1,75,6|0,0:0|0:0,0:0:0:0:
304,152,21256,1,8,0:0:0:0:
346,231,21410,1,0,0:0:0:0:
257,231,21564,1,2,0:0:0:0:
257,231,21872,1,8,0:0:0:0:
346,231,22026,1,0,0:0:0:0:
373,316,22179,5,2,0:0:0:0:
229,316,22333,1,0,0:0:0:0:
303,370,22487,1,8,0:0:0:0:
373,316,22641,1,0,0:0:0:0:
346,231,22795,2,0,B|335:192|335:192|351:150,1,75,2|2,0:0|0:0,0:0:0:0:
382,76,23102,1,8,0:0:0:0:
507,205,23410,6,0,P|464:199|422:211,1,75,2|0,0:0|0:0,0:0:0:0:
346,231,23718,1,8,0:0:0:0:
274,285,23872,1,0,0:0:0:0:
184,294,24026,1,2,0:0:0:0:
184,294,24333,1,8,0:0:0:0:
274,285,24487,1,0,0:0:0:0:
132,223,24641,5,2,0:0:0:0:
95,306,24795,1,0,0:0:0:0:
220,213,24949,1,8,0:0:0:0:
168,140,25102,1,0,0:0:0:0:
57,231,25256,2,0,L|132:223,1,75,2|2,0:0|0:0,0:0:0:0:
168,140,25564,2,0,P|193:103|239:87,1,75,8|0,0:0|0:0,0:0:0:0:
357,11,25872,6,0,L|307:67,1,75,2|0,0:0|0:0,0:0:0:0:
219,89,26179,1,8,0:0:0:0:
131,64,26333,1,0,0:0:0:0:
152,151,26487,1,2,0:0:0:0:
152,151,26795,1,8,0:0:0:0:
131,64,26949,1,0,0:0:0:0:
67,127,27102,5,2,0:0:0:0:
41,40,27256,1,0,0:0:0:0:
5,193,27410,1,8,0:0:0:0:
93,214,27564,1,0,0:0:0:0:
152,151,27718,2,0,L|243:127,1,75,2|2,0:0|0:0,0:0:0:0:
312,109,28026,1,8,0:0:0:0:
470,65,28333,6,0,L|398:84,1,75,2|0,0:0|0:0,0:0:0:0:
312,109,28641,1,8,0:0:0:0:
377,170,28795,1,0,0:0:0:0:
344,254,28949,1,2,0:0:0:0:
344,254,29256,1,8,0:0:0:0:
377,170,29410,1,0,0:0:0:0:
256,192,29564,12,4,30795,0:0:0:0:
208,291,35718,6,0,L|249:354,1,75,2|0,0:0|0:0,0:0:0:0:
117,291,36026,2,0,L|77:356,1,75,2|0,0:0|0:0,0:0:0:0:
165,214,36333,1,2,0:0:0:0:
75,214,36487,1,0,0:0:0:0:
30,136,36641,1,2,0:0:0:0:
75,58,36795,1,0,0:0:0:0:
165,58,36949,6,0,P|214:65|258:40,1,75,2|0,0:0|0:0,0:0:0:0:
319,19,37256,1,0,0:0:0:0:
237,56,37410,1,2,0:0:0:0:
237,56,37718,1,2,0:0:0:0:
319,19,37872,1,0,0:0:0:0:
392,71,38026,1,0,0:0:0:0:
382,161,38179,6,0,L|308:108,1,75,2|0,0:0|0:0,0:0:0:0:
455,213,38487,2,0,L|464:138,1,75,2|0,0:0|0:0,0:0:0:0:
442,302,38795,1,2,0:0:0:0:
359,337,38949,1,0,0:0:0:0:
287,281,39102,1,2,0:0:0:0:
370,246,39256,1,0,0:0:0:0:
275,370,39410,6,0,P|237:378|194:364,1,75,2|0,0:0|0:0,0:0:0:0:
119,332,39718,1,0,0:0:0:0:
192,279,39872,1,2,0:0:0:0:
192,279,40179,1,2,0:0:0:0:
119,332,40333,1,0,0:0:0:0:
37,296,40487,1,0,0:0:0:0:
182,189,40641,6,0,L|122:234,1,75,2|0,0:0|0:0,0:0:0:0:
36,199,40949,2,0,L|96:154,1,75,2|0,0:0|0:0,0:0:0:0:
17,109,41256,1,2,0:0:0:0:
95,63,41410,1,0,0:0:0:0:
170,112,41564,1,2,0:0:0:0:
248,66,41718,1,0,0:0:0:0:
254,155,41872,6,0,P|292:163|328:154,1,75,2|0,0:0|0:0,0:0:0:0:
402,106,42179,1,0,0:0:0:0:
439,24,42333,1,2,0:0:0:0:
439,24,42641,1,2,0:0:0:0:
402,106,42795,1,0,0:0:0:0:
491,99,42949,1,0,0:0:0:0:
350,32,43102,6,0,P|317:75|313:106,1,75,2|0,0:0|0:0,0:0:0:0:
309,240,43410,2,0,P|334:213|346:178,1,75,2|0,0:0|0:0,0:0:0:0:
257,166,43718,1,2,0:0:0:0:
271,322,43872,1,0,0:0:0:0:
360,314,44026,1,2,0:0:0:0:
220,248,44179,1,0,0:0:0:0:
399,230,44333,6,0,P|433:229|479:252,1,75,2|0,0:0|0:0,0:0:0:0:
449,333,44641,1,0,0:0:0:0:
360,314,44795,1,2,0:0:0:0:
182,339,45102,1,2,0:0:0:0:
99,375,45256,1,0,0:0:0:0:
220,248,45564,6,0,P|236:208|231:165,1,75,2|0,0:0|0:0,0:0:0:0:
194,101,45872,2,0,L|268:91,1,75,2|0,0:0|0:0,0:0:0:0:
325,161,46179,1,2,0:0:0:0:
299,247,46333,1,0,0:0:0:0:
124,281,46487,1,2,0:0:0:0:
150,195,46641,1,0,0:0:0:0:
299,247,46795,6,0,P|342:250|371:238,1,75,2|0,0:0|0:0,0:0:0:0:
416,160,47102,1,0,0:0:0:0:
370,82,47256,1,2,0:0:0:0:
370,82,47564,1,2,0:0:0:0:
416,160,47718,1,0,0:0:0:0:
462,82,47872,1,0,0:0:0:0:
313,5,48026,6,0,P|282:24|239:28,1,75,2|0,0:0|0:0,0:0:0:0:
118,74,48333,2,0,P|154:78|186:97,1,75,2|0,0:0|0:0,0:0:0:0:
44,126,48641,1,2,0:0:0:0:
34,36,48795,1,0,0:0:0:0:
127,162,48949,1,2,0:0:0:0:
55,216,49102,1,0,0:0:0:0:
4,380,49256,5,2,0:0:0:0:
57,307,49410,1,0,0:0:0:0:
134,261,49564,1,0,0:0:0:0:
222,248,49718,1,2,0:0:0:0:
222,248,50026,1,2,0:0:0:0:
309,267,50179,1,0,0:0:0:0:
422,220,50487,6,0,P|443:189|476:172,1,75,2|0,0:0|0:0,0:0:0:0:
392,306,50795,2,0,P|370:336|335:355,1,75,2|0,0:0|0:0,0:0:0:0:
249,334,51102,1,2,0:0:0:0:
309,267,51256,1,0,0:0:0:0:
221,248,51410,1,2,0:0:0:0:
281,181,51564,1,0,0:0:0:0:
160,315,51718,5,2,0:0:0:0:
133,229,51872,1,0,0:0:0:0:
193,162,52026,1,0,0:0:0:0:
281,181,52179,1,2,0:0:0:0:
429,133,52487,1,2,0:0:0:0:
369,200,52641,1,0,0:0:0:0:
464,338,52949,6,0,L|482:246,1,75,2|0,0:0|0:0,0:0:0:0:
512,108,53256,2,0,L|497:185,1,75,2|0,0:0|0:0,0:0:0:0:
429,133,53564,1,2,0:0:0:0:
340,144,53718,1,0,0:0:0:0:
367,3,53872,1,2,0:0:0:0:
445,45,54026,1,0,0:0:0:0:
304,66,54179,6,0,L|219:77,1,75,2|0,0:0|0:0,0:0:0:0:
140,90,54487,1,0,0:0:0:0:
229,75,54641,1,2,0:0:0:0:
113,176,54949,2,0,P|35:180|50:104,1,179.999994506836,2|0,0:0|0:0,0:0:0:0:
200,159,55410,6,0,L|271:180,1,75,6|0,0:0|0:0,0:0:0:0:
86,262,55718,2,0,L|19:304,1,75,8|0,0:0|0:0,0:0:0:0:
175,246,56026,5,2,0:0:0:0:
261,267,56179,1,2,0:0:0:0:
158,242,56333,5,8,0:0:0:0:
274,270,56487,1,0,0:0:0:0:
198,331,56641,6,0,P|123:329|59:365,1,150,2|8,0:0|0:0,0:0:0:0:
285,351,57102,1,0,0:0:0:0:
466,322,57410,1,2,2:0:0:0:
400,381,57564,1,8,2:0:0:0:
382,292,57718,1,0,2:0:0:0:
450,231,57872,6,0,B|466:217|466:217|468:157,1,75,2|0,0:0|0:0,0:0:0:0:
432,34,58179,2,0,B|416:48|416:48|414:101,1,75,8|0,0:0|0:0,0:0:0:0:
390,177,58487,5,2,0:0:0:0:
492,88,58641,1,2,0:0:0:0:
379,186,58795,5,8,0:0:0:0:
504,78,58949,1,0,0:0:0:0:
334,113,59102,6,0,P|254:96|223:30,1,150,2|8,0:0|0:0,0:0:0:0:
310,28,59564,1,0,0:0:0:0:
161,48,59872,2,0,L|310:27,1,150,2|0,0:0|0:0,0:0:0:0:
72,63,60333,6,0,P|35:55|6:32,1,75,2|0,0:0|0:0,0:0:0:0:
115,139,60641,2,0,P|79:151|43:145,1,75,8|0,0:0|0:0,0:0:0:0:
205,128,60949,5,2,0:0:0:0:
107,229,61102,1,2,0:0:0:0:
215,117,61256,5,8,0:0:0:0:
96,240,61410,1,0,0:0:0:0:
288,157,61564,6,0,P|360:177|431:157,1,150,2|8,0:0|0:0,0:0:0:0:
510,112,62026,1,0,0:0:0:0:
510,112,62333,1,2,0:0:0:0:
432,66,62487,1,8,0:0:0:0:
431,156,62641,1,0,0:0:0:0:
499,215,62795,6,0,L|506:291,1,75,2|0,0:0|0:0,0:0:0:0:
416,298,63102,2,0,L|372:359,1,75,8|0,0:0|0:0,0:0:0:0:
364,223,63410,5,2,0:0:0:0:
473,371,63564,1,2,0:0:0:0:
355,211,63718,5,8,0:0:0:0:
481,384,63872,1,0,0:0:0:0:
327,304,64026,6,0,P|278:364|197:360,1,150,2|8,0:0|0:0,0:0:0:0:
242,285,64487,1,0,0:0:0:0:
2,308,64795,2,0,L|152:296,1,150,2|0,0:0|0:0,0:0:0:0:
187,212,65256,6,0,L|128:162,1,75,6|0,0:0|0:0,0:0:0:0:
151,75,65564,1,8,0:0:0:0:
63,101,65718,1,0,0:0:0:0:
218,139,65872,5,6,0:0:0:0:
306,113,66026,1,0,0:0:0:0:
239,49,66179,1,8,0:0:0:0:
151,75,66333,1,0,0:0:0:0:
306,113,66487,5,6,0:0:0:0:
393,86,66641,1,0,0:0:0:0:
327,23,66795,1,8,0:0:0:0:
239,49,66949,1,0,0:0:0:0:
285,203,67102,5,6,0:0:0:0:
373,177,67256,1,0,0:0:0:0:
393,86,67410,1,8,0:0:0:0:
477,230,67718,6,0,L|464:156,1,75,6|0,0:0|0:0,0:0:0:0:
294,229,68026,1,8,0:0:0:0:
249,307,68179,1,0,0:0:0:0:
383,383,68333,5,6,0:0:0:0:
428,305,68487,1,0,0:0:0:0:
249,307,68641,1,8,0:0:0:0:
295,384,68795,1,0,0:0:0:0:
428,305,68949,5,6,0:0:0:0:
383,228,69102,1,0,0:0:0:0:
205,230,69256,1,8,0:0:0:0:
160,308,69410,1,0,0:0:0:0:
115,230,69564,5,6,0:0:0:0:
160,152,69718,1,0,0:0:0:0:
249,151,69872,1,8,0:0:0:0:
400,157,70179,6,0,L|466:191,1,75,6|0,0:0|0:0,0:0:0:0:
234,77,70487,1,8,0:0:0:0:
315,115,70641,1,0,0:0:0:0:
319,35,70795,6,0,L|385:0,1,75,6|0,0:0|0:0,0:0:0:0:
153,115,71102,1,8,0:0:0:0:
234,77,71256,1,0,0:0:0:0:
62,106,71410,6,0,L|27:39,1,75,6|0,0:0|0:0,0:0:0:0:
142,272,71718,1,8,0:0:0:0:
104,191,71872,1,0,0:0:0:0:
100,357,72026,5,6,0:0:0:0:
100,357,72179,1,6,0:0:0:0:
142,272,72333,2,0,L|176:205,1,75,8|0,0:0|0:0,0:0:0:0:
217,124,72641,5,6,0:0:0:0:
275,264,72795,1,2,0:0:0:0:
416,205,72949,1,6,0:0:0:0:
357,65,73102,1,2,0:0:0:0:
298,159,73256,1,2,0:0:0:0:
302,163,73333,1,2,0:0:0:0:
306,167,73410,1,2,0:0:0:0:
310,171,73487,1,2,0:0:0:0:
314,175,73564,1,2,0:0:0:0:
318,179,73641,1,2,0:0:0:0:
322,183,73718,1,2,0:0:0:0:
326,187,73795,1,2,0:0:0:0:
330,191,73872,6,0,L|357:286,1,75,2|0,0:0|0:0,0:0:0:0:
329,349,74179,1,0,0:0:0:0:
413,324,74333,1,6,0:0:0:0:
266,288,74487,1,0,0:0:0:0:
434,238,74641,1,6,0:0:0:0:
350,263,74795,2,0,L|333:205,1,56.2500021457673
250,203,75102,6,0,L|153:226,1,75,6|0,0:0|0:0,0:0:0:0:
58,275,75410,2,0,L|87:206,1,75,8|0,0:0|0:0,0:0:0:0:
216,117,75718,2,0,L|119:140,1,75,2|0,0:0|0:0,0:0:0:0:
0,172,76026,2,0,L|52:119,1,75,8|0,0:0|0:0,0:0:0:0:
182,31,76333,6,0,L|109:48,1,75,2|0,0:0|0:0,0:0:0:0:
271,45,76641,2,0,L|343:27,1,75,8|0,0:0|0:0,0:0:0:0:
508,54,76949,1,2,0:0:0:0:
421,74,77102,1,2,0:0:0:0:
482,215,77256,2,0,L|482:140,1,75,8|0,0:0|0:0,0:0:0:0:
395,160,77564,6,0,L|304:179,1,75,2|0,0:0|0:0,0:0:0:0:
206,368,77872,2,0,L|297:349,1,75,8|0,0:0|0:0,0:0:0:0:
338,257,78179,2,0,L|247:276,1,75,2|0,0:0|0:0,0:0:0:0:
163,210,78487,2,0,L|236:194,1,75,8|0,0:0|0:0,0:0:0:0:
71,224,78795,6,0,L|86:297,1,75,2|0,0:0|0:0,0:0:0:0:
179,119,79102,2,0,L|105:134,1,75,8|0,0:0|0:0,0:0:0:0:
59,381,79410,1,2,0:0:0:0:
147,364,79564,1,2,0:0:0:0:
86,297,79718,2,0,L|70:223,1,75,8|0,0:0|0:0,0:0:0:0:
37,84,80026,6,0,B|60:55|60:55|110:46,1,75,6|0,0:0|0:0,0:0:0:0:
259,16,80333,2,0,L|185:31,1,75,8|0,0:0|0:0,0:0:0:0:
167,173,80641,2,0,L|247:123,1,75,2|0,0:0|0:0,0:0:0:0:
370,45,80949,2,0,L|306:84,1,75,8|0,0:0|0:0,0:0:0:0:
328,221,81256,6,0,L|390:150,1,75,2|0,0:0|0:0,0:0:0:0:
485,39,81564,2,0,L|435:95,1,75,8|0,0:0|0:0,0:0:0:0:
409,248,81872,1,2,0:0:0:0:
467,180,82026,1,2,0:0:0:0:
415,358,82179,2,0,L|353:317,1,75,8|0,0:0|0:0,0:0:0:0:
271,261,82487,6,0,B|229:231|229:231|188:232,1,75,2|0,0:0|0:0,0:0:0:0:
53,205,82795,2,0,B|94:234|94:234|135:233,1,75,8|0,0:0|0:0,0:0:0:0:
69,361,83102,2,0,B|115:340|115:340|135:304,1,75,2|0,0:0|0:0,0:0:0:0:
220,384,83410,2,0,B|225:333|225:333|203:298,1,75,8|0,0:0|0:0,0:0:0:0:
160,154,83718,6,0,B|115:63|115:63|102:105|102:105|136:95,1,168.750006437302,6|0,0:0|0:0,0:0:0:0:
168,87,84026,2,0,L|255:82,1,75,8|0,0:0|0:0,0:0:0:0:
366,158,84333,1,4,0:0:0:0:
454,66,84487,1,4,0:0:0:0:
331,76,84641,1,8,0:0:0:0:
489,148,84795,1,0,0:0:0:0:
410,267,84949,6,0,L|331:235,1,75,6|0,0:0|0:0,0:0:0:0:
267,187,85256,5,8,0:0:0:0:
237,239,85410,1,0,0:0:0:0:
271,178,85564,5,2,0:0:0:0:
232,247,85718,1,0,0:0:0:0:
275,170,85872,5,8,0:0:0:0:
228,255,86026,1,0,0:0:0:0:
280,162,86179,5,2,0:0:0:0:
223,263,86333,1,0,0:0:0:0:
284,154,86487,5,8,0:0:0:0:
219,271,86641,1,0,0:0:0:0:
177,351,86795,5,2,0:0:0:0:
267,346,86949,1,2,0:0:0:0:
308,266,87102,1,8,0:0:0:0:
157,223,87410,6,0,B|132:175|132:175|149:132,1,75,2|0,0:0|0:0,0:0:0:0:
174,71,87718,5,8,0:0:0:0:
248,81,87872,1,0,0:0:0:0:
164,71,88026,5,2,0:0:0:0:
257,83,88179,1,0,0:0:0:0:
155,70,88333,5,8,0:0:0:0:
266,83,88487,1,0,0:0:0:0:
146,68,88641,5,2,0:0:0:0:
276,85,88795,1,0,0:0:0:0:
137,67,88949,5,8,0:0:0:0:
285,86,89102,1,0,0:0:0:0:
373,94,89256,5,2,0:0:0:0:
321,167,89410,1,0,0:0:0:0:
230,157,89564,1,8,0:0:0:0:
470,68,89872,6,0,B|491:59|491:59|486:123,1,75,6|0,0:0|0:0,0:0:0:0:
424,262,90179,5,8,0:0:0:0:
424,172,90333,1,0,0:0:0:0:
424,271,90487,5,2,0:0:0:0:
424,162,90641,1,0,0:0:0:0:
424,280,90795,5,8,0:0:0:0:
424,153,90949,1,0,0:0:0:0:
424,290,91102,5,2,0:0:0:0:
424,143,91256,1,0,0:0:0:0:
424,299,91410,5,8,0:0:0:0:
424,134,91564,1,0,0:0:0:0:
424,224,91718,5,2,0:0:0:0:
346,270,91872,1,0,0:0:0:0:
268,225,92026,1,8,0:0:0:0:
44,349,92333,6,0,L|110:312,1,75,2|0,0:0|0:0,0:0:0:0:
197,334,92641,5,8,0:0:0:0:
284,356,92795,1,0,0:0:0:0:
205,258,92949,5,2,0:0:0:0:
311,285,93102,1,0,0:0:0:0:
178,329,93256,5,8,0:0:0:0:
302,360,93410,1,0,0:0:0:0:
187,254,93564,5,2,0:0:0:0:
329,290,93718,1,2,0:0:0:0:
160,325,93872,5,8,0:0:0:0:
320,365,94026,1,0,0:0:0:0:
277,208,94179,5,2,0:0:0:0:
512,284,94487,6,0,L|417:254,1,97.4999955368044
277,208,94795,6,0,P|320:213|365:190,1,75,6|0,0:0|0:0,0:0:0:0:
496,51,95102,5,8,0:0:0:0:
494,134,95256,1,0,0:0:0:0:
421,45,95410,5,2,0:0:0:0:
411,135,95564,1,0,0:0:0:0:
346,39,95718,5,8,0:0:0:0:
329,136,95872,1,0,0:0:0:0:
271,33,96026,5,2,0:0:0:0:
246,138,96179,1,0,0:0:0:0:
196,27,96333,5,8,0:0:0:0:
164,139,96487,1,0,0:0:0:0:
84,139,96641,5,2,0:0:0:0:
206,208,96795,1,2,0:0:0:0:
196,27,96949,1,8,0:0:0:0:
7,352,97256,6,0,P|44:349|75:329,1,75,2|0,0:0|0:0,0:0:0:0:
116,248,97564,5,8,0:0:0:0:
164,315,97718,1,0,0:0:0:0:
166,193,97872,5,2,0:0:0:0:
229,264,98026,1,0,0:0:0:0:
217,137,98179,5,8,0:0:0:0:
293,213,98333,1,0,0:0:0:0:
267,81,98487,5,2,0:0:0:0:
358,161,98641,1,0,0:0:0:0:
317,25,98795,5,8,0:0:0:0:
423,110,98949,1,0,0:0:0:0:
410,28,99102,5,2,0:0:0:0:
507,110,99256,1,0,0:0:0:0:
358,161,99410,1,8,0:0:0:0:
491,250,99718,6,0,P|486:213|465:182,1,75,6|0,0:0|0:0,0:0:0:0:
399,280,100026,5,8,0:0:0:0:
384,360,100179,1,0,0:0:0:0:
324,273,100333,5,2,0:0:0:0:
294,358,100487,1,0,0:0:0:0:
254,248,100641,5,8,0:0:0:0:
207,335,100795,1,0,0:0:0:0:
193,204,100949,5,2,0:0:0:0:
128,293,101102,1,0,0:0:0:0:
146,146,101256,5,8,0:0:0:0:
61,233,101410,1,0,0:0:0:0:
17,155,101564,5,2,0:0:0:0:
49,315,101718,1,0,0:0:0:0:
193,204,101872,1,8,0:0:0:0:
356,227,102179,6,0,P|380:247|425:256,1,75,2|0,0:0|0:0,0:0:0:0:
505,192,102487,5,8,0:0:0:0:
421,166,102641,1,0,0:0:0:0:
271,198,102795,5,2,0:0:0:0:
336,138,102949,1,0,0:0:0:0:
486,106,103102,5,8,0:0:0:0:
402,79,103256,1,0,0:0:0:0:
253,112,103410,6,0,B|214:117|180:90|180:90|115:91|69:158|93:221,1,247.500007553101,6|2,0:0|0:0,0:0:0:0:
174,227,103949,1,2,0:0:0:0:
174,227,104026,1,2,0:0:0:0:
174,227,104102,2,0,P|209:230|251:259,1,75,8|2,0:0|0:0,0:0:0:0:
106,290,104333,6,0,B|78:285|49:290|49:290|30:263|9:251,1,112.500004291535
183,316,104641,5,6,0:0:0:0:
266,370,104795,1,2,0:0:0:0:
266,370,104872,1,2,0:0:0:0:
266,370,104949,2,0,L|335:342,1,75,8|0,0:0|0:0,0:0:0:0:
379,265,105256,1,2,0:0:0:0:
284,273,105410,1,2,0:0:0:0:
420,342,105564,2,0,L|488:374,1,75,8|0,0:0|0:0,0:0:0:0:
490,261,105872,6,0,P|453:265|418:254,2,75,2|0|8,0:0|0:0|0:0,0:0:0:0:
329,194,106333,2,0,L|291:194,1,37.5,0|0,0:0|0:0,0:0:0:0:
416,173,106487,2,0,L|479:131,1,75,2|0,0:0|0:0,0:0:0:0:
501,18,106795,2,0,L|438:60,1,75,8|0,0:0|0:0,0:0:0:0:
365,106,107102,5,2,0:0:0:0:
270,28,107256,1,2,0:0:0:0:
270,28,107333,1,2,0:0:0:0:
270,28,107410,2,0,P|306:19|343:28,1,75,8|0,0:0|0:0,0:0:0:0:
152,82,107718,2,0,B|173:73|173:73|182:22,1,75,2|0,0:0|0:0,0:0:0:0:
201,158,108026,2,0,B|250:140|250:140|254:117,1,75,8|0,0:0|0:0,0:0:0:0:
66,110,108333,6,0,B|65:133|65:133|110:159,1,75,2|0,0:0|0:0,0:0:0:0:
77,20,108641,1,8,0:0:0:0:
0,169,108795,1,2,0:0:0:0:
0,169,108872,1,2,0:0:0:0:
0,169,108949,2,0,P|27:204|31:245,1,75,2|0,0:0|0:0,0:0:0:0:
32,381,109256,2,0,P|8:353|0:317,1,75,8|0,0:0|0:0,0:0:0:0:
92,311,109564,5,6,0:0:0:0:
156,249,109718,1,2,0:0:0:0:
156,249,109795,1,2,0:0:0:0:
156,249,109872,2,0,L|222:188,1,75,2|0,0:0|0:0,0:0:0:0:
176,336,110179,1,2,0:0:0:0:
334,382,110333,1,2,0:0:0:0:
334,382,110410,1,2,0:0:0:0:
334,382,110487,2,0,L|262:361,1,75,8|0,0:0|0:0,0:0:0:0:
240,273,110795,5,2,0:0:0:0:
326,298,110949,1,2,0:0:0:0:
326,298,111026,1,2,0:0:0:0:
326,298,111102,2,0,L|398:319,1,75,8|2,0:0|0:0,0:0:0:0:
442,331,111333,1,2,0:0:0:0:
442,331,111410,2,0,L|485:260,1,75,2|2,0:0|0:0,0:0:0:0:
501,225,111641,1,2,0:0:0:0:
501,225,111718,2,0,L|425:225,1,75,8|0,0:0|0:0,0:0:0:0:
335,225,112026,5,2,0:0:0:0:
418,66,112179,1,2,0:0:0:0:
418,66,112256,1,2,0:0:0:0:
418,66,112333,2,0,L|476:136,1,75,8|0,0:0|0:0,0:0:0:0:
376,146,112641,2,0,L|318:76,1,75,2|0,0:0|0:0,0:0:0:0:
166,61,112949,2,0,L|241:61,1,75,8|0,0:0|0:0,0:0:0:0:
259,149,113256,6,0,L|184:149,1,75,2|0,0:0|0:0,0:0:0:0:
92,148,113564,2,0,P|82:113|58:84,1,75,8|0,0:0|0:0,0:0:0:0:
35,219,113872,2,0,L|-1:209,1,37.5,0|0,0:0|0:0,0:0:0:0:
102,238,114026,2,0,B|131:250|164:239|164:239|167:265|167:265|222:244|268:288,1,187.5,2|0,0:0|0:0,0:0:0:0:
274,237,114487,6,0,P|264:194|273:152,1,75,6|2,0:0|0:0,0:0:0:0:
268,163,114718,1,2,0:0:0:0:
268,163,114795,1,8,0:0:0:0:
324,93,114949,1,0,0:0:0:0:
449,112,115102,1,2,0:0:0:0:
351,194,115256,1,2,0:0:0:0:
396,45,115410,2,0,P|436:28|479:35,1,75,8|0,0:0|0:0,0:0:0:0:
430,193,115718,6,0,L|420:271,1,75,2|0,0:0|0:0,0:0:0:0:
511,263,116026,2,0,L|501:341,1,75,8|0,0:0|0:0,0:0:0:0:
334,276,116333,1,2,0:0:0:0:
251,378,116487,1,2,0:0:0:0:
339,364,116641,2,0,L|412:353,1,75,8|0,0:0|0:0,0:0:0:0:
265,206,116949,6,0,P|224:226|199:263,1,75,2|2,0:0|0:0,0:0:0:0:
167,271,117179,1,2,0:0:0:0:
167,271,117256,2,0,L|83:256,1,75,8|0,0:0|0:0,0:0:0:0:
34,327,117564,1,2,0:0:0:0:
125,343,117718,1,0,0:0:0:0:
152,187,117872,1,8,0:0:0:0:
61,171,118026,1,0,0:0:0:0:
7,98,118179,6,0,P|42:96|77:73,1,75,2|0,0:0|0:0,0:0:0:0:
75,75,118410,1,0,0:0:0:0:
75,75,118487,1,8,0:0:0:0:
170,12,118641,1,2,0:0:0:0:
170,12,118718,2,0,L|155:59,1,37.5,0|0,0:0|0:0,0:0:0:0:
153,132,118872,2,0,P|219:124|252:141,1,75,0|0,0:0|0:0,0:0:0:0:
269,135,119102,2,0,P|335:131|365:108,1,75,8|0,0:0|0:0,0:0:0:0:
411,55,119410,6,0,P|428:22|458:0,1,75,6|2,0:0|0:0,0:0:0:0:
458,0,119641,1,2,0:0:0:0:
458,0,119718,1,2,0:0:0:0:
498,82,119872,1,0,0:0:0:0:
341,127,120026,1,2,0:0:0:0:
456,218,120179,1,2,0:0:0:0:
456,218,120256,1,2,0:0:0:0:
455,218,120333,2,0,P|488:198|504:164,1,75,8|0,0:0|0:0,0:0:0:0:
393,288,120641,6,0,P|389:325|401:360,1,75,2|2,0:0|0:0,0:0:0:0:
356,361,120872,1,2,0:0:0:0:
356,361,120949,2,0,L|271:340,1,75,8|2,0:0|0:0,0:0:0:0:
257,305,121179,1,2,0:0:0:0:
257,305,121256,2,0,P|214:303|183:265,1,75,2|2,0:0|0:0,0:0:0:0:
190,282,121487,1,2,0:0:0:0:
190,282,121564,1,8,0:0:0:0:
137,216,121718,1,2,0:0:0:0:
102,299,121872,5,0,3:0:0:0:
95,308,121949,1,0,3:0:0:0:
86,314,122026,1,0,3:0:0:0:
75,316,122102,1,0,3:0:0:0:
64,314,122179,1,0,3:0:0:0:
54,308,122256,1,0,3:0:0:0:
48,299,122333,1,0,3:0:0:0:
46,287,122410,1,0,3:0:0:0:
48,276,122487,5,0,3:0:0:0:
56,259,122564,1,0,3:0:0:0:
63,241,122641,1,0,3:0:0:0:
66,223,122718,1,0,3:0:0:0:
68,204,122795,1,0,3:0:0:0:
66,186,122872,1,0,3:0:0:0:
63,167,122949,1,0,3:0:0:0:
56,150,123026,1,0,3:0:0:0:
47,133,123102,6,0,P|78:139|137:123,1,75,2|0,0:0|0:0,0:0:0:0:
220,92,123333,2,0,P|183:86|147:94,1,75,2|0,0:0|0:0,0:0:0:0:
247,189,123564,2,0,P|275:175|312:126,1,75,2|0,0:0|0:0,0:0:0:0:
359,51,123795,2,0,P|325:68|301:96,1,75,2|0,0:0|0:0,0:0:0:0:
349,234,124026,6,0,B|387:260|441:248|461:213|461:213|449:259,1,168.750006437302,0|0,0:0|0:0,0:0:0:0:
409,330,124333,6,0,L|338:352,1,75,6|0,0:0|0:0,0:0:0:0:
195,278,124641,2,0,L|266:256,1,75,8|0,0:0|0:0,0:0:0:0:
43,269,124949,2,0,L|114:247,1,75,2|0,0:0|0:0,0:0:0:0:
170,375,125256,2,0,L|241:353,1,75,8|0,0:0|0:0,0:0:0:0:
181,193,125564,6,0,L|252:171,1,75,2|0,0:0|0:0,0:0:0:0:
58,354,125872,2,0,L|129:332,1,75,8|0,0:0|0:0,0:0:0:0:
266,255,126179,1,2,0:0:0:0:
409,330,126333,1,2,0:0:0:0:
409,330,126410,1,2,0:0:0:0:
409,330,126487,2,0,L|338:352,1,75,8|0,0:0|0:0,0:0:0:0:
209,313,126795,6,0,L|231:384,1,75,2|0,0:0|0:0,0:0:0:0:
358,255,127102,2,0,L|336:184,1,75,8|0,0:0|0:0,0:0:0:0:
488,131,127410,2,0,L|466:60,1,75,2|0,0:0|0:0,0:0:0:0:
447,265,127718,2,0,L|425:194,1,75,8|0,0:0|0:0,0:0:0:0:
387,70,128026,5,6,0:0:0:0:
261,153,128179,1,0,0:0:0:0:
282,6,128333,2,0,L|304:77,1,75,8|0,0:0|0:0,0:0:0:0:
274,246,128641,2,0,L|173:210,1,75,2|0,0:0|0:0,0:0:0:0:
150,51,128949,2,0,L|251:87,1,75,8|0,0:0|0:0,0:0:0:0:
127,135,129256,5,2,0:0:0:0:
127,135,129410,1,2,0:0:0:0:
71,290,129564,2,0,L|97:220,1,75,8|0,0:0|0:0,0:0:0:0:
128,358,129872,2,0,L|153:287,1,75,2|0,0:0|0:0,0:0:0:0:
9,236,130179,2,0,L|34:165,1,75,8|0,0:0|0:0,0:0:0:0:
69,66,130487,5,2,0:0:0:0:
185,204,130641,1,2,0:0:0:0:
185,204,130718,1,2,0:0:0:0:
185,204,130795,2,0,L|210:133,1,75,8|0,0:0|0:0,0:0:0:0:
349,103,131102,1,2,0:0:0:0:
272,204,131256,1,2,0:0:0:0:
272,204,131333,1,2,0:0:0:0:
272,204,131410,2,0,L|297:274,1,75,8|0,0:0|0:0,0:0:0:0:
403,301,131718,6,0,B|428:328|474:336|511:303|511:303|504:336,1,150.000005722046,6|0,0:0|0:0,0:0:0:0:
453,361,132026,2,0,L|458:249,1,112.500004291535,8|0,0:0|0:0,0:0:0:0:
481,213,132231,2,0,P|436:203|409:171,1,75.000002861023,0|0,0:0|0:0,0:0:0:0:
442,74,132538,2,0,L|479:80,1,37.5000014305115,0|0,0:0|0:0,0:0:0:0:
397,66,132641,2,0,B|323:55|323:55|292:76,1,112.500004291535,8|0,0:0|0:0,0:0:0:0:
196,139,132949,6,0,P|222:171|257:186,1,75,2|0,0:0|0:0,0:0:0:0:
138,243,133256,2,0,P|161:273|219:294,1,100,8|0,0:0|0:0,0:0:0:0:
152,351,133564,2,0,P|155:311|139:265,1,75,2|0,0:0|0:0,0:0:0:0:
82,138,133872,6,0,B|60:102|65:44|65:44|39:73|39:73|65:71,1,150.000005722046
146,70,134179,6,0,L|232:68,1,75,6|0,0:0|0:0,0:0:0:0:
325,66,134487,5,8,0:0:0:0:
334,49,134641,1,0,0:0:0:0:
468,154,134795,5,2,0:0:0:0:
458,170,134949,1,0,0:0:0:0:
449,186,135102,1,8,0:0:0:0:
440,203,135256,1,0,0:0:0:0:
383,135,135410,5,2,0:0:0:0:
392,118,135564,1,0,0:0:0:0:
401,102,135718,1,8,0:0:0:0:
411,86,135872,1,0,0:0:0:0:
395,281,136026,5,2,0:0:0:0:
304,281,136179,1,2,0:0:0:0:
258,202,136333,1,8,0:0:0:0:
17,288,136641,6,0,L|88:263,1,75,2|0,0:0|0:0,0:0:0:0:
147,195,136949,5,8,0:0:0:0:
155,178,137102,1,0,0:0:0:0:
177,281,137256,5,2,0:0:0:0:
168,297,137410,1,0,0:0:0:0:
160,314,137564,1,8,0:0:0:0:
151,331,137718,1,0,0:0:0:0:
147,195,137872,5,6,0:0:0:0:
155,178,138026,1,0,0:0:0:0:
163,161,138179,1,8,0:0:0:0:
172,144,138333,1,0,0:0:0:0:
327,230,138487,5,2,0:0:0:0:
267,299,138641,1,0,0:0:0:0:
177,281,138795,1,8,0:0:0:0:
512,77,139102,6,0,L|438:89,1,75,2|0,0:0|0:0,0:0:0:0:
348,75,139410,5,8,0:0:0:0:
330,72,139564,1,0,0:0:0:0:
240,58,139718,5,2,0:0:0:0:
221,55,139872,1,0,0:0:0:0:
202,52,140026,1,8,0:0:0:0:
184,49,140179,1,0,0:0:0:0:
95,36,140333,5,2,0:0:0:0:
76,33,140487,1,0,0:0:0:0:
57,30,140641,1,8,0:0:0:0:
39,27,140795,1,0,0:0:0:0:
47,261,140949,5,2,0:0:0:0:
103,191,141103,1,2,0:0:0:0:
71,110,141256,1,8,0:0:0:0:
187,374,141564,6,0,L|277:339,1,75,2|0,0:0|0:0,0:0:0:0:
342,317,141872,5,8,0:0:0:0:
342,317,142026,1,2,0:0:0:0:
360,229,142179,5,2,0:0:0:0:
360,229,142333,1,2,0:0:0:0:
292,169,142487,5,8,0:0:0:0:
292,169,142641,1,2,0:0:0:0:
159,171,142795,6,0,P|152:134|163:98,1,75,6|0,0:0|0:0,0:0:0:0:
192,218,143102,2,0,P|198:255|188:291,1,75,8|2,0:0|0:0,0:0:0:0:
219,164,143410,2,0,P|249:157|309:183,1,75,2|2,0:0|0:0,0:0:0:0:
135,226,143718,2,0,P|104:232|22:174,1,112.5,8|0,0:0|0:0,0:0:0:0:
15,152,144026,1,4,0:0:0:0:
256,192,144102,12,0,148641,0:0:0:0:
256,192,148949,12,0,153564,0:0:0:0:
298,228,153872,6,0,L|325:157,1,75,6|0,0:0|0:0,0:0:0:0:
376,22,154179,1,8,0:0:0:0:
416,162,154333,1,0,0:0:0:0:
301,73,154487,1,6,0:0:0:0:
446,78,154641,1,0,0:0:0:0:
325,158,154795,1,8,0:0:0:0:
376,22,154949,1,0,0:0:0:0:
238,136,155102,6,0,L|179:183,1,75,6|0,0:0|0:0,0:0:0:0:
65,273,155410,1,8,0:0:0:0:
212,269,155564,1,0,0:0:0:0:
90,187,155718,1,6,0:0:0:0:
141,322,155872,1,6,0:0:0:0:
180,183,156026,1,8,0:0:0:0:
65,273,156179,1,0,0:0:0:0:
131,107,156333,6,0,L|195:58,1,75,6|0,0:0|0:0,0:0:0:0:
280,51,156641,1,8,0:0:0:0:
370,39,156795,1,0,0:0:0:0:
408,120,156949,1,6,0:0:0:0:
345,183,157102,1,0,0:0:0:0:
388,262,157256,1,8,2:0:0:0:
472,248,157410,1,0,2:0:0:0:
486,158,157564,5,6,2:0:0:0:
345,183,157718,1,0,2:0:0:0:
472,248,157872,1,8,2:0:0:0:
408,120,158026,1,0,0:0:0:0:
388,262,158179,1,6,2:0:0:0:
230,350,158333,1,6,0:0:0:0:
231,170,158487,1,8,0:0:0:0:
368,123,158795,6,0,L|291:106,1,75,6|0,0:0|0:0,0:0:0:0:
118,67,159102,1,8,0:0:0:0:
206,87,159256,1,0,0:0:0:0:
44,162,159410,2,0,L|121:145,1,75,6|0,0:0|0:0,0:0:0:0:
294,106,159718,1,8,0:0:0:0:
206,126,159872,1,0,0:0:0:0:
153,307,160026,6,0,L|136:230,1,75,6|0,0:0|0:0,0:0:0:0:
97,57,160333,1,8,0:0:0:0:
117,145,160487,1,0,0:0:0:0:
153,307,160641,1,6,0:0:0:0:
153,307,160795,1,6,0:0:0:0:
266,185,160949,2,0,L|319:126,1,75,8|0,0:0|0:0,0:0:0:0:
474,17,161256,5,6,0:0:0:0:
512,149,161410,1,2,0:0:0:0:
382,189,161564,1,6,0:0:0:0:
342,54,161718,1,2,0:0:0:0:
231,132,161872,1,2,0:0:0:0:
219,139,161949,1,2,0:0:0:0:
206,144,162026,1,2,0:0:0:0:
192,147,162102,1,2,0:0:0:0:
178,147,162179,1,2,0:0:0:0:
164,144,162256,1,2,0:0:0:0:
151,138,162333,1,2,0:0:0:0:
140,131,162410,1,2,0:0:0:0:
130,121,162487,6,0,B|196:205|107:274|107:274|163:253,1,225.000008583069,6|0,0:0|0:0,0:0:0:0:
239,238,162949,1,0,0:0:0:0:
261,234,163026,1,0,0:0:0:0:
283,231,163102,2,0,P|334:250|405:227,1,112.5,4|0,0:0|0:0,0:0:0:0:
410,277,163410,6,0,P|456:216|468:316,1,225,0|0,0:0|0:0,0:0:0:0:
412,361,163718,6,0,L|294:347,1,112.5,6|0,0:0|0:0,0:0:0:0:
148,317,164333,6,0,L|198:302,1,37.5,8|0,0:0|0:0,0:0:0:0:
180,233,164487,2,0,L|230:218,1,37.5,0|0,0:0|0:0,0:0:0:0:
364,182,164641,2,0,L|314:197,1,37.5,2|0,0:0|0:0,0:0:0:0:
332,266,164795,2,0,L|282:281,1,37.5,0|0,0:0|0:0,0:0:0:0:
90,246,164949,6,0,L|140:231,1,37.5,2|0,0:0|0:0,0:0:0:0:
122,162,165102,2,0,L|172:147,1,37.5,0|0,0:0|0:0,0:0:0:0:
306,111,165256,2,0,L|270:121,1,37.5,2|0,0:0|0:0,0:0:0:0:
274,195,165410,2,0,L|238:205,1,37.5,0|0,0:0|0:0,0:0:0:0:
102,82,165564,2,0,B|77:53|77:53|30:40,1,75,8|0,0:0|0:0,0:0:0:0:
158,152,165872,2,0,B|183:181|183:181|230:194,1,75,0|0,0:0|0:0,0:0:0:0:
190,68,166179,6,0,L|308:37,1,112.5,2|2,0:0|0:0,0:0:0:0:
335,117,166795,1,8,0:0:0:0:
463,0,166949,1,0,0:0:0:0:
449,96,167102,2,0,L|389:50,1,75,2|0,0:0|0:0,0:0:0:0:
464,220,167410,6,0,L|404:174,1,75,2|0,0:0|0:0,0:0:0:0:
429,305,167718,1,2,0:0:0:0:
429,305,167795,1,2,0:0:0:0:
429,305,167872,1,2,0:0:0:0:
429,305,167949,1,2,0:0:0:0:
428,304,168026,2,0,L|504:304,1,75,8|0,0:0|0:0,0:0:0:0:
382,206,168333,2,0,L|294:206,1,75,0|0,0:0|0:0,0:0:0:0:
170,338,168641,6,0,L|268:283,1,112.5,6|0,0:0|0:0,0:0:0:0:
222,205,169256,6,0,L|184:226,1,37.5,8|0,0:0|0:0,0:0:0:0:
44,272,169410,2,0,L|76:253,1,37.5,0|0,0:0|0:0,0:0:0:0:
217,199,169564,2,0,L|179:220,1,37.5,2|0,0:0|0:0,0:0:0:0:
39,266,169718,2,0,L|71:247,1,37.5,0|0,0:0|0:0,0:0:0:0:
212,193,169872,6,0,L|174:214,1,37.5,2|0,0:0|0:0,0:0:0:0:
34,260,170026,2,0,L|66:241,1,37.5,0|0,0:0|0:0,0:0:0:0:
207,187,170179,2,0,L|169:208,1,37.5,2|0,0:0|0:0,0:0:0:0:
29,254,170333,2,0,L|61:235,1,37.5,0|0,0:0|0:0,0:0:0:0:
132,122,170487,2,0,P|169:120|198:96,1,75,8|0,0:0|0:0,0:0:0:0:
240,24,170795,2,0,P|205:13|168:17,1,75,0|0,0:0|0:0,0:0:0:0:
306,212,171102,6,0,L|286:102,1,112.5,2|2,0:0|0:0,0:0:0:0:
240,24,171718,1,8,0:0:0:0:
211,180,171872,1,0,0:0:0:0:
379,103,172026,2,0,P|418:94|455:105,1,75,2|0,0:0|0:0,0:0:0:0:
414,257,172333,6,0,P|406:221|414:184,1,75,2|0,0:0|0:0,0:0:0:0:
351,323,172641,1,2,0:0:0:0:
335,339,172717,1,2,0:0:0:0:
315,350,172794,1,2,0:0:0:0:
294,356,172871,1,2,0:0:0:0:
271,356,172948,1,8,0:0:0:0:
148,321,173102,2,0,L|184:331,1,37.5,0|2,0:0|0:0,0:0:0:0:
82,300,173256,2,0,B|46:289|46:289|13:321,1,75,0|0,0:0|0:0,0:0:0:0:
132,229,173564,6,0,B|151:180|151:180|78:185|78:185|117:80,1,225,6|0,0:0|0:0,0:0:0:0:
199,115,174179,2,0,L|218:63,1,37.5,8|0,0:0|0:0,0:0:0:0:
350,52,174333,2,0,L|337:87,1,37.5,0|0,0:0|0:0,0:0:0:0:
257,203,174487,2,0,L|276:151,1,37.5,2|0,0:0|0:0,0:0:0:0:
408,140,174641,2,0,L|395:175,1,37.5,0|0,0:0|0:0,0:0:0:0:
332,322,174795,6,0,L|384:341,1,37.5,2|0,0:0|0:0,0:0:0:0:
485,253,174949,2,0,L|449:240,1,37.5,0|0,0:0|0:0,0:0:0:0:
213,316,175102,2,0,L|265:335,1,37.5,2|0,0:0|0:0,0:0:0:0:
366,247,175256,2,0,L|330:234,1,37.5,0|0,0:0|0:0,0:0:0:0:
171,196,175410,2,0,L|87:172,1,75,8|0,0:0|0:0,0:0:0:0:
0,384,175718,2,0,L|24:300,1,75,0|0,0:0|0:0,0:0:0:0:
179,313,176026,6,0,P|175:364|123:370,1,112.5,2|2,0:0|0:0,0:0:0:0:
171,196,176641,1,8,0:0:0:0:
95,287,176795,1,0,0:0:0:0:
254,224,176949,2,0,P|252:267|273:303,1,75,2|0,0:0|0:0,0:0:0:0:
81,201,177256,6,0,P|43:184|2:190,1,75,2|0,0:0|0:0,0:0:0:0:
155,19,177564,1,2,0:0:0:0:
105,114,177718,2,0,L|178:98,1,75,0|8,0:0|0:0,0:0:0:0:
242,40,178026,2,0,P|272:20|330:26,2,75,0|0|0,0:0|0:0|0:0,0:0:0:0:
311,178,178487,6,0,L|301:95,1,75,6|0,0:0|0:0,0:0:0:0:
388,123,178795,2,0,L|398:48,1,75,0|0,0:0|0:0,0:0:0:0:
402,210,179102,1,8,0:0:0:0:
300,337,179256,1,0,0:0:0:0:
436,289,179410,1,2,0:0:0:0:
266,258,179564,1,2,0:0:0:0:
384,358,179718,6,0,P|418:376|458:374,1,75,2|0,0:0|0:0,0:0:0:0:
402,210,180026,1,2,0:0:0:0:
300,337,180179,2,0,P|230:337|180:258,1,150,0|0,0:0|0:0,0:0:0:0:
116,219,180641,1,0,0:0:0:0:
266,258,180795,1,0,0:0:0:0:
129,359,180949,6,0,P|109:326|59:305,1,75,2|0,0:0|0:0,0:0:0:0:
65,168,181256,2,0,P|85:201|135:222,1,75,0|0,0:0|0:0,0:0:0:0:
203,191,181564,1,8,0:0:0:0:
259,60,181718,1,0,0:0:0:0:
128,95,181872,1,2,0:0:0:0:
314,130,182026,1,2,0:0:0:0:
314,130,182102,1,2,0:0:0:0:
314,130,182179,6,0,P|318:166|306:202,1,75,2|0,0:0|0:0,0:0:0:0:
140,322,182487,1,2,0:0:0:0:
268,270,182641,1,2,0:0:0:0:
127,233,182795,2,0,L|76:220,2,37.5,8|0|0,0:0|0:0|0:0,0:0:0:0:
323,337,183102,2,0,P|383:307|352:247,1,150,2|4,0:0|0:0,0:0:0:0:
256,192,190795,12,0,192795,0:0:0:0:
256,152,192949,6,0,L|256:85,1,56.2500021457673
160,271,193256,6,0,P|192:280|256:259,1,75,2|0,0:0|0:0,0:0:0:0:
74,151,193564,2,0,L|0:156,1,75,8|0,0:0|0:0,0:0:0:0:
89,324,193872,1,2,0:0:0:0:
158,183,194026,1,0,0:0:0:0:
0,239,194179,1,8,0:0:0:0:
160,271,194333,1,0,0:0:0:0:
0,156,194487,6,0,P|54:104|141:119,1,150,2|8,0:0|0:0,0:0:0:0:
4,160,194949,1,0,0:0:0:0:
4,160,195256,1,2,0:0:0:0:
160,271,195410,1,8,0:0:0:0:
198,104,195564,1,0,0:0:0:0:
65,290,195718,6,0,B|102:297|102:297|161:278,1,75,2|0,0:0|0:0,0:0:0:0:
382,197,196026,2,0,L|296:206,1,75,8|0,0:0|0:0,0:0:0:0:
216,323,196333,1,2,0:0:0:0:
354,284,196487,1,2,0:0:0:0:
209,238,196641,1,8,0:0:0:0:
295,364,196795,1,0,0:0:0:0:
435,240,196949,6,0,P|379:194|306:203,1,150,2|8,0:0|0:0,0:0:0:0:
435,240,197410,1,0,0:0:0:0:
435,240,197718,1,2,0:0:0:0:
241,97,197872,2,0,L|330:118,1,75,8|0,0:0|0:0,0:0:0:0:
198,21,198179,6,0,L|121:42,1,75,2|0,0:0|0:0,0:0:0:0:
0,176,198487,2,0,P|36:181|79:164,1,75,8|0,0:0|0:0,0:0:0:0:
180,110,198795,1,2,0:0:0:0:
40,25,198949,1,2,0:0:0:0:
72,168,199102,1,8,0:0:0:0:
198,21,199256,1,0,0:0:0:0:
72,168,199410,6,0,B|131:168|131:168|163:183|163:183|229:183,1,150,2|8,0:0|0:0,0:0:0:0:
76,172,199872,1,0,0:0:0:0:
76,172,200179,1,2,0:0:0:0:
198,21,200333,1,8,0:0:0:0:
99,147,200487,1,0,0:0:0:0:
319,149,200641,6,0,L|275:69,1,75,2|0,0:0|0:0,0:0:0:0:
288,234,200949,2,0,P|327:241|367:228,1,75,8|0,0:0|0:0,0:0:0:0:
366,68,201256,1,2,0:0:0:0:
233,169,201410,1,2,0:0:0:0:
360,231,201564,1,8,0:0:0:0:
282,83,201718,1,0,0:0:0:0:
236,287,201872,6,0,P|286:234|360:231,1,150,2|8,0:0|0:0,0:0:0:0:
240,291,202333,1,0,0:0:0:0:
240,291,202641,2,0,B|209:306|178:298|178:298|172:323|172:323|140:312|105:335,1,150,2|0,0:0|0:0,0:0:0:0:
0,113,203102,6,0,B|38:109|38:109|101:131,1,75,6|0,0:0|0:0,0:0:0:0:
257,118,203410,2,0,L|184:137,1,75,8|0,0:0|0:0,0:0:0:0:
75,213,203718,1,6,0:0:0:0:
184,137,203872,1,0,0:0:0:0:
72,121,204026,5,8,0:0:0:0:
76,244,204179,1,0,0:0:0:0:
210,118,204333,2,0,P|299:137|213:187,1,225,6|0,0:0|0:0,0:0:0:0:
72,121,204949,5,6,0:0:0:0:
76,244,205102,1,0,0:0:0:0:
210,118,205256,2,0,P|242:99|295:130,1,75,8|0,0:0|0:0,0:0:0:0:
489,185,205564,6,0,L|410:172,1,75,6|0,0:0|0:0,0:0:0:0:
303,345,205872,2,0,B|327:316|327:316|336:274,1,75,8|0,0:0|0:0,0:0:0:0:
330,152,206179,1,6,0:0:0:0:
334,279,206333,1,0,0:0:0:0:
414,172,206487,5,8,0:0:0:0:
299,145,206641,1,0,0:0:0:0:
344,310,206795,2,0,P|436:293|396:379,1,225,6|0,0:0|0:0,0:0:0:0:
414,172,207410,5,6,0:0:0:0:
299,145,207564,1,0,0:0:0:0:
344,310,207718,2,0,P|372:278|427:283,1,75,8|0,0:0|0:0,0:0:0:0:
159,332,208026,6,0,L|88:305,1,75,6|0,0:0|0:0,0:0:0:0:
237,272,208333,2,0,L|307:298,1,75,8|0,0:0|0:0,0:0:0:0:
64,212,208641,6,0,L|0:250,1,75,6|0,0:0|0:0,0:0:0:0:
164,230,208949,2,0,L|228:191,1,75,8|0,0:0|0:0,0:0:0:0:
127,142,209256,6,0,L|52:114,1,75,6|0,0:0|0:0,0:0:0:0:
231,99,209564,2,0,L|301:125,1,75,8|0,0:0|0:0,0:0:0:0:
127,41,209872,5,6,0:0:0:0:
127,142,210026,1,2,0:0:0:0:
382,72,210179,2,0,L|312:46,1,75,8|0,0:0|0:0,0:0:0:0:
243,182,210487,5,6,0:0:0:0:
261,309,210641,1,2,0:0:0:0:
387,291,210795,1,6,0:0:0:0:
369,164,210949,1,2,0:0:0:0:
186,254,211102,5,2,0:0:0:0:
180,256,211178,1,2,0:0:0:0:
174,258,211255,1,2,0:0:0:0:
168,260,211332,1,2,0:0:0:0:
162,262,211409,1,2,0:0:0:0:
156,264,211486,1,2,0:0:0:0:
150,266,211563,1,2,0:0:0:0:
144,268,211640,1,2,0:0:0:0:
137,269,211718,6,0,P|88:272|53:258,1,75,2|0,0:0|0:0,0:0:0:0:
25,106,212026,1,0,0:0:0:0:
164,151,212179,1,0,0:0:0:0:
105,52,212333,1,0,0:0:0:0:
39,193,212487,1,0,0:0:0:0:
196,142,212641,2,0,P|251:159|333:150,1,112.5,0|0,0:0|0:0,0:0:0:0:
421,131,212949,6,0,L|346:126,1,75,6|0,0:0|0:0,0:0:0:0:
490,267,213256,2,0,P|474:227|430:202,1,75,8|0,0:0|0:0,0:0:0:0:
286,315,213564,1,2,0:0:0:0:
375,305,213718,1,0,0:0:0:0:
366,216,213872,1,8,0:0:0:0:
276,225,214026,1,0,0:0:0:0:
375,305,214179,6,0,P|411:294|442:259,1,75,2|0,0:0|0:0,0:0:0:0:
276,225,214487,1,8,0:0:0:0:
211,323,214641,2,0,L|285:315,1,75,0|2,0:0|0:0,0:0:0:0:
69,263,214949,1,0,0:0:0:0:
121,332,215102,1,8,0:0:0:0:
155,249,215256,1,0,0:0:0:0:
0,116,215410,6,0,L|10:190,1,75,2|0,0:0|0:0,0:0:0:0:
106,0,215718,2,0,P|78:32|76:83,1,75,8|0,0:0|0:0,0:0:0:0:
244,156,216025,1,2,0:0:0:0:
193,83,216179,1,0,0:0:0:0:
119,133,216333,1,8,0:0:0:0:
169,208,216487,1,0,0:0:0:0:
193,83,216641,6,0,P|166:56|121:44,1,75,2|0,0:0|0:0,0:0:0:0:
169,208,216948,1,8,0:0:0:0:
317,141,217102,2,0,L|244:157,1,75,0|2,0:0|0:0,0:0:0:0:
193,83,217410,1,2,0:0:0:0:
95,224,217564,2,0,L|168:208,1,75,8|0,0:0|0:0,0:0:0:0:
276,47,217872,6,0,L|349:62,1,75,6|0,0:0|0:0,0:0:0:0:
464,222,218179,2,0,L|390:206,1,75,8|0,0:0|0:0,0:0:0:0:
349,62,218487,1,2,0:0:0:0:
390,206,218641,1,0,0:0:0:0:
441,115,218795,1,8,0:0:0:0:
297,156,218949,1,0,0:0:0:0:
434,302,219102,6,0,P|474:309|518:289,1,75,2|0,0:0|0:0,0:0:0:0:
390,206,219410,1,8,0:0:0:0:
354,372,219564,2,0,L|279:383,1,75,0|2,0:0|0:0,0:0:0:0:
124,323,219872,1,0,0:0:0:0:
307,284,220026,1,8,0:0:0:0:
194,384,220179,1,0,0:0:0:0:
68,244,220333,6,0,L|142:235,1,75,2|0,0:0|0:0,0:0:0:0:
272,91,220641,2,0,L|197:98,1,75,8|0,0:0|0:0,0:0:0:0:
142,237,220948,1,2,0:0:0:0:
198,99,221102,1,0,0:0:0:0:
239,194,221256,1,8,0:0:0:0:
100,138,221410,1,0,0:0:0:0:
252,7,221564,6,0,P|292:4|334:27,1,75,2|0,0:0|0:0,0:0:0:0:
301,184,221872,1,8,0:0:0:0:
418,159,222026,1,0,0:0:0:0:
271,190,222179,1,2,0:0:0:0:
449,151,222333,1,0,0:0:0:0:
383,277,222487,2,0,B|382:250|367:230|367:230|372:219|372:219|356:192|358:163,1,112.5,0|0,0:0|0:0,0:0:0:0:
341,120,222795,6,0,P|308:94|253:97,1,75,6|0,0:0|0:0,0:0:0:0:
88,218,223102,1,8,0:0:0:0:
174,246,223256,1,0,0:0:0:0:
174,100,223410,5,2,0:0:0:0:
88,128,223564,1,0,0:0:0:0:
174,246,223718,1,8,0:0:0:0:
226,173,223872,1,0,0:0:0:0:
88,128,224026,5,2,0:0:0:0:
88,218,224179,1,0,0:0:0:0:
226,173,224333,1,8,0:0:0:0:
174,100,224487,1,0,0:0:0:0:
88,218,224641,5,2,0:0:0:0:
174,246,224795,1,0,0:0:0:0:
248,89,224949,2,0,L|173:100,1,75,8|0,0:0|0:0,0:0:0:0:
128,305,225256,6,0,L|174:246,1,75,2|0,0:0|0:0,0:0:0:0:
349,384,225564,1,8,0:0:0:0:
261,360,225718,1,0,0:0:0:0:
341,238,225872,5,2,0:0:0:0:
398,308,226026,1,0,0:0:0:0:
261,360,226180,1,8,0:0:0:0:
257,271,226334,1,0,0:0:0:0:
398,308,226488,5,2,0:0:0:0:
349,384,226641,1,0,0:0:0:0:
257,271,226795,1,8,0:0:0:0:
341,238,226949,1,0,0:0:0:0:
349,384,227103,5,2,0:0:0:0:
261,360,227257,1,0,0:0:0:0:
390,185,227410,2,0,P|367:223|327:240,1,75,8|0,0:0|0:0,0:0:0:0:
227,20,227718,6,0,L|316:4,1,75,6|0,0:0|0:0,0:0:0:0:
469,170,228026,1,8,0:0:0:0:
512,90,228180,1,0,0:0:0:0:
369,65,228333,5,2,0:0:0:0:
382,154,228487,1,0,0:0:0:0:
512,90,228642,1,8,0:0:0:0:
450,25,228794,1,0,0:0:0:0:
382,154,228948,5,2,0:0:0:0:
469,170,229102,1,0,0:0:0:0:
450,25,229257,1,8,0:0:0:0:
369,65,229410,1,0,0:0:0:0:
469,170,229564,5,2,0:0:0:0:
512,90,229718,1,2,0:0:0:0:
293,136,229872,2,0,L|209:120,1,75,8|0,0:0|0:0,0:0:0:0:
137,97,230179,5,0,3:0:0:0:
126,95,230255,1,0,3:0:0:0:
116,91,230332,1,0,3:0:0:0:
107,85,230409,1,0,3:0:0:0:
99,78,230487,5,0,3:0:0:0:
89,59,230563,1,0,3:0:0:0:
71,48,230640,1,0,3:0:0:0:
50,49,230717,1,0,3:0:0:0:
33,62,230794,1,0,3:0:0:0:
26,82,230871,1,0,3:0:0:0:
31,102,230949,5,0,3:0:0:0:
38,138,231025,1,0,3:0:0:0:
40,176,231102,1,0,3:0:0:0:
38,213,231179,1,0,3:0:0:0:
30,250,231256,1,0,3:0:0:0:
0,333,231410,6,0,P|38:339|81:323,1,75,6|0,0:0|0:0,0:0:0:0:
119,256,231641,2,0,P|146:230|182:222,1,75,6|0,0:0|0:0,0:0:0:0:
258,308,231872,2,0,P|222:361|186:308,1,150,6|6,0:0|0:0,0:0:0:0:
264,220,232256,2,0,B|303:220|327:254|327:254|383:247,1,112.5
512,349,232641,6,0,L|435:330,1,75,6|0,0:0|0:0,0:0:0:0:
512,129,232949,2,0,P|492:160|460:180,1,75,8|0,0:0|0:0,0:0:0:0:
315,156,233256,1,2,0:0:0:0:
419,250,233410,1,0,0:0:0:0:
390,78,233564,1,8,0:0:0:0:
419,250,233718,1,0,0:0:0:0:
315,156,233872,6,0,P|351:156|388:186,1,75,2|0,0:0|0:0,0:0:0:0:
419,250,234179,1,8,0:0:0:0:
241,170,234333,2,0,L|315:156,1,75,0|2,0:0|0:0,0:0:0:0:
219,253,234641,1,0,0:0:0:0:
158,190,234795,1,8,0:0:0:0:
261,87,234949,1,0,0:0:0:0:
158,190,235102,6,0,P|124:189|81:154,1,75,2|0,0:0|0:0,0:0:0:0:
219,253,235410,2,0,L|149:280,1,75,8|0,0:0|0:0,0:0:0:0:
91,360,235718,1,2,0:0:0:0:
216,342,235872,1,0,0:0:0:0:
69,247,236026,1,8,0:0:0:0:
216,342,236179,1,0,0:0:0:0:
270,201,236333,6,0,P|237:223|215:261,1,75,2|0,0:0|0:0,0:0:0:0:
216,342,236641,1,8,0:0:0:0:
345,198,236795,2,0,L|270:201,1,75,0|2,0:0|0:0,0:0:0:0:
213,134,237102,1,0,0:0:0:0:
321,277,237256,2,0,P|357:282|396:263,1,75,8|0,0:0|0:0,0:0:0:0:
462,121,237564,6,0,L|428:211,1,75,6|0,0:0|0:0,0:0:0:0:
351,50,237872,2,0,L|385:140,1,75,8|0,0:0|0:0,0:0:0:0:
462,121,238179,5,2,0:0:0:0:
419,222,238333,1,0,0:0:0:0:
351,50,238487,1,8,0:0:0:0:
419,222,238641,1,0,0:0:0:0:
462,121,238795,6,0,P|424:111|382:121,1,75,2|0,0:0|0:0,0:0:0:0:
340,261,239102,1,8,0:0:0:0:
462,102,239256,6,0,L|389:117,1,75,0|2,0:0|0:0,0:0:0:0:
318,175,239564,1,0,0:0:0:0:
236,162,239718,1,8,0:0:0:0:
207,85,239872,1,0,0:0:0:0:
106,42,240026,6,0,L|196:76,1,75,2|0,0:0|0:0,0:0:0:0:
35,153,240334,2,0,L|125:119,1,75,8|0,0:0|0:0,0:0:0:0:
106,42,240641,5,2,0:0:0:0:
207,85,240795,1,0,0:0:0:0:
35,153,240949,1,8,0:0:0:0:
207,85,241103,1,0,0:0:0:0:
106,42,241257,6,0,P|96:80|106:122,1,75,2|0,0:0|0:0,0:0:0:0:
227,272,241564,1,8,0:0:0:0:
110,200,241718,2,0,L|199:185,1,75,0|2,0:0|0:0,0:0:0:0:
258,289,242026,1,2,0:0:0:0:
110,200,242179,2,0,P|164:194|232:179,1,112.5,0|0,0:0|0:0,0:0:0:0:
69,304,242487,6,0,P|109:303|165:265,1,75,6|0,0:0|0:0,0:0:0:0:
308,168,242795,1,8,0:0:0:0:
348,292,242949,1,0,0:0:0:0:
242,258,243102,5,2,0:0:0:0:
374,258,243256,1,0,0:0:0:0:
308,348,243410,1,8,0:0:0:0:
348,223,243563,1,0,0:0:0:0:
414,314,243718,5,2,0:0:0:0:
308,237,243871,1,0,0:0:0:0:
414,202,244025,1,8,0:0:0:0:
308,279,244179,1,0,0:0:0:0:
242,188,244333,5,2,0:0:0:0:
384,293,244487,1,0,0:0:0:0:
242,327,244641,1,8,0:0:0:0:
385,223,244794,1,0,0:0:0:0:
374,371,244948,5,2,0:0:0:0:
317,202,245101,1,0,0:0:0:0:
455,258,245256,1,8,0:0:0:0:
277,258,245409,1,0,0:0:0:0:
374,145,245564,5,2,0:0:0:0:
317,314,245717,1,0,0:0:0:0:
242,188,245872,1,8,0:0:0:0:
384,293,246026,1,0,0:0:0:0:
242,327,246180,5,2,0:0:0:0:
385,223,246333,1,0,0:0:0:0:
374,371,246487,1,8,0:0:0:0:
317,202,246640,1,0,0:0:0:0:
455,258,246795,5,2,0:0:0:0:
277,258,246948,1,0,0:0:0:0:
374,145,247102,2,0,P|336:169|282:168,1,75,8|0,0:0|0:0,0:0:0:0:
81,58,247410,6,0,L|158:40,1,75,6|0,0:0|0:0,0:0:0:0:
235,23,247718,1,8,0:0:0:0:
276,95,247872,1,0,0:0:0:0:
221,156,248026,1,2,0:0:0:0:
145,122,248179,1,0,0:0:0:0:
90,184,248333,1,8,0:0:0:0:
133,256,248487,1,0,0:0:0:0:
221,156,248641,5,2,0:0:0:0:
90,184,248795,1,0,0:0:0:0:
213,236,248949,1,10,0:0:0:0:
145,122,249102,1,0,0:0:0:0:
118,326,249256,1,2,0:0:0:0:
290,205,249410,1,0,0:0:0:0:
118,326,249564,2,0,P|116:289|132:256,1,75,10|0,0:0|0:0,0:0:0:0:
280,286,249872,5,0,3:0:0:0:
299,298,249948,1,0,3:0:0:0:
321,306,250025,1,0,3:0:0:0:
344,308,250102,1,0,3:0:0:0:
368,305,250179,1,0,3:0:0:0:
390,297,250256,1,0,3:0:0:0:
409,284,250333,1,0,3:0:0:0:
425,267,250410,1,0,3:0:0:0:
435,246,250487,5,0,3:0:0:0:
440,223,250564,1,0,3:0:0:0:
440,199,250641,1,0,3:0:0:0:
438,176,250718,1,0,3:0:0:0:
435,153,250795,1,0,3:0:0:0:
433,130,250871,1,0,3:0:0:0:
435,106,250948,1,0,3:0:0:0:
443,84,251025,1,0,3:0:0:0:
457,65,251102,6,0,P|400:101|325:71,1,112.500004291535,6|0,0:0|0:0,0:0:0:0:
197,0,251333,2,0,L|308:33,1,112.500004291535,6|0,0:0|0:0,0:0:0:0:
150,158,251564,2,0,P|135:89|201:112,1,168.750006437302,6|0,0:0|0:0,0:0:0:0:
217,220,251872,6,0,B|173:245|173:245|123:245|123:245|81:272,1,150,6|0,0:0|0:0,0:0:0:0:
81,272,252333,6,0,L|158:263,1,75,6|0,0:0|0:0,0:0:0:0:
314,178,252641,1,8,0:0:0:0:
314,337,252795,1,0,0:0:0:0:
274,188,252949,5,2,0:0:0:0:
353,326,253102,1,0,0:0:0:0:
353,188,253256,1,8,0:0:0:0:
274,326,253410,1,0,0:0:0:0:
244,217,253564,5,2,0:0:0:0:
383,297,253718,1,0,0:0:0:0:
383,217,253872,1,8,0:0:0:0:
244,297,254026,1,0,0:0:0:0:
314,178,254179,5,2,0:0:0:0:
383,297,254333,1,2,0:0:0:0:
244,296,254487,1,8,0:0:0:0:
244,296,254795,6,0,P|280:306|312:340,1,75,2|0,0:0|0:0,0:0:0:0:
144,344,255102,1,8,0:0:0:0:
15,250,255256,1,0,0:0:0:0:
112,370,255410,5,2,0:0:0:0:
47,225,255563,1,0,0:0:0:0:
158,306,255717,1,8,0:0:0:0:
0,289,255871,1,0,0:0:0:0:
71,377,256025,5,2,0:0:0:0:
88,218,256179,1,0,0:0:0:0:
153,265,256333,1,8,0:0:0:0:
6,330,256487,1,0,0:0:0:0:
153,265,256640,5,2,0:0:0:0:
6,330,256794,1,2,0:0:0:0:
44,150,256948,1,8,0:0:0:0:
44,150,257256,6,0,P|83:156|119:139,1,75,6|0,0:0|0:0,0:0:0:0:
195,70,257564,1,8,0:0:0:0:
353,70,257718,1,0,0:0:0:0:
204,110,257872,5,2,0:0:0:0:
342,31,258025,1,0,0:0:0:0:
204,31,258179,1,8,0:0:0:0:
342,110,258333,1,0,0:0:0:0:
233,140,258487,5,2,0:0:0:0:
313,0,258641,1,0,0:0:0:0:
233,0,258795,1,8,0:0:0:0:
313,139,258949,1,0,0:0:0:0:
195,70,259102,5,2,0:0:0:0:
313,0,259256,1,0,0:0:0:0:
276,210,259410,1,8,0:0:0:0:
512,287,259718,6,0,L|419:257,1,75,2|0,0:0|0:0,0:0:0:0:
276,210,260026,5,8,0:0:0:0:
276,369,260180,1,0,0:0:0:0:
236,220,260334,5,2,0:0:0:0:
315,358,260487,1,0,0:0:0:0:
206,249,260641,5,8,0:0:0:0:
345,329,260795,1,0,0:0:0:0:
196,289,260949,5,2,0:0:0:0:
356,289,261102,1,2,0:0:0:0:
206,329,261256,5,8,0:0:0:0:
345,249,261410,1,0,0:0:0:0:
276,369,261564,5,2,0:0:0:0:
276,210,261872,2,0,L|276:135,1,75,0|0,0:0|0:0,0:0:0:0:
391,47,262179,6,0,P|430:41|470:59,1,75,6|0,0:0|0:0,0:0:0:0:
351,153,262487,1,8,0:0:0:0:
279,79,262641,1,0,0:0:0:0:
319,0,262795,5,2,0:0:0:0:
251,82,262949,1,0,0:0:0:0:
295,158,263102,1,8,0:0:0:0:
223,84,263256,1,0,0:0:0:0:
263,4,263410,5,2,0:0:0:0:
195,88,263564,1,0,0:0:0:0:
239,165,263718,1,8,0:0:0:0:
167,91,263872,1,0,0:0:0:0:
207,11,264026,5,2,0:0:0:0:
183,171,264179,1,2,0:0:0:0:
83,102,264333,1,8,0:0:0:0:
13,345,264641,6,0,P|34:316|82:296,1,75,2|0,0:0|0:0,0:0:0:0:
143,342,264949,1,8,0:0:0:0:
131,239,265103,1,0,0:0:0:0:
45,217,265257,5,2,0:0:0:0:
151,219,265411,1,0,0:0:0:0:
182,301,265564,1,8,0:0:0:0:
172,200,265718,1,0,0:0:0:0:
85,179,265872,5,2,0:0:0:0:
192,180,266026,1,0,0:0:0:0:
223,262,266180,1,8,0:0:0:0:
213,161,266334,1,0,0:0:0:0:
126,139,266488,5,2,0:0:0:0:
265,223,266641,1,2,0:0:0:0:
274,104,266795,1,8,0:0:0:0:
493,207,267102,2,0,P|458:220|421:216,1,75,6|0,0:0|0:0,0:0:0:0:
274,104,267410,1,8,0:0:0:0:
346,174,267564,1,0,0:0:0:0:
426,134,267718,5,2,0:0:0:0:
343,203,267872,1,0,0:0:0:0:
267,160,268025,1,8,0:0:0:0:
341,230,268179,1,0,0:0:0:0:
421,190,268333,5,2,0:0:0:0:
337,259,268487,1,0,0:0:0:0:
260,216,268641,1,8,0:0:0:0:
334,286,268795,1,0,0:0:0:0:
414,247,268949,5,2,0:0:0:0:
323,371,269102,1,0,0:0:0:0:
255,272,269256,1,8,0:0:0:0:
7,203,269564,6,0,P|36:189|82:192,1,75,2|0,0:0|0:0,0:0:0:0:
189,234,269872,1,8,0:0:0:0:
55,273,270026,1,0,0:0:0:0:
127,124,270179,5,2,0:0:0:0:
210,211,270333,1,0,0:0:0:0:
76,250,270487,1,8,0:0:0:0:
148,101,270641,1,0,0:0:0:0:
350,30,270795,6,0,L|276:37,1,75,6|0,0:0|0:0,0:0:0:0:
350,109,271026,6,0,L|278:116,1,60,0|0,0:0|0:0,0:0:0:0:
350,188,271256,6,0,L|289:194,4,44.999998626709,0|0|0|0|0,0:0|0:0|0:0|0:0|0:0,0:0:0:0:
350,268,271487,6,0,P|320:299|319:347,1,75,2|0,0:0|0:0,0:0:0:0:
314,329,271718,1,2,0:0:0:0:
224,200,271872,1,2,0:0:0:0:
139,335,272026,6,0,L|192:319,1,56.2500021457673,6|0,0:0|0:0,0:0:0:0:
24,247,272333,6,0,L|77:263,1,56.2500021457673,8|0,0:0|0:0,0:0:0:0:
158,242,272487,2,0,L|105:258,1,56.2500021457673,0|0,0:0|0:0,0:0:0:0:
24,162,272641,6,0,L|77:178,1,56.2500021457673,2|0,0:0|0:0,0:0:0:0:
158,157,272795,2,0,L|105:173,1,56.2500021457673,0|0,0:0|0:0,0:0:0:0:
24,77,272949,6,0,L|77:93,1,56.2500021457673,8|0,0:0|0:0,0:0:0:0:
158,72,273103,2,0,L|105:88,1,56.2500021457673,0|0,0:0|0:0,0:0:0:0:
237,49,273256,6,0,L|290:33,1,56.2500021457673,2|0,0:0|0:0,0:0:0:0:
368,49,273410,2,0,L|421:33,1,56.2500021457673,0|0,0:0|0:0,0:0:0:0:
237,135,273564,6,0,L|290:119,1,56.2500021457673,8|0,0:0|0:0,0:0:0:0:
368,135,273718,2,0,L|421:119,1,56.2500021457673,0|0,0:0|0:0,0:0:0:0:
237,221,273872,6,0,L|290:205,1,56.2500021457673,2|0,0:0|0:0,0:0:0:0:
368,221,274026,1,2,0:0:0:0:
421,118,274179,6,0,L|474:102,2,56.2500021457673,8|0|0,0:0|0:0|0:0,0:0:0:0:
85,351,274487,6,0,L|138:335,1,56.2500021457673,2|0,0:0|0:0,0:0:0:0:
65,78,274795,2,0,L|118:94,1,56.2500021457673,8|0,0:0|0:0,0:0:0:0:
234,54,274949,2,0,L|180:37,1,56.2500021457673,0|0,0:0|0:0,0:0:0:0:
174,176,275102,1,2,0:0:0:0:
174,176,275179,1,0,0:0:0:0:
174,176,275256,2,0,L|190:122,1,56.2500021457673,0|0,0:0|0:0,0:0:0:0:
391,85,275410,5,8,0:0:0:0:
387,103,275486,1,0,0:0:0:0:
379,120,275563,1,0,0:0:0:0:
368,135,275640,1,0,0:0:0:0:
353,147,275717,1,2,0:0:0:0:
337,156,275794,1,0,0:0:0:0:
319,160,275872,2,0,L|265:143,1,56.2500021457673
190,122,276026,6,0,L|174:176,1,56.2500021457673,8|0,0:0|0:0,0:0:0:0:
226,271,276179,2,0,L|242:217,1,56.2500021457673,0|0,0:0|0:0,0:0:0:0:
98,234,276333,2,0,L|152:251,1,56.2500021457673,2|0,0:0|0:0,0:0:0:0:
95,315,276487,2,0,L|149:332,1,56.2500021457673,0|0,0:0|0:0,0:0:0:0:
266,365,276641,2,0,P|227:325|225:271,1,112.500004291535,8|0,0:0|0:0,0:0:0:0:
335,106,276949,6,0,L|319:160,1,56.2500021457673,6|0,0:0|0:0,0:0:0:0:
465,356,277256,6,0,L|481:302,1,56.2500021457673,8|0,0:0|0:0,0:0:0:0:
480,302,277410,2,0,L|464:248,1,56.2500021457673,0|0,0:0|0:0,0:0:0:0:
464,248,277564,6,0,L|480:194,1,56.2500021457673,2|0,0:0|0:0,0:0:0:0:
479,194,277718,2,0,L|463:140,1,56.2500021457673,0|0,0:0|0:0,0:0:0:0:
463,140,277872,6,0,L|479:86,1,56.2500021457673,8|0,0:0|0:0,0:0:0:0:
478,86,278026,2,0,L|462:32,1,56.2500021457673,0|0,0:0|0:0,0:0:0:0:
376,8,278179,6,0,L|392:62,1,56.2500021457673,2|0,0:0|0:0,0:0:0:0:
315,67,278333,2,0,L|331:121,1,56.2500021457673,0|0,0:0|0:0,0:0:0:0:
392,169,278487,6,0,L|408:223,1,56.2500021457673,8|0,0:0|0:0,0:0:0:0:
331,228,278641,2,0,L|347:282,1,56.2500021457673,0|0,0:0|0:0,0:0:0:0:
419,316,278795,6,0,L|435:370,1,56.2500021457673,2|0,0:0|0:0,0:0:0:0:
358,375,278949,1,2,0:0:0:0:
331,228,279102,6,0,L|315:174,2,56.2500021457673,8|0|0,0:0|0:0|0:0,0:0:0:0:
391,61,279410,6,0,L|444:45,1,56.2500021457673,2|0,0:0|0:0,0:0:0:0:
331,228,279718,2,0,L|384:212,1,56.2500021457673,8|0,0:0|0:0,0:0:0:0:
231,274,279872,2,0,L|284:290,1,56.2500021457673,0|0,0:0|0:0,0:0:0:0:
130,228,280026,1,2,0:0:0:0:
130,228,280102,1,2,0:0:0:0:
130,228,280179,2,0,L|183:212,1,56.2500021457673,0|0,0:0|0:0,0:0:0:0:
190,361,280333,5,8,0:0:0:0:
178,335,280409,1,2,0:0:0:0:
158,316,280486,1,2,0:0:0:0:
132,306,280563,1,2,0:0:0:0:
104,307,280641,2,0,P|39:346|7:322,1,112.500004291535,2|0,0:0|0:0,0:0:0:0:
57,100,280949,6,0,P|75:132|74:169,1,75,8|0,0:0|0:0,0:0:0:0:
54,201,281179,2,0,L|157:157,1,112.5,2|0,0:0|0:0,0:0:0:0:
157,156,281564,6,0,B|176:149|176:149|184:146|187:139|187:139|195:146|195:146|198:140|205:136|205:136|260:111,1,112.500004291535,0|0,0:0|0:0,0:0:0:0:
478,86,281872,6,0,L|462:140,1,56.2500021457673,6|0,0:0|0:0,0:0:0:0:
205,222,282179,6,0,L|189:276,1,56.2500021457673,8|0,0:0|0:0,0:0:0:0:
126,229,282333,2,0,L|71:242,1,56.2500021457673,0|0,0:0|0:0,0:0:0:0:
79,166,282487,6,0,L|40:125,1,56.2500021457673,2|0,0:0|0:0,0:0:0:0:
111,93,282641,2,0,L|127:38,1,56.2500021457673,0|0,0:0|0:0,0:0:0:0:
190,85,282795,6,0,L|244:71,1,56.2500021457673,8|0,0:0|0:0,0:0:0:0:
237,149,282949,2,0,L|275:189,1,56.2500021457673,0|0,0:0|0:0,0:0:0:0:
264,269,283102,6,0,L|248:323,1,56.2500021457673,2|0,0:0|0:0,0:0:0:0:
327,316,283256,2,0,L|366:356,1,56.2500021457673,0|0,0:0|0:0,0:0:0:0:
399,287,283410,6,0,L|453:272,1,56.2500021457673,8|0,0:0|0:0,0:0:0:0:
412,208,283564,2,0,L|427:153,1,56.2500021457673,0|0,0:0|0:0,0:0:0:0:
348,160,283718,6,0,L|308:119,1,56.2500021457673,2|0,0:0|0:0,0:0:0:0:
275,189,283872,1,2,0:0:0:0:
427,153,284026,6,0,L|442:98,2,56.2500021457673,8|0|0,0:0|0:0|0:0,0:0:0:0:
236,384,284333,6,0,L|289:368,1,56.2500021457673,2|0,0:0|0:0,0:0:0:0:
79,235,284641,2,0,L|132:219,1,56.2500021457673,2|0,0:0|0:0,0:0:0:0:
275,132,284795,2,0,L|275:204,1,56.2500021457673,0|0,0:0|0:0,0:0:0:0:
172,345,284949,1,8,0:0:0:0:
172,345,285026,1,0,0:0:0:0:
172,345,285102,2,0,L|156:292,1,56.2500021457673,0|0,0:0|0:0,0:0:0:0:
329,251,285256,5,2,0:0:0:0:
313,261,285332,1,0,0:0:0:0:
295,268,285409,1,0,0:0:0:0:
277,270,285486,1,0,0:0:0:0:
259,269,285563,1,8,0:0:0:0:
241,263,285640,1,0,0:0:0:0:
225,252,285718,2,0,L|209:199,1,56.2500021457673
98,124,285872,6,0,L|151:140,1,56.2500021457673,2|0,0:0|0:0,0:0:0:0:
189,71,286026,2,0,L|226:111,1,56.2500021457673,0|0,0:0|0:0,0:0:0:0:
291,65,286179,2,0,L|303:118,1,56.2500021457673,8|0,0:0|0:0,0:0:0:0:
382,114,286333,2,0,L|366:167,1,56.2500021457673,6|0,0:0|0:0,0:0:0:0:
433,210,286487,2,0,P|371:249|319:233,1,112.500004291535,8|0,0:0|0:0,0:0:0:0:
429,373,286795,6,0,L|413:320,1,56.2500021457673,6|0,0:0|0:0,0:0:0:0:
231,335,287102,6,0,L|176:321,1,56.2500021457673,8|0,0:0|0:0,0:0:0:0:
114,369,287256,2,0,L|98:315,1,56.2500021457673,0|0,0:0|0:0,0:0:0:0:
27,282,287410,6,0,L|66:242,1,56.2500021457673,2|0,0:0|0:0,0:0:0:0:
58,164,287564,2,0,L|113:178,1,56.2500021457673,0|0,0:0|0:0,0:0:0:0:
176,132,287718,6,0,L|192:186,1,56.2500021457673,8|0,0:0|0:0,0:0:0:0:
262,218,287872,2,0,L|224:259,1,56.2500021457673,0|0,0:0|0:0,0:0:0:0:
231,335,288026,6,0,L|285:321,1,56.2500021457673,2|0,0:0|0:0,0:0:0:0:
349,368,288180,2,0,L|365:314,1,56.2500021457673,0|0,0:0|0:0,0:0:0:0:
435,282,288334,6,0,L|396:241,1,56.2500021457673,8|0,0:0|0:0,0:0:0:0:
404,165,288487,2,0,L|349:178,1,56.2500021457673,0|0,0:0|0:0,0:0:0:0:
287,131,288641,6,0,L|271:185,1,56.2500021457673,2|0,0:0|0:0,0:0:0:0:
200,217,288795,1,2,0:0:0:0:
404,165,288949,2,0,L|458:151,2,56.2500021457673,8|0|0,0:0|0:0|0:0,0:0:0:0:
221,74,289256,6,0,L|274:58,1,56.2500021457673,2|0,0:0|0:0,0:0:0:0:
65,208,289564,2,0,L|118:192,1,56.2500021457673,8|0,0:0|0:0,0:0:0:0:
148,39,289718,2,0,L|95:55,1,56.2500021457673,0|0,0:0|0:0,0:0:0:0:
200,201,289872,1,2,0:0:0:0:
200,201,289949,1,2,0:0:0:0:
200,201,290026,2,0,L|184:148,1,56.2500021457673,0|0,0:0|0:0,0:0:0:0:
274,57,290179,5,8,0:0:0:0:
264,83,290255,1,2,0:0:0:0:
269,110,290332,1,2,0:0:0:0:
287,131,290409,1,2,0:0:0:0:
313,139,290487,2,0,P|374:145|408:196,1,112.500004291535,2|0,0:0|0:0,0:0:0:0:
316,318,290795,5,8,0:0:0:0:
404,182,290949,1,0,0:0:0:0:
477,319,291102,2,0,L|477:383,2,56.2500021457673,2|0|2,0:0|0:0|0:0,0:0:0:0:
420,263,291410,2,0,P|365:260|329:220,1,112.500004291535,8|0,0:0|0:0,0:0:0:0:
439,119,291718,6,0,L|513:134,1,75,6|0,0:0|0:0,0:0:0:0:
402,38,292026,2,0,L|324:21,1,75,8|0,0:0|0:0,0:0:0:0:
275,104,292333,2,0,L|353:121,1,75,4|0,0:0|0:0,0:0:0:0:
238,23,292642,2,0,L|160:6,1,75,8|0,0:0|0:0,0:0:0:0:
75,7,292949,6,0,L|94:92,1,75,4|0,0:0|0:0,0:0:0:0:
180,103,293257,2,0,L|161:188,1,75,8|0,0:0|0:0,0:0:0:0:
75,192,293565,2,0,L|94:277,1,75,4|0,0:0|0:0,0:0:0:0:
180,288,293872,2,0,L|161:373,1,75,8|0,0:0|0:0,0:0:0:0:
263,342,294180,6,0,L|364:325,1,75,4|0,0:0|0:0,0:0:0:0:
353,166,294488,2,0,L|280:178,1,75,8|0,0:0|0:0,0:0:0:0:
271,261,294795,2,0,L|372:244,1,75,4|0,0:0|0:0,0:0:0:0:
361,85,295103,2,0,L|288:97,1,75,8|0,0:0|0:0,0:0:0:0:
198,110,295411,6,0,P|144:101|108:74,1,75,4|0,0:0|0:0,0:0:0:0:
156,191,295718,2,0,P|102:186|64:162,1,75,8|0,0:0|0:0,0:0:0:0:
113,273,296026,2,0,P|76:276|40:266,1,75,4|0,0:0|0:0,0:0:0:0:
204,276,296334,5,8,0:0:0:0:
282,322,296488,1,4,0:0:0:0:
422,237,296641,6,0,L|331:257,1,75,6|0,0:0|0:0,0:0:0:0:
73,360,296949,2,0,L|146:343,1,75,8|0,0:0|0:0,0:0:0:0:
440,353,297256,2,0,L|366:336,1,75,4|0,0:0|0:0,0:0:0:0:
98,181,297564,2,0,L|171:197,1,75,8|0,0:0|0:0,0:0:0:0:
285,384,297872,6,0,L|285:298,1,75,4|0,0:0|0:0,0:0:0:0:
367,97,298179,2,0,L|366:173,1,75,8|0,0:0|0:0,0:0:0:0:
143,286,298487,2,0,L|229:263,1,75,4|0,0:0|0:0,0:0:0:0:
439,287,298795,2,0,L|366:306,1,75,8|0,0:0|0:0,0:0:0:0:
277,142,299102,6,0,L|296:214,1,75,4|0,0:0|0:0,0:0:0:0:
245,325,299410,2,0,L|225:252,1,75,8|0,0:0|0:0,0:0:0:0:
179,181,299718,2,0,P|141:211|83:222,1,75,4|0,0:0|0:0,0:0:0:0:
158,297,300026,2,0,P|110:303|54:284,1,75,8|0,0:0|0:0,0:0:0:0:
80,384,300333,6,0,P|35:366|-4:321,1,75,4|0,0:0|0:0,0:0:0:0:
11,262,300641,2,0,P|31:208|31:160,1,75,8|0,0:0|0:0,0:0:0:0:
23,110,300949,6,0,L|108:96,1,75.3749964345934,0|0,0:0|0:0,0:0:0:0:
27,114,301256,6,0,L|106:101,1,75,0|0,0:0|0:0,0:0:0:0:
366,221,301564,6,0,P|332:237|292:235,1,75,4|0,0:0|0:0,0:0:0:0:
395,134,301872,1,0,0:0:0:0:
454,191,302026,1,0,0:0:0:0:
435,272,302179,1,0,0:0:0:0:
435,272,302487,5,0,0:0:0:0:
315,157,302641,1,0,0:0:0:0:
355,295,302795,1,0,0:0:0:0:
395,134,302949,1,0,0:0:0:0:
295,236,303102,1,0,0:0:0:0:
454,191,303256,1,0,0:0:0:0:
375,215,303410,1,0,0:0:0:0:
335,375,303718,2,0,P|380:373|415:346,1,75,4|0,0:0|0:0,0:0:0:0:
141,283,304026,6,0,P|110:304|93:340,1,75,4|0,0:0|0:0,0:0:0:0:
231,297,304334,1,0,0:0:0:0:
209,218,304488,1,0,0:0:0:0:
127,196,304641,1,0,0:0:0:0:
127,196,304949,5,0,0:0:0:0:
173,356,305103,1,0,0:0:0:0:
70,256,305257,1,0,0:0:0:0:
231,297,305411,1,0,0:0:0:0:
93,337,305564,1,0,0:0:0:0:
209,218,305718,1,0,0:0:0:0:
150,277,305872,1,0,0:0:0:0:
47,170,306179,2,0,P|49:120|81:82,1,75,0|0,0:0|0:0,0:0:0:0:
265,94,306487,6,0,L|338:114,1,75,4|0,0:0|0:0,0:0:0:0:
239,12,306795,1,0,0:0:0:0:
180,69,306949,1,0,0:0:0:0:
199,150,307102,1,0,0:0:0:0:
199,150,307410,5,0,0:0:0:0:
319,35,307564,1,0,0:0:0:0:
279,173,307718,1,0,0:0:0:0:
239,12,307872,1,0,0:0:0:0:
339,114,308025,1,0,0:0:0:0:
180,69,308179,1,0,0:0:0:0:
259,93,308333,1,0,0:0:0:0:
130,297,308641,2,0,P|170:309|220:291,1,75,0|0,0:0|0:0,0:0:0:0:
279,173,308949,6,0,L|220:228,1,75,4|0,0:0|0:0,0:0:0:0:
259,93,309256,1,0,0:0:0:0:
339,114,309410,1,0,0:0:0:0:
359,193,309564,1,0,0:0:0:0:
219,232,309872,1,0,0:0:0:0:
339,114,310026,1,0,0:0:0:0:
279,173,310179,5,2,0:0:0:0:
256,192,310333,12,0,314487,0:0:0:0:
