osu file format v14

[General]
AudioFilename: audio.mp3
AudioLeadIn: 0
PreviewTime: 212094
Countdown: 0
SampleSet: Normal
StackLeniency: 0.7
Mode: 2
LetterboxInBreaks: 0
WidescreenStoryboard: 1

[Editor]
Bookmarks: 1632,31171,55786,75479,105017,124709,144402,164094,183786,213325,232709,252709,272402,292094,314248
DistanceSpacing: 1.8
BeatDivisor: 4
GridSize: 16
TimelineZoom: 1.100008

[Metadata]
Title:Extra Mode
TitleUnicode:Extra Mode
Artist:USAO
ArtistUnicode:USAO
Creator:Deif
Version:Greaper & Deif's Another Episode
Source:
Tags:Greaper CWC 2022 osu!catch World Cup Round of 16 Ro16 TieBreaker Featured Artist Mappers' Guild SPEED BALL EVOLUTION Kick's For Liberation 5 HARDCORE TANO*C REDALiCE Electronic Instrumental
BeatmapID:3632973
BeatmapSetID:1774332

[Difficulty]
HPDrainRate:6
CircleSize:4
OverallDifficulty:9.5
ApproachRate:9.5
SliderMultiplier:1.92
SliderTickRate:2

[Events]
//Background and Video events
0,0,"BG.jpg",0,0
//Break Periods
//Storyboard Layer 0 (Background)
//Storyboard Layer 1 (Fail)
//Storyboard Layer 2 (Pass)
//Storyboard Layer 3 (Foreground)
//Storyboard Layer 4 (Overlay)
//Storyboard Sound Samples
Sample,164094,0,"Pu Pu Pu Pu.mp3",70

[TimingPoints]
1633,307.692307692308,4,2,0,50,1,0
3786,-100,4,2,1,35,0,0
6709,-90.9090909090909,4,2,1,50,0,0
11479,-100,4,3,1,70,0,0
11633,-100,4,1,1,50,0,0
11786,-100,4,1,1,60,0,0
12094,-100,4,3,1,70,0,0
12248,-100,4,1,1,60,0,0
12709,-100,4,3,1,70,0,0
12863,-100,4,1,1,60,0,0
13325,-100,4,3,1,70,0,0
13479,-100,4,1,1,60,0,0
13940,-100,4,3,1,70,0,0
14094,-100,4,1,1,60,0,0
14556,-100,4,3,1,70,0,0
14710,-100,4,1,1,60,0,0
15171,-100,4,3,1,70,0,0
15325,-100,4,1,1,60,0,0
15786,-100,4,3,1,70,0,0
15940,-100,4,1,1,60,0,0
16248,-100,4,3,1,70,0,0
16402,-45.4545454545455,4,3,1,70,0,0
16556,-100,4,1,11,50,0,0
16709,-100,4,1,1,60,0,0
17017,-100,4,3,1,70,0,0
17171,-100,4,1,1,60,0,0
17633,-100,4,3,1,70,0,0
17787,-100,4,1,1,60,0,0
18248,-100,4,3,1,70,0,0
18402,-100,4,1,1,60,0,0
18863,-100,4,3,1,70,0,0
19017,-100,4,1,1,60,0,0
19479,-100,4,3,1,70,0,0
19633,-100,4,1,1,60,0,0
20094,-100,4,3,1,70,0,0
20248,-100,4,1,1,60,0,0
20709,-100,4,3,1,70,0,0
20863,-100,4,1,1,60,0,0
21325,-45.4545454545455,4,3,1,70,0,0
21479,-100,4,1,2,50,0,0
21632,-100,4,1,2,60,0,0
21940,-100,4,3,1,70,0,0
22094,-100,4,1,2,60,0,0
22556,-100,4,3,1,70,0,0
22710,-100,4,1,2,60,0,0
23171,-100,4,3,1,70,0,0
23325,-100,4,1,2,60,0,0
23786,-100,4,3,1,70,0,0
23940,-100,4,1,2,60,0,0
24402,-100,4,3,1,70,0,0
24556,-100,4,1,2,60,0,0
25017,-100,4,3,1,70,0,0
25171,-100,4,1,2,60,0,0
25633,-100,4,3,1,70,0,0
25787,-100,4,1,2,60,0,0
26248,-45.4545454545455,4,3,1,70,0,0
26402,-100,4,1,2,50,0,0
26555,-100,4,1,2,60,0,0
26863,-100,4,3,1,70,0,0
27017,-100,4,1,2,60,0,0
27479,-100,4,3,1,70,0,0
27633,-100,4,1,2,60,0,0
28094,-100,4,3,1,70,0,0
28248,-100,4,1,2,60,0,0
28709,-90.9090909090909,4,3,1,70,0,0
28863,-90.9090909090909,4,1,2,60,0,0
29325,-90.9090909090909,4,3,1,70,0,0
29479,-90.9090909090909,4,1,2,60,0,0
29940,-100,4,3,0,70,0,0
31171,-66.6666666666667,4,3,0,60,0,0
31248,-66.6666666666667,4,3,0,30,0,0
32402,-66.6666666666667,4,1,0,80,0,0
32479,-66.6666666666667,4,3,0,30,0,0
33325,-66.6666666666667,4,1,0,80,0,0
33402,-66.6666666666667,4,3,0,30,0,0
34248,-66.6666666666667,4,1,0,80,0,0
34325,-66.6666666666667,4,3,0,30,0,0
35171,-66.6666666666667,4,1,0,80,0,0
35248,-66.6666666666667,4,3,0,30,0,0
36094,-100,4,2,0,50,0,0
41017,-100,4,2,0,55,0,0
45940,-100,4,2,0,60,0,0
50863,-100,4,2,0,65,0,0
53325,-100,4,2,0,70,0,0
55786,-100,4,2,1,75,0,0
60402,-66.6666666666667,4,2,1,75,0,0
60556,-100,4,2,1,75,0,0
65325,-66.6666666666667,4,2,1,75,0,0
65633,-100,4,3,1,70,0,0
65787,-100,4,1,2,50,0,0
65940,-100,4,1,2,60,0,0
66248,-100,4,3,1,70,0,0
66402,-100,4,1,2,60,0,0
66864,-100,4,3,1,70,0,0
67018,-100,4,1,2,60,0,0
67479,-100,4,3,1,70,0,0
67633,-100,4,1,2,60,0,0
67786,-66.6666666666667,4,1,0,50,0,0
67940,-100,4,1,0,50,0,0
68094,-100,4,3,1,70,0,0
68248,-100,4,1,2,60,0,0
68710,-100,4,3,1,70,0,0
68864,-100,4,1,2,60,0,0
69325,-100,4,3,1,70,0,0
69479,-100,4,1,2,60,0,0
69941,-100,4,3,1,70,0,0
70095,-100,4,1,2,60,0,0
70248,-66.6666666666667,4,1,2,50,0,0
70556,-66.6666666666667,4,3,1,70,0,0
70710,-100,4,1,2,50,0,0
70863,-45.4545454545455,4,1,2,60,0,0
71171,-66.6666666666667,4,3,1,70,0,0
71325,-66.6666666666667,4,1,2,60,0,0
71478,-45.4545454545455,4,1,2,50,0,0
71786,-66.6666666666667,4,3,1,70,0,0
71941,-66.6666666666667,4,1,2,60,0,0
72093,-37.037037037037,4,1,2,50,0,0
72402,-66.6666666666667,4,3,1,70,0,0
72556,-66.6666666666667,4,1,2,60,0,0
73017,-100,4,1,2,60,0,0
74248,-100,4,3,1,70,0,0
74402,-100,4,1,2,60,0,0
75171,-45.4545454545455,4,2,0,75,0,0
75479,-100,4,3,1,70,0,0
75633,-100,4,1,1,50,0,0
75786,-100,4,1,1,60,0,0
76094,-100,4,3,1,70,0,0
76248,-100,4,1,1,60,0,0
76709,-100,4,3,1,70,0,0
76863,-100,4,1,1,60,0,0
77325,-100,4,3,1,70,0,0
77479,-100,4,1,1,60,0,0
77940,-100,4,3,1,70,0,0
78094,-100,4,1,1,60,0,0
78556,-100,4,3,1,70,0,0
78710,-100,4,1,1,60,0,0
79171,-100,4,3,1,70,0,0
79325,-100,4,1,1,60,0,0
79786,-100,4,3,1,70,0,0
79940,-100,4,1,1,60,0,0
80248,-100,4,3,1,70,0,0
80402,-100,4,3,1,70,0,0
80556,-100,4,1,1,50,0,0
80709,-100,4,1,1,60,0,0
81017,-100,4,3,1,70,0,0
81171,-100,4,1,1,60,0,0
81632,-100,4,3,1,70,0,0
81786,-100,4,1,1,60,0,0
82248,-100,4,3,1,70,0,0
82402,-100,4,1,1,60,0,0
82863,-100,4,3,1,70,0,0
83017,-100,4,1,1,60,0,0
83479,-100,4,3,1,70,0,0
83633,-100,4,1,1,60,0,0
84094,-71.4285714285714,4,3,1,70,0,0
84248,-100,4,1,1,60,0,0
84709,-100,4,3,1,70,0,0
84863,-100,4,1,1,60,0,0
85171,-100,4,3,1,70,0,0
85325,-100,4,3,1,70,0,0
85479,-100,4,1,1,50,0,0
85632,-100,4,1,1,60,0,0
85940,-100,4,3,1,70,0,0
86094,-100,4,1,1,60,0,0
86555,-100,4,3,1,70,0,0
86709,-100,4,1,1,60,0,0
87171,-100,4,3,1,70,0,0
87325,-100,4,1,1,60,0,0
87786,-100,4,3,1,70,0,0
87940,-100,4,1,1,60,0,0
88402,-100,4,3,1,70,0,0
88556,-100,4,1,1,60,0,0
89017,-100,4,3,1,70,0,0
89171,-100,4,1,1,60,0,0
89632,-100,4,3,1,70,0,0
89786,-100,4,1,1,60,0,0
89940,-37.4531835205993,4,1,1,60,0,0
90094,-100,4,3,1,70,0,0
90248,-100,4,3,1,70,0,0
90402,-100,4,1,1,50,0,0
90555,-100,4,1,1,60,0,0
90863,-100,4,3,1,70,0,0
91017,-100,4,1,1,60,0,0
91478,-100,4,3,1,70,0,0
91632,-100,4,1,1,60,0,0
92094,-100,4,3,1,70,0,0
92248,-100,4,1,1,60,0,0
92709,-100,4,3,1,70,0,0
92863,-100,4,1,1,60,0,0
93325,-100,4,3,1,70,0,0
93479,-100,4,1,1,60,0,0
93940,-100,4,3,1,70,0,0
94094,-100,4,1,1,60,0,0
94555,-100,4,3,1,70,0,0
94709,-100,4,1,1,60,0,0
95017,-100,4,3,1,70,0,0
95171,-100,4,3,1,70,0,0
95325,-100,4,1,1,50,0,0
95478,-100,4,1,1,60,0,0
95786,-100,4,3,1,70,0,0
95940,-100,4,1,1,60,0,0
96401,-100,4,3,1,70,0,0
96555,-100,4,1,1,60,0,0
97017,-100,4,3,1,70,0,0
97171,-100,4,1,1,60,0,0
97632,-100,4,3,1,70,0,0
97786,-100,4,1,1,60,0,0
98248,-100,4,3,1,70,0,0
98402,-100,4,1,1,60,0,0
98863,-100,4,3,1,70,0,0
99017,-100,4,1,1,60,0,0
99478,-100,4,3,1,70,0,0
99632,-100,4,1,1,60,0,0
99786,-37.4531835205993,4,1,1,60,0,0
99940,-100,4,3,1,70,0,0
100094,-100,4,3,1,70,0,0
100248,-100,4,1,1,50,0,0
100401,-100,4,1,1,60,0,0
100709,-100,4,3,1,70,0,0
100863,-100,4,1,1,60,0,0
101324,-100,4,3,1,70,0,0
101478,-100,4,1,1,60,0,0
101940,-100,4,3,1,70,0,0
102094,-100,4,1,1,60,0,0
102555,-100,4,3,1,70,0,0
102709,-100,4,1,1,60,0,0
103171,-100,4,3,1,70,0,0
103325,-100,4,1,1,60,0,0
103786,-100,4,3,0,70,0,0
105017,-100,4,3,2,70,0,0
105325,-40,4,1,3,60,0,0
105479,-100,4,3,0,30,0,0
105633,-100,4,3,2,70,0,0
105940,-45.4545454545455,4,1,3,60,0,0
106094,-100,4,3,0,30,0,0
106248,-35.7142857142857,4,3,2,70,0,0
106402,-100,4,3,0,30,0,0
106556,-100,4,1,3,60,0,0
106710,-100,4,3,0,30,0,0
106864,-100,4,3,2,70,0,0
107018,-100,4,3,0,30,0,0
107171,-100,4,1,3,60,0,0
107325,-100,4,3,0,30,0,0
107479,-100,4,3,2,70,0,0
107786,-100,4,1,3,60,0,0
107940,-100,4,3,0,30,0,0
108094,-100,4,3,2,70,0,0
108248,-100,4,3,0,30,0,0
108401,-100,4,1,3,60,0,0
108555,-100,4,3,0,30,0,0
108709,-100,4,3,2,70,0,0
108863,-45.4545454545455,4,3,2,70,0,0
109017,-100,4,1,3,60,0,0
109325,-100,4,3,2,70,0,0
109479,-100,4,3,0,30,0,0
109632,-100,4,1,3,60,0,0
109786,-100,4,3,0,30,0,0
109940,-100,4,3,2,70,0,0
110247,-100,4,1,3,60,0,0
110401,-100,4,3,0,30,0,0
110556,-100,4,3,2,70,0,0
110863,-100,4,1,3,60,0,0
111017,-100,4,3,0,30,0,0
111171,-100,4,3,2,70,0,0
111478,-100,4,1,3,60,0,0
111786,-100,4,3,2,70,0,0
112093,-100,4,1,3,60,0,0
112247,-100,4,3,0,30,0,0
112402,-100,4,3,2,70,0,0
112709,-45.4545454545455,4,1,3,60,0,0
112863,-100,4,3,0,30,0,0
113017,-35.7142857142857,4,3,2,60,0,0
113171,-100,4,3,0,30,0,0
113325,-100,4,1,3,60,0,0
113479,-100,4,3,0,30,0,0
113633,-100,4,3,2,70,0,0
113940,-100,4,1,3,60,0,0
114248,-100,4,3,2,70,0,0
114402,-100,4,3,0,30,0,0
114555,-100,4,1,3,60,0,0
114709,-100,4,3,0,30,0,0
114863,-100,4,3,2,70,0,0
115170,-100,4,1,3,60,0,0
115324,-100,4,3,0,30,0,0
115479,-100,4,3,2,70,0,0
115786,-100,4,1,3,60,0,0
115940,-100,4,3,0,30,0,0
116094,-100,4,3,2,70,0,0
116248,-100,4,3,0,30,0,0
116401,-100,4,1,3,60,0,0
116555,-100,4,3,0,30,0,0
116709,-100,4,3,2,70,0,0
116863,-100,4,3,0,30,0,0
117016,-100,4,1,3,60,0,0
117170,-100,4,3,0,30,0,0
117325,-100,4,3,2,70,0,0
117632,-100,4,1,3,60,0,0
117786,-100,4,3,0,30,0,0
117940,-100,4,3,2,70,0,0
118094,-100,4,3,0,30,0,0
118247,-100,4,1,3,60,0,0
118401,-100,4,3,0,30,0,0
118556,-100,4,3,2,70,0,0
118863,-100,4,1,3,60,0,0
119171,-100,4,3,2,70,0,0
119325,-100,4,3,0,30,0,0
119478,-100,4,1,3,60,0,0
119632,-100,4,3,0,30,0,0
119786,-100,4,3,2,70,0,0
120093,-100,4,1,3,60,0,0
120247,-100,4,3,0,30,0,0
120402,-100,4,3,2,70,0,0
120709,-100,4,1,3,60,0,0
120863,-100,4,3,0,30,0,0
121017,-100,4,3,2,70,0,0
121324,-100,4,1,3,60,0,0
121633,-100,4,3,2,70,0,0
121940,-100,4,1,3,60,0,0
122094,-100,4,3,0,30,0,0
122248,-100,4,3,2,70,0,0
122555,-100,4,1,3,60,0,0
122863,-100,4,3,2,70,0,0
123017,-100,4,3,0,30,0,0
123170,-100,4,1,3,60,0,0
123324,-100,4,3,0,30,0,0
123479,-100,4,3,2,70,0,0
124863,-100,4,1,4,70,0,0
125325,-100,4,3,2,70,0,0
125479,-100,4,1,4,70,0,0
125940,-100,4,3,2,70,0,0
126094,-100,4,1,4,70,0,0
126556,-100,4,3,2,70,0,0
126710,-100,4,1,4,70,0,0
127171,-100,4,3,2,70,0,0
127325,-100,4,1,4,70,0,0
127786,-100,4,3,2,70,0,0
127940,-100,4,1,4,70,0,0
128402,-100,4,3,2,70,0,0
128556,-100,4,1,4,70,0,0
129017,-100,4,3,2,70,0,0
129171,-100,4,1,4,70,0,0
129633,-100,4,3,2,70,0,0
129940,-100,4,1,4,70,0,0
130248,-100,4,3,2,70,0,0
130402,-100,4,1,4,70,0,0
130863,-100,4,3,2,70,0,0
131017,-100,4,1,4,70,0,0
131479,-100,4,3,2,70,0,0
131633,-100,4,1,4,70,0,0
132094,-100,4,3,2,70,0,0
132248,-100,4,1,4,70,0,0
132709,-100,4,3,2,70,0,0
132863,-100,4,1,4,70,0,0
133325,-100,4,3,2,70,0,0
134248,-37.4531835205993,4,3,2,70,0,0
134402,-100,4,1,0,50,0,0
134710,-100,4,1,4,70,0,0
135172,-100,4,3,2,70,0,0
135326,-100,4,1,4,70,0,0
135787,-100,4,3,2,70,0,0
135941,-100,4,1,4,70,0,0
136403,-100,4,3,2,70,0,0
136557,-100,4,1,4,70,0,0
137018,-100,4,3,2,70,0,0
137172,-100,4,1,4,70,0,0
137633,-100,4,3,2,70,0,0
137787,-100,4,1,4,70,0,0
138249,-100,4,3,2,70,0,0
138403,-100,4,1,4,70,0,0
138864,-100,4,3,2,70,0,0
139018,-100,4,1,4,70,0,0
139480,-100,4,3,2,70,0,0
139787,-100,4,1,4,70,0,0
140095,-100,4,3,2,70,0,0
140249,-100,4,1,4,70,0,0
140710,-100,4,3,2,70,0,0
140864,-100,4,1,4,70,0,0
141326,-100,4,3,2,70,0,0
141480,-100,4,1,4,70,0,0
141940,-100,4,3,2,70,0,0
142094,-100,4,1,4,70,0,0
142556,-100,4,3,2,70,0,0
142710,-100,4,1,4,70,0,0
143171,-100,4,3,2,70,0,0
143325,-100,4,1,4,70,0,0
143786,-37.4531835205993,4,3,2,70,0,0
143940,-100,4,1,4,70,0,0
144402,-100,4,3,2,70,0,0
144479,-100,4,2,1,40,0,0
149325,-100,4,2,1,45,0,0
150556,-100,4,2,1,50,0,0
151786,-100,4,2,1,55,0,0
154248,-100,4,3,1,70,0,0
154402,-100,4,1,2,50,0,0
154555,-100,4,1,2,60,0,0
154863,-100,4,3,1,70,0,0
155017,-100,4,1,2,60,0,0
155479,-100,4,3,1,70,0,0
155633,-100,4,1,2,60,0,0
156094,-100,4,3,1,70,0,0
156248,-100,4,1,2,60,0,0
156402,-66.6666666666667,4,1,0,50,0,0
156556,-90.9090909090909,4,1,0,50,0,0
156709,-90.9090909090909,4,3,1,70,0,0
156863,-90.9090909090909,4,1,2,60,0,0
157325,-90.9090909090909,4,3,1,70,0,0
157479,-90.9090909090909,4,1,2,60,0,0
157940,-90.9090909090909,4,3,1,70,0,0
158094,-90.9090909090909,4,1,2,60,0,0
158556,-100,4,3,1,70,0,0
158710,-100,4,1,2,60,0,0
158863,-45.4545454545455,4,1,2,50,0,0
159171,-66.6666666666667,4,3,1,70,0,0
159325,-100,4,1,2,50,0,0
159479,-45.4545454545455,4,1,2,60,0,0
159786,-66.6666666666667,4,3,1,70,0,0
159940,-100,4,1,2,60,0,0
160094,-41.6666666666667,4,1,2,50,0,0
160402,-66.6666666666667,4,3,1,70,0,0
160556,-100,4,1,2,60,0,0
160709,-38.4615384615385,4,1,2,50,0,0
161017,-45.4545454545455,4,3,1,70,0,0
161171,-100,4,1,2,60,0,0
161325,-90.9090909090909,4,1,0,50,0,0
161632,-90.9090909090909,4,1,2,60,0,0
162863,-100,4,3,1,70,0,0
163017,-100,4,1,2,60,0,0
163786,-100,4,2,0,50,0,0
164094,-66.6666666666667,4,3,5,75,0,1
164248,-66.6666666666667,4,3,5,65,0,1
164402,-66.6666666666667,4,3,5,55,0,1
164556,-66.6666666666667,4,3,5,45,0,1
164709,-66.6666666666667,4,3,5,75,0,1
166402,-66.6666666666667,4,2,0,80,0,1
166556,-66.6666666666667,4,3,5,75,0,1
166710,-66.6666666666667,4,3,5,65,0,1
166864,-66.6666666666667,4,3,5,55,0,1
167018,-66.6666666666667,4,3,5,45,0,1
167171,-66.6666666666667,4,1,1,50,0,1
167325,-66.6666666666667,4,3,0,40,0,1
167479,-66.6666666666667,4,3,1,70,0,1
167633,-66.6666666666667,4,3,0,40,0,1
167786,-66.6666666666667,4,3,1,70,0,1
167940,-66.6666666666667,4,3,0,40,0,1
168094,-66.6666666666667,4,1,1,50,0,1
168863,-66.6666666666667,4,3,0,40,0,1
169017,-66.6666666666667,4,3,5,75,0,1
169171,-66.6666666666667,4,3,5,65,0,1
169325,-66.6666666666667,4,3,5,55,0,1
169479,-66.6666666666667,4,3,5,45,0,1
169632,-66.6666666666667,4,3,5,75,0,1
171325,-66.6666666666667,4,2,0,80,0,1
171479,-66.6666666666667,4,3,5,75,0,1
171633,-66.6666666666667,4,3,5,65,0,1
171787,-66.6666666666667,4,3,5,55,0,1
171941,-66.6666666666667,4,3,5,45,0,1
172094,-66.6666666666667,4,1,1,50,0,1
172248,-66.6666666666667,4,3,0,40,0,1
172402,-66.6666666666667,4,3,1,70,0,1
172556,-66.6666666666667,4,3,0,40,0,1
172709,-66.6666666666667,4,3,1,70,0,1
172863,-66.6666666666667,4,3,0,40,0,1
173017,-66.6666666666667,4,1,1,50,0,1
173402,-66.6666666666667,4,3,0,75,0,1
173479,-66.6666666666667,4,1,1,50,0,1
173556,-66.6666666666667,4,3,0,75,0,1
173633,-66.6666666666667,4,1,1,50,0,1
173709,-66.6666666666667,4,3,0,75,0,1
173786,-66.6666666666667,4,1,1,50,0,1
173863,-66.6666666666667,4,3,0,75,0,1
173940,-66.6666666666667,4,3,5,75,0,1
174094,-66.6666666666667,4,3,5,65,0,1
174248,-66.6666666666667,4,3,5,55,0,1
174402,-66.6666666666667,4,3,5,45,0,1
174555,-66.6666666666667,4,3,5,75,0,1
176248,-66.6666666666667,4,2,0,80,0,1
176402,-66.6666666666667,4,3,5,75,0,1
176556,-66.6666666666667,4,3,5,65,0,1
176710,-66.6666666666667,4,3,5,55,0,1
176864,-66.6666666666667,4,3,5,45,0,1
177017,-66.6666666666667,4,1,1,50,0,1
177171,-66.6666666666667,4,3,0,40,0,1
177325,-66.6666666666667,4,3,1,70,0,1
177479,-66.6666666666667,4,3,0,40,0,1
177632,-66.6666666666667,4,3,1,70,0,1
177786,-66.6666666666667,4,3,0,40,0,1
177940,-66.6666666666667,4,1,1,50,0,1
178325,-66.6666666666667,4,3,0,75,0,1
178402,-66.6666666666667,4,1,1,50,0,1
178479,-66.6666666666667,4,3,0,75,0,1
178556,-66.6666666666667,4,1,1,50,0,1
178575,-66.6666666666667,4,3,0,60,0,1
178633,-66.6666666666667,4,3,0,50,0,1
178709,-66.6666666666667,4,3,0,40,0,1
178863,-100,4,2,1,65,0,1
183786,-100,4,2,0,50,0,0
188709,-100,4,2,0,55,0,0
191171,-100,4,2,0,60,0,0
193633,-100,4,2,1,75,0,0
198248,-66.6666666666667,4,2,1,75,0,0
198403,-100,4,2,1,75,0,0
203171,-66.6666666666667,4,2,1,75,0,0
203479,-100,4,3,1,70,0,0
203634,-100,4,1,2,50,0,0
203787,-100,4,1,2,60,0,0
204095,-100,4,3,1,70,0,0
204249,-100,4,1,2,60,0,0
204709,-45.4545454545455,4,3,1,70,0,0
204865,-45.4545454545455,4,1,2,60,0,0
205325,-100,4,3,1,70,0,0
205479,-66.6666666666667,4,1,2,60,0,0
205940,-100,4,3,1,70,0,0
206095,-100,4,1,2,60,0,0
206557,-100,4,3,1,70,0,0
206711,-100,4,1,2,60,0,0
207171,-45.4545454545455,4,3,1,70,0,0
207326,-45.4545454545455,4,1,2,60,0,0
207786,-100,4,3,1,70,0,0
207940,-66.6666666666667,4,1,2,60,0,0
208095,-100,4,1,2,50,0,0
208402,-66.6666666666667,4,3,1,70,0,0
208557,-100,4,1,2,50,0,0
208709,-41.6666666666667,4,1,2,60,0,0
209017,-66.6666666666667,4,3,1,70,0,0
209172,-100,4,1,2,60,0,0
209325,-40,4,1,2,50,0,0
209633,-66.6666666666667,4,3,1,70,0,0
209788,-100,4,1,2,60,0,0
209940,-38.4615384615385,4,1,2,50,0,0
210248,-35.7142857142857,4,3,1,70,0,0
210403,-35.7142857142857,4,1,2,60,0,0
210556,-76.9230769230769,4,1,2,60,0,0
210863,-83.3333333333333,4,1,2,60,0,0
212095,-83.3333333333333,4,3,1,70,0,0
212249,-83.3333333333333,4,1,2,60,0,0
213017,-45.4545454545455,4,2,0,75,0,0
213325,-80,4,2,1,80,0,1
213671,-80,4,3,0,40,0,1
213940,-80,4,2,1,80,0,1
215056,-80,4,3,0,40,0,1
215325,-80,4,2,1,80,0,1
215825,-80,4,3,0,40,0,1
216094,-80,4,2,1,80,0,1
216133,-80,4,3,0,40,0,1
216402,-80,4,2,1,80,0,1
217517,-80,4,3,0,40,0,1
217786,-80,4,2,1,80,0,1
217940,-37.593984962406,4,1,0,50,0,1
218171,-80,4,1,0,50,0,1
218248,-80,4,2,1,80,0,1
218594,-80,4,3,0,40,0,1
218863,-80,4,2,1,80,0,1
219979,-80,4,3,0,40,0,1
220248,-80,4,2,1,80,0,1
220748,-80,4,3,0,40,0,1
221017,-80,4,2,1,80,0,1
221056,-80,4,3,0,40,0,1
221325,-80,4,2,1,80,0,1
222863,-100,4,1,0,50,0,0
223094,-100,4,1,0,50,0,0
223171,-80,4,2,1,80,0,1
223209,-80,4,3,0,40,0,1
223478,-80,4,2,1,80,0,1
223517,-80,4,3,0,40,0,1
223786,-80,4,2,1,80,0,1
224902,-80,4,3,0,40,0,1
225171,-80,4,2,1,80,0,1
225671,-80,4,3,0,40,0,1
225940,-80,4,2,1,80,0,1
225979,-80,4,3,0,40,0,1
226248,-80,4,2,1,80,0,1
227363,-80,4,3,0,40,0,1
227632,-80,4,2,1,80,0,1
227786,-80,4,1,0,50,0,1
227825,-80,4,3,0,40,0,1
228094,-80,4,2,1,80,0,1
228133,-80,4,3,0,40,0,1
228402,-80,4,2,1,80,0,1
228440,-80,4,3,0,40,0,1
228709,-80,4,2,1,80,0,1
229825,-80,4,3,0,40,0,1
230094,-80,4,2,1,80,0,1
230594,-80,4,3,0,40,0,1
230863,-80,4,2,1,80,0,1
230902,-80,4,3,0,40,0,1
231171,-80,4,2,1,80,0,1
232671,-80,4,3,0,40,0,1
232709,-100,4,3,0,40,0,0
233017,-80,4,2,1,80,0,1
233363,-80,4,3,0,40,0,1
233632,-80,4,2,1,80,0,1
234748,-80,4,3,0,40,0,1
235017,-80,4,2,1,80,0,1
235517,-80,4,3,0,40,0,1
235786,-80,4,2,1,80,0,1
235825,-80,4,3,0,40,0,1
236094,-80,4,2,1,80,0,1
237209,-80,4,3,0,40,0,1
237478,-80,4,2,1,80,0,1
237632,-80,4,1,0,50,0,1
237863,-80,4,1,0,50,0,1
237940,-80,4,2,1,80,0,1
238286,-80,4,3,0,40,0,1
238555,-80,4,2,1,80,0,1
239671,-80,4,3,0,40,0,1
239940,-80,4,2,1,80,0,1
240440,-80,4,3,0,40,0,1
240709,-80,4,2,1,80,0,1
240748,-80,4,3,0,40,0,1
241017,-80,4,2,1,80,0,1
242556,-45.4545454545455,4,1,0,50,0,0
242863,-80,4,2,1,80,0,1
244594,-80,4,3,0,40,0,1
244863,-80,4,2,1,80,0,1
245632,-80,4,2,1,80,0,1
245671,-80,4,3,0,40,0,1
245940,-80,4,2,1,80,0,1
247055,-80,4,3,0,40,0,1
247324,-80,4,2,1,80,0,1
247478,-80,4,1,0,50,0,1
247709,-80,4,1,0,50,0,1
247786,-80,4,2,1,80,0,1
252402,-45.4545454545455,4,1,0,50,0,0
252709,-100,4,3,1,70,0,0
252863,-100,4,1,1,50,0,0
253016,-100,4,1,1,60,0,0
253324,-100,4,3,1,70,0,0
253478,-100,4,1,1,60,0,0
253939,-100,4,3,1,70,0,0
254093,-100,4,1,1,60,0,0
254555,-100,4,3,1,70,0,0
254709,-100,4,1,1,60,0,0
255170,-100,4,3,1,70,0,0
255324,-100,4,1,1,60,0,0
255786,-100,4,3,1,70,0,0
255940,-100,4,1,1,60,0,0
256401,-100,4,3,1,70,0,0
256555,-100,4,1,1,60,0,0
257016,-100,4,3,1,70,0,0
257170,-100,4,1,1,60,0,0
257324,-37.4531835205993,4,1,1,60,0,0
257478,-100,4,3,1,70,0,0
257633,-100,4,3,1,70,0,0
257786,-100,4,1,1,50,0,0
257939,-100,4,1,1,60,0,0
258247,-100,4,3,1,70,0,0
258401,-100,4,1,1,60,0,0
258862,-100,4,3,1,70,0,0
259016,-100,4,1,1,60,0,0
259478,-100,4,3,1,70,0,0
259632,-100,4,1,1,60,0,0
260093,-100,4,3,1,70,0,0
260247,-100,4,1,1,60,0,0
260709,-100,4,3,1,70,0,0
260863,-100,4,1,1,60,0,0
261324,-100,4,3,1,70,0,0
261478,-100,4,1,1,60,0,0
261939,-100,4,3,1,70,0,0
262093,-100,4,1,1,60,0,0
262401,-100,4,3,1,70,0,0
262555,-100,4,3,1,70,0,0
262709,-100,4,1,1,50,0,0
262862,-100,4,1,1,60,0,0
263170,-100,4,3,1,70,0,0
263324,-100,4,1,1,60,0,0
263785,-100,4,3,1,70,0,0
263939,-100,4,1,1,60,0,0
264401,-100,4,3,1,70,0,0
264555,-100,4,1,1,60,0,0
265016,-100,4,3,1,70,0,0
265170,-100,4,1,1,60,0,0
265632,-100,4,3,1,70,0,0
265786,-100,4,1,1,60,0,0
266247,-100,4,3,1,70,0,0
266401,-100,4,1,1,60,0,0
266862,-100,4,3,1,70,0,0
267016,-100,4,1,1,60,0,0
267171,-37.4531835205993,4,1,1,60,0,0
267324,-100,4,3,1,70,0,0
267479,-100,4,3,1,70,0,0
267632,-100,4,1,1,50,0,0
267785,-100,4,1,1,60,0,0
268093,-100,4,3,1,70,0,0
268247,-100,4,1,1,60,0,0
268708,-100,4,3,1,70,0,0
268862,-100,4,1,1,60,0,0
269324,-100,4,3,1,70,0,0
269478,-100,4,1,1,60,0,0
269939,-100,4,3,1,70,0,0
270093,-100,4,1,1,60,0,0
270555,-100,4,3,1,70,0,0
270709,-100,4,1,1,60,0,0
271170,-100,4,3,0,70,0,0
272402,-100,4,3,4,70,0,0
272709,-100,4,3,3,70,0,0
272863,-100,4,3,11,60,0,0
273017,-100,4,3,4,70,0,0
273171,-100,4,3,11,60,0,0
273325,-100,4,3,3,70,0,0
273479,-100,4,3,11,60,0,0
273633,-100,4,3,4,70,0,0
273786,-100,4,3,11,60,0,0
273940,-100,4,3,3,70,0,0
274094,-100,4,3,11,60,0,0
274248,-45.4545454545455,4,3,4,70,0,0
274556,-100,4,3,3,70,0,0
274863,-100,4,3,4,70,0,0
275170,-100,4,3,3,70,0,0
275324,-100,4,3,11,60,0,0
275478,-100,4,3,4,70,0,0
275632,-100,4,3,11,60,0,0
275786,-100,4,3,3,70,0,0
275940,-100,4,3,11,60,0,0
276094,-100,4,3,4,70,0,0
276247,-100,4,3,11,60,0,0
276401,-100,4,3,3,70,0,0
276555,-100,4,3,11,60,0,0
276709,-100,4,3,4,70,0,0
277017,-100,4,3,3,70,0,0
277325,-100,4,3,4,70,0,0
277632,-100,4,3,3,70,0,0
277786,-100,4,3,11,60,0,0
277940,-100,4,3,4,70,0,0
278094,-100,4,3,11,60,0,0
278248,-100,4,3,3,70,0,0
278402,-100,4,3,11,60,0,0
278556,-100,4,3,4,70,0,0
278709,-100,4,3,11,60,0,0
278863,-100,4,3,3,70,0,0
279017,-100,4,3,11,60,0,0
279171,-41.6666666666667,4,3,4,70,0,0
279479,-100,4,3,3,70,0,0
279786,-100,4,3,4,70,0,0
280093,-100,4,3,3,70,0,0
280247,-100,4,3,11,60,0,0
280401,-100,4,3,4,70,0,0
280555,-100,4,3,11,60,0,0
280709,-100,4,3,3,70,0,0
280863,-100,4,3,11,60,0,0
281017,-100,4,3,4,70,0,0
281170,-100,4,3,11,60,0,0
281324,-100,4,3,3,70,0,0
281478,-100,4,3,11,60,0,0
281632,-100,4,3,4,70,0,0
281940,-45.4545454545455,4,3,3,70,0,0
282248,-100,4,3,4,70,0,0
282555,-100,4,3,3,70,0,0
282709,-100,4,3,11,60,0,0
282863,-100,4,3,4,70,0,0
283017,-100,4,3,11,60,0,0
283171,-100,4,3,3,70,0,0
283325,-100,4,3,11,60,0,0
283479,-100,4,3,4,70,0,0
283632,-100,4,3,11,60,0,0
283786,-100,4,3,3,70,0,0
283940,-100,4,3,11,60,0,0
284094,-45.4545454545455,4,3,4,70,0,0
284402,-100,4,3,3,70,0,0
284709,-100,4,3,4,70,0,0
285016,-100,4,3,3,70,0,0
285170,-100,4,3,11,60,0,0
285324,-100,4,3,4,70,0,0
285478,-100,4,3,11,60,0,0
285632,-100,4,3,3,70,0,0
285786,-100,4,3,11,60,0,0
285940,-100,4,3,4,70,0,0
286093,-100,4,3,11,60,0,0
286247,-100,4,3,3,70,0,0
286401,-100,4,3,11,60,0,0
286555,-100,4,3,4,70,0,0
286709,-45.4545454545455,4,1,0,50,0,0
286863,-100,4,3,3,70,0,0
287171,-100,4,3,4,70,0,0
287478,-100,4,3,3,70,0,0
287632,-100,4,3,11,60,0,0
287786,-100,4,3,4,70,0,0
287940,-100,4,3,11,60,0,0
288094,-100,4,3,3,70,0,0
288248,-100,4,3,11,60,0,0
288402,-100,4,3,4,70,0,0
288555,-100,4,3,11,60,0,0
288709,-100,4,3,3,70,0,0
288863,-100,4,3,11,60,0,0
289017,-100,4,3,4,70,0,0
289171,-45.4545454545455,4,1,0,50,0,0
289325,-100,4,3,3,70,0,0
289479,-100,4,1,0,50,0,0
289632,-100,4,3,4,70,0,0
289939,-100,4,3,3,70,0,0
290093,-100,4,3,11,60,0,0
290247,-100,4,3,4,70,0,0
290401,-100,4,3,11,60,0,0
290555,-100,4,3,3,70,0,0
290709,-100,4,3,11,60,0,0
290863,-100,4,3,4,70,0,0
291016,-100,4,3,11,60,0,0
291170,-100,4,3,3,70,0,0
291324,-100,4,3,11,60,0,0
291478,-100,4,3,4,70,0,0
291786,-45.4545454545455,4,3,3,70,0,0
292094,-100,4,3,1,70,0,0
292248,-100,4,1,1,50,0,0
292401,-100,4,1,1,60,0,0
292709,-100,4,3,1,70,0,0
292863,-100,4,1,1,60,0,0
293324,-100,4,3,1,70,0,0
293478,-100,4,1,1,60,0,0
293940,-100,4,3,1,70,0,0
294094,-100,4,1,1,60,0,0
294555,-100,4,3,1,70,0,0
294709,-100,4,1,1,60,0,0
295171,-100,4,3,1,70,0,0
295325,-100,4,1,1,60,0,0
295786,-100,4,3,1,70,0,0
295940,-100,4,1,1,60,0,0
296401,-100,4,3,1,70,0,0
296555,-100,4,1,1,60,0,0
296863,-100,4,3,1,70,0,0
297017,-100,4,3,1,70,0,0
297171,-100,4,1,11,50,0,0
297324,-100,4,1,1,60,0,0
297632,-100,4,3,1,70,0,0
297786,-100,4,1,1,60,0,0
298248,-100,4,3,1,70,0,0
298402,-100,4,1,1,60,0,0
298863,-100,4,3,1,70,0,0
299017,-100,4,1,1,60,0,0
299478,-100,4,3,1,70,0,0
299632,-100,4,1,1,60,0,0
300094,-100,4,3,1,70,0,0
300248,-100,4,1,1,60,0,0
300709,-100,4,3,1,70,0,0
300863,-100,4,1,1,60,0,0
301324,-100,4,3,1,70,0,0
301478,-100,4,1,1,60,0,0
301940,-100,4,2,1,50,0,0
304402,-100,4,2,1,45,0,0
306863,-100,4,2,1,40,0,0
309325,-100,4,2,1,35,0,0
310709,-100,4,2,0,40,0,0
311171,-100,4,2,0,35,0,0
311786,-100,4,2,0,30,0,0
312402,-100,4,2,0,25,0,0
313017,-100,4,2,0,20,0,0
313633,-100,4,2,0,15,0,0
314248,-100,4,2,0,10,0,0

[Colours]
Combo1 : 128,0,255
Combo2 : 128,255,255
Combo3 : 255,128,255
Combo4 : 0,128,255

[HitObjects]
256,192,1632,12,0,3479,0:0:0:0:
134,209,3786,5,0,0:0:0:0:
321,205,4094,5,0,0:0:0:0:
230,189,4248,2,0,B|134:189|134:189|134:77,3,192,8|2|2|2,0:0|0:0|0:0|0:0,0:0:0:0:
309,192,5479,2,0,L|509:211,3,192,2|2|2|2,0:0|0:0|0:0|0:0,0:0:0:0:
236,136,6556,5,0,0:0:0:0:
131,101,6709,2,0,L|353:90,7,211.200006445313,8|2|2|2|2|2|2|2,0:0|0:0|0:0|0:0|0:0|0:0|0:0|0:0,0:0:0:0:
103,170,9017,5,0,0:0:0:0:
211,187,9171,2,0,L|429:199,7,211.200006445313,8|2|2|2|2|2|2|2,0:0|0:0|0:0|0:0|0:0|0:0|0:0|0:0,0:0:0:0:
86,202,11479,6,0,L|84:99,1,96,12|2,0:0|0:0,0:0:0:0:
228,89,11786,2,0,L|119:78,1,96,8|0,0:0|0:0,0:0:0:0:
293,60,12094,2,0,L|402:52,1,96,8|0,0:0|0:0,0:0:0:0:
240,37,12402,2,0,L|359:27,1,96,8|0,0:0|0:0,0:0:0:0:
96,111,12709,6,0,L|90:222,1,96,8|0,0:0|0:0,0:0:0:0:
237,234,13017,2,0,L|135:244,1,96,8|0,0:0|0:0,0:0:0:0:
287,259,13325,2,0,L|296:363,1,96,8|0,0:0|0:0,0:0:0:0:
146,342,13633,2,0,L|249:352,1,96,8|0,0:0|0:0,0:0:0:0:
480,320,13940,6,0,L|483:210,1,96,8|0,0:0|0:0,0:0:0:0:
341,207,14248,2,0,L|445:201,1,96,8|0,0:0|0:0,0:0:0:0:
282,152,14556,2,0,L|154:146,1,96,8|0,0:0|0:0,0:0:0:0:
332,105,14863,2,0,L|218:100,1,96,8|0,0:0|0:0,0:0:0:0:
23,117,15171,6,0,L|20:225,1,96,8|0,0:0|0:0,0:0:0:0:
163,235,15479,2,0,L|63:241,1,96,8|0,0:0|0:0,0:0:0:0:
215,197,15786,2,0,L|334:193,1,96,8|0,0:0|0:0,0:0:0:0:
154,150,16094,1,8,0:0:0:0:
314,131,16248,1,8,0:0:0:0:
96,60,16402,6,0,B|309:63|309:63|319:277,1,422.400012890625,12|8,0:0|0:0,0:0:0:0:
224,290,16863,1,0,0:0:0:0:
374,310,17017,2,0,L|478:314,1,96,8|0,0:0|0:0,0:0:0:0:
324,346,17325,1,8,0:0:0:0:
471,359,17479,1,0,0:0:0:0:
214,223,17633,6,0,L|108:214,1,96,8|0,0:0|0:0,0:0:0:0:
248,183,17940,1,8,0:0:0:0:
116,169,18094,1,0,0:0:0:0:
269,131,18248,1,8,0:0:0:0:
107,114,18402,1,0,0:0:0:0:
350,92,18556,1,8,0:0:0:0:
206,83,18709,1,0,0:0:0:0:
455,62,18863,5,8,0:0:0:0:
320,54,19017,1,0,0:0:0:0:
81,43,19171,1,8,0:0:0:0:
216,54,19325,1,0,0:0:0:0:
351,65,19479,1,8,0:0:0:0:
216,54,19633,1,0,0:0:0:0:
446,138,19786,1,8,0:0:0:0:
303,153,19940,1,0,0:0:0:0:
70,159,20094,6,0,L|64:260,1,96,8|0,0:0|0:0,0:0:0:0:
114,265,20325,1,0,0:0:0:0:
282,272,20402,2,0,L|388:282,1,96,8|0,0:0|0:0,0:0:0:0:
427,288,20633,1,0,0:0:0:0:
344,199,20709,2,0,L|341:99,1,96,8|0,0:0|0:0,0:0:0:0:
496,80,21017,1,8,0:0:0:0:
130,95,21325,6,0,L|352:103,1,211.200006445313,12|2,0:0|0:0,0:0:0:0:
389,108,21556,1,0,0:0:0:0:
246,164,21633,2,0,L|239:280,1,96,8|0,0:0|0:0,0:0:0:0:
401,268,21940,2,0,L|274:272,1,96,8|0,0:0|0:0,0:0:0:0:
257,271,22171,1,0,0:0:0:0:
405,328,22248,1,8,0:0:0:0:
281,335,22402,1,0,0:0:0:0:
496,320,22556,6,0,L|492:207,1,96,8|0,0:0|0:0,0:0:0:0:
445,210,22786,1,0,0:0:0:0:
285,191,22863,2,0,L|173:185,1,96,8|0,0:0|0:0,0:0:0:0:
423,139,23171,1,8,0:0:0:0:
209,75,23325,2,0,L|207:136,1,48,8|0,3:0|0:0,0:0:0:0:
378,143,23479,2,0,L|384:22,1,96,8|0,0:0|0:0,0:0:0:0:
334,34,23709,1,0,0:0:0:0:
161,35,23786,6,0,L|41:29,1,96,8|0,0:0|0:0,0:0:0:0:
110,85,24017,1,0,0:0:0:0:
270,140,24094,2,0,L|272:246,1,96,8|0,0:0|0:0,0:0:0:0:
222,247,24325,1,0,0:0:0:0:
78,262,24402,2,0,L|83:166,1,96,8|0,0:0|0:0,0:0:0:0:
134,164,24633,1,0,0:0:0:0:
301,78,24709,2,0,L|424:74,1,96,8|0,0:0|0:0,0:0:0:0:
127,66,25017,5,8,0:0:0:0:
254,96,25171,2,0,L|257:168,1,48,0|0,0:0|0:0,0:0:0:0:
112,149,25325,2,0,L|105:257,1,96,8|0,0:0|0:0,0:0:0:0:
156,248,25556,1,0,0:0:0:0:
301,264,25633,1,8,0:0:0:0:
83,286,25786,2,0,L|78:357,1,48,8|0,3:0|0:0,0:0:0:0:
246,344,25940,2,0,L|348:347,1,96,8|0,0:0|0:0,0:0:0:0:
130,341,26248,6,0,L|347:346,1,211.200006445313,8|2,0:0|0:0,0:0:0:0:
291,285,26479,1,0,0:0:0:0:
124,264,26556,2,0,L|117:148,1,96,8|0,0:0|0:0,0:0:0:0:
167,159,26786,1,0,0:0:0:0:
336,151,26863,2,0,L|454:141,1,96,8|0,0:0|0:0,0:0:0:0:
381,88,27094,1,0,0:0:0:0:
235,76,27171,1,8,0:0:0:0:
374,59,27325,2,0,L|378:3,1,48,0|0,0:0|0:0,0:0:0:0:
205,19,27479,6,0,L|94:16,1,96,8|0,0:0|0:0,0:0:0:0:
158,75,27709,1,0,0:0:0:0:
351,135,27786,2,0,L|454:141,1,96,8|0,0:0|0:0,0:0:0:0:
149,210,28094,1,8,0:0:0:0:
295,233,28248,2,0,L|297:290,1,48,8|0,3:0|0:0,0:0:0:0:
121,288,28402,2,0,L|16:290,1,96,8|0,0:0|0:0,0:0:0:0:
74,344,28633,1,0,0:0:0:0:
259,351,28709,6,0,L|384:357,1,105.600003222656,8|0,0:0|0:0,0:0:0:0:
419,357,28940,1,0,0:0:0:0:
234,226,29017,2,0,L|230:121,1,105.600003222656,8|0,0:0|0:0,0:0:0:0:
284,110,29248,1,0,0:0:0:0:
124,89,29325,2,0,L|12:79,1,105.600003222656,8|0,0:0|0:0,0:0:0:0:
74,39,29556,1,0,0:0:0:0:
233,48,29633,2,0,L|112:40,1,105.600003222656,8|0,0:0|0:0,0:0:0:0:
74,39,29863,1,0,0:0:0:0:
315,83,29940,6,0,B|171:83|171:83|288:160|288:160|208:281|208:281|293:154,1,576,8|2,0:0|0:0,0:0:0:0:
316,160,31017,1,2,0:0:0:0:
289,158,31094,1,0,0:0:0:0:
80,167,31171,6,0,B|80:311|80:311|176:207|176:207|176:351|176:351|272:239|272:239|272:383|272:383|368:279|368:279|368:423|368:423|464:319|464:319|64:143|64:143|96:79|96:79|64:15|64:15|96:79|96:79|64:15|64:15|96:79|96:79|64:143|64:143|464:319|464:319|432:255|432:255|464:191|464:191|432:127|432:127|464:63|464:63|432:127|432:127|464:191|464:191|432:255|432:255|464:319|464:319|400:-1|256:63|112:-1|48:319|48:319|-16:-17|256:-49|528:-17|464:319,1,4608.00017578126,12|6,0:0|0:0,0:0:0:0:
256,336,36402,5,0,0:0:0:0:
464,192,36709,2,0,L|448:96,1,96,2|2,0:0|0:0,0:0:0:0:
320,192,37017,2,0,L|304:96,1,96,0|0,0:0|0:0,0:0:0:0:
432,192,37325,2,0,L|336:192,2,96,2|0|0,0:0|0:0|0:0,0:0:0:0:
304,192,37786,1,2,0:0:0:0:
304,192,38094,1,2,0:0:0:0:
432,16,38248,1,2,0:0:0:0:
304,16,38402,1,0,0:0:0:0:
176,192,38556,5,2,0:0:0:0:
384,192,38863,1,0,0:0:0:0:
176,192,39171,2,0,L|160:96,1,96,2|2,0:0|0:0,0:0:0:0:
288,192,39479,2,0,L|272:96,1,96,0|0,0:0|0:0,0:0:0:0:
144,192,39786,2,0,L|240:192,2,96,2|0|0,0:0|0:0|0:0,0:0:0:0:
272,192,40248,1,2,0:0:0:0:
272,16,40556,2,0,L|304:112,1,96,2|2,0:0|0:0,0:0:0:0:
176,112,40863,1,0,0:0:0:0:
48,192,41017,5,2,0:0:0:0:
256,336,41325,1,0,0:0:0:0:
48,192,41633,2,0,L|64:96,1,96,2|2,0:0|0:0,0:0:0:0:
192,192,41940,2,0,L|208:96,1,96,0|0,0:0|0:0,0:0:0:0:
80,192,42248,2,0,L|176:192,2,96,2|0|0,0:0|0:0|0:0,0:0:0:0:
208,192,42709,1,2,0:0:0:0:
208,192,43017,1,2,0:0:0:0:
80,16,43171,1,2,0:0:0:0:
208,16,43325,1,0,0:0:0:0:
336,192,43479,5,2,0:0:0:0:
128,192,43786,1,0,0:0:0:0:
336,192,44094,2,0,L|352:96,1,96,2|2,0:0|0:0,0:0:0:0:
224,192,44402,2,0,L|240:96,1,96,0|0,0:0|0:0,0:0:0:0:
368,192,44709,2,0,L|272:192,2,96,2|0|0,0:0|0:0|0:0,0:0:0:0:
240,192,45171,1,2,0:0:0:0:
240,16,45479,1,2,0:0:0:0:
368,16,45633,2,0,L|384:112,1,96,2|0,0:0|0:0,0:0:0:0:
129,110,45940,5,6,0:0:0:0:
336,192,46248,1,0,0:0:0:0:
128,272,46556,2,0,L|224:272,1,96,2|2,0:0|0:0,0:0:0:0:
96,192,46863,2,0,L|192:192,1,96,0|0,0:0|0:0,0:0:0:0:
320,192,47171,2,0,L|224:192,2,96,2|0|0,0:0|0:0|0:0,0:0:0:0:
192,192,47633,2,0,P|160:112|192:16,1,192,2|2,0:0|0:0,0:0:0:0:
320,16,48094,1,2,0:0:0:0:
192,16,48248,1,0,0:0:0:0:
320,192,48402,6,0,L|128:192,2,192,2|0|2,0:0|0:0|0:0,0:0:0:0:
448,192,49171,1,2,0:0:0:0:
320,192,49325,1,0,0:0:0:0:
448,192,49479,1,0,0:0:0:0:
320,192,49633,1,2,0:0:0:0:
192,192,49786,1,0,0:0:0:0:
320,192,49940,1,0,0:0:0:0:
192,192,50094,2,0,P|160:112|192:16,1,192,2|2,0:0|0:0,0:0:0:0:
320,16,50556,1,2,0:0:0:0:
80,192,50863,5,2,0:0:0:0:
320,192,51171,1,0,0:0:0:0:
80,192,51479,1,2,0:0:0:0:
208,192,51633,1,2,0:0:0:0:
336,192,51786,1,0,0:0:0:0:
208,96,51940,1,0,0:0:0:0:
336,96,52094,1,2,0:0:0:0:
464,96,52248,1,0,0:0:0:0:
336,192,52402,1,0,0:0:0:0:
464,192,52556,2,0,P|496:112|464:16,1,192,2|2,0:0|0:0,0:0:0:0:
336,16,53017,1,2,0:0:0:0:
96,192,53325,5,2,0:0:0:0:
336,192,53633,1,0,0:0:0:0:
96,192,53940,1,2,0:0:0:0:
224,192,54094,1,2,0:0:0:0:
352,192,54248,1,0,0:0:0:0:
224,192,54402,1,0,0:0:0:0:
96,96,54556,1,2,0:0:0:0:
224,96,54709,1,0,0:0:0:0:
96,96,54863,1,0,0:0:0:0:
224,96,55017,2,0,P|256:176|224:272,1,192,2|2,0:0|0:0,0:0:0:0:
48,272,55479,1,10,0:0:0:0:
480,208,55786,6,0,L|484:94,1,96,12|0,0:0|0:0,0:0:0:0:
259,97,56094,2,0,L|456:91,1,192,2|8,0:0|0:0,0:0:0:0:
304,165,56556,1,0,0:0:0:0:
442,170,56709,2,0,L|447:281,1,96,2|0,0:0|0:0,0:0:0:0:
198,278,57017,6,0,L|75:278,1,96,8|0,0:0|0:0,0:0:0:0:
252,244,57325,1,2,0:0:0:0:
100,224,57479,2,0,L|94:104,1,96,8|0,0:0|0:0,0:0:0:0:
234,108,57786,1,8,0:0:0:0:
16,160,57940,2,0,L|22:56,1,96,2|0,0:0|0:0,0:0:0:0:
284,55,58248,6,0,L|381:62,1,96,8|0,0:0|0:0,0:0:0:0:
230,144,58556,2,0,L|227:256,1,96,2|0,0:0|0:0,0:0:0:0:
463,255,58863,1,8,0:0:0:0:
332,260,59017,1,0,0:0:0:0:
463,255,59171,2,0,L|465:139,1,96,2|0,0:0|0:0,0:0:0:0:
220,151,59479,6,0,L|224:37,1,96,8|2,0:0|0:0,0:0:0:0:
368,55,59786,1,0,0:0:0:0:
223,55,59940,2,0,L|127:46,1,96
262,14,60248,1,0,0:0:0:0:
30,84,60402,2,0,L|186:86,1,144.000005493164,10|0,0:0|0:0,0:0:0:0:
465,226,60709,6,0,L|468:120,1,96,8|0,0:0|0:0,0:0:0:0:
247,239,61017,2,0,L|129:232,1,96,2|0,0:0|0:0,0:0:0:0:
387,276,61325,1,8,0:0:0:0:
256,276,61479,1,0,0:0:0:0:
387,276,61633,2,0,L|396:168,1,96,2|0,0:0|0:0,0:0:0:0:
144,140,61940,6,0,L|25:133,1,96,8|0,0:0|0:0,0:0:0:0:
183,162,62248,1,2,0:0:0:0:
46,201,62402,2,0,L|37:300,1,96,8|0,0:0|0:0,0:0:0:0:
180,311,62709,1,8,0:0:0:0:
398,313,62863,1,2,0:0:0:0:
269,308,63017,1,0,0:0:0:0:
488,277,63171,6,0,L|492:180,1,96,8|0,0:0|0:0,0:0:0:0:
344,163,63479,2,0,L|448:160,1,96,2|0,0:0|0:0,0:0:0:0:
191,132,63786,1,8,0:0:0:0:
329,123,63940,1,0,0:0:0:0:
110,141,64094,2,0,L|102:36,1,96,2|0,0:0|0:0,0:0:0:0:
354,39,64402,6,0,L|461:37,2,96,8|0|2,0:0|0:0|0:0,0:0:0:0:
209,55,64863,1,8,0:0:0:0:
350,102,65017,2,0,L|355:212,1,96,0|8,0:0|0:0,0:0:0:0:
138,193,65325,2,0,B|359:198,1,216.000008239746,10|0,0:0|0:0,0:0:0:0:
170,114,65633,6,0,L|163:2,1,96,8|0,0:0|0:0,0:0:0:0:
393,30,65940,1,8,0:0:0:0:
256,25,66094,1,0,0:0:0:0:
496,92,66248,1,8,0:0:0:0:
360,89,66402,1,0,0:0:0:0:
496,92,66556,1,8,0:0:0:0:
360,89,66709,1,0,0:0:0:0:
113,177,66863,5,8,0:0:0:0:
246,196,67017,1,0,0:0:0:0:
21,177,67171,2,0,L|19:69,1,96,8|0,0:0|0:0,0:0:0:0:
264,282,67479,1,8,0:0:0:0:
51,297,67633,1,8,3:0:0:0:
264,282,67786,2,0,L|100:285,1,144.000005493164,8|0,0:0|0:0,0:0:0:0:
407,174,68094,6,0,L|414:62,1,96,8|0,0:0|0:0,0:0:0:0:
184,43,68402,2,0,L|61:34,1,96,8|0,0:0|0:0,0:0:0:0:
328,109,68709,1,8,0:0:0:0:
192,106,68863,1,0,0:0:0:0:
328,109,69017,1,8,0:0:0:0:
192,106,69171,1,0,0:0:0:0:
409,182,69325,5,8,0:0:0:0:
276,201,69479,1,0,0:0:0:0:
493,182,69633,2,0,L|495:74,1,96,8|0,0:0|0:0,0:0:0:0:
250,287,69940,1,8,0:0:0:0:
463,302,70094,1,8,3:0:0:0:
250,287,70248,2,0,B|395:289|395:289|313:288,1,216.000008239746,8|0,0:0|0:0,0:0:0:0:
96,208,70556,6,0,L|240:208,1,144.000005493164,8|0,0:0|0:0,0:0:0:0:
96,208,70863,2,0,L|320:208,1,211.200006445313,8|0,0:0|0:0,0:0:0:0:
307,208,71171,2,0,L|163:208,1,144.000005493164,8|0,0:0|0:0,0:0:0:0:
307,208,71479,2,0,L|83:208,1,211.200006445313,8|0,0:0|0:0,0:0:0:0:
95,208,71786,6,0,L|239:208,1,144.000005493164,8|0,0:0|0:0,0:0:0:0:
95,208,72094,2,0,L|368:208,1,259.20000098877,8|0,0:0|0:0,0:0:0:0:
230,146,72402,1,8,0:0:0:0:
359,146,72556,1,8,3:0:0:0:
129,149,72709,2,0,B|58:134|58:134|54:56,1,144.000005493164,8|0,0:0|0:0,0:0:0:0:
348,275,73017,6,0,L|352:205,1,48,8|0,3:0|0:0,0:0:0:0:
164,275,73171,2,0,L|160:205,1,48,8|0,0:0|0:0,0:0:0:0:
348,275,73325,2,0,L|381:214,1,48,8|0,3:0|0:0,0:0:0:0:
164,275,73479,2,0,L|131:214,1,48,8|0,0:0|0:0,0:0:0:0:
348,275,73633,1,8,0:0:0:0:
422,269,73709,1,0,0:0:0:0:
348,275,73786,1,8,0:0:0:0:
276,279,73863,1,0,0:0:0:0:
108,159,73940,1,8,0:0:0:0:
36,156,74017,1,0,0:0:0:0:
275,162,74094,1,8,0:0:0:0:
347,159,74171,1,0,0:0:0:0:
129,184,74248,6,0,P|86:146|141:40,1,192,8|8,0:0|0:0,0:0:0:0:
290,55,74709,2,0,L|294:166,1,96,0|8,0:0|0:0,0:0:0:0:
63,214,75017,1,0,0:0:0:0:
295,238,75171,2,0,B|80:244|80:244|73:364,1,316.800009667969,10|0,0:0|0:0,0:0:0:0:
288,192,75479,6,0,L|192:192,1,96,12|2,0:0|0:0,0:0:0:0:
448,192,75786,2,0,L|464:96,1,96,8|0,0:0|0:0,0:0:0:0:
320,96,76094,2,0,L|416:96,1,96,8|0,0:0|0:0,0:0:0:0:
160,96,76402,2,0,L|144:192,1,96,8|0,0:0|0:0,0:0:0:0:
288,192,76709,6,0,L|192:192,1,96,8|0,0:0|0:0,0:0:0:0:
448,192,77017,2,0,L|464:96,1,96,8|0,0:0|0:0,0:0:0:0:
208,96,77325,1,8,0:0:0:0:
352,96,77479,1,0,0:0:0:0:
96,192,77633,2,0,L|80:96,1,96,8|0,0:0|0:0,0:0:0:0:
224,192,77940,6,0,L|128:192,1,96,8|0,0:0|0:0,0:0:0:0:
384,192,78248,2,0,L|400:288,1,96,8|0,0:0|0:0,0:0:0:0:
256,288,78556,2,0,L|352:288,1,96,8|0,0:0|0:0,0:0:0:0:
96,288,78863,2,0,L|80:192,1,96,8|0,0:0|0:0,0:0:0:0:
224,192,79171,6,0,L|128:192,1,96,8|0,0:0|0:0,0:0:0:0:
384,192,79479,2,0,L|400:288,1,96,8|0,0:0|0:0,0:0:0:0:
144,288,79786,1,8,0:0:0:0:
288,288,79940,1,0,0:0:0:0:
32,192,80094,2,0,L|16:96,1,96,8|8,0:0|0:0,0:0:0:0:
272,64,80402,6,0,L|176:64,1,96,12|2,0:0|0:0,0:0:0:0:
432,64,80709,2,0,L|416:160,1,96,8|0,0:0|0:0,0:0:0:0:
272,320,81017,2,0,L|368:320,1,96,8|0,0:0|0:0,0:0:0:0:
112,320,81325,2,0,L|128:224,1,96,8|0,0:0|0:0,0:0:0:0:
272,64,81633,6,0,L|176:64,1,96,8|0,0:0|0:0,0:0:0:0:
432,64,81940,2,0,L|416:160,1,96,8|0,0:0|0:0,0:0:0:0:
160,192,82248,1,8,0:0:0:0:
304,192,82402,1,0,0:0:0:0:
48,192,82556,2,0,L|64:96,1,96,8|0,0:0|0:0,0:0:0:0:
320,96,82863,6,0,L|224:96,1,96,8|0,0:0|0:0,0:0:0:0:
480,96,83171,2,0,L|384:96,1,96,8|0,0:0|0:0,0:0:0:0:
240,192,83479,2,0,L|336:192,1,96,8|0,0:0|0:0,0:0:0:0:
80,192,83786,2,0,L|176:192,1,96,8|0,0:0|0:0,0:0:0:0:
432,96,84094,6,0,B|304:112|304:112|288:256,1,268.799991796875,8|8,0:0|0:0,0:0:0:0:
432,192,84556,1,0,0:0:0:0:
176,192,84709,1,8,0:0:0:0:
320,192,84863,1,0,0:0:0:0:
64,192,85017,1,8,0:0:0:0:
320,192,85171,1,8,0:0:0:0:
64,192,85325,6,0,L|48:96,1,96,12|2,0:0|0:0,0:0:0:0:
304,96,85633,2,0,L|208:96,1,96,8|0,0:0|0:0,0:0:0:0:
352,192,85940,2,0,L|256:192,1,96,8|0,0:0|0:0,0:0:0:0:
400,288,86248,2,0,L|304:288,1,96,8|0,0:0|0:0,0:0:0:0:
160,288,86556,6,0,L|256:288,1,96,8|0,0:0|0:0,0:0:0:0:
112,192,86863,2,0,L|208:192,1,96,8|0,0:0|0:0,0:0:0:0:
64,96,87171,1,8,0:0:0:0:
320,96,87325,1,8,3:0:0:0:
64,96,87479,2,0,L|208:96,1,144,8|0,0:0|0:0,0:0:0:0:
384,192,87786,6,0,L|400:96,1,96,8|0,0:0|0:0,0:0:0:0:
144,96,88094,2,0,L|240:96,1,96,8|0,0:0|0:0,0:0:0:0:
96,192,88402,2,0,L|192:192,1,96,8|0,0:0|0:0,0:0:0:0:
48,288,88709,2,0,L|144:288,1,96,8|0,0:0|0:0,0:0:0:0:
288,288,89017,6,0,L|192:288,1,96,8|0,0:0|0:0,0:0:0:0:
336,192,89325,2,0,L|240:192,1,96,8|0,0:0|0:0,0:0:0:0:
384,96,89633,1,8,0:0:0:0:
128,96,89786,1,8,3:0:0:0:
384,96,89940,2,0,B|160:224|160:224|224:112,1,384.480013346741,10|0,0:0|0:0,0:0:0:0:
448,192,90248,6,0,L|464:96,1,96,12|2,0:0|0:0,0:0:0:0:
208,96,90556,2,0,L|304:96,1,96,8|0,0:0|0:0,0:0:0:0:
160,192,90863,2,0,L|256:192,1,96,8|0,0:0|0:0,0:0:0:0:
112,288,91171,2,0,L|208:288,1,96,8|0,0:0|0:0,0:0:0:0:
352,288,91479,6,0,L|256:288,1,96,8|0,0:0|0:0,0:0:0:0:
400,192,91786,2,0,L|304:192,1,96,8|0,0:0|0:0,0:0:0:0:
448,96,92094,1,8,0:0:0:0:
192,96,92248,1,8,3:0:0:0:
448,96,92402,2,0,L|304:96,1,144,8|0,0:0|0:0,0:0:0:0:
128,192,92709,6,0,L|112:96,1,96,8|0,0:0|0:0,0:0:0:0:
368,96,93017,2,0,L|272:96,1,96,8|0,0:0|0:0,0:0:0:0:
416,192,93325,2,0,L|320:192,1,96,8|0,0:0|0:0,0:0:0:0:
464,288,93633,2,0,L|368:288,1,96,8|0,0:0|0:0,0:0:0:0:
224,288,93940,6,0,L|320:288,1,96,8|0,0:0|0:0,0:0:0:0:
320,288,94145,1,0,0:0:0:0:
112,192,94248,2,0,L|16:192,1,96,8|0,0:0|0:0,0:0:0:0:
272,96,94556,1,8,0:0:0:0:
416,96,94709,1,0,0:0:0:0:
96,96,94863,2,0,P|80:160|80:240,1,144,10|0,0:0|0:0,0:0:0:0:
272,240,95171,6,0,L|288:144,1,96,12|2,0:0|0:0,0:0:0:0:
32,48,95479,2,0,L|144:48,1,96,8|0,0:0|0:0,0:0:0:0:
272,96,95786,2,0,L|176:96,1,96,8|0,0:0|0:0,0:0:0:0:
32,144,96094,2,0,L|144:144,1,96,8|0,0:0|0:0,0:0:0:0:
272,336,96402,6,0,L|160:336,1,96,8|0,0:0|0:0,0:0:0:0:
320,288,96709,2,0,L|416:288,1,96,8|0,0:0|0:0,0:0:0:0:
272,240,97017,1,8,0:0:0:0:
16,240,97171,1,8,3:0:0:0:
272,240,97325,2,0,L|416:240,1,144,8|0,0:0|0:0,0:0:0:0:
240,240,97633,6,0,L|224:144,1,96,8|0,0:0|0:0,0:0:0:0:
480,48,97940,2,0,L|368:48,1,96,8|0,0:0|0:0,0:0:0:0:
240,96,98248,2,0,L|336:96,1,96,8|0,0:0|0:0,0:0:0:0:
480,144,98556,2,0,L|368:144,1,96,8|0,0:0|0:0,0:0:0:0:
240,336,98863,6,0,L|352:336,1,96,8|0,0:0|0:0,0:0:0:0:
192,288,99171,2,0,L|96:288,1,96,8|0,0:0|0:0,0:0:0:0:
240,240,99479,1,8,0:0:0:0:
496,240,99633,1,8,3:0:0:0:
240,240,99786,2,0,B|464:368|464:368|400:256,1,384.480013346741,10|0,0:0|0:0,0:0:0:0:
176,240,100094,6,0,L|160:144,1,96,12|2,0:0|0:0,0:0:0:0:
416,48,100402,2,0,L|304:48,1,96,8|0,0:0|0:0,0:0:0:0:
176,96,100709,2,0,L|272:96,1,96,8|0,0:0|0:0,0:0:0:0:
416,144,101017,2,0,L|304:144,1,96,8|0,0:0|0:0,0:0:0:0:
176,336,101325,6,0,L|288:336,1,96,8|0,0:0|0:0,0:0:0:0:
128,288,101633,2,0,L|32:288,1,96,8|0,0:0|0:0,0:0:0:0:
176,240,101940,1,8,0:0:0:0:
432,240,102094,1,8,3:0:0:0:
176,240,102248,2,0,L|320:240,1,144,8|0,0:0|0:0,0:0:0:0:
144,240,102556,6,0,L|128:144,1,96,8|0,0:0|0:0,0:0:0:0:
384,48,102863,2,0,L|272:48,1,96,8|0,0:0|0:0,0:0:0:0:
144,96,103171,2,0,L|240:96,1,96,8|0,0:0|0:0,0:0:0:0:
384,144,103479,2,0,L|272:144,1,96,8|0,0:0|0:0,0:0:0:0:
32,192,103786,5,12,0:0:0:0:
256,192,103940,12,8,104863,0:0:0:0:
384,192,105017,5,12,0:0:0:0:
148,123,105171,2,0,L|197:123,1,48,0|0,0:0|0:0,0:0:0:0:
388,271,105325,2,0,L|137:286,1,240,8|2,0:0|0:0,0:0:0:0:
124,285,105517,2,0,L|147:284,1,24,2|2,0:0|0:0,0:0:0:0:
224,208,105633,5,8,0:0:0:0:
127,220,105786,1,0,0:0:0:0:
301,112,105940,2,0,L|73:124,1,211.200006445313,8|2,0:0|0:0,0:0:0:0:
67,126,106133,2,0,L|89:122,1,24,2|0,0:0|0:0,0:0:0:0:
78,123,106248,6,0,L|364:141,1,268.799991796875,8|2,0:0|0:0,0:0:0:0:
371,139,106440,2,0,L|347:139,1,24,2|2,0:0|0:0,0:0:0:0:
199,196,106556,1,8,0:0:0:0:
442,218,106709,1,2,0:0:0:0:
418,217,106748,1,2,0:0:0:0:
394,218,106786,1,2,0:0:0:0:
323,256,106863,6,0,L|223:265,1,96,8|2,0:0|0:0,0:0:0:0:
253,315,107056,1,2,0:0:0:0:
278,313,107094,1,2,0:0:0:0:
140,267,107171,2,0,L|30:267,1,96,8|2,0:0|0:0,0:0:0:0:
38,293,107363,1,2,0:0:0:0:
37,317,107402,1,2,0:0:0:0:
228,235,107479,5,8,0:0:0:0:
132,237,107633,2,0,L|180:235,1,48,0|0,0:0|0:0,0:0:0:0:
35,101,107786,2,0,L|130:97,1,96,8|2,0:0|0:0,0:0:0:0:
162,99,107979,1,2,0:0:0:0:
198,99,108017,1,2,0:0:0:0:
265,226,108094,6,0,L|366:220,1,96,8|2,0:0|0:0,0:0:0:0:
330,170,108286,1,2,0:0:0:0:
293,167,108325,1,2,0:0:0:0:
199,175,108402,2,0,L|199:74,1,96,8|2,0:0|0:0,0:0:0:0:
237,79,108594,1,2,0:0:0:0:
273,79,108633,1,2,0:0:0:0:
435,62,108709,5,8,0:0:0:0:
159,235,108863,2,0,L|385:242,1,211.200006445313,0|8,0:0|0:0,0:0:0:0:
264,310,109171,1,0,0:0:0:0:
336,310,109248,1,0,0:0:0:0:
264,310,109325,5,8,0:0:0:0:
28,315,109479,1,2,0:0:0:0:
18,293,109517,1,2,0:0:0:0:
25,271,109556,1,2,0:0:0:0:
223,210,109633,2,0,L|323:207,1,96,8|2,0:0|0:0,0:0:0:0:
287,170,109825,1,2,0:0:0:0:
251,170,109863,1,2,0:0:0:0:
84,176,109940,6,0,L|187:169,1,96,12|0,0:0|0:0,0:0:0:0:
131,117,110171,1,0,0:0:0:0:
281,72,110248,2,0,L|397:68,1,96,8|2,0:0|0:0,0:0:0:0:
396,143,110440,1,2,0:0:0:0:
376,68,110479,1,2,0:0:0:0:
230,108,110556,5,8,0:0:0:0:
328,188,110709,2,0,L|271:182,1,48,0|0,0:0|0:0,0:0:0:0:
122,101,110863,2,0,L|22:98,1,96,8|2,0:0|0:0,0:0:0:0:
58,61,111056,1,2,0:0:0:0:
94,61,111094,1,2,0:0:0:0:
239,111,111171,5,8,0:0:0:0:
141,191,111325,2,0,L|198:185,1,48,0|0,0:0|0:0,0:0:0:0:
337,189,111479,1,8,0:0:0:0:
239,269,111633,2,0,L|296:263,1,48,0|0,0:0|0:0,0:0:0:0:
434,253,111786,5,8,0:0:0:0:
336,333,111940,2,0,L|393:327,1,48,0|0,0:0|0:0,0:0:0:0:
210,337,112094,2,0,L|94:341,1,96,8|2,0:0|0:0,0:0:0:0:
95,266,112286,1,2,0:0:0:0:
115,341,112325,1,2,0:0:0:0:
285,160,112402,5,8,0:0:0:0:
184,149,112556,2,0,L|249:151,1,48,0|0,0:0|0:0,0:0:0:0:
403,44,112709,2,0,L|175:56,1,211.200006445313,8|2,0:0|0:0,0:0:0:0:
167,54,112902,2,0,L|191:54,1,24,2|2,0:0|0:0,0:0:0:0:
180,55,113017,6,0,L|466:73,1,268.799991796875,8|2,0:0|0:0,0:0:0:0:
472,72,113209,2,0,L|449:71,1,24,2|2,0:0|0:0,0:0:0:0:
301,128,113325,2,0,L|203:134,1,96,8|2,0:0|0:0,0:0:0:0:
230,183,113517,1,2,0:0:0:0:
255,183,113556,1,2,0:0:0:0:
451,256,113633,6,0,L|454:159,1,96,8|0,0:0|0:0,0:0:0:0:
382,279,113863,1,0,0:0:0:0:
210,283,113940,2,0,L|205:236,1,48,8|0,0:0|0:0,0:0:0:0:
279,229,114094,1,0,0:0:0:0:
61,224,114248,6,0,L|66:171,1,48,8|0,0:0|0:0,0:0:0:0:
236,160,114402,2,0,L|260:156,2,24,2|2|2,0:0|0:0|0:0,0:0:0:0:
98,172,114556,2,0,P|64:133|98:56,1,144,10|0,0:0|0:0,0:0:0:0:
271,52,114863,6,0,L|371:45,1,96,12|0,0:0|0:0,0:0:0:0:
320,113,115094,1,0,0:0:0:0:
150,144,115171,2,0,L|144:246,1,96,8|2,0:0|0:0,0:0:0:0:
170,240,115363,1,2,0:0:0:0:
194,241,115402,1,2,0:0:0:0:
337,260,115479,5,8,0:0:0:0:
202,301,115633,1,0,0:0:0:0:
489,230,115786,2,0,L|495:332,1,96,8|2,0:0|0:0,0:0:0:0:
469,326,115979,1,2,0:0:0:0:
445,327,116017,1,2,0:0:0:0:
273,154,116094,6,0,L|171:160,1,96,8|2,0:0|0:0,0:0:0:0:
203,103,116286,1,2,0:0:0:0:
227,102,116325,1,2,0:0:0:0:
372,84,116402,1,8,0:0:0:0:
77,225,116556,2,0,L|49:220,2,24,2|2|2,0:0|0:0|0:0,0:0:0:0:
245,233,116709,6,0,L|342:237,1,96,8|2,0:0|0:0,0:0:0:0:
360,311,116902,1,2,0:0:0:0:
340,236,116940,1,2,0:0:0:0:
170,92,117017,2,0,L|267:96,1,96,8|2,0:0|0:0,0:0:0:0:
285,170,117209,1,2,0:0:0:0:
265,95,117248,1,2,0:0:0:0:
116,91,117325,5,8,0:0:0:0:
265,95,117479,2,0,L|323:96,1,48,0|0,0:0|0:0,0:0:0:0:
165,324,117633,2,0,L|161:225,1,96,8|2,0:0|0:0,0:0:0:0:
187,224,117825,1,2,0:0:0:0:
211,223,117863,1,2,0:0:0:0:
355,215,117940,5,8,0:0:0:0:
211,149,118094,1,2,0:0:0:0:
175,118,118133,1,2,0:0:0:0:
211,84,118171,1,2,0:0:0:0:
362,62,118248,2,0,L|267:58,1,96,8|2,0:0|0:0,0:0:0:0:
292,110,118440,1,2,0:0:0:0:
316,109,118479,1,2,0:0:0:0:
485,139,118556,6,0,L|490:241,1,96,8|0,0:0|0:0,0:0:0:0:
424,246,118786,1,0,0:0:0:0:
278,258,118863,1,8,0:0:0:0:
393,245,119017,2,0,L|337:246,1,48,0|0,0:0|0:0,0:0:0:0:
197,219,119171,6,0,L|98:222,1,96,8|2,0:0|0:0,0:0:0:0:
78,223,119363,2,0,L|101:221,1,24,2|2,0:0|0:0,0:0:0:0:
251,138,119479,2,0,L|231:45,1,96,8|2,0:0|0:0,0:0:0:0:
205,44,119671,1,2,0:0:0:0:
181,43,119709,1,2,0:0:0:0:
16,48,119786,5,8,0:0:0:0:
183,242,119940,2,0,L|239:244,1,48,0|0,0:0|0:0,0:0:0:0:
90,342,120094,2,0,L|86:243,1,96,8|2,0:0|0:0,0:0:0:0:
112,242,120286,1,2,0:0:0:0:
136,241,120325,1,2,0:0:0:0:
278,199,120402,5,8,0:0:0:0:
133,182,120556,2,0,L|183:180,1,48,0|0,0:0|0:0,0:0:0:0:
324,171,120709,2,0,L|426:167,1,96,8|2,0:0|0:0,0:0:0:0:
393,114,120902,1,2,0:0:0:0:
369,113,120940,1,2,0:0:0:0:
199,66,121017,5,8,0:0:0:0:
330,64,121171,2,0,L|332:14,1,48
171,13,121325,1,8,0:0:0:0:
317,17,121479,2,0,L|264:15,1,48
99,31,121633,5,8,0:0:0:0:
342,100,121786,2,0,L|398:103,1,48,0|0,0:0|0:0,0:0:0:0:
199,141,121940,2,0,L|191:245,1,96,8|2,0:0|0:0,0:0:0:0:
217,239,122133,1,2,0:0:0:0:
241,238,122171,1,2,0:0:0:0:
421,277,122248,6,0,L|420:219,1,48,8|0,0:0|0:0,0:0:0:0:
271,189,122402,2,0,L|331:186,1,48,0|0,0:0|0:0,0:0:0:0:
466,159,122556,2,0,L|407:154,1,48,8|0,0:0|0:0,0:0:0:0:
349,125,122709,2,0,L|347:73,1,48,0|0,0:0|0:0,0:0:0:0:
496,64,122863,6,0,L|492:10,1,48,8|0,0:0|0:0,0:0:0:0:
322,25,123017,2,0,L|298:24,2,24,2|2|2,0:0|0:0|0:0,0:0:0:0:
395,65,123171,2,0,L|397:115,1,48,8|0,0:0|0:0,0:0:0:0:
253,141,123325,1,2,0:0:0:0:
229,142,123363,1,2,0:0:0:0:
208,144,123402,1,2,0:0:0:0:
280,256,123479,6,0,L|353:193,1,96,8|0,0:0|0:0,0:0:0:0:
280,256,123709,2,0,L|178:251,1,96,8|0,0:0|0:0,0:0:0:0:
107,228,123940,2,0,L|104:176,1,48,8|0,0:0|0:0,0:0:0:0:
255,163,124094,5,0,0:0:0:0:
192,148,124171,2,0,L|188:90,1,48,8|0,0:0|0:0,0:0:0:0:
488,64,124402,1,10,0:0:0:0:
120,320,124709,5,12,0:0:0:0:
89,282,124748,1,0,0:0:0:0:
70,239,124786,1,0,0:0:0:0:
64,191,124825,1,0,0:0:0:0:
70,144,124863,1,2,0:0:0:0:
89,100,124902,1,0,0:0:0:0:
120,63,124940,1,0,0:0:0:0:
296,64,125017,2,0,L|200:64,1,96,8|2,0:0|0:0,0:0:0:0:
184,64,125209,1,0,0:0:0:0:
200,64,125248,1,0,0:0:0:0:
272,192,125325,6,0,L|176:192,1,96,8|2,0:0|0:0,0:0:0:0:
160,192,125517,1,0,0:0:0:0:
176,192,125556,1,0,0:0:0:0:
352,192,125633,2,0,L|448:192,1,96,8|2,0:0|0:0,0:0:0:0:
464,192,125825,1,0,0:0:0:0:
448,192,125863,1,0,0:0:0:0:
376,320,125940,6,0,L|472:320,1,96,8|2,0:0|0:0,0:0:0:0:
488,320,126133,1,0,0:0:0:0:
472,320,126171,1,0,0:0:0:0:
296,64,126248,2,0,L|200:64,1,96,8|2,0:0|0:0,0:0:0:0:
184,64,126440,1,0,0:0:0:0:
200,64,126479,1,0,0:0:0:0:
272,192,126556,6,0,L|272:240,1,48,8|0,0:0|0:0,0:0:0:0:
208,192,126709,2,0,L|208:176,1,12,2|0,0:0|0:0,0:0:0:0:
272,192,126786,2,0,L|272:176,1,12,2|0,0:0|0:0,0:0:0:0:
144,64,126863,2,0,L|48:64,1,96,8|2,0:0|0:0,0:0:0:0:
86,64,127056,1,0,0:0:0:0:
122,64,127094,1,0,0:0:0:0:
193,192,127171,6,0,L|97:192,1,96,8|2,0:0|0:0,0:0:0:0:
134,192,127363,1,0,0:0:0:0:
171,192,127402,1,0,0:0:0:0:
376,64,127479,2,0,L|280:64,1,96,8|2,0:0|0:0,0:0:0:0:
264,64,127671,1,0,0:0:0:0:
280,64,127709,1,0,0:0:0:0:
352,192,127786,6,0,L|256:192,1,96,8|2,0:0|0:0,0:0:0:0:
240,192,127979,1,0,0:0:0:0:
256,192,128017,1,0,0:0:0:0:
432,320,128094,2,0,L|336:320,1,96,8|2,0:0|0:0,0:0:0:0:
320,320,128286,1,0,0:0:0:0:
336,320,128325,1,0,0:0:0:0:
408,192,128402,6,0,L|408:144,1,48,8|0,0:0|0:0,0:0:0:0:
344,80,128556,1,2,0:0:0:0:
376,80,128594,1,0,0:0:0:0:
408,80,128633,1,0,0:0:0:0:
232,192,128709,2,0,L|184:192,2,48,8|0|2,0:0|0:0|0:0,0:0:0:0:
264,192,128902,1,0,0:0:0:0:
232,192,128940,1,0,0:0:0:0:
160,320,129017,6,0,L|64:320,1,96,8|2,0:0|0:0,0:0:0:0:
48,320,129209,1,0,0:0:0:0:
64,320,129248,1,0,0:0:0:0:
240,80,129325,2,0,L|144:80,1,96,8|0,0:0|0:0,0:0:0:0:
400,192,129633,5,8,0:0:0:0:
144,192,129786,2,0,L|144:144,1,48,8|0,0:0|0:0,0:0:0:0:
320,64,129940,2,0,L|416:64,1,96,8|2,0:0|0:0,0:0:0:0:
432,64,130133,1,0,0:0:0:0:
416,64,130171,1,0,0:0:0:0:
344,192,130248,6,0,L|440:192,1,96,0|2,0:0|0:0,0:0:0:0:
456,192,130440,1,0,0:0:0:0:
440,192,130479,1,0,0:0:0:0:
264,192,130556,2,0,L|168:192,1,96,0|2,0:0|0:0,0:0:0:0:
152,192,130748,1,0,0:0:0:0:
168,192,130786,1,0,0:0:0:0:
240,320,130863,6,0,L|144:320,1,96,0|2,0:0|0:0,0:0:0:0:
128,320,131056,1,0,0:0:0:0:
144,320,131094,1,0,0:0:0:0:
320,64,131171,2,0,L|416:64,1,96,0|2,0:0|0:0,0:0:0:0:
432,64,131363,1,0,0:0:0:0:
416,64,131402,1,0,0:0:0:0:
336,192,131479,6,0,L|336:240,1,48,8|0,0:0|0:0,0:0:0:0:
400,192,131633,2,0,L|400:176,1,12,2|0,0:0|0:0,0:0:0:0:
336,192,131709,2,0,L|336:176,1,12,2|0,0:0|0:0,0:0:0:0:
192,64,131786,2,0,L|96:64,1,96,8|2,0:0|0:0,0:0:0:0:
136,64,131979,1,0,0:0:0:0:
176,64,132017,1,0,0:0:0:0:
352,64,132094,6,0,P|352:112|320:144,1,96,12|0,0:0|0:0,0:0:0:0:
272,192,132299,1,0,0:0:0:0:
48,192,132402,2,0,L|144:192,1,96,8|8,0:0|2:0,0:0:0:0:
96,144,132607,2,0,L|88:128,2,16
208,320,132709,6,0,L|304:320,1,96,8|8,0:0|2:0,0:0:0:0:
256,272,132915,2,0,L|248:256,2,16
368,272,133017,1,8,0:0:0:0:
393,251,133043,1,0,0:0:0:0:
408,223,133068,1,0,0:0:0:0:
414,192,133094,1,0,0:0:0:0:
408,160,133120,1,0,0:0:0:0:
393,132,133145,1,0,0:0:0:0:
369,112,133171,1,0,0:0:0:0:
112,112,133325,6,0,P|96:160|112:200,1,96,8|0,0:0|0:0,0:0:0:0:
136,208,133504,1,0,0:0:0:0:
160,208,133530,1,0,0:0:0:0:
336,192,133633,2,0,L|240:192,1,96,8|0,0:0|0:0,0:0:0:0:
216,192,133812,1,0,0:0:0:0:
240,192,133838,1,0,0:0:0:0:
432,112,133940,6,0,P|448:160|432:200,1,96,8|0,0:0|0:0,0:0:0:0:
408,208,134120,1,0,0:0:0:0:
384,208,134145,1,0,0:0:0:0:
208,112,134248,2,0,L|464:112,1,256.320008897827,10|0,0:0|0:0,0:0:0:0:
416,112,134453,1,0,0:0:0:0:
200,64,134556,6,0,L|104:64,1,96,12|2,0:0|0:0,0:0:0:0:
72,64,134748,1,0,0:0:0:0:
104,64,134786,1,0,0:0:0:0:
280,192,134863,2,0,L|376:192,1,96,8|2,0:0|0:0,0:0:0:0:
336,192,135056,1,0,0:0:0:0:
296,192,135094,1,0,0:0:0:0:
224,64,135171,6,0,L|320:64,1,96,8|2,0:0|0:0,0:0:0:0:
352,64,135363,1,0,0:0:0:0:
320,64,135402,1,0,0:0:0:0:
144,320,135479,2,0,L|48:320,1,96,8|2,0:0|0:0,0:0:0:0:
80,320,135671,1,0,0:0:0:0:
112,320,135709,1,0,0:0:0:0:
184,192,135786,6,0,L|88:192,1,96,8|2,0:0|0:0,0:0:0:0:
56,192,135979,1,0,0:0:0:0:
88,192,136017,1,0,0:0:0:0:
264,192,136094,2,0,L|360:192,1,96,8|2,0:0|0:0,0:0:0:0:
328,192,136286,1,0,0:0:0:0:
296,192,136325,1,0,0:0:0:0:
224,64,136402,6,0,L|224:112,1,48,8|0,0:0|0:0,0:0:0:0:
288,64,136556,2,0,L|288:48,1,12,2|0,0:0|0:0,0:0:0:0:
224,64,136633,2,0,L|224:48,1,12,2|0,0:0|0:0,0:0:0:0:
352,64,136709,2,0,L|448:64,1,96,8|2,0:0|0:0,0:0:0:0:
410,64,136902,1,0,0:0:0:0:
374,63,136940,1,0,0:0:0:0:
192,64,137017,6,0,L|96:64,1,96,8|2,0:0|0:0,0:0:0:0:
64,64,137209,1,0,0:0:0:0:
96,64,137248,1,0,0:0:0:0:
272,192,137325,2,0,L|368:192,1,96,8|2,0:0|0:0,0:0:0:0:
331,192,137517,1,0,0:0:0:0:
294,193,137556,1,0,0:0:0:0:
221,82,137633,6,0,L|317:82,1,96,8|2,0:0|0:0,0:0:0:0:
344,81,137825,1,0,0:0:0:0:
317,82,137863,1,0,0:0:0:0:
136,320,137940,2,0,L|40:320,1,96,8|2,0:0|0:0,0:0:0:0:
73,319,138133,1,0,0:0:0:0:
104,320,138171,1,0,0:0:0:0:
176,192,138248,6,0,L|176:144,1,48,8|0,0:0|0:0,0:0:0:0:
112,96,138402,1,2,0:0:0:0:
144,96,138440,1,0,0:0:0:0:
176,96,138479,1,0,0:0:0:0:
352,320,138556,2,0,L|448:320,1,96,8|2,0:0|0:0,0:0:0:0:
484,319,138748,1,0,0:0:0:0:
448,320,138786,1,0,0:0:0:0:
376,192,138863,6,0,L|376:144,1,48,8|0,0:0|0:0,0:0:0:0:
440,96,139017,1,2,0:0:0:0:
408,96,139056,1,0,0:0:0:0:
376,96,139094,1,0,0:0:0:0:
200,96,139171,1,8,0:0:0:0:
184,144,139209,1,0,0:0:0:0:
200,192,139248,1,0,0:0:0:0:
236,194,139286,1,0,0:0:0:0:
273,197,139325,2,0,L|273:245,1,48,0|0,0:0|0:0,0:0:0:0:
120,288,139479,6,0,L|24:288,1,96,8|8,0:0|0:0,0:0:0:0:
56,288,139671,1,0,0:0:0:0:
88,288,139709,1,0,0:0:0:0:
264,288,139786,2,0,L|248:192,1,96,8|2,0:0|0:0,0:0:0:0:
216,192,139979,1,0,0:0:0:0:
184,192,140017,1,0,0:0:0:0:
112,192,140094,6,0,L|96:96,1,96,0|2,0:0|0:0,0:0:0:0:
128,96,140286,1,0,0:0:0:0:
160,96,140325,1,0,0:0:0:0:
336,288,140402,2,0,L|320:192,1,96,0|2,0:0|0:0,0:0:0:0:
288,192,140594,1,0,0:0:0:0:
256,192,140633,1,0,0:0:0:0:
184,192,140709,6,0,L|168:96,1,96,0|2,0:0|0:0,0:0:0:0:
200,96,140902,1,0,0:0:0:0:
232,96,140940,1,0,0:0:0:0:
408,288,141017,2,0,L|391:191,1,96,0|2,0:0|0:0,0:0:0:0:
359,191,141209,1,0,0:0:0:0:
327,191,141248,1,0,0:0:0:0:
256,64,141325,6,0,L|256:112,1,48,8|0,0:0|0:0,0:0:0:0:
320,64,141479,2,0,L|320:48,1,12,2|0,0:0|0:0,0:0:0:0:
256,64,141556,2,0,L|256:48,1,12,2|0,0:0|0:0,0:0:0:0:
384,64,141633,2,0,L|480:64,1,96,8|2,0:0|0:0,0:0:0:0:
440,64,141825,1,0,0:0:0:0:
400,64,141863,1,0,0:0:0:0:
224,288,141940,6,0,P|192:240|192:192,1,96,8|2,0:0|0:0,0:0:0:0:
224,192,142133,1,0,0:0:0:0:
256,192,142171,1,0,0:0:0:0:
432,192,142248,2,0,L|336:192,1,96,8|2,0:0|0:0,0:0:0:0:
304,192,142440,1,0,0:0:0:0:
336,192,142479,1,0,0:0:0:0:
408,64,142556,6,0,L|504:64,1,96,8|2,0:0|0:0,0:0:0:0:
472,64,142748,1,0,0:0:0:0:
440,64,142786,1,0,0:0:0:0:
264,192,142863,2,0,L|360:192,1,96,8|2,0:0|0:0,0:0:0:0:
392,192,143056,1,0,0:0:0:0:
360,192,143094,1,0,0:0:0:0:
184,64,143171,6,0,L|280:64,1,96,12|0,0:0|0:0,0:0:0:0:
24,192,143479,2,0,L|24:240,1,48,8|0,0:0|0:0,0:0:0:0:
200,192,143633,2,0,L|200:240,1,48,0|0,0:0|0:0,0:0:0:0:
24,64,143786,6,0,L|280:64,1,256.320008897827,8|0,0:0|0:0,0:0:0:0:
216,64,144017,1,0,0:0:0:0:
40,64,144094,2,0,P|24:128|40:204,1,144,8|0,0:0|0:0,0:0:0:0:
216,192,144402,5,8,0:0:0:0:
256,192,144556,12,2,146556,0:0:0:0:
176,307,146863,6,0,P|149:213|176:120,1,192,8|2,0:0|0:0,0:0:0:0:
437,149,147479,2,0,L|440:247,1,96,8|0,0:0|0:0,0:0:0:0:
302,193,147786,2,0,L|299:291,1,96,2|0,0:0|0:0,0:0:0:0:
474,315,148094,6,0,L|373:323,2,96,8|0|2,0:0|0:0|0:0,0:0:0:0:
314,236,148556,2,0,L|118:242,1,192,8|8,0:0|0:0,0:0:0:0:
289,158,149017,1,10,0:0:0:0:
51,161,149325,6,0,B|54:64|54:64|159:55,1,192,8|2,0:0|0:0,0:0:0:0:
400,100,149940,2,0,L|402:202,1,96,8|0,0:0|0:0,0:0:0:0:
267,194,150248,2,0,L|156:202,1,96,2|0,0:0|0:0,0:0:0:0:
340,260,150556,6,0,L|131:282,1,192,8|2,0:0|0:0,0:0:0:0:
305,194,151017,2,0,P|356:171|295:79,1,192,8|8,0:0|0:0,0:0:0:0:
146,82,151479,2,0,L|140:193,1,96,2|0,0:0|0:0,0:0:0:0:
391,61,151786,6,0,B|393:164|393:164|284:176,1,192,8|2,0:0|0:0,0:0:0:0:
30,285,152402,2,0,L|27:189,1,96,8|0,0:0|0:0,0:0:0:0:
171,167,152709,2,0,L|75:169,1,96,2|0,0:0|0:0,0:0:0:0:
324,274,153017,6,0,L|431:278,2,96,8|0|2,0:0|0:0|0:0,0:0:0:0:
167,212,153479,2,0,L|164:107,1,96,8|0,0:0|0:0,0:0:0:0:
320,104,153786,1,8,0:0:0:0:
75,157,153940,1,10,0:0:0:0:
78,118,153979,1,0,0:0:0:0:
81,79,154017,1,0,0:0:0:0:
86,44,154056,1,0,0:0:0:0:
125,43,154094,1,0,0:0:0:0:
427,44,154248,6,0,L|429:164,1,96,8|0,0:0|0:0,0:0:0:0:
260,161,154556,2,0,L|145:174,1,96,8|0,0:0|0:0,0:0:0:0:
448,238,154863,1,8,0:0:0:0:
314,249,155017,1,0,0:0:0:0:
448,238,155171,1,8,0:0:0:0:
314,249,155325,1,0,0:0:0:0:
42,269,155479,6,0,L|35:164,1,96,8|0,0:0|0:0,0:0:0:0:
281,156,155786,1,8,0:0:0:0:
144,144,155940,1,0,0:0:0:0:
388,140,156094,1,8,0:0:0:0:
253,128,156248,1,8,3:0:0:0:
388,140,156402,2,0,L|217:126,1,144.000005493164,8|0,0:0|0:0,0:0:0:0:
16,80,156709,6,0,L|240:95,1,211.200006445313,8|8,0:0|0:0,0:0:0:0:
234,177,157171,1,0,0:0:0:0:
16,160,157325,1,8,0:0:0:0:
156,171,157479,1,0,0:0:0:0:
16,160,157633,2,0,L|19:284,1,105.600003222656,8|0,0:0|0:0,0:0:0:0:
275,263,157940,6,0,L|387:271,1,105.600003222656,8|0,0:0|0:0,0:0:0:0:
237,214,158248,1,8,0:0:0:0:
382,218,158402,1,0,0:0:0:0:
147,148,158556,1,8,0:0:0:0:
387,157,158709,1,8,3:0:0:0:
387,157,158863,2,0,L|170:143,1,211.200006445313,8|0,0:0|0:0,0:0:0:0:
465,85,159171,6,0,L|310:77,1,144.000005493164,8|0,0:0|0:0,0:0:0:0:
465,85,159479,2,0,L|240:73,1,211.200006445313,8|0,0:0|0:0,0:0:0:0:
24,85,159786,2,0,L|179:77,1,144.000005493164,8|0,0:0|0:0,0:0:0:0:
24,85,160094,2,0,L|256:73,1,230.39999296875,8|0,0:0|0:0,0:0:0:0:
470,177,160402,6,0,L|315:169,1,144.000005493164,8|0,0:0|0:0,0:0:0:0:
470,177,160709,2,0,L|206:162,1,249.599988574219,8|0,0:0|0:0,0:0:0:0:
367,248,161017,2,0,L|133:234,2,211.200006445313,8|8|8,0:0|3:0|0:0,0:0:0:0:
359,312,161479,1,0,0:0:0:0:
36,290,161633,6,0,L|31:229,1,52.8000016113282,8|0,3:0|0:0,0:0:0:0:
244,189,161786,2,0,L|249:128,1,52.8000016113282,8|0,0:0|0:0,0:0:0:0:
36,290,161940,2,0,L|16:240,1,52.8000016113282,8|0,3:0|0:0,0:0:0:0:
244,189,162094,2,0,L|279:143,1,52.8000016113282,8|0,0:0|0:0,0:0:0:0:
64,136,162248,1,8,0:0:0:0:
131,136,162325,1,0,0:0:0:0:
198,136,162402,1,8,0:0:0:0:
265,136,162479,1,0,0:0:0:0:
100,56,162556,1,8,0:0:0:0:
33,49,162633,1,0,0:0:0:0:
242,57,162709,2,0,L|244:-11,1,52.8000016113282,8|0,0:0|0:0,0:0:0:0:
16,0,162863,5,8,0:0:0:0:
256,192,163017,12,10,163786,0:0:0:0:
208,352,164094,5,4,0:0:0:0:
170,321,164133,1,0,0:0:0:0:
142,283,164171,1,0,0:0:0:0:
124,239,164209,1,0,0:0:0:0:
118,191,164248,1,0,0:0:0:0:
124,144,164286,1,0,0:0:0:0:
142,99,164325,1,0,0:0:0:0:
171,61,164363,1,0,0:0:0:0:
208,31,164402,1,0,0:0:0:0:
232,32,164440,1,0,0:0:0:0:
208,31,164479,1,0,0:0:0:0:
232,32,164517,1,0,0:0:0:0:
208,31,164556,1,0,0:0:0:0:
232,32,164594,1,0,0:0:0:0:
208,32,164633,1,0,0:0:0:0:
32,80,164709,6,0,L|64:80,1,18.0000006866455,10|0,0:0|0:0,0:0:0:0:
256,192,164863,2,0,L|288:192,1,18.0000006866455,2|0,0:0|0:0,0:0:0:0:
64,304,165017,2,0,L|96:304,1,18.0000006866455,2|0,0:0|0:0,0:0:0:0:
296,192,165171,2,0,L|296:112,1,72.0000027465821,10|0,0:0|0:0,0:0:0:0:
160,80,165325,6,0,L|192:80,1,18.0000006866455,10|0,0:0|0:0,0:0:0:0:
384,192,165479,2,0,L|416:192,1,18.0000006866455,2|0,0:0|0:0,0:0:0:0:
192,304,165633,2,0,L|224:304,1,18.0000006866455,2|0,0:0|0:0,0:0:0:0:
416,192,165786,2,0,L|448:192,1,18.0000006866455,2|0,0:0|0:0,0:0:0:0:
224,192,165940,6,0,L|80:192,2,144.000005493164,8|0|8,0:0|0:0|0:0,0:0:0:0:
464,192,166402,1,2,0:0:0:0:
224,336,166556,5,4,0:0:0:0:
196,296,166594,1,0,0:0:0:0:
179,252,166633,1,0,0:0:0:0:
173,205,166671,1,0,0:0:0:0:
179,157,166709,1,0,0:0:0:0:
197,113,166748,1,0,0:0:0:0:
226,74,166786,1,0,0:0:0:0:
264,45,166825,1,0,0:0:0:0:
307,26,166863,1,0,0:0:0:0:
264,45,166902,1,0,0:0:0:0:
226,74,166940,1,0,0:0:0:0:
48,192,167017,2,0,L|32:112,1,72.0000027465821,8|0,0:0|0:0,0:0:0:0:
208,128,167171,6,0,L|352:128,1,144.000005493164,8|2,0:0|0:0,0:0:0:0:
380,192,167363,1,2,0:0:0:0:
352,192,167402,1,2,0:0:0:0:
176,256,167479,2,0,P|144:240|96:144,1,144.000005493164,8|2,0:0|0:0,0:0:0:0:
112,128,167671,1,2,0:0:0:0:
144,128,167709,1,2,0:0:0:0:
320,128,167786,6,0,L|176:128,1,144.000005493164,8|2,0:0|0:0,0:0:0:0:
148,192,167979,1,2,0:0:0:0:
176,192,168017,1,2,0:0:0:0:
352,160,168094,1,0,0:0:0:0:
416,160,168171,1,0,0:0:0:0:
416,224,168248,1,0,0:0:0:0:
352,224,168325,1,0,0:0:0:0:
176,224,168402,5,8,0:0:0:0:
416,224,168556,1,2,0:0:0:0:
176,128,168709,2,0,P|128:128|72:200,1,144.000005493164,8|2,0:0|0:0,0:0:0:0:
100,128,168902,1,2,0:0:0:0:
128,128,168940,1,2,0:0:0:0:
304,352,169017,5,4,0:0:0:0:
342,321,169056,1,0,0:0:0:0:
370,283,169094,1,0,0:0:0:0:
388,239,169133,1,0,0:0:0:0:
394,191,169171,1,0,0:0:0:0:
388,144,169209,1,0,0:0:0:0:
370,99,169248,1,0,0:0:0:0:
341,61,169286,1,0,0:0:0:0:
304,31,169325,1,0,0:0:0:0:
280,32,169363,1,0,0:0:0:0:
304,31,169402,1,0,0:0:0:0:
280,32,169440,1,0,0:0:0:0:
304,31,169479,1,0,0:0:0:0:
280,32,169517,1,0,0:0:0:0:
304,32,169556,1,0,0:0:0:0:
480,80,169633,6,0,L|448:80,1,18.0000006866455,10|0,0:0|0:0,0:0:0:0:
256,192,169786,2,0,L|224:192,1,18.0000006866455,2|0,0:0|0:0,0:0:0:0:
448,304,169940,2,0,L|416:304,1,18.0000006866455,2|0,0:0|0:0,0:0:0:0:
216,192,170094,2,0,L|216:112,1,72.0000027465821,10|0,0:0|0:0,0:0:0:0:
352,80,170248,6,0,L|320:80,1,18.0000006866455,10|0,0:0|0:0,0:0:0:0:
128,192,170402,2,0,L|96:192,1,18.0000006866455,2|0,0:0|0:0,0:0:0:0:
320,304,170556,2,0,L|288:304,1,18.0000006866455,2|0,0:0|0:0,0:0:0:0:
96,192,170709,2,0,L|64:192,1,18.0000006866455,2|0,0:0|0:0,0:0:0:0:
288,192,170863,6,0,L|432:192,2,144.000005493164,8|0|8,0:0|0:0|0:0,0:0:0:0:
48,192,171325,1,2,0:0:0:0:
288,336,171479,5,4,0:0:0:0:
316,296,171517,1,0,0:0:0:0:
333,252,171556,1,0,0:0:0:0:
339,205,171594,1,0,0:0:0:0:
333,157,171633,1,0,0:0:0:0:
315,113,171671,1,0,0:0:0:0:
286,74,171709,1,0,0:0:0:0:
248,45,171748,1,0,0:0:0:0:
205,26,171786,1,0,0:0:0:0:
248,45,171825,1,0,0:0:0:0:
286,74,171863,1,0,0:0:0:0:
464,192,171940,2,0,L|480:112,1,72.0000027465821,8|0,0:0|0:0,0:0:0:0:
304,128,172094,6,0,L|160:128,1,144.000005493164,8|2,0:0|0:0,0:0:0:0:
132,192,172286,1,2,0:0:0:0:
160,192,172325,1,2,0:0:0:0:
336,256,172402,2,0,P|368:240|416:144,1,144.000005493164,8|2,0:0|0:0,0:0:0:0:
400,128,172594,1,2,0:0:0:0:
368,128,172633,1,2,0:0:0:0:
192,128,172709,6,0,L|160:128,1,18.0000006866455,10|0,0:0|0:0,0:0:0:0:
120,128,172786,2,0,L|96:128,1,18.0000006866455,2|0,0:0|0:0,0:0:0:0:
102,64,172863,2,0,L|120:64,1,18.0000006866455,2|2,0:0|0:0,0:0:0:0:
174,64,172940,2,0,L|192:64,1,18.0000006866455,2|0,0:0|0:0,0:0:0:0:
320,128,173017,2,0,L|320:208,1,72.0000027465821,0|0,0:0|0:0,0:0:0:0:
144,192,173171,2,0,L|144:224,1,18.0000006866455,0|0,0:0|0:0,0:0:0:0:
196,192,173248,1,0,0:0:0:0:
368,256,173325,6,0,L|368:176,1,72.0000027465821,8|0,0:0|0:0,0:0:0:0:
192,192,173479,2,0,L|192:160,1,18.0000006866455,2|0,0:0|0:0,0:0:0:0:
244,192,173556,1,0,0:0:0:0:
400,192,173633,2,0,L|480:192,1,72.0000027465821,8|0,0:0|0:0,0:0:0:0:
472,128,173786,2,0,L|400:128,1,72.0000027465821,2|0,0:0|0:0,0:0:0:0:
224,352,173940,5,4,0:0:0:0:
187,320,173979,1,0,0:0:0:0:
159,281,174017,1,0,0:0:0:0:
139,238,174056,1,0,0:0:0:0:
132,191,174094,1,0,0:0:0:0:
138,143,174133,1,0,0:0:0:0:
155,97,174171,1,0,0:0:0:0:
184,60,174209,1,0,0:0:0:0:
224,32,174248,1,0,0:0:0:0:
273,82,174286,1,0,0:0:0:0:
292,151,174325,1,0,0:0:0:0:
274,220,174363,1,0,0:0:0:0:
224,271,174402,1,0,0:0:0:0:
181,219,174440,1,0,0:0:0:0:
225,167,174479,1,0,0:0:0:0:
397,167,174556,6,0,L|429:167,1,18.0000006866455,10|0,0:0|0:0,0:0:0:0:
205,295,174709,2,0,L|237:295,1,18.0000006866455,2|0,0:0|0:0,0:0:0:0:
429,295,174863,2,0,L|461:295,1,18.0000006866455,2|0,0:0|0:0,0:0:0:0:
240,192,175017,2,0,L|160:192,1,72.0000027465821,10|0,0:0|0:0,0:0:0:0:
336,224,175171,6,0,L|368:224,1,18.0000006866455,10|0,0:0|0:0,0:0:0:0:
144,96,175325,2,0,L|176:96,1,18.0000006866455,2|0,0:0|0:0,0:0:0:0:
368,96,175479,2,0,L|400:96,1,18.0000006866455,2|0,0:0|0:0,0:0:0:0:
176,224,175633,2,0,L|208:224,1,18.0000006866455,2|0,0:0|0:0,0:0:0:0:
400,192,175786,6,0,L|256:192,2,144.000005493164,8|0|8,0:0|0:0|0:0,0:0:0:0:
160,192,176248,1,2,0:0:0:0:
400,312,176402,5,4,0:0:0:0:
418,265,176440,1,0,0:0:0:0:
423,218,176479,1,0,0:0:0:0:
417,172,176517,1,0,0:0:0:0:
399,127,176556,1,0,0:0:0:0:
370,89,176594,1,0,0:0:0:0:
332,59,176633,1,0,0:0:0:0:
288,41,176671,1,0,0:0:0:0:
240,33,176709,1,0,0:0:0:0:
212,32,176748,1,0,0:0:0:0:
240,33,176786,1,0,0:0:0:0:
416,192,176863,2,0,L|432:112,1,72.0000027465821,8|0,0:0|0:0,0:0:0:0:
256,128,177017,6,0,L|400:128,1,144.000005493164,8|2,0:0|0:0,0:0:0:0:
428,192,177209,1,2,0:0:0:0:
400,192,177248,1,2,0:0:0:0:
224,256,177325,2,0,L|368:256,1,144.000005493164,8|2,0:0|0:0,0:0:0:0:
396,192,177517,1,2,0:0:0:0:
368,192,177556,1,2,0:0:0:0:
192,128,177633,6,0,L|160:128,1,18.0000006866455,10|0,0:0|0:0,0:0:0:0:
120,128,177709,2,0,L|96:128,1,18.0000006866455,2|0,0:0|0:0,0:0:0:0:
102,64,177786,2,0,L|120:64,1,18.0000006866455,2|2,0:0|0:0,0:0:0:0:
174,64,177863,2,0,L|192:64,1,18.0000006866455,2|0,0:0|0:0,0:0:0:0:
320,128,177940,2,0,L|320:208,1,72.0000027465821,0|0,0:0|0:0,0:0:0:0:
144,192,178094,2,0,L|144:224,1,18.0000006866455,0|0,0:0|0:0,0:0:0:0:
196,192,178171,1,0,0:0:0:0:
368,256,178248,6,0,L|368:176,1,72.0000027465821,8|0,0:0|0:0,0:0:0:0:
192,192,178402,2,0,L|192:160,1,18.0000006866455,2|0,0:0|0:0,0:0:0:0:
244,192,178479,1,0,0:0:0:0:
416,128,178556,1,8,0:0:0:0:
440,128,178594,1,0,0:0:0:0:
420,88,178633,1,0,0:0:0:0:
436,88,178671,1,0,0:0:0:0:
416,128,178709,1,0,0:0:0:0:
440,128,178748,1,0,0:0:0:0:
420,88,178786,1,0,0:0:0:0:
224,80,178863,6,0,B|224:176|224:176|320:176,1,192,12|0,0:0|0:0,0:0:0:0:
176,80,179325,1,0,0:0:0:0:
432,80,179479,2,0,L|336:80,1,96,8|0,0:0|0:0,0:0:0:0:
80,192,179786,1,2,0:0:0:0:
336,192,179940,1,0,0:0:0:0:
192,192,180017,1,0,0:0:0:0:
48,192,180094,6,0,L|32:96,1,96,8|0,0:0|0:0,0:0:0:0:
288,192,180402,1,2,0:0:0:0:
48,192,180556,1,8,0:0:0:0:
192,192,180709,2,0,L|208:96,1,96,0|0,0:0|0:0,0:0:0:0:
64,96,181017,2,0,L|160:96,1,96,2|0,0:0|0:0,0:0:0:0:
416,96,181325,6,0,L|320:96,1,96,8|0,0:0|0:0,0:0:0:0:
464,192,181633,2,0,L|480:96,1,96,2|0,0:0|0:0,0:0:0:0:
224,192,181940,2,0,L|320:192,1,96,8|0,0:0|0:0,0:0:0:0:
64,304,182248,1,2,0:0:0:0:
320,304,182402,1,0,0:0:0:0:
176,304,182479,1,0,0:0:0:0:
32,304,182556,6,0,L|16:208,1,96,8|0,0:0|0:0,0:0:0:0:
64,192,182786,1,0,0:0:0:0:
208,192,182863,2,0,L|208:144,1,48,2|0,0:0|0:0,0:0:0:0:
64,112,183017,2,0,L|112:112,1,48,8|0,0:0|0:0,0:0:0:0:
256,112,183171,2,0,L|304:112,1,48,0|0,0:0|0:0,0:0:0:0:
240,112,183325,2,0,L|224:160,1,48,8|0,0:0|0:0,0:0:0:0:
288,112,183479,2,0,P|324:184|288:224,1,144,10|0,0:0|0:0,0:0:0:0:
224,224,183786,5,6,0:0:0:0:
256,192,183940,12,2,186248,0:0:0:0:
190,254,188709,6,0,P|147:176|205:76,1,192,2|0,0:0|0:0,0:0:0:0:
431,76,189325,2,0,L|436:193,1,96,2|2,0:0|0:0,0:0:0:0:
303,179,189633,1,0,0:0:0:0:
438,251,189786,6,0,L|242:269,1,192,0|0,0:0|0:0,0:0:0:0:
243,338,190248,1,0,0:0:0:0:
380,199,190402,2,0,P|406:77|385:14,1,192,2|2,0:0|0:0,0:0:0:0:
242,29,190863,2,0,L|140:23,1,96,2|0,0:0|0:0,0:0:0:0:
325,119,191171,6,0,L|126:118,2,192,2|0|2,0:0|0:0|0:0,0:0:0:0:
330,206,191940,1,2,0:0:0:0:
197,204,192094,2,0,L|191:307,1,96,0|0,0:0|0:0,0:0:0:0:
375,307,192402,6,0,L|502:293,2,96,2|0|0,0:0|0:0|0:0,0:0:0:0:
233,249,192863,2,0,L|450:240,1,192,2|2,0:0|0:0,0:0:0:0:
184,185,193325,2,0,L|179:77,1,96,10|0,0:0|0:0,0:0:0:0:
480,80,193633,6,0,L|363:74,1,96,12|0,0:0|0:0,0:0:0:0:
129,187,193940,2,0,L|123:295,1,96,2|0,0:0|0:0,0:0:0:0:
373,309,194248,1,8,0:0:0:0:
228,313,194402,1,0,0:0:0:0:
373,309,194556,2,0,L|380:200,1,96,2|0,0:0|0:0,0:0:0:0:
89,192,194863,5,8,0:0:0:0:
225,187,195017,1,0,0:0:0:0:
89,192,195171,1,2,0:0:0:0:
344,127,195325,2,0,L|454:116,1,96,8|0,0:0|0:0,0:0:0:0:
302,110,195633,1,8,0:0:0:0:
62,145,195786,2,0,L|57:43,1,96,2|0,0:0|0:0,0:0:0:0:
318,193,196094,6,0,L|209:198,1,96,8|0,0:0|0:0,0:0:0:0:
370,264,196402,2,0,L|263:269,1,96,2|0,0:0|0:0,0:0:0:0:
34,285,196709,1,8,0:0:0:0:
159,275,196863,1,0,0:0:0:0:
34,285,197017,1,2,0:0:0:0:
159,275,197171,1,0,0:0:0:0:
437,206,197325,6,0,L|442:102,1,96,8|0,0:0|0:0,0:0:0:0:
306,101,197633,1,2,0:0:0:0:
68,106,197786,2,0,L|200:109,1,96,8|0,0:0|0:0,0:0:0:0:
26,128,198094,1,8,0:0:0:0:
272,182,198248,2,0,L|117:179,1,144.000005493164,10|0,0:0|0:0,0:0:0:0:
390,282,198556,6,0,L|410:187,1,96,8|0,0:0|0:0,0:0:0:0:
191,190,198863,2,0,L|406:183,1,192,2|8,0:0|0:0,0:0:0:0:
233,114,199325,1,0,0:0:0:0:
382,119,199479,2,0,L|388:16,1,96,2|0,0:0|0:0,0:0:0:0:
127,27,199786,6,0,L|257:29,1,96,8|0,0:0|0:0,0:0:0:0:
76,60,200094,1,2,0:0:0:0:
209,124,200248,2,0,L|210:233,1,96,8|0,0:0|0:0,0:0:0:0:
360,209,200556,1,8,0:0:0:0:
141,235,200709,2,0,L|133:338,1,96,2|0,0:0|0:0,0:0:0:0:
389,313,201017,6,0,L|502:317,1,96,8|0,0:0|0:0,0:0:0:0:
343,259,201325,2,0,L|454:259,1,96,2|0,0:0|0:0,0:0:0:0:
205,194,201633,1,8,0:0:0:0:
346,193,201786,1,0,0:0:0:0:
205,194,201940,1,2,0:0:0:0:
346,193,202094,1,0,0:0:0:0:
97,192,202248,6,0,L|95:85,1,96,8|0,0:0|0:0,0:0:0:0:
322,85,202556,1,2,0:0:0:0:
201,84,202709,2,0,L|100:88,2,96,8|0|8,0:0|0:0|0:0,0:0:0:0:
439,168,203171,2,0,L|275:177,1,144.000005493164,10|0,0:0|0:0,0:0:0:0:
16,224,203479,6,0,L|22:125,1,96,8|0,0:0|0:0,0:0:0:0:
163,122,203786,1,8,0:0:0:0:
22,95,203940,1,0,0:0:0:0:
259,77,204094,1,8,0:0:0:0:
111,86,204248,1,0,0:0:0:0:
265,80,204402,2,0,L|269:182,1,96,8|0,0:0|0:0,0:0:0:0:
53,192,204709,6,0,B|267:205|267:205|280:319,1,316.800009667969,8|0,0:0|0:0,0:0:0:0:
231,313,205017,2,0,L|17:315,1,211.200006445313,8|0,0:0|0:0,0:0:0:0:
309,172,205325,1,8,0:0:0:0:
86,173,205479,2,0,L|230:169,2,144.000005493164,8|8|0,3:0|0:0|0:0,0:0:0:0:
379,100,205940,5,8,0:0:0:0:
178,107,206248,2,0,L|172:208,1,96,8|0,0:0|0:0,0:0:0:0:
424,177,206556,2,0,L|429:283,1,96,8|0,0:0|0:0,0:0:0:0:
273,282,206863,2,0,L|177:291,1,96,8|0,0:0|0:0,0:0:0:0:
432,78,207171,6,0,B|218:91|218:91|205:205,1,316.800009667969,8|0,0:0|0:0,0:0:0:0:
254,199,207479,2,0,L|468:201,1,211.200006445313,8|0,0:0|0:0,0:0:0:0:
176,58,207786,1,8,0:0:0:0:
399,59,207940,2,0,L|255:55,2,144.000005493164,8|8|0,3:0|0:0|0:0,0:0:0:0:
113,186,208402,6,0,L|272:192,1,144.000005493164,8|0,0:0|0:0,0:0:0:0:
113,186,208709,2,0,L|343:188,1,230.39999296875,8|0,0:0|0:0,0:0:0:0:
113,186,209017,2,0,L|272:192,1,144.000005493164,8|0,0:0|0:0,0:0:0:0:
113,186,209325,2,0,L|352:186,1,240,8|0,0:0|0:0,0:0:0:0:
113,186,209633,6,0,L|272:192,1,144.000005493164,8|0,0:0|0:0,0:0:0:0:
113,186,209940,2,0,L|362:186,1,249.599988574219,8|0,0:0|0:0,0:0:0:0:
227,122,210248,2,0,L|507:125,1,268.799991796875,8|8,0:0|3:0,0:0:0:0:
227,122,210556,2,0,B|380:126|380:126|346:125,1,187.199991430664,8|0,0:0|0:0,0:0:0:0:
177,86,210863,6,0,L|176:26,1,57.5999982421876,8|0,3:0|0:0,0:0:0:0:
375,31,211017,2,0,L|315:34,1,57.5999982421876,8|0,0:0|0:0,0:0:0:0:
141,32,211171,2,0,L|80:29,1,57.5999982421876,8|0,3:0|0:0,0:0:0:0:
279,17,211325,2,0,L|327:57,1,57.5999982421876,8|0,0:0|0:0,0:0:0:0:
144,191,211479,1,8,0:0:0:0:
80,194,211556,1,0,0:0:0:0:
144,191,211633,1,8,0:0:0:0:
211,190,211709,1,0,0:0:0:0:
414,229,211786,1,8,0:0:0:0:
345,234,211863,1,0,0:0:0:0:
118,285,211940,1,8,0:0:0:0:
187,284,212017,1,0,0:0:0:0:
470,305,212094,6,0,P|489:230|468:63,1,230.39999296875,8|8,0:0|0:0,0:0:0:0:
320,70,212556,1,0,0:0:0:0:
480,37,212709,2,0,L|363:31,1,115.199996484375,8|0,0:0|0:0,0:0:0:0:
248,28,213017,2,0,L|472:24,1,211.200006445313,10|0,0:0|0:0,0:0:0:0:
144,288,213325,6,0,P|108:232|144:132,1,180,12|0,0:0|0:0,0:0:0:0:
336,96,213633,1,2,0:0:0:0:
355,164,213671,1,2,0:0:0:0:
328,224,213709,1,2,0:0:0:0:
280,224,213748,1,2,0:0:0:0:
232,224,213786,1,2,0:0:0:0:
205,163,213825,1,2,0:0:0:0:
225,95,213863,1,2,0:0:0:0:
416,96,213940,6,0,L|432:224,1,120,8|0,0:0|0:0,0:0:0:0:
176,320,214248,2,0,L|304:320,1,120,2|0,0:0|0:0,0:0:0:0:
32,192,214556,6,0,L|160:192,1,120,8|0,0:0|0:0,0:0:0:0:
416,192,214863,1,2,0:0:0:0:
152,192,215017,2,0,L|120:192,3,30,8|2|2|2,0:0|0:0|0:0|0:0,0:0:0:0:
152,192,215171,5,2,0:0:0:0:
416,192,215325,2,0,L|448:192,1,30,8|0,0:0|0:0,0:0:0:0:
464,192,215402,1,0,0:0:0:0:
272,192,215479,2,0,L|400:192,1,120,2|0,0:0|0:0,0:0:0:0:
128,32,215786,5,8,0:0:0:0:
161,32,215825,1,2,0:0:0:0:
192,32,215863,1,2,0:0:0:0:
223,32,215902,1,2,0:0:0:0:
254,32,215940,1,2,0:0:0:0:
286,32,215979,1,2,0:0:0:0:
317,32,216017,1,2,0:0:0:0:
128,32,216094,1,2,0:0:0:0:
106,59,216133,1,2,0:0:0:0:
91,92,216171,1,2,0:0:0:0:
86,128,216209,1,2,0:0:0:0:
91,163,216248,1,2,0:0:0:0:
106,196,216286,1,2,0:0:0:0:
129,224,216325,1,2,0:0:0:0:
320,288,216402,6,0,L|336:160,1,120,8|0,0:0|0:0,0:0:0:0:
80,64,216709,2,0,L|208:64,1,120,2|0,0:0|0:0,0:0:0:0:
456,64,217017,6,0,L|336:64,1,120,8|0,0:0|0:0,0:0:0:0:
80,64,217325,1,2,0:0:0:0:
336,64,217479,1,8,0:0:0:0:
372,69,217517,1,2,0:0:0:0:
404,85,217556,1,2,0:0:0:0:
430,110,217594,1,2,0:0:0:0:
448,141,217633,5,2,0:0:0:0:
192,144,217786,1,8,0:0:0:0:
448,288,217940,2,0,B|192:288|192:288|192:160,1,383.039984219239,10|0,0:0|0:0,0:0:0:0:
368,288,218248,6,0,P|404:232|368:132,1,180,12|0,0:0|0:0,0:0:0:0:
176,96,218556,1,2,0:0:0:0:
157,164,218594,1,2,0:0:0:0:
184,224,218633,1,2,0:0:0:0:
232,224,218671,1,2,0:0:0:0:
280,224,218709,1,2,0:0:0:0:
307,163,218748,1,2,0:0:0:0:
287,95,218786,1,2,0:0:0:0:
96,96,218863,6,0,L|80:224,1,120,8|0,0:0|0:0,0:0:0:0:
336,320,219171,2,0,L|208:320,1,120,2|0,0:0|0:0,0:0:0:0:
480,192,219479,6,0,L|352:192,1,120,8|0,0:0|0:0,0:0:0:0:
96,192,219786,1,2,0:0:0:0:
360,192,219940,2,0,L|392:192,3,30,8|2|2|2,0:0|0:0|0:0|0:0,0:0:0:0:
360,192,220094,5,2,0:0:0:0:
96,192,220248,2,0,L|64:192,1,30,8|0,0:0|0:0,0:0:0:0:
48,192,220325,1,0,0:0:0:0:
240,192,220402,2,0,L|112:192,1,120,2|0,0:0|0:0,0:0:0:0:
384,32,220709,5,8,0:0:0:0:
351,32,220748,1,2,0:0:0:0:
320,32,220786,1,2,0:0:0:0:
289,32,220825,1,2,0:0:0:0:
258,32,220863,1,2,0:0:0:0:
226,32,220902,1,2,0:0:0:0:
195,32,220940,1,2,0:0:0:0:
384,32,221017,1,2,0:0:0:0:
406,59,221056,1,2,0:0:0:0:
421,92,221094,1,2,0:0:0:0:
426,128,221133,1,2,0:0:0:0:
421,163,221171,1,2,0:0:0:0:
406,196,221209,1,2,0:0:0:0:
383,224,221248,1,2,0:0:0:0:
192,288,221325,6,0,L|208:160,1,120,8|0,0:0|0:0,0:0:0:0:
464,64,221633,2,0,L|336:64,1,120,2|0,0:0|0:0,0:0:0:0:
88,64,221940,6,0,L|208:64,1,120,8|0,0:0|0:0,0:0:0:0:
208,64,222171,1,0,0:0:0:0:
16,192,222248,2,0,L|48:128,1,60,2|0,0:0|0:0,0:0:0:0:
232,192,222402,2,0,L|264:128,1,60,8|0,0:0|0:0,0:0:0:0:
64,288,222556,6,0,L|128:288,1,60,2|0,0:0|0:0,0:0:0:0:
320,288,222709,2,0,L|380:288,1,60,8|0,0:0|0:0,0:0:0:0:
224,192,222863,2,0,P|176:144|176:72,1,144,10|0,0:0|0:0,0:0:0:0:
368,48,223171,5,12,0:0:0:0:
390,75,223209,1,2,0:0:0:0:
405,108,223248,1,2,0:0:0:0:
410,144,223286,1,2,0:0:0:0:
405,179,223325,1,2,0:0:0:0:
390,212,223363,1,2,0:0:0:0:
367,240,223402,1,2,0:0:0:0:
176,48,223479,1,2,0:0:0:0:
208,48,223517,1,2,0:0:0:0:
240,48,223556,1,2,0:0:0:0:
272,48,223594,1,2,0:0:0:0:
304,96,223633,1,2,0:0:0:0:
272,96,223671,1,2,0:0:0:0:
240,96,223709,1,2,0:0:0:0:
48,192,223786,6,0,L|176:192,1,120,8|0,0:0|0:0,0:0:0:0:
432,192,224094,2,0,L|304:192,1,120,2|0,0:0|0:0,0:0:0:0:
48,192,224402,6,0,L|176:192,1,120,8|0,0:0|0:0,0:0:0:0:
432,192,224709,1,2,0:0:0:0:
168,48,224863,1,8,0:0:0:0:
200,48,224902,1,2,0:0:0:0:
232,48,224940,1,2,0:0:0:0:
264,48,224979,1,2,0:0:0:0:
296,96,225017,5,2,0:0:0:0:
40,192,225171,1,8,0:0:0:0:
16,208,225209,1,0,0:0:0:0:
40,224,225248,1,0,0:0:0:0:
232,256,225325,2,0,B|112:256,1,120,2|0,0:0|0:0,0:0:0:0:
368,32,225633,5,8,0:0:0:0:
335,32,225671,1,2,0:0:0:0:
304,32,225709,1,2,0:0:0:0:
273,32,225748,1,2,0:0:0:0:
242,32,225786,1,2,0:0:0:0:
210,32,225825,1,2,0:0:0:0:
179,32,225863,1,2,0:0:0:0:
368,48,225940,1,2,0:0:0:0:
390,75,225979,1,2,0:0:0:0:
405,108,226017,1,2,0:0:0:0:
410,144,226056,1,2,0:0:0:0:
405,179,226094,1,2,0:0:0:0:
390,212,226133,1,2,0:0:0:0:
367,240,226171,1,2,0:0:0:0:
176,192,226248,6,0,L|296:192,1,120,8|0,0:0|0:0,0:0:0:0:
32,64,226556,2,0,L|152:64,1,120,2|0,0:0|0:0,0:0:0:0:
416,64,226863,6,0,L|288:64,1,120,8|0,0:0|0:0,0:0:0:0:
32,64,227171,1,2,0:0:0:0:
296,64,227325,1,8,0:0:0:0:
264,64,227363,1,2,0:0:0:0:
232,64,227402,1,2,0:0:0:0:
200,64,227440,1,2,0:0:0:0:
168,112,227479,5,2,0:0:0:0:
432,192,227633,1,8,0:0:0:0:
168,320,227786,1,10,0:0:0:0:
170,251,227825,1,2,0:0:0:0:
205,190,227863,1,2,0:0:0:0:
256,165,227902,1,2,0:0:0:0:
305,189,227940,1,2,0:0:0:0:
341,250,227979,1,2,0:0:0:0:
344,320,228017,1,2,0:0:0:0:
144,48,228094,5,12,0:0:0:0:
122,75,228133,1,2,0:0:0:0:
107,108,228171,1,2,0:0:0:0:
102,144,228209,1,2,0:0:0:0:
107,179,228248,1,2,0:0:0:0:
122,212,228286,1,2,0:0:0:0:
145,240,228325,1,2,0:0:0:0:
336,48,228402,1,2,0:0:0:0:
304,48,228440,1,2,0:0:0:0:
272,48,228479,1,2,0:0:0:0:
240,48,228517,1,2,0:0:0:0:
208,96,228556,1,2,0:0:0:0:
240,96,228594,1,2,0:0:0:0:
272,96,228633,1,2,0:0:0:0:
464,192,228709,6,0,L|336:192,1,120,8|0,0:0|0:0,0:0:0:0:
80,192,229017,2,0,L|208:192,1,120,2|0,0:0|0:0,0:0:0:0:
464,192,229325,6,0,L|336:192,1,120,8|0,0:0|0:0,0:0:0:0:
80,192,229633,1,2,0:0:0:0:
344,48,229786,1,8,0:0:0:0:
312,48,229825,1,2,0:0:0:0:
280,48,229863,1,2,0:0:0:0:
248,48,229902,1,2,0:0:0:0:
216,96,229940,5,2,0:0:0:0:
472,192,230094,1,8,0:0:0:0:
496,208,230133,1,0,0:0:0:0:
472,224,230171,1,0,0:0:0:0:
280,256,230248,2,0,B|400:256,1,120,2|0,0:0|0:0,0:0:0:0:
144,32,230556,5,8,0:0:0:0:
177,32,230594,1,2,0:0:0:0:
208,32,230633,1,2,0:0:0:0:
239,32,230671,1,2,0:0:0:0:
270,32,230709,1,2,0:0:0:0:
302,32,230748,1,2,0:0:0:0:
333,32,230786,1,2,0:0:0:0:
144,48,230863,1,2,0:0:0:0:
122,75,230902,1,2,0:0:0:0:
107,108,230940,1,2,0:0:0:0:
102,144,230979,1,2,0:0:0:0:
107,179,231017,1,2,0:0:0:0:
122,212,231056,1,2,0:0:0:0:
145,240,231094,1,2,0:0:0:0:
336,192,231171,6,0,L|352:128,1,60,8|0,0:0|0:0,0:0:0:0:
160,192,231325,2,0,L|176:128,1,60,0|0,0:0|0:0,0:0:0:0:
368,192,231479,2,0,L|304:192,1,60,2|0,0:0|0:0,0:0:0:0:
116,96,231633,2,0,L|176:96,1,60,0|0,0:0|0:0,0:0:0:0:
368,96,231786,6,0,L|384:224,1,120,8|0,0:0|0:0,0:0:0:0:
192,224,232017,2,0,L|176:96,1,120,8|0,0:0|0:0,0:0:0:0:
368,96,232248,2,0,L|248:96,1,120,8|2,0:0|0:0,0:0:0:0:
208,96,232479,1,8,0:0:0:0:
368,192,232556,5,0,0:0:0:0:
208,288,232633,1,8,0:0:0:0:
175,273,232671,1,2,0:0:0:0:
152,246,232709,1,10,0:0:0:0:
144,212,232748,1,2,0:0:0:0:
152,177,232786,1,2,0:0:0:0:
175,150,232825,1,2,0:0:0:0:
207,136,232863,1,2,0:0:0:0:
448,208,233017,6,0,P|433:114|362:77,1,180,12|0,0:0|0:0,0:0:0:0:
206,51,233325,1,2,0:0:0:0:
237,51,233363,1,2,0:0:0:0:
268,51,233402,1,2,0:0:0:0:
299,52,233440,1,2,0:0:0:0:
330,53,233479,1,2,0:0:0:0:
362,54,233517,1,2,0:0:0:0:
393,54,233556,1,2,0:0:0:0:
227,175,233633,5,8,0:0:0:0:
355,199,233786,1,0,0:0:0:0:
122,162,233940,1,2,0:0:0:0:
355,199,234094,1,0,0:0:0:0:
16,144,234248,6,0,L|22:23,1,120,8|0,0:0|0:0,0:0:0:0:
305,53,234556,1,2,0:0:0:0:
163,84,234709,2,0,L|130:89,4,30,8|2|2|2|2,0:0|0:0|0:0|0:0|0:0,0:0:0:0:
450,97,235017,6,0,L|479:101,2,30,8|0|0,0:0|0:0|0:0,0:0:0:0:
258,124,235171,2,0,L|249:187,1,60,2|0,0:0|0:0,0:0:0:0:
406,210,235325,1,0,0:0:0:0:
436,212,235363,1,0,0:0:0:0:
466,214,235402,1,0,0:0:0:0:
221,249,235479,6,0,L|101:259,1,120,8|2,0:0|0:0,0:0:0:0:
164,312,235709,1,2,0:0:0:0:
322,338,235786,1,2,0:0:0:0:
291,338,235825,1,2,0:0:0:0:
260,338,235863,1,2,0:0:0:0:
229,337,235902,1,2,0:0:0:0:
198,336,235940,1,2,0:0:0:0:
166,335,235979,1,2,0:0:0:0:
135,335,236017,1,2,0:0:0:0:
299,152,236094,5,8,0:0:0:0:
168,124,236248,1,0,0:0:0:0:
416,164,236402,1,2,0:0:0:0:
168,124,236556,2,0,L|158:46,1,60,0|0,0:0|0:0,0:0:0:0:
319,42,236709,6,0,L|442:34,1,120,8|0,0:0|0:0,0:0:0:0:
169,108,237017,1,2,0:0:0:0:
456,154,237171,2,0,L|489:159,4,30,8|2|2|2|2,0:0|0:0|0:0|0:0|0:0,0:0:0:0:
169,167,237479,6,0,L|140:171,2,30,8|0|0,0:0|0:0|0:0,0:0:0:0:
361,194,237633,2,0,L|230:203,1,120,10|0,0:0|0:0,0:0:0:0:
238,255,237825,1,0,0:0:0:0:
235,307,237863,1,0,0:0:0:0:
422,288,237940,6,0,L|296:296,1,120,12|0,0:0|0:0,0:0:0:0:
41,203,238248,1,2,0:0:0:0:
65,193,238286,1,2,0:0:0:0:
82,168,238325,1,2,0:0:0:0:
92,131,238363,1,2,0:0:0:0:
83,93,238402,1,2,0:0:0:0:
66,64,238440,1,2,0:0:0:0:
42,52,238479,1,2,0:0:0:0:
217,58,238556,5,8,0:0:0:0:
117,48,238709,1,0,0:0:0:0:
361,61,238863,1,2,0:0:0:0:
117,48,239017,2,0,L|81:44,2,30,0|0|0,0:0|0:0|0:0,0:0:0:0:
300,134,239171,5,8,0:0:0:0:
187,117,239325,1,0,0:0:0:0:
420,144,239479,1,2,0:0:0:0:
157,280,239633,1,8,0:0:0:0:
187,283,239671,1,2,0:0:0:0:
217,286,239709,1,2,0:0:0:0:
247,289,239748,1,2,0:0:0:0:
277,292,239786,1,2,0:0:0:0:
16,128,239940,6,0,L|13:83,2,30,8|0|0,0:0|0:0|0:0,0:0:0:0:
201,151,240094,2,0,L|332:158,1,120,2|0,0:0|0:0,0:0:0:0:
327,210,240286,1,0,0:0:0:0:
320,262,240325,1,0,0:0:0:0:
102,237,240402,6,0,L|301:231,1,180,8|2,0:0|0:0,0:0:0:0:
462,281,240709,1,2,0:0:0:0:
438,271,240748,1,2,0:0:0:0:
421,246,240786,1,2,0:0:0:0:
411,209,240825,1,2,0:0:0:0:
420,171,240863,1,2,0:0:0:0:
437,142,240902,1,2,0:0:0:0:
461,130,240940,1,2,0:0:0:0:
286,163,241017,6,0,L|166:171,1,120,8|0,0:0|0:0,0:0:0:0:
316,122,241325,1,2,0:0:0:0:
73,117,241479,2,0,L|64:77,2,30,0|0|0,0:0|0:0|0:0,0:0:0:0:
269,57,241633,6,0,L|405:51,1,120,8|0,0:0|0:0,0:0:0:0:
327,17,241863,1,0,0:0:0:0:
124,188,241940,2,0,L|121:257,1,60,2|0,0:0|0:0,0:0:0:0:
207,232,242094,2,0,L|210:301,1,60,8|0,0:0|0:0,0:0:0:0:
30,323,242248,6,0,L|108:325,1,60,2|0,0:0|0:0,0:0:0:0:
275,333,242402,2,0,L|343:338,1,60,8|0,0:0|0:0,0:0:0:0:
125,136,242556,2,0,B|338:135|338:135|355:252,1,316.800009667969,10|0,0:0|0:0,0:0:0:0:
171,233,242863,6,0,L|38:240,1,120,12|0,0:0|0:0,0:0:0:0:
358,124,243171,1,2,0:0:0:0:
196,139,243325,1,2,0:0:0:0:
358,124,243479,1,8,0:0:0:0:
196,139,243633,1,0,0:0:0:0:
446,86,243786,5,2,0:0:0:0:
275,93,243940,1,0,0:0:0:0:
16,96,244094,5,8,0:0:0:0:
170,85,244248,1,0,0:0:0:0:
442,45,244402,1,2,0:0:0:0:
155,170,244556,2,0,L|111:176,4,30,8|2|2|2|2,0:0|0:0|0:0|0:0|0:0,0:0:0:0:
285,168,244863,6,0,L|322:170,2,30,8|0|0,0:0|0:0|0:0,0:0:0:0:
76,334,245017,2,0,L|68:208,1,120,2|0,0:0|0:0,0:0:0:0:
371,75,245325,5,8,0:0:0:0:
213,81,245479,1,2,0:0:0:0:
464,77,245633,1,2,0:0:0:0:
467,106,245671,1,2,0:0:0:0:
469,136,245709,1,2,0:0:0:0:
471,166,245748,1,2,0:0:0:0:
474,196,245786,1,2,0:0:0:0:
175,216,245940,5,8,0:0:0:0:
320,225,246094,1,0,0:0:0:0:
75,215,246248,2,0,L|72:84,1,120,2|0,0:0|0:0,0:0:0:0:
377,87,246556,5,8,0:0:0:0:
224,81,246709,1,0,0:0:0:0:
377,87,246863,1,2,0:0:0:0:
57,137,247017,1,8,0:0:0:0:
53,166,247056,1,2,0:0:0:0:
64,193,247094,1,2,0:0:0:0:
88,211,247133,1,2,0:0:0:0:
118,214,247171,1,2,0:0:0:0:
271,229,247325,6,0,L|318:231,2,30,8|0|0,0:0|0:0|0:0,0:0:0:0:
65,336,247479,2,0,L|62:208,1,120,10|0,0:0|0:0,0:0:0:0:
438,197,247786,6,0,L|442:75,1,120,12|0,0:0|0:0,0:0:0:0:
174,84,248094,1,2,0:0:0:0:
331,79,248248,1,2,0:0:0:0:
174,84,248402,5,8,0:0:0:0:
331,79,248556,1,0,0:0:0:0:
56,94,248709,1,2,0:0:0:0:
219,84,248863,1,0,0:0:0:0:
480,48,249017,5,8,0:0:0:0:
321,36,249171,2,0,L|283:36,2,30,0|0|0,0:0|0:0|0:0,0:0:0:0:
496,112,249325,1,2,0:0:0:0:
352,144,249479,1,8,0:0:0:0:
54,186,249633,5,2,0:0:0:0:
352,144,249786,2,0,L|344:208,1,60,8|0,0:0|0:0,0:0:0:0:
137,232,249940,1,2,0:0:0:0:
275,247,250094,2,0,L|325:254,2,30,0|0|0,0:0|0:0|0:0,0:0:0:0:
56,155,250248,6,0,L|61:82,1,60,8|0,0:0|0:0,0:0:0:0:
148,72,250402,2,0,L|212:67,1,60,2|0,0:0|0:0,0:0:0:0:
393,72,250556,2,0,L|472:70,1,60,2|0,0:0|0:0,0:0:0:0:
452,70,250709,2,0,L|380:67,1,60,2|0,0:0|0:0,0:0:0:0:
215,129,250863,6,0,L|212:195,1,60,8|0,0:0|0:0,0:0:0:0:
291,170,251017,2,0,L|301:233,1,60,0|0,0:0|0:0,0:0:0:0:
114,242,251171,2,0,L|174:242,1,60,2|0,0:0|0:0,0:0:0:0:
371,181,251325,2,0,L|430:181,1,60,0|0,0:0|0:0,0:0:0:0:
246,105,251479,6,0,L|117:101,1,120,8|0,0:0|0:0,0:0:0:0:
339,58,251709,2,0,L|407:55,1,60,0|2,0:0|0:0,0:0:0:0:
45,80,251940,2,0,L|37:220,1,120,8|2,0:0|0:0,0:0:0:0:
103,213,252171,1,0,0:0:0:0:
283,226,252248,1,8,0:0:0:0:
283,226,252402,2,0,L|67:236,1,211.200006445313,10|0,0:0|0:0,0:0:0:0:
448,192,252709,6,0,L|464:96,1,96,12|2,0:0|0:0,0:0:0:0:
208,96,253017,2,0,L|304:96,1,96,8|0,0:0|0:0,0:0:0:0:
160,192,253325,2,0,L|256:192,1,96,8|0,0:0|0:0,0:0:0:0:
112,288,253633,2,0,L|208:288,1,96,8|0,0:0|0:0,0:0:0:0:
352,288,253940,6,0,L|256:288,1,96,8|0,0:0|0:0,0:0:0:0:
400,192,254248,2,0,L|304:192,1,96,8|0,0:0|0:0,0:0:0:0:
448,96,254556,1,8,0:0:0:0:
192,96,254709,1,8,3:0:0:0:
448,96,254863,2,0,L|304:96,1,144,8|0,0:0|0:0,0:0:0:0:
128,192,255171,6,0,L|112:96,1,96,8|0,0:0|0:0,0:0:0:0:
368,96,255479,2,0,L|272:96,1,96,8|0,0:0|0:0,0:0:0:0:
416,192,255786,2,0,L|320:192,1,96,8|0,0:0|0:0,0:0:0:0:
464,288,256094,2,0,L|368:288,1,96,8|0,0:0|0:0,0:0:0:0:
224,288,256402,6,0,L|320:288,1,96,8|0,0:0|0:0,0:0:0:0:
176,192,256709,2,0,L|272:192,1,96,8|0,0:0|0:0,0:0:0:0:
128,96,257017,1,8,0:0:0:0:
384,96,257171,1,8,3:0:0:0:
128,96,257325,2,0,B|352:224|352:224|288:112,1,384.480013346741,10|0,0:0|0:0,0:0:0:0:
64,192,257633,6,0,L|48:96,1,96,12|2,0:0|0:0,0:0:0:0:
304,96,257940,2,0,L|208:96,1,96,8|0,0:0|0:0,0:0:0:0:
352,192,258248,2,0,L|256:192,1,96,8|0,0:0|0:0,0:0:0:0:
400,288,258556,2,0,L|304:288,1,96,8|0,0:0|0:0,0:0:0:0:
160,288,258863,6,0,L|256:288,1,96,8|0,0:0|0:0,0:0:0:0:
112,192,259171,2,0,L|208:192,1,96,8|0,0:0|0:0,0:0:0:0:
64,96,259479,1,8,0:0:0:0:
320,96,259633,1,8,3:0:0:0:
64,96,259786,2,0,L|208:96,1,144,8|0,0:0|0:0,0:0:0:0:
384,192,260094,6,0,L|400:96,1,96,8|0,0:0|0:0,0:0:0:0:
144,96,260402,2,0,L|240:96,1,96,8|0,0:0|0:0,0:0:0:0:
96,192,260709,2,0,L|192:192,1,96,8|0,0:0|0:0,0:0:0:0:
48,288,261017,2,0,L|144:288,1,96,8|0,0:0|0:0,0:0:0:0:
288,288,261325,6,0,L|192:288,1,96,8|0,0:0|0:0,0:0:0:0:
192,288,261530,1,0,0:0:0:0:
400,192,261633,2,0,L|496:192,1,96,8|0,0:0|0:0,0:0:0:0:
240,96,261940,1,8,0:0:0:0:
96,96,262094,1,0,0:0:0:0:
416,96,262248,2,0,P|432:160|432:240,1,144,10|0,0:0|0:0,0:0:0:0:
240,240,262556,6,0,L|224:144,1,96,12|2,0:0|0:0,0:0:0:0:
480,48,262863,2,0,L|368:48,1,96,8|0,0:0|0:0,0:0:0:0:
240,96,263171,2,0,L|336:96,1,96,8|0,0:0|0:0,0:0:0:0:
480,144,263479,2,0,L|368:144,1,96,8|0,0:0|0:0,0:0:0:0:
240,336,263786,6,0,L|352:336,1,96,8|0,0:0|0:0,0:0:0:0:
192,288,264094,2,0,L|96:288,1,96,8|0,0:0|0:0,0:0:0:0:
240,240,264402,1,8,0:0:0:0:
496,240,264556,1,8,3:0:0:0:
240,240,264709,2,0,L|96:240,1,144,8|0,0:0|0:0,0:0:0:0:
272,240,265017,6,0,L|288:144,1,96,8|0,0:0|0:0,0:0:0:0:
32,48,265325,2,0,L|144:48,1,96,8|0,0:0|0:0,0:0:0:0:
272,96,265633,2,0,L|176:96,1,96,8|0,0:0|0:0,0:0:0:0:
32,144,265940,2,0,L|144:144,1,96,8|0,0:0|0:0,0:0:0:0:
272,336,266248,6,0,L|160:336,1,96,8|0,0:0|0:0,0:0:0:0:
320,288,266556,2,0,L|416:288,1,96,8|0,0:0|0:0,0:0:0:0:
272,240,266863,1,8,0:0:0:0:
16,240,267017,1,8,3:0:0:0:
272,240,267171,2,0,B|48:368|48:368|112:256,1,384.480013346741,10|0,0:0|0:0,0:0:0:0:
336,240,267479,6,0,L|352:144,1,96,12|2,0:0|0:0,0:0:0:0:
96,48,267786,2,0,L|208:48,1,96,8|0,0:0|0:0,0:0:0:0:
336,96,268094,2,0,L|240:96,1,96,8|0,0:0|0:0,0:0:0:0:
96,144,268402,2,0,L|208:144,1,96,8|0,0:0|0:0,0:0:0:0:
336,336,268709,6,0,L|224:336,1,96,8|0,0:0|0:0,0:0:0:0:
384,288,269017,2,0,L|480:288,1,96,8|0,0:0|0:0,0:0:0:0:
336,240,269325,1,8,0:0:0:0:
80,240,269479,1,8,3:0:0:0:
336,240,269633,2,0,L|192:240,1,144,8|0,0:0|0:0,0:0:0:0:
368,240,269940,6,0,L|384:144,1,96,8|0,0:0|0:0,0:0:0:0:
128,48,270248,2,0,L|240:48,1,96,8|0,0:0|0:0,0:0:0:0:
368,96,270556,2,0,L|272:96,1,96,8|0,0:0|0:0,0:0:0:0:
128,144,270863,2,0,L|240:144,1,96,8|0,0:0|0:0,0:0:0:0:
480,192,271171,5,12,0:0:0:0:
256,192,271325,12,0,272248,0:0:0:0:
189,150,272402,6,0,L|98:120,1,96,14|0,0:0|0:0,0:0:0:0:
123,116,272594,1,0,0:0:0:0:
146,115,272633,1,0,0:0:0:0:
323,115,272709,2,0,L|326:80,1,24,10|0,0:0|0:0,0:0:0:0:
235,89,272863,2,0,L|232:54,1,24,2|0,0:0|0:0,0:0:0:0:
422,43,273017,6,0,L|445:43,1,24,10|0,0:0|0:0,0:0:0:0:
246,21,273171,2,0,L|223:21,1,24,2|0,0:0|0:0,0:0:0:0:
25,34,273325,2,0,L|22:73,1,24,10|0,0:0|0:0,0:0:0:0:
115,108,273479,2,0,L|139:112,1,24,2|0,0:0|0:0,0:0:0:0:
353,201,273633,6,0,L|320:196,1,24,10|0,0:0|0:0,0:0:0:0:
139,186,273786,2,0,L|108:182,2,24,2|0|0,0:0|0:0|0:0,0:0:0:0:
286,115,273940,2,0,L|325:115,1,24,10|0,0:0|0:0,0:0:0:0:
218,69,274094,2,0,L|187:69,1,24,2|0,0:0|0:0,0:0:0:0:
395,47,274248,6,0,L|179:43,2,211.200006445313,2|8|10,0:0|0:0|0:0,0:0:0:0:
261,131,274709,2,0,L|253:173,2,24,8|0|0,0:0|0:0|0:0,0:0:0:0:
399,152,274863,6,0,L|500:161,1,96,10|0,0:0|0:0,0:0:0:0:
492,217,275056,1,0,0:0:0:0:
489,264,275094,1,0,0:0:0:0:
317,264,275171,2,0,L|286:261,1,24,10|0,0:0|0:0,0:0:0:0:
382,225,275325,2,0,L|384:196,1,24,2|0,0:0|0:0,0:0:0:0:
173,135,275479,6,0,L|230:134,1,48,10|2,0:0|2:0,0:0:0:0:
363,98,275633,2,0,L|405:98,2,24,2|0|0,0:0|0:0|0:0,0:0:0:0:
204,288,275786,2,0,L|198:231,1,48,10|2,0:0|2:0,0:0:0:0:
263,215,275940,2,0,L|269:158,1,48,2|0,0:0|0:0,0:0:0:0:
199,196,276094,6,0,L|193:139,1,48,10|2,0:0|2:0,0:0:0:0:
359,121,276248,1,0,0:0:0:0:
335,119,276286,1,0,0:0:0:0:
311,117,276325,1,0,0:0:0:0:
287,115,276363,1,0,0:0:0:0:
263,114,276402,1,8,0:0:0:0:
496,48,276556,1,0,0:0:0:0:
472,46,276594,1,0,0:0:0:0:
448,44,276633,1,0,0:0:0:0:
424,42,276671,1,0,0:0:0:0:
400,41,276709,5,8,0:0:0:0:
496,96,276863,1,8,0:0:0:0:
251,213,277017,2,0,L|248:180,1,24,10|0,0:0|0:0,0:0:0:0:
344,170,277171,2,0,L|371:168,2,24,0|0|0,0:0|0:0|0:0,0:0:0:0:
173,283,277325,6,0,L|74:287,1,96,14|0,0:0|0:0,0:0:0:0:
70,262,277517,1,0,0:0:0:0:
69,239,277556,1,0,0:0:0:0:
213,198,277633,2,0,L|216:163,1,24,10|0,0:0|0:0,0:0:0:0:
123,175,277786,2,0,L|120:140,1,24,2|0,0:0|0:0,0:0:0:0:
324,109,277940,6,0,L|347:109,1,24,10|0,0:0|0:0,0:0:0:0:
148,87,278094,2,0,L|125:87,1,24,2|0,0:0|0:0,0:0:0:0:
386,179,278248,2,0,L|389:218,1,24,10|0,0:0|0:0,0:0:0:0:
290,196,278402,2,0,L|287:232,1,24,2|0,0:0|0:0,0:0:0:0:
490,311,278556,6,0,L|457:306,1,24,10|0,0:0|0:0,0:0:0:0:
276,296,278709,2,0,L|245:292,2,24,2|0|0,0:0|0:0|0:0,0:0:0:0:
423,225,278863,2,0,L|462:225,1,24,10|0,0:0|0:0,0:0:0:0:
358,176,279017,2,0,L|327:176,1,24,2|0,0:0|0:0,0:0:0:0:
104,183,279171,6,0,L|337:176,2,230.39999296875,2|8|10,0:0|0:0|0:0,0:0:0:0:
227,110,279633,1,8,0:0:0:0:
250,108,279671,1,0,0:0:0:0:
274,106,279709,1,0,0:0:0:0:
113,135,279786,6,0,L|8:131,1,96,10|0,0:0|0:0,0:0:0:0:
56,90,279979,1,0,0:0:0:0:
92,83,280017,1,0,0:0:0:0:
241,174,280094,2,0,L|245:208,1,24,10|0,0:0|0:0,0:0:0:0:
156,211,280248,2,0,L|153:241,1,24,2|0,0:0|0:0,0:0:0:0:
380,294,280402,6,0,L|323:295,1,48,10|2,0:0|2:0,0:0:0:0:
190,331,280556,2,0,L|148:331,2,24,2|0|0,0:0|0:0|0:0,0:0:0:0:
349,141,280709,2,0,L|355:198,1,48,10|2,0:0|2:0,0:0:0:0:
286,205,280863,2,0,L|280:262,1,48,2|0,0:0|0:0,0:0:0:0:
454,75,281017,6,0,L|343:69,1,96,10|0,0:0|0:0,0:0:0:0:
306,70,281248,1,0,0:0:0:0:
457,154,281325,2,0,L|461:208,1,48,8|0,0:0|0:0,0:0:0:0:
290,128,281479,1,0,0:0:0:0:
266,126,281517,1,0,0:0:0:0:
242,124,281556,1,0,0:0:0:0:
427,240,281633,6,0,L|428:307,1,48,8|0,0:0|0:0,0:0:0:0:
364,295,281786,2,0,L|312:297,1,48,8|0,0:0|0:0,0:0:0:0:
166,198,281940,2,0,B|379:199|379:199|396:82,1,316.800009667969,10|0,0:0|0:0,0:0:0:0:
168,318,282248,6,0,L|164:219,1,96,14|0,0:0|0:0,0:0:0:0:
189,215,282440,1,0,0:0:0:0:
212,214,282479,1,0,0:0:0:0:
405,210,282556,2,0,L|408:175,1,24,10|0,0:0|0:0,0:0:0:0:
313,186,282709,2,0,L|274:184,1,24,2|0,0:0|0:0,0:0:0:0:
68,125,282863,6,0,L|69:86,1,24,10|0,0:0|0:0,0:0:0:0:
249,78,283017,2,0,L|289:77,1,24,2|0,0:0|0:0,0:0:0:0:
491,31,283171,2,0,L|451:29,1,24,10|0,0:0|0:0,0:0:0:0:
258,38,283325,2,0,L|255:-2,1,24,2|0,0:0|0:0,0:0:0:0:
429,257,283479,6,0,L|396:252,1,24,10|0,0:0|0:0,0:0:0:0:
215,242,283633,2,0,L|184:238,2,24,2|0|0,0:0|0:0|0:0,0:0:0:0:
359,171,283786,2,0,L|398:171,1,24,10|0,0:0|0:0,0:0:0:0:
294,125,283940,2,0,L|263:125,1,24,2|0,0:0|0:0,0:0:0:0:
471,103,284094,6,0,L|255:99,2,211.200006445313,2|8|10,0:0|0:0|0:0,0:0:0:0:
381,191,284556,1,8,0:0:0:0:
357,190,284594,1,0,0:0:0:0:
333,190,284632,1,0,0:0:0:0:
172,220,284709,6,0,L|70:222,1,96,10|0,0:0|0:0,0:0:0:0:
74,273,284902,1,0,0:0:0:0:
72,333,284940,1,0,0:0:0:0:
219,165,285017,2,0,L|246:162,1,24,10|0,0:0|0:0,0:0:0:0:
154,129,285171,2,0,L|123:127,1,24,2|0,0:0|0:0,0:0:0:0:
341,84,285325,6,0,L|398:84,1,48,10|2,0:0|2:0,0:0:0:0:
243,210,285479,2,0,L|236:245,2,24,2|0|0,0:0|0:0|0:0,0:0:0:0:
413,228,285633,2,0,L|463:230,1,48,10|2,0:0|2:0,0:0:0:0:
399,267,285786,2,0,L|349:269,1,48,2|0,0:0|0:0,0:0:0:0:
413,228,285940,6,0,L|463:230,1,48,10|2,0:0|2:0,0:0:0:0:
240,162,286094,2,0,L|234:130,2,24,0|0|0,0:0|0:0|0:0,0:0:0:0:
301,140,286248,2,0,L|401:135,1,96,8|0,0:0|0:0,0:0:0:0:
400,82,286440,1,0,0:0:0:0:
375,61,286479,1,0,0:0:0:0:
238,92,286556,5,8,0:0:0:0:
382,36,286709,2,0,L|143:30,1,211.200006445313,8|10,0:0|0:0,0:0:0:0:
280,127,287017,2,0,L|287:166,2,24,0|0|0,0:0|0:0|0:0,0:0:0:0:
85,143,287171,6,0,L|82:241,1,96,14|0,0:0|0:0,0:0:0:0:
120,241,287363,1,0,0:0:0:0:
157,249,287402,1,0,0:0:0:0:
308,266,287479,2,0,L|339:267,1,24,10|0,0:0|0:0,0:0:0:0:
237,287,287633,2,0,L|205:287,2,24,2|0|0,0:0|0:0|0:0,0:0:0:0:
387,216,287786,6,0,L|391:182,1,24,10|0,0:0|0:0,0:0:0:0:
215,151,287940,2,0,L|176:146,2,24,2|0|0,0:0|0:0|0:0,0:0:0:0:
372,128,288094,2,0,L|408:124,1,24,10|0,0:0|0:0,0:0:0:0:
307,74,288248,1,2,0:0:0:0:
283,71,288286,1,0,0:0:0:0:
259,68,288325,1,0,0:0:0:0:
92,46,288402,6,0,L|89:81,1,24,10|0,0:0|0:0,0:0:0:0:
181,93,288556,2,0,L|211:95,2,24,2|0|0,0:0|0:0|0:0,0:0:0:0:
36,133,288709,2,0,L|35:159,1,24,10|0,0:0|0:0,0:0:0:0:
140,181,288863,1,2,0:0:0:0:
163,184,288902,1,0,0:0:0:0:
187,187,288940,1,0,0:0:0:0:
376,224,289017,6,0,L|378:253,1,24,2|0,0:0|0:0,0:0:0:0:
270,263,289171,2,0,L|482:263,2,211.200006445313,8|10|8,0:0|0:0|0:0,0:0:0:0:
245,261,289517,1,0,0:0:0:0:
220,259,289556,1,0,0:0:0:0:
392,153,289633,6,0,L|394:117,1,24,10|0,0:0|0:0,0:0:0:0:
307,97,289786,2,0,L|268:93,2,24,0|0|0,0:0|0:0|0:0,0:0:0:0:
453,65,289940,2,0,L|481:62,1,24,10|0,0:0|0:0,0:0:0:0:
386,36,290094,1,2,0:0:0:0:
362,34,290133,1,0,0:0:0:0:
338,33,290171,1,0,0:0:0:0:
171,36,290248,6,0,L|123:32,1,48,10|2,0:0|2:0,0:0:0:0:
270,135,290402,2,0,L|272:166,2,24,2|0|0,0:0|0:0|0:0,0:0:0:0:
99,191,290556,2,0,L|51:192,1,48,10|2,0:0|2:0,0:0:0:0:
119,241,290709,1,2,0:0:0:0:
142,241,290748,1,0,0:0:0:0:
166,241,290786,1,0,0:0:0:0:
343,245,290863,6,0,L|449:245,1,96,10|0,0:0|0:0,0:0:0:0:
299,208,291171,1,8,0:0:0:0:
448,185,291325,2,0,L|450:70,1,96,0|8,0:0|0:0,0:0:0:0:
401,77,291556,1,0,0:0:0:0:
256,62,291633,6,0,L|254:13,1,48,8|0,0:0|0:0,0:0:0:0:
414,179,291786,2,0,B|201:178|201:178|184:295,1,316.800009667969,10|0,0:0|0:0,0:0:0:0:
352,96,292094,5,12,0:0:0:0:
208,96,292248,1,2,0:0:0:0:
352,192,292402,2,0,L|368:96,1,96,8|0,0:0|0:0,0:0:0:0:
224,192,292709,2,0,L|240:96,1,96,8|0,0:0|0:0,0:0:0:0:
384,192,293017,2,0,L|288:192,1,96,8|0,0:0|0:0,0:0:0:0:
144,288,293325,5,8,0:0:0:0:
288,288,293479,1,0,0:0:0:0:
144,192,293633,2,0,L|128:288,1,96,8|0,0:0|0:0,0:0:0:0:
272,192,293940,2,0,L|256:288,1,96,8|0,0:0|0:0,0:0:0:0:
112,192,294248,2,0,L|208:192,1,96,8|0,0:0|0:0,0:0:0:0:
352,96,294556,5,8,0:0:0:0:
208,96,294710,1,0,0:0:0:0:
352,192,294864,2,0,L|336:96,1,96,8|0,0:0|0:0,0:0:0:0:
192,192,295171,2,0,L|176:96,1,96,8|0,0:0|0:0,0:0:0:0:
320,192,295479,2,0,L|224:192,1,96,8|0,0:0|0:0,0:0:0:0:
80,288,295786,5,8,0:0:0:0:
224,288,295940,1,0,0:0:0:0:
80,192,296094,2,0,L|96:288,1,96,8|0,0:0|0:0,0:0:0:0:
240,192,296401,2,0,L|256:288,1,96,8|0,0:0|0:0,0:0:0:0:
32,192,296709,1,8,0:0:0:0:
272,192,296863,1,8,0:0:0:0:
32,96,297017,5,12,0:0:0:0:
176,96,297171,1,0,0:0:0:0:
32,192,297325,2,0,L|48:96,1,96,8|0,0:0|0:0,0:0:0:0:
192,192,297632,2,0,L|176:96,1,96,8|0,0:0|0:0,0:0:0:0:
32,192,297940,2,0,L|128:192,1,96,8|0,0:0|0:0,0:0:0:0:
272,288,298248,5,8,0:0:0:0:
128,288,298402,1,0,0:0:0:0:
272,192,298556,2,0,L|288:288,1,96,8|0,0:0|0:0,0:0:0:0:
144,192,298863,2,0,L|128:288,1,96,8|0,0:0|0:0,0:0:0:0:
272,192,299171,2,0,L|176:192,1,96,8|0,0:0|0:0,0:0:0:0:
336,96,299479,5,8,0:0:0:0:
192,96,299633,1,0,0:0:0:0:
336,192,299787,2,0,L|320:96,1,96,8|0,0:0|0:0,0:0:0:0:
176,192,300094,2,0,L|192:96,1,96,8|0,0:0|0:0,0:0:0:0:
336,192,300402,2,0,L|240:192,1,96,8|0,0:0|0:0,0:0:0:0:
384,288,300710,5,8,0:0:0:0:
240,288,300863,2,0,L|224:240,1,48,0|0,0:0|0:0,0:0:0:0:
384,192,301017,2,0,L|480:192,1,96,8|0,0:0|0:0,0:0:0:0:
240,192,301325,1,8,0:0:0:0:
480,192,301633,1,8,0:0:0:0:
96,192,301940,5,8,0:0:0:0:
352,64,302094,2,0,L|160:64,6,192,2|2|2|2|2|2|2,0:0|0:0|0:0|0:0|0:0|0:0|0:0,0:0:0:0:
96,192,304094,2,0,L|112:96,1,96,8|0,0:0|0:0,0:0:0:0:
416,192,304402,5,8,0:0:0:0:
160,320,304556,2,0,L|352:320,6,192,2|2|2|2|2|2|2,0:0|0:0|0:0|0:0|0:0|0:0|0:0,0:0:0:0:
416,192,306556,2,0,B|464:192|464:192|416:192,1,96,8|0,0:0|0:0,0:0:0:0:
128,192,306863,5,8,0:0:0:0:
384,320,307017,2,0,L|256:176,6,192,2|2|2|2|2|2|2,0:0|0:0|0:0|0:0|0:0|0:0|0:0,0:0:0:0:
128,192,309017,2,0,L|144:96,1,96,8|0,0:0|0:0,0:0:0:0:
448,192,309325,5,8,0:0:0:0:
192,320,309479,2,0,L|320:176,3,192,2|2|2|2,0:0|0:0|0:0|0:0,0:0:0:0:
64,192,310556,5,12,0:0:0:0:
256,192,310709,12,0,314248,0:0:0:0:
