osu file format v14

[General]
AudioFilename: audio.mp3
AudioLeadIn: 0
PreviewTime: 33963
Countdown: 0
SampleSet: Normal
StackLeniency: 0.7
Mode: 1
LetterboxInBreaks: 0
WidescreenStoryboard: 0

[Editor]
DistanceSpacing: 0.2
BeatDivisor: 4
GridSize: 32
TimelineZoom: 2.3

[Metadata]
Title:Extra Mode (DJ Myosuke Remix)
TitleUnicode:Extra Mode (DJ Myosuke Remix)
Artist:USAO
ArtistUnicode:USAO
Creator:jyake
Version:Kantan
Source:
Tags:industrial hardcore crossbreed Kick's For Liberation 5 HARDCORE TANO*C UOM Records USAO-012 short edit
BeatmapID:1465551
BeatmapSetID:692594

[Difficulty]
HPDrainRate:7.5
CircleSize:5
OverallDifficulty:3
ApproachRate:5
SliderMultiplier:1.4
SliderTickRate:1

[Events]
//Background and Video events
0,0,"clearing_v001_TB.jpg",0,0
//Break Periods
//Storyboard Layer 0 (Background)
//Storyboard Layer 1 (Fail)
//Storyboard Layer 2 (Pass)
//Storyboard Layer 3 (Foreground)
//Storyboard Sound Samples

[TimingPoints]
3806,315.789473684211,4,1,0,90,1,0
6332,-100,4,1,0,65,0,0
8542,-100,4,1,0,80,0,0
11384,-100,4,1,0,65,0,0
13911,-100,4,1,0,80,0,0
24016,-100,4,1,0,80,0,0
25279,-100,4,1,0,80,0,0
26542,-100,4,1,0,80,0,0
27806,-100,4,1,0,75,0,0
29069,-100,4,1,0,70,0,0
31595,-100,4,1,0,80,0,0
32858,-100,4,1,0,70,0,0
34121,-100,4,1,0,80,0,0
64437,-95.2380952380952,4,1,0,80,0,1
72016,-95.2380952380952,4,1,0,80,0,0
74227,-100,4,1,0,80,0,0
94753,-100,4,1,0,70,0,0
103595,-100,4,1,0,53,0,0
104858,-100,4,1,0,70,0,0

[HitObjects]
256,192,3806,5,4,0:0:0:0:
256,192,6332,1,0,0:0:0:0:
256,192,8858,1,8,0:0:0:0:
256,192,11384,1,0,0:0:0:0:
256,192,13911,1,4,0:0:0:0:
256,192,15174,1,0,0:0:0:0:
256,192,15806,1,8,0:0:0:0:
256,192,16437,1,0,0:0:0:0:
256,192,17069,1,8,0:0:0:0:
256,192,17700,1,0,0:0:0:0:
256,192,18963,1,4,0:0:0:0:
256,192,20227,1,0,0:0:0:0:
256,192,20858,1,8,0:0:0:0:
256,192,21490,1,0,0:0:0:0:
256,192,22121,1,8,0:0:0:0:
256,192,22753,1,0,0:0:0:0:
256,192,24016,1,4,0:0:0:0:
256,192,25279,1,4,0:0:0:0:
256,192,26542,1,4,0:0:0:0:
256,192,27806,1,4,0:0:0:0:
256,192,29069,1,4,0:0:0:0:
256,192,31595,1,4,0:0:0:0:
256,192,32858,1,8,0:0:0:0:
256,192,34121,1,4,0:0:0:0:
256,192,34753,1,0,0:0:0:0:
256,192,35384,1,0,0:0:0:0:
256,192,36016,1,8,0:0:0:0:
256,192,36648,1,0,0:0:0:0:
256,192,36963,1,0,0:0:0:0:
256,192,37279,1,0,0:0:0:0:
256,192,37911,1,8,0:0:0:0:
256,192,38227,1,8,0:0:0:0:
256,192,39174,1,0,0:0:0:0:
256,192,39806,1,0,0:0:0:0:
256,192,40437,1,0,0:0:0:0:
256,192,41069,1,8,0:0:0:0:
256,192,41700,1,0,0:0:0:0:
256,192,42016,1,0,0:0:0:0:
256,192,42332,1,0,0:0:0:0:
256,192,42963,12,8,43911,0:0:0:0:
256,192,44227,5,4,0:0:0:0:
256,192,44858,1,0,0:0:0:0:
256,192,45490,1,0,0:0:0:0:
256,192,46121,1,0,0:0:0:0:
256,192,46753,1,0,0:0:0:0:
256,192,47069,1,0,0:0:0:0:
256,192,47384,1,0,0:0:0:0:
256,192,48648,1,12,0:0:0:0:
256,192,49279,1,0,0:0:0:0:
256,192,49595,1,0,0:0:0:0:
256,192,49911,1,0,0:0:0:0:
256,192,50542,1,0,0:0:0:0:
256,192,51174,1,0,0:0:0:0:
256,192,52121,1,0,0:0:0:0:
256,192,52753,1,0,0:0:0:0:
256,192,53069,1,8,0:0:0:0:
256,192,54332,1,4,0:0:0:0:
256,192,54963,1,0,0:0:0:0:
256,192,55595,1,0,0:0:0:0:
256,192,56542,1,8,0:0:0:0:
256,192,56858,1,0,0:0:0:0:
256,192,57490,1,0,0:0:0:0:
256,192,58121,1,0,0:0:0:0:
256,192,58437,1,12,0:0:0:0:
256,192,58911,1,12,0:0:0:0:
256,192,59384,1,0,0:0:0:0:
256,192,60016,1,0,0:0:0:0:
256,192,60648,1,0,0:0:0:0:
256,192,61279,1,0,0:0:0:0:
256,192,61595,1,8,0:0:0:0:
256,192,61911,1,0,0:0:0:0:
256,192,62542,1,0,0:0:0:0:
256,192,63174,12,8,63963,0:0:0:0:
256,192,64279,5,8,0:0:0:0:
256,192,64437,1,0,0:0:0:0:
256,192,65227,1,0,0:0:0:0:
256,192,65542,1,12,0:0:0:0:
256,192,66648,1,12,0:0:0:0:
256,192,66963,1,0,0:0:0:0:
256,192,67753,1,0,0:0:0:0:
256,192,68069,1,12,0:0:0:0:
256,192,69174,1,12,0:0:0:0:
256,192,69490,1,0,0:0:0:0:
256,192,70279,1,0,0:0:0:0:
256,192,70595,1,12,0:0:0:0:
256,192,71700,1,8,0:0:0:0:
256,192,72016,12,0,74069,0:0:0:0:
256,192,74227,5,12,0:0:0:0:
256,192,74542,1,4,0:0:0:0:
256,192,75174,1,8,0:0:0:0:
256,192,75806,1,0,0:0:0:0:
256,192,76437,1,0,0:0:0:0:
256,192,77069,1,0,0:0:0:0:
256,192,77700,1,8,0:0:0:0:
256,192,78332,1,0,0:0:0:0:
256,192,78648,1,12,0:0:0:0:
256,192,79595,1,0,0:0:0:0:
256,192,80227,1,8,0:0:0:0:
256,192,80858,1,0,0:0:0:0:
256,192,81490,1,0,0:0:0:0:
256,192,81806,1,0,0:0:0:0:
256,192,82121,1,0,0:0:0:0:
256,192,82753,1,8,0:0:0:0:
256,192,83069,1,8,0:0:0:0:
256,192,83384,1,8,0:0:0:0:
256,192,84963,1,0,0:0:0:0:
256,192,85595,1,0,0:0:0:0:
256,192,85911,1,0,0:0:0:0:
256,192,86542,1,0,0:0:0:0:
256,192,87174,1,8,0:0:0:0:
256,192,87806,1,0,0:0:0:0:
256,192,88437,1,12,0:0:0:0:
256,192,89384,1,0,0:0:0:0:
256,192,89700,1,0,0:0:0:0:
256,192,90332,1,8,0:0:0:0:
256,192,90963,1,0,0:0:0:0:
256,192,91279,1,0,0:0:0:0:
256,192,91595,2,0,L|352:192,4,70.0000002980235
256,192,92384,12,0,94279,0:0:0:0:
256,192,94437,5,12,0:0:0:0:
256,192,94753,1,4,0:0:0:0:
256,192,95384,1,8,0:0:0:0:
256,192,96016,1,8,0:0:0:0:
256,192,96648,1,8,0:0:0:0:
256,192,97279,1,0,0:0:0:0:
256,192,97911,1,8,0:0:0:0:
256,192,98542,1,8,0:0:0:0:
256,192,99174,1,8,0:0:0:0:
256,192,99806,1,4,0:0:0:0:
256,192,101069,1,8,0:0:0:0:
256,192,101700,1,8,0:0:0:0:
256,192,102332,1,0,0:0:0:0:
256,192,103595,12,0,104700,0:0:0:0:
256,192,104858,5,12,0:0:0:0:
