osu file format v14

[General]
AudioFilename: audio.mp3
AudioLeadIn: 0
PreviewTime: -1
Countdown: 1
SampleSet: Normal
StackLeniency: 0.7
Mode: 0
LetterboxInBreaks: 0
WidescreenStoryboard: 0

[Editor]
DistanceSpacing: 1
BeatDivisor: 4
GridSize: 4
TimelineZoom: 2.7

[Metadata]
Title:Endo Daniel Masaharu
TitleUnicode:Endo Daniel Masaharu
Artist:USAO
ArtistUnicode:USAO
Creator:ICboom
Version:Another
Source:
Tags:
BeatmapID:1355232
BeatmapSetID:638944

[Difficulty]
HPDrainRate:6
CircleSize:4
OverallDifficulty:8
ApproachRate:9
SliderMultiplier:1.8
SliderTickRate:1

[Events]
//Background and Video events
0,0,"63781794_p0.jpg",0,0
//Break Periods
2,22124,32294
2,153781,163952
//Storyboard Layer 0 (Background)
//Storyboard Layer 1 (Fail)
//Storyboard Layer 2 (Pass)
//Storyboard Layer 3 (Foreground)
//Storyboard Sound Samples

[TimingPoints]
1352,342.857142857143,4,1,0,100,1,0
21924,-133.333333333333,4,1,0,100,0,0
43867,342.857142857143,4,1,0,100,1,0
54838,-90.9090909090909,4,1,0,100,0,1
65809,-100,4,1,0,100,0,0
68209,-50,4,1,0,100,0,0
68552,-100,4,1,0,100,0,0
71295,-83.3333333333333,4,1,0,100,0,0
76781,-90.9090909090909,4,1,0,100,0,1
76952,-90.9090909090909,4,1,0,100,0,0
86381,-133.333333333333,4,1,0,100,0,0
87752,-90.9090909090909,4,1,0,100,0,0
95981,-100,4,1,0,100,0,0
97352,-90.9090909090909,4,1,0,100,0,0
98724,-83.3333333333333,4,1,0,100,0,1
108324,-117.647058823529,4,1,0,100,0,0
109695,-83.3333333333333,4,1,0,100,0,1
117924,-100,4,1,0,100,0,0
119295,-133.333333333333,4,1,0,100,0,0
120667,-76.9230769230769,4,1,0,100,0,1
131638,-90.9090909090909,4,1,0,100,0,0
141924,-66.6666666666667,4,1,0,100,0,0
142609,-90.9090909090909,4,1,0,100,0,0
153581,-133.333333333333,4,1,0,100,0,0
164552,-100,4,1,0,100,0,0
175524,-90.9090909090909,4,1,0,100,0,1
186495,-100,4,1,0,100,0,0
188895,-50,4,1,0,100,0,0
189238,-100,4,1,0,100,0,0
191981,-83.3333333333333,4,1,0,100,0,0
197467,-90.9090909090909,4,1,0,100,0,1
197638,-90.9090909090909,4,1,0,100,0,0
207067,-133.333333333333,4,1,0,100,0,0
208438,-90.9090909090909,4,1,0,100,0,0
216667,-100,4,1,0,100,0,0
218038,-90.9090909090909,4,1,0,100,0,0
219409,-83.3333333333333,4,1,0,100,0,1
229009,-117.647058823529,4,1,0,100,0,0
230381,-83.3333333333333,4,1,0,100,0,1
235867,-90.9090909090909,4,1,0,100,0,0
238609,-100,4,1,0,100,0,0
239981,-133.333333333333,4,1,0,100,0,0
241352,-76.9230769230769,4,1,0,100,0,1
250952,-100,4,1,0,100,0,0
252324,-76.9230769230769,4,1,0,100,0,1
263295,-125,4,1,0,100,0,0
274267,-100,4,1,0,100,0,0

[HitObjects]
256,192,10952,12,0,21924,0:0:0:0:
256,280,32894,5,0,0:0:0:0:
412,192,33409,1,0,0:0:0:0:
256,104,34266,5,0,0:0:0:0:
100,192,34781,1,0,0:0:0:0:
100,192,35294,1,0,0:0:0:0:
276,212,35637,5,0,0:0:0:0:
44,76,36152,1,0,0:0:0:0:
36,252,36494,5,0,0:0:0:0:
104,188,36666,1,0,0:0:0:0:
115,176,36751,1,0,0:0:0:0:
127,166,36837,1,0,0:0:0:0:
196,112,37009,2,0,P|252:112|244:184,1,135.000005149842
388,308,37523,2,0,P|332:308|340:236,1,135.000005149842
356,152,38037,1,0,0:0:0:0:
356,152,38380,6,0,L|420:216,2,67.5000025749208
432,96,38894,2,0,P|384:64|260:136,1,202.500007724762
152,272,39752,6,0,L|208:200,2,67.5000025749208
216,344,40266,2,0,P|136:364|60:276,1,202.500007724762
60,283,41123,5,0,0:0:0:0:
193,218,41637,1,0,0:0:0:0:
152,272,41980,1,0,0:0:0:0:
92,200,42152,1,0,0:0:0:0:
60,191,42237,1,0,0:0:0:0:
29,202,42323,1,0,0:0:0:0:
68,288,42494,6,0,L|72:368,1,67.5000025749208
56,100,42837,1,0,0:0:0:0:
148,80,43009,2,0,L|240:64,1,67.5000025749208
308,92,43352,1,0,0:0:0:0:
240,160,43523,1,0,0:0:0:0:
264,252,43694,1,0,0:0:0:0:
376,188,43867,5,0,0:0:0:0:
136,188,45238,5,0,0:0:0:0:
256,44,46609,5,0,0:0:0:0:
256,44,47381,5,0,0:0:0:0:
256,108,47467,2,0,L|256:248,1,135
256,304,47809,1,0,0:0:0:0:
380,284,47981,2,0,B|368:224|368:224|384:136,1,135
381,151,48324,1,0,0:0:0:0:
256,108,48495,1,0,0:0:0:0:
256,108,49009,5,0,0:0:0:0:
256,200,49352,1,0,0:0:0:0:
256,28,50724,5,0,0:0:0:0:
256,356,52095,5,0,0:0:0:0:
112,192,52867,5,0,0:0:0:0:
144,220,52952,2,0,P|208:240|268:208,1,135
292,172,53295,1,0,0:0:0:0:
352,104,53467,5,0,0:0:0:0:
420,44,53638,1,0,0:0:0:0:
440,132,53809,1,0,0:0:0:0:
360,240,53981,5,0,0:0:0:0:
264,80,54152,1,0,0:0:0:0:
296,284,54324,1,0,0:0:0:0:
340,20,54495,1,0,0:0:0:0:
352,104,54667,1,0,0:0:0:0:
490,286,54838,6,0,B|438:278|390:266|390:266|262:290,1,198.000006042481
197,302,55524,1,0,0:0:0:0:
100,285,55866,1,0,0:0:0:0:
52,361,56209,6,0,P|17:291|94:193,1,198.000006042481
169,183,56895,1,0,0:0:0:0:
204,95,57237,1,0,0:0:0:0:
169,183,57409,1,0,0:0:0:0:
298,82,57581,2,0,B|381:155|363:197|363:197|339:209|332:132,1,198.000006042481
395,260,58095,1,0,0:0:0:0:
486,299,58267,5,0,0:0:0:0:
461,341,58352,1,0,0:0:0:0:
418,364,58438,1,0,0:0:0:0:
369,363,58524,1,0,0:0:0:0:
328,336,58609,1,0,0:0:0:0:
278,250,58781,1,0,0:0:0:0:
243,157,58952,6,0,P|190:200|180:251,1,99.0000030212403
213,320,59295,1,0,0:0:0:0:
278,250,59467,2,0,P|331:207|341:156,1,99.0000030212403
308,87,59809,1,0,0:0:0:0:
209,71,59981,1,0,0:0:0:0:
209,71,60324,6,0,B|176:96|168:126|168:126|105:139|105:139|97:179|63:211,1,198.000006042481
117,286,61009,1,0,0:0:0:0:
194,347,61352,1,0,0:0:0:0:
298,178,61695,6,0,B|332:129|332:129|370:213|323:304,1,198.000006042481
240,261,62381,1,0,0:0:0:0:
194,347,62724,1,0,0:0:0:0:
240,261,62895,1,0,0:0:0:0:
235,62,63067,6,0,B|240:78|269:94|269:94|197:115|197:115|186:151|276:164,1,198.000006042481
332,209,63581,1,0,0:0:0:0:
378,122,63752,5,0,0:0:0:0:
413,156,63837,1,0,0:0:0:0:
427,202,63923,1,0,0:0:0:0:
418,251,64009,1,0,0:0:0:0:
388,289,64094,1,0,0:0:0:0:
289,302,64267,1,0,0:0:0:0:
212,364,64438,5,0,0:0:0:0:
196,266,64609,1,0,0:0:0:0:
277,209,64781,1,0,0:0:0:0:
121,331,64952,1,0,0:0:0:0:
289,302,65124,1,0,0:0:0:0:
194,169,65295,1,0,0:0:0:0:
212,364,65467,1,0,0:0:0:0:
108,243,65638,1,0,0:0:0:0:
99,63,65809,6,0,L|201:43,1,90
223,73,66067,1,0,0:0:0:0:
259,101,66152,2,0,L|361:81,1,90
467,145,66495,2,0,L|378:162,1,90
294,268,66838,2,0,L|396:248,1,90
202,259,67181,2,0,L|222:361,1,90
111,266,67524,2,0,L|93:177,1,90
183,169,67867,2,0,L|285:149,1,90
319,75,68209,6,0,P|381:129|346:210,1,180
72,64,68552,6,0,L|52:156,1,90
80,188,68809,1,0,0:0:0:0:
108,225,68895,2,0,L|88:317,1,90
176,332,69238,2,0,L|195:244,1,90
284,232,69581,2,0,L|264:324,1,90
356,304,69924,2,0,L|443:323,1,90
468,236,70267,2,0,L|380:216,1,90
292,60,70609,2,0,L|319:145,1,90
250,262,70952,6,0,L|304:213,1,45
283,231,71124,1,0,0:0:0:0:
472,14,71295,6,0,L|380:96,1,107.999996704102
340,92,71552,1,0,0:0:0:0:
292,60,71638,2,0,L|200:142,1,107.999996704102
104,120,71981,6,0,P|120:176|164:240,1,107.999996704102
196,232,72238,1,0,0:0:0:0:
252,232,72324,2,0,P|312:224|400:256,1,107.999996704102
296,332,72667,6,0,P|244:316|180:336,1,107.999996704102
144,304,72924,1,0,0:0:0:0:
92,292,73009,2,0,P|65:245|50:193,1,107.999996704102
40,76,73352,5,0,0:0:0:0:
75,70,73437,1,0,0:0:0:0:
111,64,73523,1,0,0:0:0:0:
146,59,73609,1,0,0:0:0:0:
188,96,73695,2,0,L|304:76,1,107.999996704102
396,44,74038,5,0,0:0:0:0:
424,72,74123,1,0,0:0:0:0:
436,110,74209,1,0,0:0:0:0:
428,149,74295,1,0,0:0:0:0:
403,180,74381,1,0,0:0:0:0:
363,168,74466,1,0,0:0:0:0:
325,186,74552,1,0,0:0:0:0:
309,226,74638,1,0,0:0:0:0:
325,265,74723,1,0,0:0:0:0:
362,284,74809,1,0,0:0:0:0:
412,304,74895,1,0,0:0:0:0:
370,337,74980,1,0,0:0:0:0:
319,355,75066,1,0,0:0:0:0:
265,356,75152,1,0,0:0:0:0:
214,340,75237,1,0,0:0:0:0:
160,328,75324,1,0,0:0:0:0:
108,332,75409,6,0,L|64:352,16,26.9999991760254
392,56,76781,6,0,P|412:128|392:240,1,148.50000453186
368,228,77124,2,0,B|400:280|400:280|352:272|280:296,1,148.50000453186
313,286,77467,1,0,0:0:0:0:
224,328,77638,2,0,P|198:340|180:360,1,49.5000015106202
132,272,77809,2,0,P|104:277|81:291,1,49.5000015106202
44,196,77981,6,0,B|92:164|152:160|152:160|140:136|116:120,1,148.50000453186
132,133,78324,1,0,0:0:0:0:
44,92,78495,1,0,0:0:0:0:
132,272,78667,1,0,0:0:0:0:
313,286,78838,6,0,L|240:280,2,49.5000015106202
412,296,79181,1,0,0:0:0:0:
132,272,79352,1,0,0:0:0:0:
204,204,79524,6,0,P|240:168|268:68,1,148.50000453186
224,60,79867,2,0,P|280:16|316:76,1,148.50000453186
317,65,80209,1,0,0:0:0:0:
344,160,80381,2,0,L|408:180,1,49.5000015106202
380,272,80552,2,0,L|444:292,1,49.5000015106202
280,312,80724,6,0,B|204:336|204:336|132:336,1,148.50000453186
135,336,81067,1,0,0:0:0:0:
188,252,81238,1,0,0:0:0:0:
188,152,81409,1,0,0:0:0:0:
28,32,81581,5,0,0:0:0:0:
30,56,81666,1,0,0:0:0:0:
32,81,81752,1,0,0:0:0:0:
35,105,81838,1,0,0:0:0:0:
72,136,81924,2,0,L|84:260,1,99.0000030212403
328,48,82267,6,0,B|272:48|232:76|232:76|172:36,1,148.50000453186
164,92,82609,2,0,B|216:132|228:164|228:164|304:136,1,148.50000453186
275,146,82952,1,0,0:0:0:0:
376,148,83124,2,0,L|444:136,1,49.5000015106202
404,236,83295,2,0,L|472:224,1,49.5000015106202
440,328,83467,6,0,B|376:332|344:304|344:304|276:328,1,148.50000453186
299,319,83809,1,0,0:0:0:0:
275,146,83981,1,0,0:0:0:0:
164,92,84152,1,0,0:0:0:0:
452,227,84324,6,0,L|392:200,2,49.5000015106202
275,146,84667,1,0,0:0:0:0:
440,328,84838,1,0,0:0:0:0:
468,132,85009,6,0,B|448:84|444:32|444:32|420:72,1,148.50000453186
376,88,85352,2,0,P|320:44|224:40,1,148.50000453186
245,34,85695,1,0,0:0:0:0:
275,146,85867,2,0,L|287:214,1,49.5000015106202
224,276,86038,2,0,L|212:344,1,49.5000015106202
104,356,86209,1,0,0:0:0:0:
112,32,86381,5,0,0:0:0:0:
103,55,86466,1,0,0:0:0:0:
94,79,86552,1,0,0:0:0:0:
86,103,86638,1,0,0:0:0:0:
77,127,86724,1,0,0:0:0:0:
85,150,86809,1,0,0:0:0:0:
94,174,86895,1,0,0:0:0:0:
102,198,86981,1,0,0:0:0:0:
111,222,87067,1,0,0:0:0:0:
102,245,87152,1,0,0:0:0:0:
93,269,87238,1,0,0:0:0:0:
85,293,87324,1,0,0:0:0:0:
76,317,87409,6,0,P|128:312|192:332,1,101.250003862381
268,292,87752,6,0,B|280:228|280:228|264:128,1,148.50000453186
300,108,88095,2,0,P|356:88|432:128,1,148.50000453186
431,126,88438,1,0,0:0:0:0:
356,188,88609,2,0,L|348:260,1,49.5000015106202
448,260,88781,2,0,L|440:332,1,49.5000015106202
348,340,88952,6,0,B|276:332|276:332|176:340,1,148.50000453186
200,338,89295,1,0,0:0:0:0:
232,244,89467,1,0,0:0:0:0:
300,108,89638,1,0,0:0:0:0:
208,144,89809,6,0,L|152:168,2,49.5000015106202
392,72,90152,1,0,0:0:0:0:
70,199,90324,1,0,0:0:0:0:
324,204,90495,6,0,B|376:236|376:236|376:284|412:312,1,148.50000453186
460,292,90838,2,0,P|476:220|436:144,1,148.50000453186
446,154,91181,1,0,0:0:0:0:
392,72,91352,2,0,B|368:52|368:52|332:48,1,49.5000015106202
300,108,91524,2,0,B|276:88|276:88|240:84,1,49.5000015106202
228,180,91695,6,0,P|156:184|136:96,1,148.50000453186
126,122,92038,1,0,0:0:0:0:
176,36,92209,1,0,0:0:0:0:
40,173,92381,1,0,0:0:0:0:
32,36,92552,6,0,L|80:80,1,49.5000015106202
32,348,92724,2,0,L|80:304,1,49.5000015106202
140,192,92895,1,0,0:0:0:0:
164,192,92980,1,0,0:0:0:0:
189,192,93066,1,0,0:0:0:0:
214,192,93152,1,0,0:0:0:0:
252,224,93238,6,0,B|296:224|296:224|320:192|320:192|352:224|352:224|408:224,1,148.50000453186
420,224,93581,2,0,P|460:292|420:348,1,148.50000453186
426,344,93924,1,0,0:0:0:0:
332,316,94095,2,0,L|292:348,1,49.5000015106202
200,316,94267,2,0,L|160:348,1,49.5000015106202
96,272,94438,6,0,B|84:216|84:216|104:108,1,148.50000453186
100,126,94781,1,0,0:0:0:0:
164,200,94952,1,0,0:0:0:0:
293,346,95124,1,0,0:0:0:0:
224,276,95295,6,0,L|176:220,2,49.5000015106202
200,108,95638,1,0,0:0:0:0:
212,372,95809,1,0,0:0:0:0:
436,52,95981,5,0,0:0:0:0:
442,84,96066,1,0,0:0:0:0:
431,116,96152,1,0,0:0:0:0:
406,137,96238,1,0,0:0:0:0:
373,141,96324,1,0,0:0:0:0:
366,104,96409,1,0,0:0:0:0:
339,77,96495,1,0,0:0:0:0:
301,70,96581,1,0,0:0:0:0:
267,86,96666,1,0,0:0:0:0:
247,118,96752,1,0,0:0:0:0:
249,156,96838,1,0,0:0:0:0:
272,186,96924,1,0,0:0:0:0:
300,208,97009,1,0,0:0:0:0:
318,240,97095,1,0,0:0:0:0:
320,275,97181,1,0,0:0:0:0:
309,309,97266,1,0,0:0:0:0:
285,336,97352,6,0,L|236:356,14,49.5000015106202
196,276,98724,6,0,P|124:260|80:284,1,107.999996704102
56,172,99067,2,0,P|105:117|107:67,1,107.999996704102
216,102,99409,2,0,L|248:172,1,53.9999983520508
304,236,99581,1,0,0:0:0:0:
356,140,99752,1,0,0:0:0:0:
307,346,99924,1,0,0:0:0:0:
416,336,100095,5,0,0:0:0:0:
416,295,100180,1,0,0:0:0:0:
416,255,100266,1,0,0:0:0:0:
435,220,100352,1,0,0:0:0:0:
456,185,100438,2,0,B|488:144|488:144|468:64,1,107.999996704102
381,32,100781,6,0,L|440:20,2,53.9999983520508
109,86,101124,2,0,P|136:140|216:128,1,107.999996704102
216,102,101381,1,0,0:0:0:0:
260,136,101467,6,0,P|276:208|256:256,1,107.999996704102
184,308,101809,2,0,P|168:236|188:188,1,107.999996704102
406,293,102152,2,0,L|338:267,1,53.9999983520508
176,204,102324,1,0,0:0:0:0:
266,239,102495,1,0,0:0:0:0:
216,102,102667,1,0,0:0:0:0:
340,184,102838,5,0,0:0:0:0:
184,308,103009,1,0,0:0:0:0:
312,92,103181,1,0,0:0:0:0:
292,328,103352,1,0,0:0:0:0:
96,264,103524,6,0,L|36:240,1,53.9999983520508
96,148,103695,2,0,L|36:124,1,53.9999983520508
96,32,103867,1,0,0:0:0:0:
176,204,104038,1,0,0:0:0:0:
96,376,104209,6,0,B|140:356|140:356|216:368,1,107.999996704102
332,268,104552,2,0,B|288:288|288:288|212:276,1,107.999996704102
96,264,104895,2,0,L|176:280,1,53.9999983520508
300,372,105067,1,0,0:0:0:0:
392,344,105238,1,0,0:0:0:0:
440,248,105409,1,0,0:0:0:0:
392,36,105581,5,0,0:0:0:0:
381,60,105666,1,0,0:0:0:0:
370,85,105752,1,0,0:0:0:0:
359,110,105838,1,0,0:0:0:0:
376,164,105924,2,0,B|368:208|368:208|284:216,1,107.999996704102
204,180,106267,6,0,L|272:144,2,53.9999983520508
96,180,106609,2,0,P|112:236|160:280,1,107.999996704102
200,268,106867,1,0,0:0:0:0:
252,284,106952,6,0,P|308:300|376:272,1,107.999996704102
192,356,107295,2,0,P|136:340|68:368,1,107.999996704102
36,256,107638,2,0,L|24:328,1,53.9999983520508
8,172,107809,1,0,0:0:0:0:
36,88,107981,1,0,0:0:0:0:
204,180,108152,1,0,0:0:0:0:
102,29,108324,6,0,L|140:88,5,38.2500007295609
196,32,108838,6,0,L|199:102,5,38.2500007295609
275,81,109352,6,0,L|260:112,7,19.1250003647804
280,120,109695,6,0,P|312:184|292:248,1,107.999996704102
236,300,110038,2,0,P|281:327|334:324,1,107.999996704102
408,248,110381,2,0,L|412:188,1,53.9999983520508
424,88,110552,1,0,0:0:0:0:
436,360,110724,1,0,0:0:0:0:
307,218,110895,1,0,0:0:0:0:
320,112,111067,5,0,0:0:0:0:
281,98,111152,1,0,0:0:0:0:
243,85,111238,1,0,0:0:0:0:
204,95,111324,1,0,0:0:0:0:
166,107,111409,2,0,B|108:132|108:132|24:112,1,107.999996704102
84,228,111752,6,0,L|156:244,2,53.9999983520508
104,336,112095,2,0,P|164:328|224:364,1,107.999996704102
260,332,112352,1,0,0:0:0:0:
312,348,112438,6,0,P|380:324|408:272,1,107.999996704102
408,188,112781,2,0,P|340:212|312:264,1,107.999996704102
495,305,113124,2,0,P|494:278|488:252,1,53.9999983520508
440,376,113295,1,0,0:0:0:0:
408,188,113467,1,0,0:0:0:0:
312,348,113638,1,0,0:0:0:0:
400,296,113809,5,0,0:0:0:0:
319,239,113981,1,0,0:0:0:0:
84,228,114152,1,0,0:0:0:0:
206,346,114324,1,0,0:0:0:0:
232,260,114495,6,0,L|172:248,1,53.9999983520508
160,144,114667,2,0,L|220:132,1,53.9999983520508
320,140,114838,1,0,0:0:0:0:
183,33,115009,1,0,0:0:0:0:
292,36,115181,6,0,B|352:44|352:44|416:96,1,107.999996704102
416,177,115524,2,0,B|356:169|356:169|292:117,1,107.999996704102
159,130,115867,2,0,L|234:134,1,53.9999983520508
72,64,116038,1,0,0:0:0:0:
104,332,116209,1,0,0:0:0:0:
84,228,116381,1,0,0:0:0:0:
180,264,116552,5,0,0:0:0:0:
218,250,116637,1,0,0:0:0:0:
258,243,116723,1,0,0:0:0:0:
298,242,116809,1,0,0:0:0:0:
338,247,116895,2,0,P|400:248|464:212,1,107.999996704102
432,124,117238,6,0,L|476:160,2,53.9999983520508
404,336,117581,2,0,B|400:260|400:260|380:208,1,107.999996704102
372,180,117838,1,0,0:0:0:0:
352,140,117924,1,0,0:0:0:0:
376,56,118095,5,0,0:0:0:0:
342,53,118180,1,0,0:0:0:0:
310,64,118266,1,0,0:0:0:0:
285,86,118352,1,0,0:0:0:0:
270,116,118438,1,0,0:0:0:0:
236,113,118523,1,0,0:0:0:0:
204,124,118609,1,0,0:0:0:0:
179,146,118695,1,0,0:0:0:0:
164,176,118781,1,0,0:0:0:0:
199,177,118866,1,0,0:0:0:0:
227,198,118952,1,0,0:0:0:0:
238,232,119038,1,0,0:0:0:0:
227,266,119123,1,0,0:0:0:0:
200,288,119209,1,0,0:0:0:0:
124,256,119295,6,0,L|80:280,14,33.7500012874604
424,56,120667,5,0,0:0:0:0:
428,308,120838,1,0,0:0:0:0:
496,148,121009,1,0,0:0:0:0:
356,216,121181,1,0,0:0:0:0:
325,247,121266,1,0,0:0:0:0:
309,287,121352,1,0,0:0:0:0:
309,331,121438,1,0,0:0:0:0:
325,371,121523,1,0,0:0:0:0:
200,172,121695,2,0,P|200:248|172:304,1,116.999994644165
92,212,122038,5,0,0:0:0:0:
112,96,122209,1,0,0:0:0:0:
224,368,122381,1,0,0:0:0:0:
187,5,122552,1,0,0:0:0:0:
211,41,122637,1,0,0:0:0:0:
221,83,122723,1,0,0:0:0:0:
216,127,122809,1,0,0:0:0:0:
197,166,122894,1,0,0:0:0:0:
184,285,123067,2,0,P|244:276|296:312,1,116.999994644165
328,192,123409,5,0,0:0:0:0:
428,308,123581,1,0,0:0:0:0:
424,56,123752,1,0,0:0:0:0:
50,84,123924,1,0,0:0:0:0:
91,96,124009,1,0,0:0:0:0:
135,100,124095,1,0,0:0:0:0:
179,96,124181,1,0,0:0:0:0:
221,83,124266,1,0,0:0:0:0:
316,12,124438,1,0,0:0:0:0:
328,192,124609,1,0,0:0:0:0:
228,188,124781,5,0,0:0:0:0:
416,152,124952,1,0,0:0:0:0:
290,304,125124,1,0,0:0:0:0:
221,83,125295,1,0,0:0:0:0:
179,96,125380,1,0,0:0:0:0:
146,125,125466,1,0,0:0:0:0:
128,164,125552,1,0,0:0:0:0:
126,208,125637,1,0,0:0:0:0:
168,320,125809,2,0,P|96:328|40:284,1,116.999994644165
220,236,126152,5,0,0:0:0:0:
288,124,126324,1,0,0:0:0:0:
290,304,126495,1,0,0:0:0:0:
296,48,126667,1,0,0:0:0:0:
296,48,126752,1,0,0:0:0:0:
296,48,126838,1,0,0:0:0:0:
340,208,127009,2,0,P|376:148|380:88,1,116.999994644165
220,236,127352,1,0,0:0:0:0:
216,128,127524,5,0,0:0:0:0:
290,304,127695,1,0,0:0:0:0:
300,132,127867,1,0,0:0:0:0:
184,20,128038,1,0,0:0:0:0:
184,20,128124,1,0,0:0:0:0:
184,20,128209,1,0,0:0:0:0:
76,60,128381,2,0,P|80:140|64:184,1,116.999994644165
112,284,128724,1,0,0:0:0:0:
196,204,128895,5,0,0:0:0:0:
217,242,128980,1,0,0:0:0:0:
224,285,129066,1,0,0:0:0:0:
216,328,129152,1,0,0:0:0:0:
194,365,129238,1,0,0:0:0:0:
235,350,129323,1,0,0:0:0:0:
278,343,129409,1,0,0:0:0:0:
322,345,129495,1,0,0:0:0:0:
364,354,129581,1,0,0:0:0:0:
345,317,129666,1,0,0:0:0:0:
361,277,129752,1,0,0:0:0:0:
402,264,129838,1,0,0:0:0:0:
438,286,129923,1,0,0:0:0:0:
472,240,130009,1,0,0:0:0:0:
456,184,130095,1,0,0:0:0:0:
404,160,130181,1,0,0:0:0:0:
352,192,130267,6,0,L|308:216,16,29.2499986610413
236,188,131124,1,0,0:0:0:0:
148,268,131295,1,0,0:0:0:0:
140,164,131467,1,0,0:0:0:0:
52,244,131638,5,0,0:0:0:0:
208,104,131809,1,0,0:0:0:0:
240,280,131981,1,0,0:0:0:0:
128,76,132152,1,0,0:0:0:0:
148,268,132324,2,0,P|164:336|196:368,1,99.0000030212403
205,200,132667,2,0,P|248:176|200:104,1,148.50000453186
210,103,133009,5,0,0:0:0:0:
240,280,133181,1,0,0:0:0:0:
52,244,133352,1,0,0:0:0:0:
205,7,133524,1,0,0:0:0:0:
296,176,133695,2,0,P|336:216|352:288,1,99.0000030212403
436,332,134038,2,0,P|450:277|520:192,1,148.50000453186
504,204,134381,5,0,0:0:0:0:
340,348,134552,1,0,0:0:0:0:
408,180,134724,1,0,0:0:0:0:
240,280,134895,1,0,0:0:0:0:
476,116,135067,2,0,P|416:88|360:100,1,99.0000030212403
340,260,135409,2,0,L|268:120,1,148.50000453186
272,127,135752,5,0,0:0:0:0:
192,188,135924,1,0,0:0:0:0:
176,92,136095,1,0,0:0:0:0:
95,152,136267,1,0,0:0:0:0:
88,52,136438,2,0,L|0:4,1,99.0000030212403
192,188,136781,2,0,L|180:340,1,148.50000453186
180,336,137124,5,0,0:0:0:0:
96,264,137295,1,0,0:0:0:0:
264,140,137467,1,0,0:0:0:0:
20,216,137638,1,0,0:0:0:0:
196,240,137809,2,0,P|248:268|268:328,1,99.0000030212403
356,340,138152,2,0,P|354:280|428:184,1,148.50000453186
397,204,138495,5,0,0:0:0:0:
436,296,138667,1,0,0:0:0:0:
300,208,138838,1,0,0:0:0:0:
356,62,139009,1,0,0:0:0:0:
484,216,139181,2,0,P|464:148|428:116,1,99.0000030212403
340,296,139524,2,0,P|256:292|208:200,1,148.50000453186
168,240,139867,6,0,P|196:188|260:232,1,148.50000453186
300,208,140209,2,0,P|353:247|391:192,1,148.50000453186
356,48,140552,6,0,L|336:108,1,49.5000015106202
392,192,140724,1,0,0:0:0:0:
264,64,140895,1,0,0:0:0:0:
300,208,141067,1,0,0:0:0:0:
32,164,141238,5,0,0:0:0:0:
132,156,141409,1,0,0:0:0:0:
232,148,141581,1,0,0:0:0:0:
332,140,141752,1,0,0:0:0:0:
420,36,141924,5,0,0:0:0:0:
443,60,142009,1,0,0:0:0:0:
458,90,142095,2,0,P|432:148|464:216,1,135.000005149842
461,244,142352,1,0,0:0:0:0:
454,277,142438,1,0,0:0:0:0:
431,302,142524,1,0,0:0:0:0:
431,302,142609,5,0,0:0:0:0:
368,224,142781,1,0,0:0:0:0:
276,68,142952,1,0,0:0:0:0:
340,312,143124,1,0,0:0:0:0:
364,76,143295,2,0,P|328:144|288:164,1,99.0000030212403
212,152,143638,2,0,B|173:69|173:69|208:8,1,148.50000453186
201,19,143981,5,0,0:0:0:0:
311,155,144152,1,0,0:0:0:0:
104,144,144324,1,0,0:0:0:0:
364,76,144495,1,0,0:0:0:0:
388,268,144667,2,0,L|420:148,1,99.0000030212403
468,92,145009,2,0,B|500:152|500:152|472:272,1,148.50000453186
481,230,145352,5,0,0:0:0:0:
304,248,145524,1,0,0:0:0:0:
186,93,145695,1,0,0:0:0:0:
364,76,145867,1,0,0:0:0:0:
413,172,146038,2,0,L|396:232,1,49.5000015106202
290,295,146209,2,0,L|303:247,1,49.5000015106202
280,120,146381,2,0,L|263:180,1,49.5000015106202
157,243,146552,2,0,L|170:195,1,49.5000015106202
212,52,146724,5,0,0:0:0:0:
72,96,146895,1,0,0:0:0:0:
172,196,147067,1,0,0:0:0:0:
128,28,147238,1,0,0:0:0:0:
88,184,147409,6,0,L|72:240,1,49.5000015106202
152,296,147581,2,0,L|136:352,1,49.5000015106202
256,212,147752,1,0,0:0:0:0:
320,324,147924,1,0,0:0:0:0:
448,40,148095,6,0,P|456:100|436:168,1,99.0000030212403
360,108,148438,5,0,0:0:0:0:
353,131,148523,1,0,0:0:0:0:
351,156,148609,1,0,0:0:0:0:
353,181,148695,1,0,0:0:0:0:
358,205,148780,1,0,0:0:0:0:
456,228,148952,1,0,0:0:0:0:
448,40,149124,1,0,0:0:0:0:
256,212,149295,1,0,0:0:0:0:
449,137,149467,2,0,L|344:124,1,99.0000030212403
116,44,149809,5,0,0:0:0:0:
140,47,149894,1,0,0:0:0:0:
165,50,149980,1,0,0:0:0:0:
189,53,150066,1,0,0:0:0:0:
214,56,150151,1,0,0:0:0:0:
312,44,150324,1,0,0:0:0:0:
256,212,150495,1,0,0:0:0:0:
172,156,150667,1,0,0:0:0:0:
138,343,150838,2,0,L|204:264,1,99.0000030212403
364,152,151181,5,0,0:0:0:0:
357,175,151266,1,0,0:0:0:0:
355,200,151352,1,0,0:0:0:0:
359,224,151438,1,0,0:0:0:0:
367,247,151523,1,0,0:0:0:0:
452,196,151695,1,0,0:0:0:0:
256,212,151867,1,0,0:0:0:0:
452,284,152038,1,0,0:0:0:0:
312,44,152209,6,0,L|288:116,7,49.5000015106202
248,100,152895,2,0,L|172:172,1,99.0000030212403
176,168,153152,1,0,0:0:0:0:
76,156,153324,1,0,0:0:0:0:
76,108,153409,1,0,0:0:0:0:
160,72,153581,1,0,0:0:0:0:
96,192,164552,5,0,0:0:0:0:
416,192,165924,5,0,0:0:0:0:
96,192,167295,5,0,0:0:0:0:
172,128,168067,1,0,0:0:0:0:
216,120,168152,1,0,0:0:0:0:
300,224,168409,1,0,0:0:0:0:
344,232,168494,1,0,0:0:0:0:
456,156,168667,5,0,0:0:0:0:
196,228,169181,1,0,0:0:0:0:
336,112,169695,1,0,0:0:0:0:
172,40,170038,5,0,0:0:0:0:
340,344,171409,5,0,0:0:0:0:
340,40,172781,5,0,0:0:0:0:
372,148,173552,1,0,0:0:0:0:
380,192,173638,1,0,0:0:0:0:
248,212,173895,1,0,0:0:0:0:
240,256,173981,1,0,0:0:0:0:
360,316,174152,1,0,0:0:0:0:
264,76,174667,1,0,0:0:0:0:
452,160,175181,1,0,0:0:0:0:
64,196,175524,6,0,B|116:204|164:216|164:216|292:192,1,198.000006042481
356,184,176209,1,0,0:0:0:0:
452,204,176552,1,0,0:0:0:0:
336,312,176895,6,0,P|406:285|504:362,1,198.000006042481
404,380,177581,1,0,0:0:0:0:
336,312,177924,1,0,0:0:0:0:
240,332,178095,1,0,0:0:0:0:
128,168,178267,2,0,B|160:288|160:288|184:256|224:236,1,198.000006042481
220,140,178781,1,0,0:0:0:0:
152,68,178953,5,0,0:0:0:0:
103,60,179038,1,0,0:0:0:0:
57,80,179124,1,0,0:0:0:0:
29,119,179210,1,0,0:0:0:0:
23,167,179295,1,0,0:0:0:0:
72,252,179467,1,0,0:0:0:0:
168,276,179638,6,0,L|276:260,1,99.0000030212403
332,188,179981,1,0,0:0:0:0:
220,284,180152,2,0,L|328:268,1,99.0000030212403
384,196,180495,1,0,0:0:0:0:
344,104,180667,1,0,0:0:0:0:
344,104,181009,6,0,P|432:108|476:208,1,198.000006042481
432,288,181695,1,0,0:0:0:0:
364,360,182038,1,0,0:0:0:0:
240,204,182381,2,0,B|256:240|200:288|200:288|260:280|300:324,1,198.000006042481
220,384,183067,1,0,0:0:0:0:
128,352,183409,1,0,0:0:0:0:
160,208,183581,1,0,0:0:0:0:
128,352,183752,6,0,B|84:324|100:272|100:272|40:268|24:204,1,198.000006042481
116,168,184267,1,0,0:0:0:0:
32,116,184438,1,0,0:0:0:0:
57,89,184523,1,0,0:0:0:0:
90,73,184609,1,0,0:0:0:0:
127,69,184695,1,0,0:0:0:0:
163,78,184780,1,0,0:0:0:0:
116,168,184953,1,0,0:0:0:0:
184,292,185124,5,0,0:0:0:0:
284,284,185295,1,0,0:0:0:0:
384,276,185467,1,0,0:0:0:0:
116,168,185638,1,0,0:0:0:0:
340,356,185809,1,0,0:0:0:0:
212,164,185981,1,0,0:0:0:0:
240,364,186152,1,0,0:0:0:0:
308,160,186324,1,0,0:0:0:0:
96,48,186495,6,0,L|198:28,1,90
220,58,186753,1,0,0:0:0:0:
256,86,186838,2,0,L|358:66,1,90
396,143,187181,2,0,L|307:160,1,90
240,256,187524,2,0,L|222:167,1,90
320,236,187867,2,0,L|340:338,1,90
168,328,188210,2,0,L|150:239,1,90
52,172,188553,2,0,L|154:152,1,90
344,68,188895,6,0,P|406:122|371:203,1,180
71,84,189238,6,0,L|51:176,1,90
79,208,189495,1,0,0:0:0:0:
107,245,189581,2,0,L|87:337,1,90
180,336,189924,2,0,L|199:248,1,90
224,132,190267,2,0,L|290:192,1,90
378,272,190609,2,0,L|292:299,1,90
352,368,190952,2,0,L|437:340,1,90
440,168,191295,2,0,L|467:253,1,90
250,262,191638,6,0,L|304:213,1,45
283,231,191810,1,0,0:0:0:0:
472,14,191981,6,0,L|380:96,1,107.999996704102
340,92,192238,1,0,0:0:0:0:
292,60,192324,2,0,L|200:142,1,107.999996704102
104,116,192667,6,0,L|184:44,1,107.999996704102
132,28,192924,1,0,0:0:0:0:
80,12,193009,2,0,L|-12:94,1,107.999996704102
104,268,193352,6,0,L|184:339,1,107.999996704102
132,356,193609,1,0,0:0:0:0:
80,372,193695,2,0,L|-12:290,1,107.999996704102
216,228,194038,5,0,0:0:0:0:
251,234,194123,1,0,0:0:0:0:
287,240,194209,1,0,0:0:0:0:
322,245,194295,1,0,0:0:0:0:
364,208,194381,2,0,L|480:228,1,107.999996704102
400,308,194724,5,0,0:0:0:0:
382,328,194809,1,0,0:0:0:0:
359,342,194895,1,0,0:0:0:0:
333,348,194981,1,0,0:0:0:0:
308,344,195067,1,0,0:0:0:0:
281,338,195152,1,0,0:0:0:0:
254,333,195238,1,0,0:0:0:0:
228,328,195324,1,0,0:0:0:0:
201,323,195409,1,0,0:0:0:0:
193,285,195494,1,0,0:0:0:0:
157,268,195580,1,0,0:0:0:0:
122,284,195666,1,0,0:0:0:0:
113,322,195752,1,0,0:0:0:0:
75,335,195837,1,0,0:0:0:0:
38,321,195923,1,0,0:0:0:0:
18,287,196009,1,0,0:0:0:0:
24,248,196095,6,0,L|40:208,16,26.9999991760254
160,124,197467,6,0,B|208:48|208:48|240:136,1,148.50000453186
244,148,197809,2,0,P|312:176|328:120,1,148.50000453186
328,121,198153,1,0,0:0:0:0:
396,52,198324,2,0,L|420:112,1,49.5000015106202
412,228,198495,2,0,L|393:182,1,49.5000015106202
316,244,198667,6,0,B|256:292|256:292|364:304,1,148.50000453186
327,299,199010,1,0,0:0:0:0:
420,332,199181,1,0,0:0:0:0:
184,236,199353,1,0,0:0:0:0:
84,228,199524,6,0,L|12:224,2,49.5000015106202
316,244,199867,1,0,0:0:0:0:
413,227,200038,1,0,0:0:0:0:
240,28,200209,6,0,P|260:96|236:172,1,148.50000453186
192,156,200552,2,0,P|108:132|44:164,1,148.50000453186
54,154,200895,1,0,0:0:0:0:
124,228,201067,2,0,L|172:280,1,49.5000015106202
116,356,201238,2,0,L|68:304,1,49.5000015106202
348,308,201410,6,0,B|272:332|272:332|200:332,1,148.50000453186
203,332,201753,1,0,0:0:0:0:
82,319,201924,1,0,0:0:0:0:
260,240,202095,1,0,0:0:0:0:
464,340,202267,5,0,0:0:0:0:
462,316,202352,1,0,0:0:0:0:
460,291,202438,1,0,0:0:0:0:
457,267,202524,1,0,0:0:0:0:
420,236,202610,2,0,L|408:112,1,99.0000030212403
468,56,202952,6,0,P|384:40|320:100,1,148.50000453186
336,124,203295,2,0,B|320:184|320:184|336:220|336:220|316:292,1,148.50000453186
323,265,203638,1,0,0:0:0:0:
228,236,203809,2,0,L|160:244,1,49.5000015106202
424,168,203981,2,0,L|473:162,1,49.5000015106202
444,256,204152,2,0,B|404:340|404:340|320:392,1,148.50000453186
356,369,204495,1,0,0:0:0:0:
323,265,204667,1,0,0:0:0:0:
249,345,204838,1,0,0:0:0:0:
142,321,205009,6,0,L|68:300,2,49.5000015106202
16,288,205353,1,0,0:0:0:0:
249,345,205524,1,0,0:0:0:0:
216,252,205695,6,0,P|276:252|344:328,1,148.50000453186
376,276,206038,2,0,P|346:224|377:127,1,148.50000453186
364,141,206381,1,0,0:0:0:0:
448,84,206553,2,0,L|460:152,1,49.5000015106202
380,0,206724,2,0,L|368:68,1,49.5000015106202
424,204,206895,1,0,0:0:0:0:
444,296,207067,5,0,0:0:0:0:
421,305,207152,1,0,0:0:0:0:
397,314,207238,1,0,0:0:0:0:
373,322,207324,1,0,0:0:0:0:
349,331,207410,1,0,0:0:0:0:
326,323,207495,1,0,0:0:0:0:
302,314,207581,1,0,0:0:0:0:
278,306,207667,1,0,0:0:0:0:
254,297,207753,1,0,0:0:0:0:
231,306,207838,1,0,0:0:0:0:
207,315,207924,1,0,0:0:0:0:
183,323,208010,1,0,0:0:0:0:
159,332,208095,6,0,P|164:280|144:216,1,101.250003862381
112,208,208438,6,0,L|256:152,1,148.50000453186
296,140,208781,2,0,L|152:84,1,148.50000453186
200,60,209124,1,0,0:0:0:0:
300,52,209295,2,0,L|292:-20,1,49.5000015106202
392,28,209467,2,0,L|384:100,1,49.5000015106202
384,164,209638,6,0,B|376:236|376:236|384:336,1,148.50000453186
382,311,209981,1,0,0:0:0:0:
452,240,210153,1,0,0:0:0:0:
304,236,210324,1,0,0:0:0:0:
212,268,210495,6,0,L|152:292,2,49.5000015106202
304,236,210838,1,0,0:0:0:0:
72,320,211010,1,0,0:0:0:0:
76,124,211181,6,0,P|116:172|64:236,1,148.50000453186
196,352,211524,2,0,P|156:304|208:240,1,148.50000453186
198,241,211867,1,0,0:0:0:0:
232,148,212038,2,0,L|284:192,1,49.5000015106202
364,148,212209,2,0,L|312:192,1,49.5000015106202
296,319,212381,2,0,L|296:220,1,99.0000030212403
296,120,212724,1,0,0:0:0:0:
198,241,212895,1,0,0:0:0:0:
394,241,213067,1,0,0:0:0:0:
480,36,213238,6,0,L|432:80,1,49.5000015106202
480,348,213410,2,0,L|432:304,1,49.5000015106202
372,192,213581,1,0,0:0:0:0:
348,192,213666,1,0,0:0:0:0:
323,192,213752,1,0,0:0:0:0:
298,192,213838,1,0,0:0:0:0:
252,208,213924,6,0,L|160:344,1,148.50000453186
136,292,214267,2,0,P|72:252|24:312,1,148.50000453186
25,294,214609,1,0,0:0:0:0:
76,172,214781,2,0,L|44:132,1,49.5000015106202
76,40,214953,2,0,L|44:0,1,49.5000015106202
160,248,215124,6,0,B|172:192|172:192|152:84,1,148.50000453186
155,102,215467,1,0,0:0:0:0:
76,172,215638,1,0,0:0:0:0:
288,360,215810,1,0,0:0:0:0:
200,284,215981,6,0,L|139:231,2,49.5000015106202
228,188,216324,1,0,0:0:0:0:
140,356,216495,1,0,0:0:0:0:
404,360,216667,5,0,0:0:0:0:
373,347,216752,1,0,0:0:0:0:
349,322,216838,1,0,0:0:0:0:
338,291,216924,1,0,0:0:0:0:
340,257,217009,1,0,0:0:0:0:
376,264,217094,1,0,0:0:0:0:
410,249,217180,1,0,0:0:0:0:
429,217,217266,1,0,0:0:0:0:
426,181,217351,1,0,0:0:0:0:
403,152,217437,1,0,0:0:0:0:
368,142,217524,1,0,0:0:0:0:
336,159,217609,1,0,0:0:0:0:
303,169,217695,1,0,0:0:0:0:
268,161,217781,1,0,0:0:0:0:
233,153,217866,1,0,0:0:0:0:
198,144,217952,1,0,0:0:0:0:
152,132,218038,6,0,L|88:112,14,49.5000015106202
96,224,219409,6,0,B|48:336|48:336|104:304,1,161.999995056153
256,296,219752,2,0,B|183:198|183:198|182:262,1,161.999995056153
188,352,220095,2,0,L|118:384,1,53.9999983520508
324,240,220267,1,0,0:0:0:0:
340,332,220438,1,0,0:0:0:0:
268,384,220609,1,0,0:0:0:0:
428,364,220780,5,0,0:0:0:0:
428,323,220867,1,0,0:0:0:0:
428,283,220951,1,0,0:0:0:0:
447,248,221037,1,0,0:0:0:0:
468,213,221123,2,0,B|500:172|500:172|480:92,1,107.999996704102
380,92,221466,6,0,L|392:151,2,53.9999983520508
456,16,221809,2,0,L|372:96,1,107.999996704102
324,88,222067,1,0,0:0:0:0:
272,92,222152,6,0,B|248:148|248:148|292:216,1,107.999996704102
177,299,222495,2,0,B|201:243|201:243|157:175,1,107.999996704102
406,293,222838,2,0,L|338:267,1,53.9999983520508
176,204,223009,1,0,0:0:0:0:
266,239,223180,1,0,0:0:0:0:
216,102,223352,1,0,0:0:0:0:
340,184,223523,5,0,0:0:0:0:
184,308,223694,1,0,0:0:0:0:
312,92,223866,1,0,0:0:0:0:
292,328,224037,1,0,0:0:0:0:
96,264,224209,6,0,L|36:240,1,53.9999983520508
96,148,224381,2,0,L|36:124,1,53.9999983520508
96,32,224552,1,0,0:0:0:0:
176,204,224723,1,0,0:0:0:0:
96,376,224895,6,0,B|140:356|140:356|216:368,1,107.999996704102
332,268,225237,2,0,B|288:288|288:288|212:276,1,107.999996704102
96,260,225581,2,0,L|176:276,1,53.9999983520508
280,200,225752,1,0,0:0:0:0:
296,372,225923,1,0,0:0:0:0:
139,299,226095,1,0,0:0:0:0:
120,20,226267,5,0,0:0:0:0:
131,44,226351,1,0,0:0:0:0:
142,69,226437,1,0,0:0:0:0:
153,94,226523,1,0,0:0:0:0:
136,148,226609,2,0,B|144:192|144:192|228:200,1,107.999996704102
368,220,226952,6,0,L|280:208,2,53.9999983520508
324,320,227295,2,0,B|268:300|268:300|168:304,1,107.999996704102
168,284,227552,1,0,0:0:0:0:
116,300,227638,6,0,B|72:260|72:260|96:176,1,107.999996704102
132,116,227981,2,0,B|176:156|176:156|152:240,1,107.999996704102
85,213,228323,2,0,L|56:276,1,53.9999983520508
128,120,228495,1,0,0:0:0:0:
40,312,228667,1,0,0:0:0:0:
336,152,228837,1,0,0:0:0:0:
410,29,229009,6,0,L|372:88,5,38.2500007295609
316,32,229523,6,0,L|313:102,5,38.2500007295609
237,81,230037,6,0,L|252:112,7,19.1250003647804
304,336,230381,6,0,L|252:222,1,107.999996704102
152,224,230724,2,0,L|196:322,1,107.999996704102
259,237,231067,2,0,L|276:184,1,53.9999983520508
314,70,231238,1,0,0:0:0:0:
304,336,231410,1,0,0:0:0:0:
214,138,231581,1,0,0:0:0:0:
292,64,231753,5,0,0:0:0:0:
253,50,231838,1,0,0:0:0:0:
215,37,231924,1,0,0:0:0:0:
176,47,232010,1,0,0:0:0:0:
138,59,232095,2,0,B|80:84|80:84|-4:64,1,107.999996704102
60,180,232438,6,0,L|132:196,2,53.9999983520508
84,284,232781,2,0,B|92:324|92:324|184:336,1,107.999996704102
208,308,233038,1,0,0:0:0:0:
260,288,233124,6,0,L|384:300,1,107.999996704102
456,236,233467,2,0,P|468:308|448:368,1,107.999996704102
208,308,233809,2,0,P|207:272|224:224,1,53.9999983520508
460,341,233981,1,0,0:0:0:0:
332,376,234153,1,0,0:0:0:0:
332,172,234324,1,0,0:0:0:0:
367,298,234495,5,0,0:0:0:0:
260,288,234667,1,0,0:0:0:0:
332,172,234838,1,0,0:0:0:0:
332,376,235010,1,0,0:0:0:0:
236,284,235181,6,0,L|176:272,1,53.9999983520508
116,188,235352,2,0,L|176:176,1,53.9999983520508
256,112,235524,1,0,0:0:0:0:
256,4,235695,1,0,0:0:0:0:
340,60,235867,6,0,B|336:112|344:156|344:156|304:176|286:202|286:202|372:284|276:376,1,346.500010574341
293,356,236552,1,0,0:0:0:0:
416,104,236724,2,0,L|464:96,1,49.5000015106202
236,284,236895,2,0,L|184:292,1,49.5000015106202
404,224,237067,5,0,0:0:0:0:
404,224,237409,5,0,0:0:0:0:
236,164,237581,1,0,0:0:0:0:
188,180,237924,5,0,0:0:0:0:
188,180,238009,1,0,0:0:0:0:
188,180,238095,1,0,0:0:0:0:
140,200,238267,2,0,L|140:304,1,99.0000030212403
52,296,238609,5,0,0:0:0:0:
62,339,238694,1,0,0:0:0:0:
93,371,238780,1,0,0:0:0:0:
135,385,238866,1,0,0:0:0:0:
179,376,238951,1,0,0:0:0:0:
213,347,239038,1,0,0:0:0:0:
231,319,239123,1,0,0:0:0:0:
249,290,239209,1,0,0:0:0:0:
267,262,239295,1,0,0:0:0:0:
285,233,239381,1,0,0:0:0:0:
321,208,239466,1,0,0:0:0:0:
364,216,239552,1,0,0:0:0:0:
388,253,239638,1,0,0:0:0:0:
378,296,239723,1,0,0:0:0:0:
341,319,239809,1,0,0:0:0:0:
304,344,239895,1,0,0:0:0:0:
276,360,239981,6,0,L|312:340,14,33.7500012874604
184,288,241352,5,0,0:0:0:0:
228,60,241524,1,0,0:0:0:0:
304,340,241695,1,0,0:0:0:0:
168,148,241867,1,0,0:0:0:0:
209,160,241952,1,0,0:0:0:0:
253,156,242038,1,0,0:0:0:0:
291,136,242124,1,0,0:0:0:0:
320,103,242209,1,0,0:0:0:0:
428,56,242380,2,0,P|428:132|400:188,1,116.999994644165
416,288,242723,5,0,0:0:0:0:
184,288,242895,1,0,0:0:0:0:
228,60,243067,1,0,0:0:0:0:
268,348,243238,1,0,0:0:0:0:
231,371,243324,1,0,0:0:0:0:
190,381,243408,1,0,0:0:0:0:
146,376,243494,1,0,0:0:0:0:
107,357,243581,1,0,0:0:0:0:
68,244,243752,2,0,P|128:235|180:271,1,116.999994644165
288,236,244094,5,0,0:0:0:0:
56,260,244267,1,0,0:0:0:0:
188,376,244438,1,0,0:0:0:0:
392,260,244609,1,0,0:0:0:0:
393,216,244694,1,0,0:0:0:0:
378,175,244780,1,0,0:0:0:0:
348,143,244866,1,0,0:0:0:0:
308,126,244951,1,0,0:0:0:0:
276,352,245124,1,0,0:0:0:0:
288,236,245295,1,0,0:0:0:0:
316,64,245467,5,0,0:0:0:0:
328,296,245638,1,0,0:0:0:0:
212,164,245809,1,0,0:0:0:0:
483,47,245982,1,0,0:0:0:0:
481,91,246067,1,0,0:0:0:0:
463,130,246153,1,0,0:0:0:0:
430,159,246239,1,0,0:0:0:0:
388,172,246324,1,0,0:0:0:0:
29,337,246495,2,0,P|72:280|140:256,1,116.999994644165
224,228,246837,5,0,0:0:0:0:
140,384,247009,1,0,0:0:0:0:
92,156,247181,1,0,0:0:0:0:
288,28,247352,1,0,0:0:0:0:
288,28,247437,1,0,0:0:0:0:
288,28,247523,1,0,0:0:0:0:
252,76,247695,6,0,L|260:204,1,116.999994644165
220,236,248037,1,0,0:0:0:0:
208,0,248209,5,0,0:0:0:0:
300,264,248381,1,0,0:0:0:0:
324,92,248552,1,0,0:0:0:0:
148,88,248724,1,0,0:0:0:0:
148,88,248810,1,0,0:0:0:0:
148,88,248895,1,0,0:0:0:0:
168,144,249067,6,0,L|160:272,1,116.999994644165
228,356,249409,1,0,0:0:0:0:
80,36,249581,5,0,0:0:0:0:
71,64,249666,1,0,0:0:0:0:
63,92,249752,1,0,0:0:0:0:
54,120,249838,1,0,0:0:0:0:
48,148,249924,1,0,0:0:0:0:
84,170,250009,1,0,0:0:0:0:
104,209,250095,1,0,0:0:0:0:
100,252,250181,1,0,0:0:0:0:
74,287,250267,1,0,0:0:0:0:
103,320,250352,1,0,0:0:0:0:
142,338,250438,1,0,0:0:0:0:
186,337,250524,1,0,0:0:0:0:
225,318,250609,1,0,0:0:0:0:
263,297,250694,1,0,0:0:0:0:
307,292,250780,1,0,0:0:0:0:
349,302,250866,1,0,0:0:0:0:
384,328,250952,6,0,L|412:352,19,22.5
401,342,251809,1,0,0:0:0:0:
484,236,251981,1,0,0:0:0:0:
348,220,252152,1,0,0:0:0:0:
348,220,252324,5,0,0:0:0:0:
144,332,252495,1,0,0:0:0:0:
144,96,252667,1,0,0:0:0:0:
416,316,252838,1,0,0:0:0:0:
439,279,252923,1,0,0:0:0:0:
452,237,253009,1,0,0:0:0:0:
451,193,253095,1,0,0:0:0:0:
438,152,253180,1,0,0:0:0:0:
235,186,253352,2,0,L|348:220,1,116.999994644165
308,332,253695,5,0,0:0:0:0:
228,112,253867,1,0,0:0:0:0:
144,332,254038,1,0,0:0:0:0:
336,112,254209,1,0,0:0:0:0:
323,70,254294,1,0,0:0:0:0:
296,36,254380,1,0,0:0:0:0:
258,15,254466,1,0,0:0:0:0:
214,9,254551,1,0,0:0:0:0:
150,200,254724,2,0,L|228:112,1,116.999994644165
284,216,255067,5,0,0:0:0:0:
64,292,255238,1,0,0:0:0:0:
144,72,255409,1,0,0:0:0:0:
436,360,255581,1,0,0:0:0:0:
425,317,255666,1,0,0:0:0:0:
415,274,255752,1,0,0:0:0:0:
404,232,255838,1,0,0:0:0:0:
394,189,255923,1,0,0:0:0:0:
472,100,256095,1,0,0:0:0:0:
308,268,256267,1,0,0:0:0:0:
92,184,256438,5,0,0:0:0:0:
276,40,256609,1,0,0:0:0:0:
308,268,256781,1,0,0:0:0:0:
108,56,256952,1,0,0:0:0:0:
143,81,257037,1,0,0:0:0:0:
179,106,257123,1,0,0:0:0:0:
215,131,257209,1,0,0:0:0:0:
251,156,257294,1,0,0:0:0:0:
420,204,257467,2,0,P|436:272|404:364,1,116.999994644165
308,268,257809,5,0,0:0:0:0:
372,44,257981,1,0,0:0:0:0:
428,317,258152,1,0,0:0:0:0:
188,219,258324,5,0,0:0:0:0:
188,219,258409,1,0,0:0:0:0:
188,219,258495,1,0,0:0:0:0:
56,104,258667,2,0,L|76:240,1,116.999994644165
148,128,259009,1,0,0:0:0:0:
244,340,259181,5,0,0:0:0:0:
73,219,259352,1,0,0:0:0:0:
300,160,259524,1,0,0:0:0:0:
444,56,259695,5,0,0:0:0:0:
444,56,259781,1,0,0:0:0:0:
444,56,259866,1,0,0:0:0:0:
420,172,260038,2,0,L|444:296,1,116.999994644165
328,264,260381,1,0,0:0:0:0:
268,36,260552,5,0,0:0:0:0:
261,79,260637,1,0,0:0:0:0:
237,114,260723,1,0,0:0:0:0:
198,134,260809,1,0,0:0:0:0:
155,135,260895,1,0,0:0:0:0:
148,92,260980,1,0,0:0:0:0:
115,65,261066,1,0,0:0:0:0:
72,68,261152,1,0,0:0:0:0:
43,99,261238,1,0,0:0:0:0:
61,139,261323,1,0,0:0:0:0:
64,182,261409,1,0,0:0:0:0:
52,224,261495,1,0,0:0:0:0:
27,260,261581,1,0,0:0:0:0:
70,250,261666,1,0,0:0:0:0:
114,247,261752,1,0,0:0:0:0:
157,252,261838,1,0,0:0:0:0:
199,264,261924,6,0,B|288:240|288:240|392:280,1,175.499991966248
196,340,262438,1,0,0:0:0:0:
372,344,262695,1,0,0:0:0:0:
288,188,262952,1,0,0:0:0:0:
288,304,263124,1,0,0:0:0:0:
288,304,263295,5,0,0:0:0:0:
224,80,264667,5,0,0:0:0:0:
224,304,266038,5,0,0:0:0:0:
224,304,267067,1,0,0:0:0:0:
324,200,267409,2,0,B|308:216|296:244|296:244|320:280|312:328|312:328|360:272|376:312,1,216
372,304,268438,1,0,0:0:0:0:
464,192,268781,5,0,0:0:0:0:
48,192,270152,5,0,0:0:0:0:
256,48,271524,5,0,0:0:0:0:
240,180,272381,1,0,0:0:0:0:
224,212,272467,1,0,0:0:0:0:
292,240,272638,1,0,0:0:0:0:
308,272,272724,1,0,0:0:0:0:
236,280,272895,2,0,B|232:308|232:308|188:320|188:320|124:292|124:292|44:308,2,216
256,192,274267,5,0,0:0:0:0:
256,192,274609,12,0,285238,0:0:0:0:
256,192,285581,12,0,296209,0:0:0:0:
