osu file format v14

[General]
AudioFilename: audio.mp3
AudioLeadIn: 0
PreviewTime: 72461
Countdown: 0
SampleSet: Soft
StackLeniency: 0.2
Mode: 0
LetterboxInBreaks: 0
WidescreenStoryboard: 1

[Editor]
DistanceSpacing: 0.3
BeatDivisor: 4
GridSize: 32
TimelineZoom: 1

[Metadata]
Title:Dynamite (Extended Mix)
TitleUnicode:Dynamite (Extended Mix)
Artist:USAO
ArtistUnicode:USAO
Creator:Satou Kazuma01
Version:TWERK / Expert
Source:beatmania IIDX 23 copula
Tags:ORIGINAL SOUNDTRACK hybrid twerk electro dnb drum and bass
BeatmapID:1640643
BeatmapSetID:771984

[Difficulty]
HPDrainRate:7
CircleSize:6
OverallDifficulty:8
ApproachRate:9
SliderMultiplier:1.8
SliderTickRate:1

[Events]
//Background and Video events
0,0,"BG.jpg",0,0
//Break Periods
//Storyboard Layer 0 (Background)
//Storyboard Layer 1 (Fail)
//Storyboard Layer 2 (Pass)
//Storyboard Layer 3 (Foreground)
//Storyboard Sound Samples

[TimingPoints]
2051,300,4,2,1,87,1,0
3926,-100,4,2,7,87,0,0
4451,-100,4,2,1,87,0,0
8726,-100,4,2,7,87,0,0
9251,-100,4,2,1,87,0,0
10901,-200,4,2,1,87,0,0
11651,-100,4,2,1,87,0,0
20651,-133.333333333333,4,2,30,87,0,0
21251,-66.6666666666667,4,1,2,87,0,0
24851,-66.6666666666667,4,1,1,87,0,0
25001,-66.6666666666667,4,2,70,87,0,0
25076,-66.6666666666667,4,1,1,87,0,0
25151,-66.6666666666667,4,1,1,87,0,0
25301,-66.6666666666667,4,2,70,87,0,0
25376,-66.6666666666667,4,1,1,87,0,0
25451,-133.333333333333,4,1,30,87,0,0
26051,-100,4,2,1,87,0,0
35351,-100,4,2,10,87,0,0
35426,-100,4,2,1,87,0,0
35726,-100,4,2,3,87,0,0
40451,-133.333333333333,4,2,1,87,0,0
41201,-100,4,2,3,87,0,0
42851,-100,4,2,1,87,0,0
44051,-100,4,1,1,87,0,0
45251,-100,4,2,1,87,0,0
45326,-100,4,2,3,87,0,0
50051,-100,4,2,1,87,0,0
50126,-100,4,2,3,87,0,0
54251,-133.333333333333,4,2,30,87,0,0
54326,-133.333333333333,4,2,3,87,0,0
54851,299.25187032419,4,2,1,87,1,0
54851,-66.6666666666667,4,2,1,87,0,0
55449,298.507462686567,4,2,1,87,1,0
55449,-66.6666666666667,4,2,1,87,0,0
56046,297.766749379653,4,2,1,87,1,0
56046,-66.6666666666667,4,2,1,87,0,0
56641,297.029702970297,4,2,1,87,1,0
56641,-66.6666666666667,4,2,1,87,0,0
57235,296.296296296296,4,2,1,87,1,0
57235,-66.6666666666667,4,2,1,87,0,0
57827,295.566502463054,4,2,1,87,1,0
57827,-66.6666666666667,4,2,1,87,0,0
58418,294.840294840295,4,2,1,87,1,0
58418,-66.6666666666667,4,2,1,87,0,0
59007,294.117647058824,4,2,1,87,1,0
59007,-66.6666666666667,4,2,1,87,0,0
59595,293.398533007335,4,2,1,87,1,0
59595,-66.6666666666667,4,2,1,87,0,0
60181,292.682926829268,4,2,1,87,1,0
60181,-66.6666666666667,4,2,1,87,0,0
60764,291.970802919708,4,2,1,87,1,0
60764,-66.6666666666667,4,2,1,87,0,0
61346,291.26213592233,4,2,1,87,1,0
61346,-66.6666666666667,4,2,1,87,0,0
61924,290.556900726392,4,2,1,87,1,0
61924,-66.6666666666667,4,2,1,87,0,0
62500,289.855072463768,4,2,1,87,1,0
62500,-66.6666666666667,4,2,1,87,0,0
63075,289.156626506024,4,2,1,87,1,0
63075,-66.6666666666667,4,2,1,87,0,0
63649,288.461538461538,4,2,1,87,1,0
63649,-66.6666666666667,4,2,1,87,0,0
63937,-50,4,2,1,87,0,0
64221,287.081339712919,4,2,1,87,1,0
64221,-50,4,2,1,87,0,0
64817,286.396181384248,4,2,1,87,1,0
64817,-50,4,2,1,87,0,0
65369,285.714285714286,4,2,1,87,1,0
65369,-50,4,2,1,87,0,0
65956,285.035629453682,4,2,1,87,1,0
65956,-50,4,2,1,87,0,0
66530,283.687943262411,4,2,1,87,1,0
66530,-50,4,2,1,87,0,0
67096,283.018867924528,4,2,1,87,1,0
67096,-50,4,2,1,87,0,0
67661,282.352941176471,4,2,1,87,1,0
67661,-50,4,2,1,87,0,0
68236,281.69014084507,4,2,1,87,1,0
68236,-50,4,2,1,87,0,0
68770,280.373831775701,4,2,1,87,1,0
68770,-50,4,2,1,87,0,0
69330,279.72027972028,4,2,1,87,1,0
69330,-50,4,2,1,87,0,0
69889,279.06976744186,4,2,1,87,1,0
69889,-50,4,2,1,87,0,0
70447,278.422273781903,4,2,1,87,1,0
70447,-50,4,2,1,87,0,0
71003,277.777777777778,4,2,1,87,1,0
71003,-50,4,2,1,87,0,0
72669,-133.333333333333,4,2,1,87,0,0
72808,-133.333333333333,4,1,30,87,0,0
73225,-66.6666666666667,4,2,1,87,0,1
73503,-66.6666666666667,4,2,70,87,0,1
73572,-66.6666666666667,4,2,1,87,0,1
74058,-66.6666666666667,4,2,70,87,0,1
74128,-66.6666666666667,4,2,1,87,0,1
74614,-66.6666666666667,4,2,70,87,0,1
74683,-66.6666666666667,4,2,1,87,0,1
75169,-66.6666666666667,4,2,70,87,0,1
75239,-66.6666666666667,4,2,1,87,0,1
75725,-66.6666666666667,4,2,70,87,0,1
75794,-66.6666666666667,4,2,1,87,0,1
76280,-66.6666666666667,4,2,70,87,0,1
76350,-66.6666666666667,4,2,1,87,0,1
76836,-66.6666666666667,4,2,70,87,0,1
76905,-66.6666666666667,4,2,1,87,0,1
77391,-66.6666666666667,4,2,20,87,0,1
77461,-66.6666666666667,4,2,1,87,0,1
77947,-66.6666666666667,4,2,70,87,0,1
78016,-66.6666666666667,4,2,1,87,0,1
78503,-66.6666666666667,4,2,70,87,0,1
78572,-66.6666666666667,4,2,1,87,0,1
79058,-66.6666666666667,4,2,70,87,0,1
79128,-66.6666666666667,4,2,1,87,0,1
79614,-66.6666666666667,4,2,70,87,0,1
79683,-66.6666666666667,4,2,1,87,0,1
81836,-66.6666666666667,4,2,30,87,0,1
81905,-66.6666666666667,4,2,1,87,0,1
82044,-66.6666666666667,4,2,1,87,0,0
82114,-66.6666666666667,4,2,1,87,0,1
82183,-66.6666666666667,4,2,3,87,0,1
86558,-66.6666666666667,4,2,1,87,0,1
86628,-66.6666666666667,4,2,3,87,0,1
90725,-66.6666666666667,4,2,99,87,0,1
91003,-100,4,2,1,87,0,0
91697,-66.6666666666667,4,2,1,87,0,1
91836,-66.6666666666667,4,2,2,87,0,1
95447,-66.6666666666667,4,2,1,87,0,1
95516,-66.6666666666667,4,2,2,87,0,1
99822,-66.6666666666667,4,2,1,87,0,0
99891,-66.6666666666667,4,2,1,87,0,1
99961,-66.6666666666667,4,2,3,87,0,1
104336,-100,4,2,1,87,0,1
104891,-66.6666666666667,4,2,1,87,0,1
104961,-66.6666666666667,4,2,3,87,0,1
107669,-66.6666666666667,4,2,60,87,0,1
107739,-66.6666666666667,4,2,1,87,0,1
108788,284.36018957346,4,1,2,87,1,0
108788,-71.4285714285714,4,1,2,87,0,0
108859,-71.4285714285714,4,2,1,87,0,0
109927,292.682926829268,4,2,1,87,1,0
109927,-76.9230769230769,4,2,1,87,0,0
111091,295.566502463054,4,2,1,87,1,0
111091,-83.3333333333333,4,2,1,87,0,0
112273,298.507462686567,4,2,1,87,1,0
112273,-90.9090909090909,4,2,1,87,0,0
113467,300,4,2,1,87,1,0
113467,-100,4,2,1,87,0,0
117667,-133.333333333333,4,2,1,87,0,0
118267,-100,4,2,1,87,0,0
127567,-100,4,2,10,87,0,0
127642,-100,4,2,1,87,0,0
127942,-100,4,2,3,87,0,0
136867,-133.333333333333,4,2,1,87,0,0
137467,-100,4,2,1,87,0,0
146617,-133.333333333333,4,1,30,87,0,0
147067,-100,4,2,1,87,0,1
148267,-200,4,1,1,87,0,0
148492,-200,4,2,70,87,0,0
148567,-200,4,1,1,87,0,0
148867,-200,4,2,10,87,0,0
148942,-200,4,2,1,87,0,0
149467,-100,4,2,1,87,0,1
153967,-100,4,2,20,87,0,1
154042,-100,4,2,1,87,0,1
158767,-100,4,2,30,87,0,1
159067,-100,4,2,1,87,0,1
159142,-100,4,2,2,87,0,1
163867,-200,4,2,1,87,0,0
164467,-100,4,2,1,87,0,1
164767,-100,4,2,2,87,0,1
167917,-200,4,2,2,87,0,0
168217,-200,4,2,30,87,0,0
168667,-100,4,2,1,87,0,1
168742,-100,4,2,3,87,0,1
173467,-100,4,2,1,87,0,1
173542,-100,4,2,3,87,0,1
175867,-100,4,2,1,87,0,1
175942,-100,4,2,3,87,0,1
177967,-100,4,2,30,87,0,1
178267,-100,4,2,1,87,0,1
178342,-100,4,2,3,87,0,1
183067,-100,4,2,1,87,0,1
183142,-100,4,2,3,87,0,1
186667,-100,4,2,1,87,0,1
187267,-100,4,2,40,87,0,1
187867,-100,4,2,1,87,0,0
188017,-100,4,2,70,87,0,0
188092,-100,4,2,1,87,0,0
188317,-100,4,2,70,87,0,0
188392,-100,4,2,1,87,0,0
188617,-100,4,2,70,87,0,0
188692,-100,4,2,1,87,0,0
188917,-100,4,2,70,87,0,0
188992,-100,4,2,1,87,0,0
189217,-100,4,2,70,87,0,0
189292,-100,4,2,1,87,0,0
189517,-100,4,2,70,87,0,0
189592,-100,4,2,1,87,0,0
189817,-100,4,2,70,87,0,0
189892,-100,4,2,1,87,0,0
189967,-100,4,2,50,87,0,0
190042,-100,4,2,1,87,0,0
190417,-100,4,2,70,87,0,0
190492,-100,4,2,1,87,0,0
190717,-100,4,2,70,87,0,0
190792,-100,4,2,1,87,0,0
191017,-100,4,2,70,87,0,0
191092,-100,4,2,1,87,0,0
191317,-100,4,2,70,87,0,0
191392,-100,4,2,1,87,0,0
191617,-100,4,2,70,87,0,0
191692,-100,4,2,1,87,0,0
191917,-100,4,2,70,87,0,0
191992,-100,4,2,1,87,0,0
192217,-100,4,2,50,87,0,0
192227,-100,4,2,1,87,0,0
192292,-100,4,2,70,87,0,0
192367,-100,4,2,50,87,0,0
192442,-100,4,2,1,87,0,0
192817,-100,4,2,70,87,0,0
192892,-100,4,2,1,87,0,0
193117,-100,4,2,70,87,0,0
193192,-100,4,2,1,87,0,0
193417,-100,4,2,70,87,0,0
193492,-100,4,2,1,87,0,0
193717,-100,4,2,70,87,0,0
193792,-100,4,2,1,87,0,0
194017,-100,4,2,70,87,0,0
194092,-100,4,2,1,87,0,0
194317,-100,4,2,70,87,0,0
194392,-100,4,2,1,87,0,0
194617,-100,4,2,70,87,0,0
194692,-100,4,2,1,87,0,0
194767,-100,4,2,50,87,0,0
195067,-133.333333333333,4,2,1,87,0,0
195367,-133.333333333333,4,2,7,87,0,0
195442,-133.333333333333,4,2,1,87,0,0
195967,-133.333333333333,4,2,7,87,0,0
196042,-133.333333333333,4,2,1,87,0,0
196567,-133.333333333333,4,2,7,87,0,0
196642,-133.333333333333,4,2,1,87,0,0
197167,-133.333333333333,4,1,30,87,0,0
197242,-133.333333333333,4,2,1,87,0,0
197467,-100,4,2,1,87,0,0
197617,-100,4,2,70,87,0,0
197692,-100,4,2,1,87,0,0
197917,-100,4,2,70,87,0,0
197992,-100,4,2,1,87,0,0
198217,-100,4,2,70,87,0,0
198292,-100,4,2,1,87,0,0
198517,-100,4,2,70,87,0,0
198592,-100,4,2,1,87,0,0
198817,-100,4,2,70,87,0,0
198892,-100,4,2,1,87,0,0
199117,-100,4,2,70,87,0,0
199192,-100,4,2,1,87,0,0
199417,-100,4,2,70,87,0,0
199492,-100,4,2,1,87,0,0
199567,-100,4,2,50,87,0,0
199642,-100,4,2,1,87,0,0
200017,-100,4,2,70,87,0,0
200092,-100,4,2,1,87,0,0
200317,-100,4,2,70,87,0,0
200392,-100,4,2,1,87,0,0
200617,-100,4,2,70,87,0,0
200692,-100,4,2,1,87,0,0
200917,-100,4,2,70,87,0,0
200992,-100,4,2,1,87,0,0
201217,-100,4,2,70,87,0,0
201292,-100,4,2,1,87,0,0
201517,-100,4,2,70,87,0,0
201592,-100,4,2,1,87,0,0
201667,-100,4,2,50,87,0,0
201742,-100,4,2,1,87,0,0
201967,-100,4,2,50,87,0,0
202042,-100,4,2,1,87,0,0
202417,-100,4,2,70,87,0,0
202492,-100,4,2,1,87,0,0
202717,-100,4,2,70,87,0,0
202792,-100,4,2,1,87,0,0
203017,-100,4,2,70,87,0,0
203092,-100,4,2,1,87,0,0
203317,-100,4,2,70,87,0,0
203392,-100,4,2,1,87,0,0
203617,-100,4,2,70,87,0,0
203692,-100,4,2,1,87,0,0
203917,-100,4,2,70,87,0,0
203992,-100,4,2,1,87,0,0
204217,-100,4,2,70,87,0,0
204292,-100,4,2,1,87,0,0
204367,-100,4,2,50,87,0,0
204442,-100,4,2,1,87,0,0
204817,-100,4,2,70,87,0,0
204892,-100,4,2,1,87,0,0
205117,-100,4,2,70,87,0,0
205192,-100,4,2,1,87,0,0
205417,-100,4,2,70,87,0,0
205492,-100,4,2,1,87,0,0
205717,-100,4,2,70,87,0,0
205792,-100,4,2,1,87,0,0
206017,-100,4,2,70,87,0,0
206092,-100,4,2,1,87,0,0
206167,-100,4,2,20,87,0,0
206242,-100,4,2,1,87,0,0
206317,-100,4,2,70,87,0,0
206392,-100,4,2,1,87,0,0
206467,-133.333333333333,4,2,1,87,0,0
207067,-100,4,2,1,87,0,1
207142,-100,4,2,3,87,0,1
216592,-100,4,2,1,87,0,0
216667,-100,4,2,1,87,0,1
216742,-100,4,2,3,87,0,1
225667,-100,4,1,30,87,0,1
226267,-100,4,2,1,87,0,0
226867,-100,4,2,7,87,0,0
226942,-100,4,2,1,87,0,0
227317,-100,4,2,7,87,0,0
227542,-100,4,2,1,87,0,0
227767,-100,4,2,7,87,0,0
227842,-100,4,2,1,87,0,0
228067,-100,4,2,7,87,0,0
228142,-100,4,2,1,87,0,0
228217,-100,4,2,7,87,0,0
228292,-100,4,2,1,87,0,0
229267,-100,4,2,7,87,0,0
229342,-100,4,2,1,87,0,0
229717,-100,4,2,7,87,0,0
229942,-100,4,2,1,87,0,0
230167,-100,4,2,7,87,0,0
230242,-100,4,2,1,87,0,0
230467,-100,4,2,7,87,0,0
230542,-100,4,2,1,87,0,0
230617,-100,4,2,7,87,0,0
230692,-100,4,2,1,87,0,0
230767,-100,4,2,7,87,0,0
230842,-100,4,2,1,87,0,0
231667,-100,4,2,7,87,0,0
231742,-100,4,2,1,87,0,0
232117,-100,4,2,7,87,0,0
232342,-100,4,2,1,87,0,0
232567,-100,4,2,7,87,0,0
232642,-100,4,2,1,87,0,0
232867,-100,4,2,7,87,0,0
232942,-100,4,2,1,87,0,0
233017,-100,4,2,7,87,0,0
233092,-100,4,2,1,87,0,0
233167,-100,4,2,7,87,0,0
233242,-100,4,2,1,87,0,0
234067,-100,4,2,7,87,0,0
234142,-100,4,2,1,87,0,0
234517,-100,4,2,7,87,0,0
234667,-100,4,1,1,87,0,0
234817,-100,4,2,70,87,0,0
234967,-100,4,1,1,87,0,0
235117,-100,4,2,70,87,0,0
235417,-100,4,2,99,87,0,0
235492,-100,4,2,1,87,0,0

[HitObjects]
52,228,2051,6,0,P|101:238|140:239,1,90,6|0,0:0|0:0,0:0:0:0:
158,161,2351,1,0,0:0:0:0:
158,161,2501,1,0,0:0:0:0:
263,238,2651,2,0,P|319:235|467:186,1,180,8|2,0:0|0:0,0:0:0:0:
336,108,3251,5,0,0:0:0:0:
264,97,3401,2,0,L|263:202,2,90,2|0|2,0:0|0:0|0:0,0:0:0:0:
190,45,3851,2,0,P|106:56|86:65,2,90,8|0|0,0:0|0:0|0:0,0:0:0:0:
146,104,4451,6,0,P|176:168|276:242,1,180
259,235,4901,1,0,0:0:0:0:
210,162,5051,2,0,P|286:153|321:158,1,90,8|0,0:0|0:0,0:0:0:0:
312,262,5351,2,0,P|257:261|203:270,1,90,2|0,0:0|0:0,0:0:0:0:
156,97,5651,5,0,0:0:0:0:
156,97,5801,1,2,0:0:0:0:
193,148,5951,1,0,0:0:0:0:
193,148,6101,1,2,0:0:0:0:
136,206,6251,2,0,P|251:215|318:206,1,180,8|0,0:0|0:0,0:0:0:0:
351,64,6851,5,2,0:0:0:0:
333,124,7151,2,0,P|283:166|238:192,2,90,0|0|8,0:0|0:0|0:0,0:0:0:0:
320,57,7601,2,0,P|262:61|233:83,1,90,0|2,0:0|0:0,0:0:0:0:
149,59,7901,1,0,0:0:0:0:
111,138,8051,6,0,P|165:199|191:201,1,90,0|2,0:0|0:0,0:0:0:0:
222,115,8351,2,0,P|264:157|274:207,1,90,0|2,0:0|0:0,0:0:0:0:
210,258,8651,1,8,0:0:0:0:
229,258,8726,1,0,0:0:0:0:
241,259,8801,1,0,0:0:0:0:
247,260,8876,1,0,0:0:0:0:
255,260,8951,1,0,0:0:0:0:
276,261,9251,5,2,0:0:0:0:
285,152,9551,1,0,0:0:0:0:
285,152,9701,1,0,0:0:0:0:
325,75,9851,2,0,P|266:73|229:92,1,90,8|0,0:0|0:0,0:0:0:0:
361,121,10151,2,0,P|380:166|383:208,1,90,2|0,0:0|0:0,0:0:0:0:
180,106,10451,1,0,0:0:0:0:
260,127,10601,1,2,0:0:0:0:
188,192,10751,2,0,P|247:203|281:201,1,90,0|2,0:0|0:0,0:0:0:0:
102,164,11201,6,0,P|84:194|95:220,2,45
137,299,11651,6,0,P|191:293|325:254,1,180,4|0,0:0|0:0,0:0:0:0:
329,186,12251,2,0,L|236:178,1,90,8|0,0:0|0:0,0:0:0:0:
185,121,12551,2,0,B|220:116|220:116|230:78|230:78|266:78,1,90,2|0,0:0|0:0,0:0:0:0:
313,88,12851,5,0,0:0:0:0:
362,127,13001,1,2,0:0:0:0:
367,155,13076,1,0,0:0:0:0:
370,182,13151,1,0,0:0:0:0:
266,206,13301,2,0,P|296:273|328:287,2,90,2|8|0,0:0|0:0|0:0,0:0:0:0:
217,109,13751,2,0,L|192:65,2,45
161,151,14051,6,0,B|85:181|85:181|85:220,1,90,2|0,0:0|0:0,0:0:0:0:
91,276,14351,2,0,P|157:283|182:274,1,90
201,200,14651,2,0,L|260:243,2,45,8|0|0,0:0|0:0|0:0,0:0:0:0:
179,130,14951,2,0,P|243:118|278:122,1,90,2|0,0:0|0:0,0:0:0:0:
351,113,15251,5,0,0:0:0:0:
363,143,15401,1,2,0:0:0:0:
370,180,15551,1,0,0:0:0:0:
372,214,15701,1,2,0:0:0:0:
322,247,15851,2,0,P|273:268|236:277,1,90,8|0,0:0|0:0,0:0:0:0:
226,215,16151,2,0,L|276:188,2,45
101,249,16451,6,0,P|112:159|151:126,1,135,2|0,0:0|0:0,0:0:0:0:
129,43,16751,2,0,P|180:82|210:92,1,90
269,92,17051,1,8,0:0:0:0:
360,134,17201,1,0,0:0:0:0:
262,166,17351,2,0,P|249:251|252:282,1,90,2|0,0:0|0:0,0:0:0:0:
143,273,17651,6,0,P|136:212|143:183,2,90,0|2|0,0:0|0:0|0:0,0:0:0:0:
143,273,18101,1,2,0:0:0:0:
187,322,18251,2,0,P|317:323|374:292,1,180,8|0,0:0|0:0,0:0:0:0:
252,273,18851,5,2,0:0:0:0:
357,228,19001,1,0,0:0:0:0:
281,203,19151,2,0,P|323:132|342:118,1,90
354,70,19451,2,0,P|294:82|262:107,1,90,8|0,0:0|0:0,0:0:0:0:
312,35,19751,1,2,0:0:0:0:
251,57,19901,1,0,0:0:0:0:
183,94,20051,6,0,L|181:143,5,45,0|0|2|0|0|0,0:0|0:0|0:0|0:0|0:0|0:0,0:0:0:0:
183,94,20501,1,2,0:0:0:0:
141,165,20651,2,0,P|209:179|273:169,1,135.000005149842,2|0,0:0|0:0,0:0:0:0:
90,250,21251,6,0,P|161:274|381:262,1,270.000010299683,4|0,0:0|0:0,0:0:0:0:
391,98,21851,2,0,P|260:122|131:173,1,270.000010299683,10|0,0:0|0:0,0:0:0:0:
353,202,22451,2,0,P|268:153|90:101,1,270.000010299683,10|0,0:0|0:0,0:0:0:0:
36,168,23051,2,0,P|65:252|228:358,1,270.000010299683,10|0,0:0|0:0,0:0:0:0:
193,250,23651,6,0,P|271:227|427:92,1,270.000010299683,4|0,0:0|0:0,0:0:0:0:
405,54,24251,2,0,P|310:55|145:116,1,270.000010299683,10|0,0:0|0:0,0:0:0:0:
111,157,24851,5,4,0:0:0:0:
110,185,24926,1,0,0:0:0:0:
111,157,25001,1,2,0:0:0:0:
110,185,25076,1,0,0:0:0:0:
111,157,25151,1,4,0:0:0:0:
110,185,25226,1,0,0:0:0:0:
111,157,25301,1,2,0:0:0:0:
170,249,25601,6,0,P|241:263|251:255,2,67.5000025749208,4|0|0,0:0|0:0|0:0,0:0:0:0:
139,124,26051,6,0,P|197:102|334:79,1,180,4|0,0:0|0:0,0:0:0:0:
295,141,26501,1,0,0:0:0:0:
208,192,26651,2,0,P|289:213|327:205,1,90,8|0,0:0|0:0,0:0:0:0:
357,177,26951,2,0,P|347:125|310:63,1,90,2|0,0:0|0:0,0:0:0:0:
298,144,27251,5,0,0:0:0:0:
314,180,27401,1,2,0:0:0:0:
246,200,27551,2,0,P|180:216|124:211,2,90,0|2|8,0:0|0:0|0:0,0:0:0:0:
246,200,28001,1,0,0:0:0:0:
285,152,28151,2,0,P|236:122|181:129,1,90
114,133,28451,6,0,P|106:203|116:231,1,90,2|0,0:0|0:0,0:0:0:0:
168,174,28751,2,0,P|206:203|257:200,1,90
296,156,29051,1,8,0:0:0:0:
356,183,29201,1,0,0:0:0:0:
311,261,29351,2,0,P|371:264|412:252,1,90,2|0,0:0|0:0,0:0:0:0:
401,92,29651,6,0,P|357:134|321:161,1,90,0|2,0:0|0:0,0:0:0:0:
337,87,29951,1,0,0:0:0:0:
269,62,30101,2,0,P|226:102|186:118,2,90,2|8|0,0:0|0:0|0:0,0:0:0:0:
282,87,30551,1,0,0:0:0:0:
289,116,30626,1,0,0:0:0:0:
293,141,30701,1,0,0:0:0:0:
295,158,30776,1,0,0:0:0:0:
172,234,30851,6,0,P|231:271|268:276,1,90,4|0,0:0|0:0,0:0:0:0:
386,234,31151,2,0,P|406:180|414:144,1,90
336,86,31451,2,0,P|291:69|237:72,1,90,8|0,0:0|0:0,0:0:0:0:
204,97,31751,2,0,P|199:152|163:198,2,90,2|0|0,0:0|0:0|0:0,0:0:0:0:
104,44,32201,6,0,P|31:90|17:111,2,90,2|0|2,0:0|0:0|0:0,0:0:0:0:
246,56,32651,1,8,0:0:0:0:
302,78,32801,1,0,0:0:0:0:
344,109,32951,1,0,0:0:0:0:
373,145,33101,1,0,0:0:0:0:
286,150,33251,6,0,P|266:217|183:286,1,180
183,285,33701,1,0,0:0:0:0:
131,237,33851,1,8,0:0:0:0:
148,170,34001,2,0,B|176:104|176:104|161:67,2,90,0|2|0,0:0|0:0|0:0,0:0:0:0:
266,252,34451,2,0,P|351:264|367:256,1,90,0|2,0:0|0:0,0:0:0:0:
279,149,34751,2,0,P|297:93|322:57,2,90,0|2|8,0:0|0:0|0:0,0:0:0:0:
249,257,35351,1,2,0:0:0:0:
162,199,35651,6,0,P|134:153|138:112,1,90,4|0,0:0|0:0,0:0:0:0:
197,44,35951,1,4,0:0:0:0:
197,44,36101,1,0,0:0:0:0:
249,116,36251,2,0,P|317:109|356:92,2,90,8|0|6,0:0|0:0|0:0,0:0:0:0:
133,156,36701,1,0,0:0:0:0:
63,215,36851,6,0,P|151:227|182:217,1,90,0|2,0:0|0:0,0:0:0:0:
199,159,37151,2,0,P|252:175|303:146,2,90,4|2|0,0:0|0:0|0:0,0:0:0:0:
136,113,37601,1,0,0:0:0:0:
176,92,37751,1,4,0:0:0:0:
221,85,37901,1,0,0:0:0:0:
264,138,38051,6,0,B|327:140|327:140|374:139,1,90,2|0,0:0|0:0,0:0:0:0:
382,200,38351,2,0,B|294:203|294:203|267:205,1,90,4|0,0:0|0:0,0:0:0:0:
210,173,38651,2,0,P|145:203|117:219,2,90,8|0|6,0:0|0:0|0:0,0:0:0:0:
258,121,39101,1,0,0:0:0:0:
325,65,39251,6,0,P|390:65|445:60,2,90,0|2|4,0:0|0:0|0:0,0:0:0:0:
215,71,39701,1,2,0:0:0:0:
151,110,39851,2,0,L|185:150,3,45,8|0|0|0,0:0|0:0|0:0|0:0,0:0:0:0:
94,153,40151,2,0,L|133:196,3,45,4|0|0|0,0:0|0:0|0:0|0:0,0:0:0:0:
127,188,40451,5,4,0:0:0:0:
192,210,40751,1,0,0:0:0:0:
244,191,41051,1,2,0:0:0:0:
228,131,41201,2,0,P|211:72|166:41,2,90,0|6|0,0:0|0:0|0:0,0:0:0:0:
89,172,41651,6,0,P|89:236|103:261,1,90,0|2,0:0|0:0,0:0:0:0:
178,243,41951,2,0,P|245:233|293:237,1,90,4|2,0:0|0:0,0:0:0:0:
324,191,42251,1,8,0:0:0:0:
380,171,42401,1,0,0:0:0:0:
324,191,42551,1,4,0:0:0:0:
380,171,42701,1,0,0:0:0:0:
429,220,42851,6,0,P|376:271|300:304,1,135,6|0,0:0|0:0,0:0:0:0:
406,208,43151,2,0,P|344:195|271:134,1,135
283,126,43451,1,8,0:0:0:0:
220,117,43601,1,0,0:0:0:0:
140,117,43751,2,0,L|149:208,1,90,2|0,0:0|0:0,0:0:0:0:
218,173,44051,6,0,L|264:190,1,45
257,131,44201,2,0,L|302:148,1,45,2|0,0:0|0:0,0:0:0:0:
320,210,44351,2,0,L|359:233,1,45
346,158,44501,2,0,L|387:181,1,45,2|0,0:0|0:0,0:0:0:0:
416,232,44651,2,0,P|448:276|358:309,1,180,0|4,0:0|0:0,0:0:0:0:
80,240,45251,6,0,P|119:216|163:170,1,90,6|0,0:0|0:0,0:0:0:0:
153,267,45551,2,0,P|211:265|259:247,1,90,4|0,0:0|0:0,0:0:0:0:
253,178,45851,2,0,L|249:134,3,45,8|0|0|0,0:0|0:0|0:0|0:0,0:0:0:0:
311,244,46151,2,0,P|389:248|408:225,1,90,6|0,0:0|0:0,0:0:0:0:
389,170,46451,5,0,0:0:0:0:
391,121,46601,1,2,0:0:0:0:
372,75,46751,1,4,0:0:0:0:
326,63,46901,1,2,0:0:0:0:
258,68,47051,2,0,L|257:119,4,45,8|0|0|0|4,0:0|0:0|0:0|0:0|0:0,0:0:0:0:
38,269,47651,6,0,P|103:267|163:245,1,90,2|0,0:0|0:0,0:0:0:0:
211,206,47951,2,0,L|224:144,2,45,4|0|0,0:0|0:0|0:0,0:0:0:0:
289,236,48251,1,8,0:0:0:0:
381,239,48401,1,0,0:0:0:0:
376,157,48551,1,6,0:0:0:0:
352,96,48701,1,0,0:0:0:0:
279,35,48851,6,0,P|202:39|176:57,2,90,0|2|4,0:0|0:0|0:0,0:0:0:0:
264,93,49301,1,2,0:0:0:0:
196,116,49451,1,8,0:0:0:0:
141,166,49601,2,0,B|140:211|140:211|177:254,2,90,0|4|0,0:0|0:0|0:0,0:0:0:0:
219,176,50051,6,0,P|312:185|331:175,1,90,2|0,0:0|0:0,0:0:0:0:
375,107,50351,2,0,P|319:92|257:99,1,90,4|0,0:0|0:0,0:0:0:0:
216,74,50651,1,8,0:0:0:0:
161,82,50801,1,0,0:0:0:0:
125,104,50951,1,6,0:0:0:0:
118,167,51101,2,0,B|62:167|62:167|27:137,2,90,0|0|2,0:0|0:0|0:0,0:0:0:0:
136,231,51551,6,0,P|217:237|256:227,1,90,4|2,0:0|0:0,0:0:0:0:
321,162,51851,2,0,P|319:99|345:68,2,90,8|0|4,0:0|0:0|0:0,0:0:0:0:
321,162,52301,1,0,0:0:0:0:
218,237,52451,6,0,B|291:269|291:269|320:268,1,90,2|0,0:0|0:0,0:0:0:0:
398,265,52751,2,0,P|415:221|411:176,1,90,4|0,0:0|0:0,0:0:0:0:
247,115,53051,2,0,P|305:101|339:107,2,90,8|0|6,0:0|0:0|0:0,0:0:0:0:
247,115,53501,1,0,0:0:0:0:
172,151,53651,6,0,L|112:155,6,45,0|0|2|0|4|0|2,0:0|0:0|0:0|0:0|0:0|0:0|0:0,0:0:0:0:
103,198,54251,2,0,P|146:213|238:206,1,135.000005149842,2|0,0:0|0:0,0:0:0:0:
121,69,54851,6,0,P|190:37|277:34,1,135.000005149842,12|0,0:0|0:0,0:0:0:0:
254,105,55150,1,0,0:0:0:0:
254,105,55299,1,0,0:0:0:0:
186,168,55449,2,0,P|276:184|338:178,3,135.000005149842,8|0|0|0,0:0|0:0|0:0|0:0,0:0:0:0:
400,266,56046,6,0,P|306:320|275:348,1,135.000005149842,8|0,0:0|0:0,0:0:0:0:
133,248,56343,2,0,B|160:203|160:203|155:111,1,135.000005149842
294,54,56641,2,0,B|365:76|365:76|404:143,1,135.000005149842,8|0,0:0|0:0,0:0:0:0:
347,198,56938,1,0,0:0:0:0:
347,198,57086,1,0,0:0:0:0:
263,135,57235,6,0,B|188:154|188:154|185:221,3,135.000005149842,8|0|0|0,0:0|0:0|0:0|0:0,0:0:0:0:
222,291,57827,2,0,P|122:323|47:320,1,135.000005149842,8|0,0:0|0:0,0:0:0:0:
35,196,58122,2,0,P|76:116|113:78,1,135.000005149842
176,148,58418,2,0,B|254:154|254:154|236:219,1,135.000005149842,8|0,0:0|0:0,0:0:0:0:
238,263,58712,1,0,0:0:0:0:
285,263,58860,1,0,0:0:0:0:
323,263,59007,5,8,0:0:0:0:
365,258,59154,1,0,0:0:0:0:
408,257,59301,2,0,L|408:120,1,135.000005149842
350,122,59595,6,0,P|286:167|211:193,1,135.000005149842,12|0,0:0|0:0,0:0:0:0:
265,74,59888,2,0,P|151:62|113:95,1,135.000005149842
139,69,60181,1,8,0:0:0:0:
132,106,60327,1,0,0:0:0:0:
131,143,60473,1,0,0:0:0:0:
131,143,60620,1,0,0:0:0:0:
198,198,60764,6,0,B|81:198|81:198|244:197,1,270.000010299683,8|0,0:0|0:0,0:0:0:0:
381,199,61346,2,0,B|461:195|461:195|461:195|461:195|268:199,1,270.000010299683,8|0,0:0|0:0,0:0:0:0:
249,258,61924,2,0,B|247:354|247:354|248:171,1,270.000010299683,8|0,0:0|0:0,0:0:0:0:
253,122,62500,2,0,B|255:-2|255:-2|254:155,1,270.000010299683,8|0,0:0|0:0,0:0:0:0:
251,192,63075,1,8,0:0:0:0:
217,208,63649,6,8,L|372:204,3,135.000005149842
430,236,64221,6,0,P|346:286|218:312,1,180,12|0,0:0|0:0,0:0:0:0:
249,248,64508,2,0,B|280:153|280:144|282:108|282:108|271:192,1,180,8|0,0:0|0:0,0:0:0:0:
278,144,64817,1,8,0:0:0:0:
278,144,64960,1,0,0:0:0:0:
317,200,65103,2,0,B|289:202|289:202|218:260|218:260|152:156,1,180,8|0,0:0|0:0,0:0:0:0:
319,71,65369,6,0,B|291:72|290:73|291:73|294:136|294:136|296:21,1,180,8|0,0:0|0:0,0:0:0:0:
214,36,65654,2,0,P|121:53|73:132,1,180,8|0,0:0|0:0,0:0:0:0:
12,215,65956,1,8,0:0:0:0:
84,213,66098,1,0,0:0:0:0:
94,277,66241,1,8,0:0:0:0:
152,243,66383,1,8,0:0:0:0:
186,192,66530,6,0,P|292:148|388:143,1,180,8|0,0:0|0:0,0:0:0:0:
408,266,66813,2,0,B|293:300|293:300|217:304,1,180,8|0,0:0|0:0,0:0:0:0:
333,178,67096,2,0,B|256:106|256:106|160:57,1,180,8|0,0:0|0:0,0:0:0:0:
194,113,67379,1,8,0:0:0:0:
173,162,67520,1,0,0:0:0:0:
254,168,67661,5,8,0:0:0:0:
231,219,67802,2,0,B|212:259|212:259|69:287,2,180,0|8|0,0:0|0:0|0:0,0:0:0:0:
350,211,68225,2,0,L|438:236,6,90,8|0|0|0|8|0|8,0:0|0:0|0:0|0:0|0:0|0:0|0:0,0:0:0:0:
285,125,68770,6,0,B|315:39|315:39|285:134,1,180,12|0,0:0|0:0,0:0:0:0:
211,303,69050,2,0,B|171:383|171:383|212:302,1,180,8|0,0:0|0:0,0:0:0:0:
293,225,69330,2,0,B|376:258|376:258|247:205,1,180,8|0,0:0|0:0,0:0:0:0:
201,180,69609,2,0,B|123:138|123:138|208:186,1,180,8|0,0:0|0:0,0:0:0:0:
214,90,69889,5,12,0:0:0:0:
298,114,70168,1,8,0:0:0:0:
209,183,70447,1,8,0:0:0:0:
269,201,70725,1,8,0:0:0:0:
293,265,71003,6,0,B|388:274|388:274|471:334,2,180,14|0|0,0:0|0:0|0:0,0:0:0:0:
207,236,71419,1,14,0:0:0:0:
55,212,71558,1,0,0:0:0:0:
207,236,71697,1,0,0:0:0:0:
217,171,71836,6,0,B|247:83|247:83|356:27,2,180,14|0|0,0:0|0:0|0:0,0:0:0:0:
216,232,72253,1,14,0:0:0:0:
251,232,72322,1,0,0:0:0:0:
301,227,72391,1,0,0:0:0:0:
329,222,72461,1,0,0:0:0:0:
349,222,72530,1,14,0:0:0:0:
356,158,72808,6,0,L|282:144,2,67.5000025749208,4|0|0,0:0|0:0|0:0,0:0:0:0:
329,240,73225,6,0,B|274:297|274:297|199:330,1,135.000005149842,6|0,0:0|0:0,0:0:0:0:
149,245,73503,1,2,0:0:0:0:
118,198,73641,1,0,0:0:0:0:
114,111,73780,2,0,B|197:94|197:94|267:96,1,135.000005149842,8|0,0:0|0:0,0:0:0:0:
371,99,74058,2,0,L|396:170,2,67.5000025749208,2|0|0,0:0|0:0|0:0,0:0:0:0:
279,44,74336,6,0,B|208:55|209:55|203:142,1,135.000005149842,0|2,0:0|0:0,0:0:0:0:
160,177,74614,1,2,0:0:0:0:
81,249,74753,1,0,0:0:0:0:
180,268,74891,2,0,P|283:261|325:248,1,135.000005149842,8|0,0:0|0:0,0:0:0:0:
374,200,75169,1,2,0:0:0:0:
327,158,75308,1,0,0:0:0:0:
402,100,75447,6,0,B|301:57|301:57|265:106,1,135.000005149842,2|0,0:0|0:0,0:0:0:0:
261,31,75725,1,2,0:0:0:0:
145,83,75864,1,0,0:0:0:0:
191,155,76003,2,0,P|241:217|316:247,2,135.000005149842,8|0|2,0:0|0:0|0:0,0:0:0:0:
191,155,76419,1,0,0:0:0:0:
117,190,76558,6,0,B|147:260|148:260|148:260|216:204,1,135.000005149842,0|2,0:0|0:0,0:0:0:0:
193,222,76836,2,0,B|253:282|253:282|272:203,1,135.000005149842,2|2,0:0|0:0,0:0:0:0:
283,153,77114,2,0,L|225:108,1,67.5000025749208,8|0,0:0|0:0,0:0:0:0:
341,204,77253,2,0,L|402:263,1,67.5000025749208
332,111,77391,2,0,L|267:67,1,67.5000025749208,2|0,0:0|0:0,0:0:0:0:
376,167,77530,2,0,L|441:222,1,67.5000025749208
376,126,77669,6,0,L|341:268,1,135.000005149842,6|0,0:0|0:0,0:0:0:0:
295,126,77947,2,0,B|223:134|223:134|229:212,1,135.000005149842,2|0,0:0|0:0,0:0:0:0:
174,263,78225,1,8,0:0:0:0:
114,265,78364,1,0,0:0:0:0:
52,268,78503,2,0,B|61:214|61:214|148:185,1,135.000005149842,2|0,0:0|0:0,0:0:0:0:
127,82,78780,5,0,0:0:0:0:
195,102,78919,2,0,P|287:121|327:151,2,135.000005149842,2|2|2,0:0|0:0|0:0,0:0:0:0:
101,152,79336,2,0,B|126:230|126:230|153:278,1,135.000005149842,8|0,0:0|0:0,0:0:0:0:
234,280,79614,1,2,0:0:0:0:
310,218,79753,1,0,0:0:0:0:
381,70,79891,5,2,0:0:0:0:
306,66,80030,1,0,0:0:0:0:
231,63,80169,2,0,B|230:127|230:127|231:56,1,135.000005149842,8|0,0:0|0:0,0:0:0:0:
145,73,80447,6,0,L|70:101,1,67.5000025749208,8|0,0:0|0:0,0:0:0:0:
162,130,80586,1,0,0:0:0:0:
138,145,80655,1,0,0:0:0:0:
212,178,80725,2,0,L|149:217,1,67.5000025749208,2|0,0:0|0:0,0:0:0:0:
244,231,80864,1,0,0:0:0:0:
217,253,80933,1,0,0:0:0:0:
147,320,81003,6,0,P|57:349|-9:344,2,135.000005149842,0|2|0,0:0|0:0|0:0,0:0:0:0:
147,320,81419,1,2,0:0:0:0:
146,229,81558,2,0,B|148:148|148:148|231:133,1,135.000005149842,8|0,0:0|0:0,0:0:0:0:
258,134,81836,1,2,0:0:0:0:
330,157,81975,1,0,0:0:0:0:
382,159,82114,6,0,B|369:232|369:232|310:252,1,135.000005149842,6|0,0:0|0:0,0:0:0:0:
286,177,82391,2,0,P|211:213|206:268,1,135.000005149842,4|0,0:0|0:0,0:0:0:0:
151,288,82669,2,0,B|122:227|121:213|121:213|145:146,1,135.000005149842,8|0,0:0|0:0,0:0:0:0:
161,123,82947,1,6,0:0:0:0:
226,112,83086,1,0,0:0:0:0:
352,113,83225,5,0,0:0:0:0:
370,162,83364,1,2,0:0:0:0:
292,147,83503,1,4,0:0:0:0:
303,192,83641,1,2,0:0:0:0:
385,234,83780,2,0,B|306:257|306:257|223:276,1,135.000005149842,8|0,0:0|0:0,0:0:0:0:
201,202,84058,1,4,0:0:0:0:
201,202,84197,1,0,0:0:0:0:
246,73,84336,6,0,B|169:65|169:65|148:118,1,135.000005149842,2|0,0:0|0:0,0:0:0:0:
236,193,84614,1,4,0:0:0:0:
352,210,84753,1,0,0:0:0:0:
304,153,84891,1,8,0:0:0:0:
358,75,85030,6,0,B|256:69|256:69|206:128,2,135.000005149842,0|6|0,0:0|0:0|0:0,0:0:0:0:
391,121,85447,1,0,0:0:0:0:
409,169,85586,1,2,0:0:0:0:
322,181,85725,2,0,L|324:254,2,67.5000025749208,4|0|2,0:0|0:0|0:0,0:0:0:0:
270,181,86003,2,0,L|121:183,1,135.000005149842,8|0,0:0|0:0,0:0:0:0:
138,241,86280,1,4,0:0:0:0:
199,243,86419,1,0,0:0:0:0:
221,196,86558,6,0,P|318:184|318:185,1,135.000005149842,6|0,0:0|0:0,0:0:0:0:
280,199,86836,2,0,B|346:245|346:245|416:252,2,135.000005149842,4|0|8,0:0|0:0|0:0,0:0:0:0:
280,199,87253,1,0,0:0:0:0:
267,127,87391,2,0,P|195:133|142:178,1,135.000005149842,6|0,0:0|0:0,0:0:0:0:
71,140,87669,5,0,0:0:0:0:
130,232,87808,2,0,B|219:263|219:263|291:254,2,135.000005149842,2|4|2,0:0|0:0|0:0,0:0:0:0:
179,173,88225,2,0,B|273:157|273:157|304:184,1,135.000005149842,8|0,0:0|0:0,0:0:0:0:
303,184,88503,1,4,0:0:0:0:
303,184,88641,1,0,0:0:0:0:
292,241,88780,6,0,B|351:273|351:273|408:208,1,135.000005149842,2|0,0:0|0:0,0:0:0:0:
396,121,89058,2,0,B|344:59|344:59|286:141,1,135.000005149842,4|0,0:0|0:0,0:0:0:0:
232,144,89336,2,0,B|163:162|163:162|57:171,2,135.000005149842,8|0|6,0:0|0:0|0:0,0:0:0:0:
233,44,89753,2,0,P|313:47|382:82,1,135.000005149842
341,188,90030,2,0,B|276:248|276:248|197:254,2,135.000005149842,2|4|2,0:0|0:0|0:0,0:0:0:0:
349,48,90447,6,0,B|279:65|279:65|235:124,1,135.000005149842,8|0,0:0|0:0,0:0:0:0:
169,210,90725,2,0,B|172:289|172:289|223:343,2,135.000005149842,4|0|4,0:0|0:0|0:0,0:0:0:0:
161,144,91280,6,0,L|282:163,1,90
292,100,91558,1,8,0:0:0:0:
329,151,91697,1,6,0:0:0:0:
290,210,91836,1,6,0:0:0:0:
215,225,91975,1,0,0:0:0:0:
271,282,92114,6,0,B|199:313|199:313|161:269,1,135.000005149842,0|2,0:0|0:0,0:0:0:0:
74,226,92391,2,0,B|77:186|77:186|155:117,1,135.000005149842,4|2,0:0|0:0,0:0:0:0:
183,76,92669,2,0,P|266:57|347:76,1,135.000005149842,8|0,0:0|0:0,0:0:0:0:
366,107,92947,2,0,L|345:185,3,67.5000025749208,4|0|0|0,0:0|0:0|0:0|0:0,0:0:0:0:
318,87,93225,5,2,0:0:0:0:
328,162,93364,2,0,B|332:249|332:249|399:298,2,135.000005149842,0|4|0,0:0|0:0|0:0,0:0:0:0:
261,90,93780,2,0,B|255:208|255:208|208:205,1,135.000005149842,8|0,0:0|0:0,0:0:0:0:
179,205,94058,1,6,0:0:0:0:
95,215,94197,1,0,0:0:0:0:
81,306,94336,5,0,0:0:0:0:
151,308,94475,2,0,B|258:308|258:308|315:282,2,135.000005149842,2|4|2,0:0|0:0|0:0,0:0:0:0:
124,308,94891,2,0,B|61:275|61:275|51:162|51:162|155:120,1,270.000010299683,8|4,0:0|0:0,0:0:0:0:
41,44,95447,6,0,B|120:32|120:33|191:55,1,135.000005149842,6|0,0:0|0:0,0:0:0:0:
234,161,95725,2,0,L|237:89,1,67.5000025749208,4|0,0:0|0:0,0:0:0:0:
295,59,95864,2,0,L|294:142,1,67.5000025749208
381,146,96003,2,0,B|381:223|381:223|322:276,1,135.000005149842,8|0,0:0|0:0,0:0:0:0:
271,201,96280,2,0,B|206:245|206:245|202:302,1,135.000005149842,6|0,0:0|0:0,0:0:0:0:
157,104,96558,6,0,B|101:80|94:66|94:66|152:101,2,135.000005149842,0|2|4,0:0|0:0|0:0,0:0:0:0:
157,104,96975,1,2,0:0:0:0:
256,163,97114,2,0,B|344:162|344:162|400:133,1,135.000005149842,8|0,0:0|0:0,0:0:0:0:
487,181,97391,2,0,B|466:271|466:271|402:311,1,135.000005149842,4|0,0:0|0:0,0:0:0:0:
334,247,97669,6,0,B|256:259|256:259|300:308,1,135.000005149842,2|0,0:0|0:0,0:0:0:0:
294,301,97947,1,4,0:0:0:0:
221,303,98086,1,0,0:0:0:0:
171,259,98225,1,8,0:0:0:0:
155,200,98364,1,0,0:0:0:0:
92,165,98503,2,0,B|143:112|143:112|89:170,1,135.000005149842,6|0,0:0|0:0,0:0:0:0:
76,121,98780,6,0,B|101:44|101:44|186:23,2,135.000005149842,0|2|4,0:0|0:0|0:0,0:0:0:0:
76,121,99197,1,2,0:0:0:0:
56,198,99336,2,0,B|136:209|136:209|196:195,1,135.000005149842,8|0,0:0|0:0,0:0:0:0:
219,141,99614,1,4,0:0:0:0:
229,170,99683,1,0,0:0:0:0:
219,141,99753,1,0,0:0:0:0:
229,170,99822,1,0,0:0:0:0:
250,300,99891,6,0,B|342:308|342:308|345:229,1,135.000005149842,6|0,0:0|0:0,0:0:0:0:
382,176,100169,2,0,B|307:152|307:152|402:181,1,135.000005149842,4|0,0:0|0:0,0:0:0:0:
425,125,100447,1,8,0:0:0:0:
341,49,100586,1,0,0:0:0:0:
229,49,100725,2,0,B|159:49|159:49|91:11,1,135.000005149842,6|0,0:0|0:0,0:0:0:0:
247,163,101003,6,0,B|164:169|164:169|119:231,2,135.000005149842,0|2|4,0:0|0:0|0:0,0:0:0:0:
247,163,101419,1,2,0:0:0:0:
380,186,101558,2,0,B|315:253|315:253|235:270,1,135.000005149842,8|0,0:0|0:0,0:0:0:0:
253,128,101836,2,0,L|257:57,3,67.5000025749208,4|0|0|0,0:0|0:0|0:0|0:0,0:0:0:0:
139,54,102114,6,0,B|59:111|59:111|48:151,1,135.000005149842,2|0,0:0|0:0,0:0:0:0:
99,200,102391,2,0,B|168:149|168:149|99:207,1,135.000005149842,4|0,0:0|0:0,0:0:0:0:
159,252,102669,1,8,0:0:0:0:
212,252,102808,1,0,0:0:0:0:
197,192,102947,1,6,0:0:0:0:
252,193,103086,1,0,0:0:0:0:
180,129,103225,6,0,L|336:136,1,135.000005149842,0|2,0:0|0:0,0:0:0:0:
416,163,103503,2,0,B|397:230|397:230|350:279,2,135.000005149842,4|2|8,0:0|0:0|0:0,0:0:0:0:
352,79,103919,2,0,B|260:41|260:41|218:57,2,135.000005149842,0|4|0,0:0|0:0|0:0,0:0:0:0:
388,119,104336,6,0,B|390:199|390:199|361:307,1,180,4|0,0:0|0:0,0:0:0:0:
272,211,104891,5,12,0:0:0:0:
249,166,105030,1,0,0:0:0:0:
264,113,105169,2,0,B|187:122|187:122|246:168,1,135.000005149842,6|0,0:0|0:0,0:0:0:0:
179,270,105447,6,0,B|110:346|110:346|29:369,2,135.000005149842,0|2|4,0:0|0:0|0:0,0:0:0:0:
85,219,105864,1,2,0:0:0:0:
45,103,106003,2,0,B|113:69|113:69|180:73,1,135.000005149842,8|0,0:0|0:0,0:0:0:0:
281,107,106280,2,0,L|259:173,2,67.5000025749208,4|0|0,0:0|0:0|0:0,0:0:0:0:
369,35,106558,6,0,L|341:176,1,135.000005149842,2|0,0:0|0:0,0:0:0:0:
405,190,106836,2,0,L|379:339,1,135.000005149842,4|0,0:0|0:0,0:0:0:0:
330,206,107114,1,8,0:0:0:0:
330,206,107253,1,0,0:0:0:0:
278,262,107391,1,6,0:0:0:0:
278,262,107530,1,0,0:0:0:0:
226,258,107669,5,2,0:0:0:0:
188,251,107739,1,0,0:0:0:0:
151,238,107808,1,2,0:0:0:0:
135,219,107878,1,0,0:0:0:0:
133,194,107947,1,0,0:0:0:0:
147,173,108016,1,0,0:0:0:0:
164,155,108086,1,2,0:0:0:0:
137,112,108225,2,2,B|221:109|221:109|312:97|312:97|211:109,1,270.000010299683
80,217,108788,6,0,B|147:250|147:250|136:250|136:250|93:309|93:309|216:295|216:295|251:183,1,377.999988464356,4|0,0:0|0:0,0:0:0:0:
441,261,109925,2,0,B|363:193|363:193|382:91|382:91|364:200|364:200|405:247,1,377.999988464356
290,188,111091,2,0,B|264:126|264:126|278:73|278:73|234:122|234:122|267:63|267:64|267:64|241:64|241:64|202:93,1,323.999990112305
112,184,112273,2,0,B|164:158|164:158|124:193|124:193|199:249|199:249|187:189|187:189|250:216,1,297.000009063721
295,163,113019,2,0,B|328:116|328:116|316:52,2,99.0000030212403
146,216,113467,6,0,B|121:152|121:152|151:96,1,90
115,64,113767,2,0,L|213:46,1,90
265,116,114067,1,0,0:0:0:0:
186,141,114217,1,0,0:0:0:0:
216,198,114367,1,0,0:0:0:0:
286,168,114517,1,0,0:0:0:0:
369,112,114667,5,0,0:0:0:0:
383,200,114817,1,0,0:0:0:0:
389,291,114967,2,0,B|333:320|333:320|278:316,1,90
208,280,115267,1,0,0:0:0:0:
233,206,115417,1,0,0:0:0:0:
241,148,115567,2,0,B|168:148|168:148|169:194,1,90
103,222,115867,6,0,B|73:283|73:283|114:302,1,90
215,278,116167,2,0,P|261:267|299:231,1,90
319,195,116467,1,0,0:0:0:0:
319,195,116617,1,0,0:0:0:0:
335,119,116767,1,0,0:0:0:0:
335,119,116917,1,0,0:0:0:0:
317,52,117067,6,0,B|268:78|268:78|257:112,3,90
301,246,117667,2,0,P|262:281|163:306,1,135.000005149842
72,142,118267,6,0,B|78:81|78:81|106:117,1,90,6|0,0:0|0:0,0:0:0:0:
194,173,118567,2,0,B|261:193|261:193|303:186,1,90,8|0,0:0|0:0,0:0:0:0:
304,138,118867,1,0,0:0:0:0:
360,161,119017,1,2,0:0:0:0:
402,198,119167,1,8,0:0:0:0:
426,265,119317,1,0,0:0:0:0:
367,318,119467,6,0,B|305:354|305:354|264:363,1,90,2|0,0:0|0:0,0:0:0:0:
279,222,119767,2,0,B|198:227|198:227|208:267,1,90,8|0,0:0|0:0,0:0:0:0:
113,222,120067,2,0,B|111:172|111:172|146:117,2,90,0|2|8,0:0|0:0|0:0,0:0:0:0:
127,293,120517,1,0,0:0:0:0:
195,223,120667,5,2,0:0:0:0:
251,191,120817,1,0,0:0:0:0:
221,132,120967,2,0,B|266:111|266:111|309:81,1,90,8|0,0:0|0:0,0:0:0:0:
364,75,121267,2,0,B|431:136|431:136|385:93,2,90,0|2|8,0:0|0:0|0:0,0:0:0:0:
312,53,121717,1,0,0:0:0:0:
217,57,121867,5,2,0:0:0:0:
152,81,122017,1,0,0:0:0:0:
181,134,122167,1,8,0:0:0:0:
131,158,122317,1,0,0:0:0:0:
91,230,122467,2,0,B|145:240|145:240|226:242,2,90,0|2|8,0:0|0:0|0:0,0:0:0:0:
33,264,122917,1,0,0:0:0:0:
31,188,123067,6,0,B|44:121|44:121|77:108,1,90,2|0,0:0|0:0,0:0:0:0:
126,82,123367,1,8,0:0:0:0:
192,86,123517,1,0,0:0:0:0:
176,143,123667,2,0,B|151:198|151:198|96:225,2,90,0|2|8,0:0|0:0|0:0,0:0:0:0:
239,148,124117,1,0,0:0:0:0:
298,94,124267,6,0,B|343:148|343:148|347:192,1,90,2|0,0:0|0:0,0:0:0:0:
342,221,124567,1,8,0:0:0:0:
271,232,124717,1,0,0:0:0:0:
180,207,124867,1,0,0:0:0:0:
139,109,125017,1,2,0:0:0:0:
180,207,125167,1,8,0:0:0:0:
322,111,125317,1,0,0:0:0:0:
203,107,125467,6,0,B|261:69|260:69|271:31,1,90,2|0,0:0|0:0,0:0:0:0:
344,104,125767,2,0,P|348:155|293:186,1,90,8|0,0:0|0:0,0:0:0:0:
206,278,126067,1,0,0:0:0:0:
331,282,126217,1,2,0:0:0:0:
206,278,126367,1,8,0:0:0:0:
206,278,126517,1,0,0:0:0:0:
116,145,126667,6,0,B|60:170|60:170|35:238,1,90,2|0,0:0|0:0,0:0:0:0:
135,233,126967,1,8,0:0:0:0:
247,206,127117,1,0,0:0:0:0:
122,174,127267,1,0,0:0:0:0:
203,141,127417,1,2,0:0:0:0:
282,146,127567,2,0,B|351:158|351:158|387:185,1,90,10|0,0:0|0:0,0:0:0:0:
286,196,127867,6,0,B|291:252|291:252|267:311,2,90,4|0|12,0:0|0:0|0:0,0:0:0:0:
266,117,128317,2,0,B|213:132|213:132|209:185,2,90,0|0|2,0:0|0:0|0:0,0:0:0:0:
263,33,128767,1,12,0:0:0:0:
199,41,128917,1,0,0:0:0:0:
166,84,129067,6,0,L|162:211,1,90,2|0,0:0|0:0,0:0:0:0:
98,216,129367,2,0,P|163:234|207:220,2,90,12|0|0,0:0|0:0|0:0,0:0:0:0:
88,153,129817,1,2,0:0:0:0:
152,140,129967,1,12,0:0:0:0:
196,155,130117,1,0,0:0:0:0:
271,78,130267,6,0,B|309:123|309:123|289:156,1,90,2|0,0:0|0:0,0:0:0:0:
368,204,130567,2,0,B|313:215|313:215|288:243,1,90,12|0,0:0|0:0,0:0:0:0:
205,237,130867,2,0,P|196:183|232:138,2,90,0|2|12,0:0|0:0|0:0,0:0:0:0:
237,282,131317,1,0,0:0:0:0:
272,203,131467,5,2,0:0:0:0:
316,178,131617,1,0,0:0:0:0:
350,151,131767,1,12,0:0:0:0:
353,110,131917,1,0,0:0:0:0:
341,79,132067,1,0,0:0:0:0:
305,72,132217,1,2,0:0:0:0:
242,73,132367,2,0,L|251:126,2,45,12|0|0,0:0|0:0|0:0,0:0:0:0:
133,41,132667,6,0,B|139:106|139:106|126:128,1,90,2|0,0:0|0:0,0:0:0:0:
109,213,132967,1,12,0:0:0:0:
166,242,133117,1,0,0:0:0:0:
236,260,133267,1,0,0:0:0:0:
302,264,133417,1,2,0:0:0:0:
372,244,133567,1,12,0:0:0:0:
429,182,133717,1,0,0:0:0:0:
321,156,133867,6,0,P|265:173|220:168,1,90,2|0,0:0|0:0,0:0:0:0:
171,97,134167,2,0,B|228:117|228:117|299:126,1,90,12|0,0:0|0:0,0:0:0:0:
288,34,134467,2,0,L|181:37,2,90,0|2|12,0:0|0:0|0:0,0:0:0:0:
245,85,134917,1,0,0:0:0:0:
151,117,135067,5,2,0:0:0:0:
202,143,135217,1,0,0:0:0:0:
251,151,135367,1,12,0:0:0:0:
293,141,135517,1,0,0:0:0:0:
328,118,135667,1,0,0:0:0:0:
293,198,135817,2,0,P|241:210|178:201,1,90,2|12,0:0|0:0,0:0:0:0:
256,264,136117,1,0,0:0:0:0:
121,202,136267,6,0,L|122:153,3,45,2|0|0|0,0:0|0:0|0:0|0:0,0:0:0:0:
264,268,136567,2,0,L|320:270,3,45,12|0|0|0,0:0|0:0|0:0|0:0,0:0:0:0:
249,170,136867,2,0,B|250:217|250:217|252:163|252:163|249:202,1,135.000005149842
137,137,137467,6,0,P|123:199|136:244,2,90,6|0|0,0:0|0:0|0:0,0:0:0:0:
137,73,137917,2,0,P|186:71|326:107,1,180
276,154,138367,2,0,P|221:134|190:139,1,90
244,221,138667,5,0,0:0:0:0:
326,231,138817,1,0,0:0:0:0:
244,221,138967,1,0,0:0:0:0:
314,153,139117,1,0,0:0:0:0:
209,113,139417,1,0,0:0:0:0:
172,159,139567,1,0,0:0:0:0:
155,218,139717,1,0,0:0:0:0:
226,262,139867,6,0,B|175:280|175:280|121:283,2,90,6|0|0,0:0|0:0|0:0,0:0:0:0:
237,216,140317,2,0,P|240:134|329:77,1,180
386,86,140767,1,0,0:0:0:0:
387,163,140917,1,0,0:0:0:0:
317,218,141067,5,0,0:0:0:0:
235,217,141217,1,0,0:0:0:0:
207,147,141367,2,0,B|148:162|148:162|136:203,1,90
91,234,141817,2,0,B|155:254|155:254|195:253,2,90
61,138,142267,5,6,0:0:0:0:
151,142,142417,1,0,0:0:0:0:
148,201,142567,2,0,L|256:202,1,90
245,141,143017,2,0,L|356:142,2,90
202,173,143467,5,6,0:0:0:0:
221,222,143617,1,0,0:0:0:0:
196,263,143767,2,0,P|246:275|292:275,1,90
337,221,144217,2,0,P|336:146|326:106,2,90
138,109,144667,6,0,P|196:113|224:99,1,90,6|0,0:0|0:0,0:0:0:0:
271,85,144967,2,0,P|303:118|296:158,1,90
97,225,145267,1,6,0:0:0:0:
173,232,145417,1,0,0:0:0:0:
290,250,145567,1,0,0:0:0:0:
354,253,145717,1,0,0:0:0:0:
308,303,145867,5,6,0:0:0:0:
281,313,145942,1,0,0:0:0:0:
256,313,146017,1,0,0:0:0:0:
221,318,146092,1,0,0:0:0:0:
151,306,146167,2,0,L|152:359,4,45,6|0|0|0|6,0:0|0:0|0:0|0:0|0:0,0:0:0:0:
228,154,146617,6,0,P|170:158|157:175,2,67.5000025749208,4|0|0,0:0|0:0|0:0,0:0:0:0:
230,87,147067,6,0,L|337:92,1,90,6|0,0:0|0:0,0:0:0:0:
129,146,147367,1,8,0:0:0:0:
130,206,147517,1,0,0:0:0:0:
324,286,147667,2,0,L|216:292,1,90,2|0,0:0|0:0,0:0:0:0:
432,137,147967,1,8,0:0:0:0:
431,213,148117,1,0,0:0:0:0:
297,181,148267,6,4,P|264:190|229:201,2,67.5,4|2|4,0:0|0:0|0:0,0:0:0:0:
329,176,148867,2,0,P|296:163|234:183,1,90,2|0,0:0|0:0,0:0:0:0:
99,296,149467,6,0,P|163:299|226:280,1,90,6|0,0:0|0:0,0:0:0:0:
271,251,149767,1,8,0:0:0:0:
186,202,149917,1,0,0:0:0:0:
255,133,150067,1,2,0:0:0:0:
354,131,150217,2,0,P|412:151|451:174,2,90,0|8|0,0:0|0:0|0:0,0:0:0:0:
270,226,150667,6,0,P|217:239|165:242,1,90,2|0,0:0|0:0,0:0:0:0:
210,122,150967,2,0,P|172:171|149:220,1,90,8|0,0:0|0:0,0:0:0:0:
171,298,151267,1,2,0:0:0:0:
254,353,151417,1,0,0:0:0:0:
299,275,151567,1,8,0:0:0:0:
418,217,151717,1,0,0:0:0:0:
321,167,151867,6,0,P|254:178|228:201,1,90,2|0,0:0|0:0,0:0:0:0:
181,212,152167,1,8,0:0:0:0:
65,171,152317,1,0,0:0:0:0:
124,81,152467,2,0,P|186:84|245:93,1,90,2|0,0:0|0:0,0:0:0:0:
304,104,152767,2,0,L|298:57,2,45,8|0|0,0:0|0:0|0:0,0:0:0:0:
220,152,153067,5,2,0:0:0:0:
160,193,153217,2,0,P|126:237|91:271,2,90,0|8|0,0:0|0:0|0:0,0:0:0:0:
241,258,153667,2,0,L|177:268,1,45,2|0,0:0|0:0,0:0:0:0:
345,243,153817,2,0,L|432:237,1,45
245,167,153967,2,0,L|196:168,1,45,10|0,0:0|0:0,0:0:0:0:
379,146,154117,2,0,L|438:146,1,45
384,56,154267,6,0,P|301:62|286:92,1,90,6|0,0:0|0:0,0:0:0:0:
193,70,154567,2,0,P|184:126|208:172,1,90,8|0,0:0|0:0,0:0:0:0:
285,172,154867,1,2,0:0:0:0:
353,208,155017,1,0,0:0:0:0:
309,289,155167,1,8,0:0:0:0:
205,250,155317,1,0,0:0:0:0:
224,149,155467,5,2,0:0:0:0:
145,154,155617,1,0,0:0:0:0:
131,87,155767,2,0,L|240:84,1,90,8|0,0:0|0:0,0:0:0:0:
320,92,156067,2,0,L|358:121,2,45,2|0|0,0:0|0:0|0:0,0:0:0:0:
282,153,156367,1,8,0:0:0:0:
333,193,156517,1,0,0:0:0:0:
137,113,156667,6,0,L|76:159,1,45,2|0,0:0|0:0,0:0:0:0:
177,148,156817,1,0,0:0:0:0:
145,180,156892,1,0,0:0:0:0:
231,181,156967,2,0,L|176:243,1,45,8|0,0:0|0:0,0:0:0:0:
291,224,157117,1,0,0:0:0:0:
251,261,157192,1,0,0:0:0:0:
178,273,157267,6,0,P|128:292|78:270,1,90,2|0,0:0|0:0,0:0:0:0:
90,215,157567,1,8,0:0:0:0:
127,130,157717,1,0,0:0:0:0:
221,156,157867,6,0,P|281:175|325:181,1,90,2|0,0:0|0:0,0:0:0:0:
315,112,158167,1,8,0:0:0:0:
380,137,158317,1,0,0:0:0:0:
420,208,158467,1,2,0:0:0:0:
343,203,158617,1,0,0:0:0:0:
391,273,158767,2,0,P|331:277|283:263,1,90,10|0,0:0|0:0,0:0:0:0:
154,125,159067,6,0,P|191:148|256:130,1,90,4|0,0:0|0:0,0:0:0:0:
320,133,159367,1,12,0:0:0:0:
366,176,159517,1,0,0:0:0:0:
283,192,159667,2,0,L|268:246,2,45,2|0|0,0:0|0:0|0:0,0:0:0:0:
214,145,159967,1,12,0:0:0:0:
146,172,160117,1,0,0:0:0:0:
118,95,160267,6,0,P|166:68|216:67,1,90,2|0,0:0|0:0,0:0:0:0:
296,48,160567,2,0,P|321:87|328:132,1,90,12|0,0:0|0:0,0:0:0:0:
267,193,160867,1,2,0:0:0:0:
202,202,161017,1,0,0:0:0:0:
216,266,161167,1,12,0:0:0:0:
284,258,161317,1,0,0:0:0:0:
182,48,161467,6,0,P|133:73|104:98,1,90,2|0,0:0|0:0,0:0:0:0:
146,170,161767,2,0,L|143:224,2,45,12|0|0,0:0|0:0|0:0,0:0:0:0:
81,209,162067,2,0,B|75:288|75:288|103:306,1,90,2|0,0:0|0:0,0:0:0:0:
146,309,162367,1,12,0:0:0:0:
200,298,162517,1,0,0:0:0:0:
270,62,162667,6,0,P|369:62|370:62,1,90,2|0,0:0|0:0,0:0:0:0:
366,117,162967,1,12,0:0:0:0:
271,140,163117,2,0,P|292:193|357:213,2,90,0|2|0,0:0|0:0|0:0,0:0:0:0:
306,97,163567,2,0,P|260:83|212:102,1,90,12|0,0:0|0:0,0:0:0:0:
249,148,163867,6,0,L|232:198,1,45,6|0,0:0|0:0,0:0:0:0:
151,215,164467,6,0,P|96:226|44:215,2,90,0|0|12,0:0|0:0|0:0,0:0:0:0:
151,215,164917,1,0,0:0:0:0:
167,146,165067,2,0,P|215:138|281:153,1,90,2|0,0:0|0:0,0:0:0:0:
236,226,165367,1,12,0:0:0:0:
236,226,165517,1,0,0:0:0:0:
253,285,165667,6,0,P|315:275|350:258,1,90,2|0,0:0|0:0,0:0:0:0:
371,213,165967,1,12,0:0:0:0:
356,156,166117,1,0,0:0:0:0:
317,154,166267,6,0,P|262:193|222:213,1,90,2|0,0:0|0:0,0:0:0:0:
194,246,166567,1,12,0:0:0:0:
136,215,166717,1,0,0:0:0:0:
178,147,166867,2,0,L|185:94,2,45,2|0|0,0:0|0:0|0:0,0:0:0:0:
276,164,167167,2,0,P|363:172|396:192,1,90,12|0,0:0|0:0,0:0:0:0:
315,247,167467,5,2,0:0:0:0:
211,260,167617,1,0,0:0:0:0:
260,183,167767,2,0,L|258:132,2,45,12|0|0,0:0|0:0|0:0,0:0:0:0:
167,138,168217,2,0,P|166:178|177:188,2,45,2|0|0,0:0|0:0|0:0,0:0:0:0:
201,42,168667,6,0,B|245:74|245:74|296:74,1,90,6|0,0:0|0:0,0:0:0:0:
335,124,168967,1,12,0:0:0:0:
335,124,169117,1,0,0:0:0:0:
336,203,169267,1,2,0:0:0:0:
236,231,169417,2,0,P|269:278|315:293,2,90,0|12|0,0:0|0:0|0:0,0:0:0:0:
233,85,169867,6,0,B|173:94|173:94|151:143,1,90,2|0,0:0|0:0,0:0:0:0:
142,244,170167,2,0,B|187:233|187:233|174:274,2,90,12|0|2,0:0|0:0|0:0,0:0:0:0:
122,198,170617,1,0,0:0:0:0:
178,143,170767,2,0,P|233:161|269:155,1,90,12|0,0:0|0:0,0:0:0:0:
279,81,171067,5,2,0:0:0:0:
202,93,171217,2,0,P|139:100|102:122,2,90,0|12|0,0:0|0:0|0:0,0:0:0:0:
289,148,171667,2,0,P|343:188|382:200,1,90,2|0,0:0|0:0,0:0:0:0:
306,240,171967,1,12,0:0:0:0:
232,274,172117,1,0,0:0:0:0:
178,200,172267,6,0,L|180:156,2,45,2|0|0,0:0|0:0|0:0,0:0:0:0:
106,218,172567,1,12,0:0:0:0:
174,260,172717,1,0,0:0:0:0:
246,208,172867,2,0,L|245:114,2,90,2|0|12,0:0|0:0|0:0,0:0:0:0:
246,208,173317,1,0,0:0:0:0:
307,208,173467,6,0,P|356:237|395:231,1,90,6|0,0:0|0:0,0:0:0:0:
341,306,173767,1,12,0:0:0:0:
189,307,173917,1,0,0:0:0:0:
189,307,174067,1,2,0:0:0:0:
111,237,174217,2,0,P|102:184|114:150,2,90,0|12|0,0:0|0:0|0:0,0:0:0:0:
186,214,174667,6,0,L|281:173,1,90,2|0,0:0|0:0,0:0:0:0:
357,247,174967,2,0,P|404:219|442:177,1,90,12|0,0:0|0:0,0:0:0:0:
332,84,175267,2,0,P|267:76|221:90,2,90,2|0|12,0:0|0:0|0:0,0:0:0:0:
243,80,175717,1,0,0:0:0:0:
166,114,175867,6,0,B|161:173|161:173|151:222,1,90,6|0,0:0|0:0,0:0:0:0:
124,289,176167,2,0,B|178:295|178:295|246:285,1,90,4|0,0:0|0:0,0:0:0:0:
241,201,176467,1,8,0:0:0:0:
241,136,176617,1,0,0:0:0:0:
311,140,176767,1,6,0:0:0:0:
308,208,176917,1,0,0:0:0:0:
381,141,177067,6,0,L|378:239,1,90,0|2,0:0|0:0,0:0:0:0:
367,283,177367,2,0,P|332:323|272:323,1,90,4|2,0:0|0:0,0:0:0:0:
236,232,177667,1,8,0:0:0:0:
171,275,177817,1,0,0:0:0:0:
124,224,177967,2,0,L|211:182,1,90,2|0,0:0|0:0,0:0:0:0:
147,108,178267,6,0,P|221:102|254:112,1,90,4|0,0:0|0:0,0:0:0:0:
320,128,178567,1,12,0:0:0:0:
369,181,178717,1,0,0:0:0:0:
246,178,178867,2,0,B|257:254|257:254|244:285,1,90,2|0,0:0|0:0,0:0:0:0:
114,285,179167,2,0,B|151:330|151:330|194:334,1,90,12|0,0:0|0:0,0:0:0:0:
279,325,179467,5,2,0:0:0:0:
397,331,179617,1,0,0:0:0:0:
463,254,179767,1,12,0:0:0:0:
425,170,179917,1,0,0:0:0:0:
356,136,180067,2,0,L|326:193,3,45,2|0|0|0,0:0|0:0|0:0|0:0,0:0:0:0:
291,82,180367,2,0,L|239:185,1,90,12|0,0:0|0:0,0:0:0:0:
135,203,180667,6,0,P|196:236|243:233,1,90,2|0,0:0|0:0,0:0:0:0:
181,299,180967,1,12,0:0:0:0:
218,305,181042,1,0,0:0:0:0:
248,304,181117,1,0,0:0:0:0:
285,304,181192,1,0,0:0:0:0:
36,291,181267,6,0,P|40:223|60:174,1,90,2|0,0:0|0:0,0:0:0:0:
134,138,181567,2,0,L|174:92,2,45,12|0|0,0:0|0:0|0:0,0:0:0:0:
154,258,181867,6,0,P|221:247|266:209,1,90,2|0,0:0|0:0,0:0:0:0:
206,141,182167,2,0,B|255:174|255:174|265:135,1,90,12|0,0:0|0:0,0:0:0:0:
290,95,182467,1,2,0:0:0:0:
341,132,182617,1,0,0:0:0:0:
381,188,182767,1,12,0:0:0:0:
378,256,182917,1,0,0:0:0:0:
291,247,183067,6,0,L|290:350,1,90,6|0,0:0|0:0,0:0:0:0:
199,203,183367,1,12,0:0:0:0:
105,262,183517,1,0,0:0:0:0:
97,163,183667,1,2,0:0:0:0:
182,262,183817,1,0,0:0:0:0:
172,132,183967,2,0,P|224:122|275:124,1,90,12|0,0:0|0:0,0:0:0:0:
281,218,184267,6,0,P|331:197|377:149,1,90,2|0,0:0|0:0,0:0:0:0:
421,145,184567,1,12,0:0:0:0:
421,175,184642,1,0,0:0:0:0:
421,201,184717,1,0,0:0:0:0:
418,227,184792,1,0,0:0:0:0:
346,265,184867,2,0,P|284:278|235:295,1,90,2|0,0:0|0:0,0:0:0:0:
171,274,185167,2,0,L|190:232,2,45,12|0|0,0:0|0:0|0:0,0:0:0:0:
84,134,185467,5,2,0:0:0:0:
77,169,185542,1,0,0:0:0:0:
72,197,185617,1,0,0:0:0:0:
76,219,185692,1,0,0:0:0:0:
89,242,185767,1,12,0:0:0:0:
102,252,185842,1,0,0:0:0:0:
125,271,185917,1,0,0:0:0:0:
150,283,185992,1,0,0:0:0:0:
183,294,186067,5,2,0:0:0:0:
206,296,186142,1,0,0:0:0:0:
224,300,186217,1,0,0:0:0:0:
260,308,186292,1,0,0:0:0:0:
289,307,186367,2,0,L|322:309,7,22.5,12|0|0|0|0|0|0|0,0:0|0:0|0:0|0:0|0:0|0:0|0:0|0:0,0:0:0:0:
368,231,186667,6,4,P|312:166|256:137,2,135
270,240,187267,1,2,0:0:0:0:
208,292,187867,6,0,L|106:262,1,90,4|2,0:0|0:0,0:0:0:0:
131,197,188167,2,0,L|221:229,1,90,8|2,0:0|0:0,0:0:0:0:
238,169,188467,1,2,0:0:0:0:
151,134,188617,1,2,0:0:0:0:
199,72,188767,1,8,0:0:0:0:
271,110,188917,1,2,0:0:0:0:
352,148,189067,6,0,P|364:210|349:247,1,90,2|2,0:0|0:0,0:0:0:0:
267,259,189367,2,0,L|286:310,2,45,8|0|2,0:0|0:0|0:0,0:0:0:0:
244,176,189667,1,2,0:0:0:0:
164,174,189817,1,2,0:0:0:0:
91,224,189967,1,10,0:0:0:0:
164,174,190117,1,0,0:0:0:0:
148,298,190267,6,0,P|211:288|260:258,1,90,2|2,0:0|0:0,0:0:0:0:
158,226,190567,1,8,0:0:0:0:
337,193,190717,1,2,0:0:0:0:
213,134,190867,1,2,0:0:0:0:
253,211,191017,2,0,P|291:245|338:260,2,90,2|8|2,0:0|0:0|0:0,0:0:0:0:
145,87,191467,6,0,P|87:138|75:171,1,90,2|2,0:0|0:0,0:0:0:0:
148,199,191767,2,0,P|202:188|261:163,1,90,8|2,0:0|0:0,0:0:0:0:
321,159,192067,1,2,0:0:0:0:
321,159,192217,1,2,0:0:0:0:
361,171,192292,1,2,0:0:0:0:
396,181,192367,1,10,0:0:0:0:
419,252,192517,1,0,0:0:0:0:
247,186,192667,6,0,P|246:265|225:280,1,90,4|2,0:0|0:0,0:0:0:0:
118,293,192967,2,0,P|190:313|224:310,1,90,8|2,0:0|0:0,0:0:0:0:
195,229,193267,2,0,L|162:187,2,45,2|0|2,0:0|0:0|0:0,0:0:0:0:
298,242,193567,1,8,0:0:0:0:
374,235,193717,1,2,0:0:0:0:
411,69,193867,5,2,0:0:0:0:
411,69,194017,1,2,0:0:0:0:
321,125,194167,2,0,P|371:144|427:138,2,90,8|2|2,0:0|0:0|0:0,0:0:0:0:
246,74,194617,2,0,B|205:112|206:112|206:112|205:177,2,90,2|10|0,0:0|0:0|0:0,0:0:0:0:
141,125,195067,6,0,P|137:181|144:191,1,67.5000025749208,4|0,0:0|0:0,0:0:0:0:
196,227,195367,1,0,0:0:0:0:
196,227,195517,1,0,0:0:0:0:
197,288,195667,2,0,P|231:293|281:273,1,67.5000025749208,8|0,0:0|0:0,0:0:0:0:
304,212,195967,2,0,L|293:165,2,33.7500012874604
422,127,196267,6,0,P|386:81|328:60,1,101.250003862381,2|0,0:0|0:0,0:0:0:0:
287,56,196567,1,0,0:0:0:0:
287,56,196717,1,2,0:0:0:0:
196,103,196867,2,0,P|251:134|284:135,1,67.5000025749208,8|0,0:0|0:0,0:0:0:0:
168,232,197167,1,4,0:0:0:0:
253,241,197317,1,0,0:0:0:0:
195,328,197467,6,0,L|290:338,1,90,6|2,0:0|0:0,0:0:0:0:
313,271,197767,1,8,0:0:0:0:
388,220,197917,1,2,0:0:0:0:
261,70,198067,2,0,B|216:106|216:106|206:161,1,90,2|2,0:0|0:0,0:0:0:0:
147,216,198367,2,0,B|192:230|192:230|244:226,1,90,8|2,0:0|0:0,0:0:0:0:
306,169,198667,5,2,0:0:0:0:
418,197,198817,1,2,0:0:0:0:
306,169,198967,1,8,0:0:0:0:
234,247,199117,2,0,P|255:293|298:311,2,90,2|2|2,0:0|0:0|0:0,0:0:0:0:
226,179,199567,2,0,P|139:178|119:195,1,90,10|0,0:0|0:0,0:0:0:0:
224,308,199867,6,0,P|279:294|325:272,1,90,2|2,0:0|0:0,0:0:0:0:
326,190,200167,1,8,0:0:0:0:
333,115,200317,1,2,0:0:0:0:
287,51,200467,2,0,P|226:72|211:111,1,90,2|2,0:0|0:0,0:0:0:0:
206,160,200767,1,8,0:0:0:0:
402,183,200917,1,2,0:0:0:0:
334,233,201067,6,0,P|294:277|244:282,1,90,2|2,0:0|0:0,0:0:0:0:
244,115,201367,1,8,0:0:0:0:
245,203,201517,1,2,0:0:0:0:
145,167,201667,2,0,P|98:188|29:290,1,135,2|0,0:0|0:0,0:0:0:0:
23,327,201967,2,0,P|75:330|153:323,1,90,10|0,0:0|0:0,0:0:0:0:
192,275,202267,6,0,P|244:210|281:192,1,90,2|2,0:0|0:0,0:0:0:0:
290,284,202567,2,0,P|363:284|404:271,1,90,8|2,0:0|0:0,0:0:0:0:
403,214,202867,1,2,0:0:0:0:
384,139,203017,1,2,0:0:0:0:
329,90,203167,2,0,L|283:129,2,45,8|0|2,0:0|0:0|0:0,0:0:0:0:
317,178,203467,5,2,0:0:0:0:
221,227,203617,2,0,B|226:283|226:283|261:308,2,90,2|8|2,0:0|0:0|0:0,0:0:0:0:
191,132,204067,1,2,0:0:0:0:
308,191,204217,1,2,0:0:0:0:
191,262,204367,1,10,0:0:0:0:
191,132,204517,1,0,0:0:0:0:
84,231,204667,6,0,P|137:263|184:265,1,90,2|2,0:0|0:0,0:0:0:0:
238,167,204967,1,8,0:0:0:0:
317,256,205117,1,2,0:0:0:0:
179,260,205267,1,2,0:0:0:0:
382,160,205417,1,2,0:0:0:0:
459,250,205567,1,8,0:0:0:0:
333,249,205717,1,2,0:0:0:0:
363,311,205867,5,2,0:0:0:0:
334,335,205942,1,0,0:0:0:0:
297,344,206017,1,2,0:0:0:0:
266,344,206092,1,0,0:0:0:0:
249,338,206167,5,10,0:0:0:0:
238,335,206242,1,0,0:0:0:0:
220,326,206317,1,2,0:0:0:0:
198,314,206392,1,0,0:0:0:0:
171,306,206467,2,0,P|136:279|194:277,1,135.000005149842
150,242,207067,6,0,P|210:251|282:245,1,90,6|0,0:0|0:0,0:0:0:0:
307,180,207367,1,12,0:0:0:0:
255,127,207517,1,0,0:0:0:0:
167,102,207667,2,0,P|151:178|161:206,1,90,2|0,0:0|0:0,0:0:0:0:
263,238,207967,2,0,P|327:238|365:222,1,90,12|0,0:0|0:0,0:0:0:0:
425,138,208267,6,0,L|425:80,1,45,2|0,0:0|0:0,0:0:0:0:
426,212,208417,2,0,L|426:260,1,45
354,144,208567,2,0,L|356:95,1,45,12|0,0:0|0:0,0:0:0:0:
351,218,208717,2,0,L|349:276,1,45
275,156,208867,2,0,L|275:104,1,45,2|0,0:0|0:0,0:0:0:0:
275,227,209017,2,0,L|276:284,1,45
203,163,209167,2,0,L|201:114,1,45,12|0,0:0|0:0,0:0:0:0:
205,240,209317,2,0,L|208:291,1,45
50,163,209467,6,0,P|71:227|115:224,1,90,2|0,0:0|0:0,0:0:0:0:
165,198,209767,1,12,0:0:0:0:
216,152,209917,1,0,0:0:0:0:
290,163,210067,1,2,0:0:0:0:
326,223,210217,1,0,0:0:0:0:
276,278,210367,1,12,0:0:0:0:
357,256,210517,1,0,0:0:0:0:
328,316,210667,6,0,L|277:345,7,45,2|0|0|0|12|0|0|0,0:0|0:0|0:0|0:0|0:0|0:0|0:0|0:0,0:0:0:0:
216,331,211267,2,0,P|154:323|113:290,1,90,2|0,0:0|0:0,0:0:0:0:
161,221,211567,1,12,0:0:0:0:
249,250,211717,1,0,0:0:0:0:
326,268,211867,6,0,P|378:237|411:181,1,90,2|0,0:0|0:0,0:0:0:0:
379,116,212167,2,0,B|347:160|347:161|346:161|346:161|279:188,1,90,12|0,0:0|0:0,0:0:0:0:
235,91,212467,2,0,L|146:104,1,90,2|0,0:0|0:0,0:0:0:0:
99,181,212767,1,12,0:0:0:0:
184,222,212917,1,0,0:0:0:0:
91,323,213067,6,0,P|138:332|197:327,1,90,2|0,0:0|0:0,0:0:0:0:
215,241,213367,2,0,P|267:254|302:247,1,90,12|0,0:0|0:0,0:0:0:0:
118,150,213667,5,2,0:0:0:0:
121,100,213742,1,0,0:0:0:0:
115,226,213817,1,0,0:0:0:0:
116,283,213892,1,0,0:0:0:0:
212,158,213967,1,12,0:0:0:0:
213,103,214042,1,0,0:0:0:0:
211,230,214117,1,0,0:0:0:0:
210,284,214192,1,0,0:0:0:0:
305,199,214267,5,2,0:0:0:0:
360,153,214417,1,0,0:0:0:0:
301,113,214567,2,0,L|301:60,2,45,12|0|0,0:0|0:0|0:0,0:0:0:0:
246,155,214867,1,2,0:0:0:0:
349,211,215017,1,0,0:0:0:0:
276,283,215167,1,12,0:0:0:0:
246,155,215317,1,0,0:0:0:0:
104,180,215467,6,0,P|128:259|143:262,1,90,2|0,0:0|0:0,0:0:0:0:
352,163,215767,2,0,P|385:209|392:254,1,90,12|0,0:0|0:0,0:0:0:0:
196,202,216067,1,2,0:0:0:0:
242,258,216217,1,0,0:0:0:0:
289,193,216367,1,12,0:0:0:0:
308,210,216442,1,0,0:0:0:0:
335,227,216517,1,0,0:0:0:0:
361,237,216592,1,0,0:0:0:0:
330,285,216667,6,0,P|277:313|223:315,1,90,4|0,0:0|0:0,0:0:0:0:
235,222,216967,2,0,P|198:266|186:303,1,90,12|0,0:0|0:0,0:0:0:0:
118,265,217267,2,0,L|95:217,2,45,2|0|0,0:0|0:0|0:0,0:0:0:0:
221,273,217567,1,12,0:0:0:0:
330,269,217717,1,0,0:0:0:0:
291,193,217867,6,0,L|290:122,1,45,2|0,0:0|0:0,0:0:0:0:
337,71,218017,2,0,L|336:120,1,45
378,192,218167,1,12,0:0:0:0:
376,142,218242,1,0,0:0:0:0:
432,72,218317,1,0,0:0:0:0:
432,128,218392,1,0,0:0:0:0:
368,252,218467,6,0,P|336:298|293:316,1,90,2|0,0:0|0:0,0:0:0:0:
256,237,218767,1,12,0:0:0:0:
219,238,218917,1,0,0:0:0:0:
100,196,219067,6,0,P|99:253|122:281,1,90,2|0,0:0|0:0,0:0:0:0:
181,301,219367,2,0,B|176:240|176:240|146:177,1,90,12|0,0:0|0:0,0:0:0:0:
161,183,219667,1,2,0:0:0:0:
191,174,219742,1,0,0:0:0:0:
202,183,219817,1,0,0:0:0:0:
210,202,219892,1,0,0:0:0:0:
219,232,219967,2,0,P|275:233|321:214,1,90,12|0,0:0|0:0,0:0:0:0:
325,103,220267,6,0,B|367:156|367:156|387:199,1,90,2|0,0:0|0:0,0:0:0:0:
332,257,220567,2,0,B|295:258|295:258|271:229|271:229|230:228,1,90,12|0,0:0|0:0,0:0:0:0:
205,275,220867,1,2,0:0:0:0:
148,273,221017,1,0,0:0:0:0:
123,221,221167,1,12,0:0:0:0:
66,221,221317,1,0,0:0:0:0:
67,108,221467,6,0,P|119:97|164:110,1,90,2|0,0:0|0:0,0:0:0:0:
179,127,221767,1,12,0:0:0:0:
192,142,221842,1,0,0:0:0:0:
216,144,221917,1,0,0:0:0:0:
264,94,222067,2,0,P|311:113|340:153,1,90,2|0,0:0|0:0,0:0:0:0:
272,185,222367,2,0,L|271:249,2,45,12|0|0,0:0|0:0|0:0,0:0:0:0:
178,275,222667,6,0,P|231:302|263:303,1,90,2|0,0:0|0:0,0:0:0:0:
326,257,222967,2,0,B|325:318|325:318|325:261,1,90,12|0,0:0|0:0,0:0:0:0:
354,174,223267,1,2,0:0:0:0:
319,185,223342,1,0,0:0:0:0:
291,196,223417,1,0,0:0:0:0:
276,194,223492,1,0,0:0:0:0:
251,195,223567,2,0,L|195:181,3,45,12|0|0|0,0:0|0:0|0:0|0:0,0:0:0:0:
127,189,223867,6,0,P|166:123|204:114,1,90,2|0,0:0|0:0,0:0:0:0:
266,147,224167,1,12,0:0:0:0:
215,213,224317,1,0,0:0:0:0:
256,235,224467,2,0,P|314:232|365:208,1,90,2|0,0:0|0:0,0:0:0:0:
396,151,224767,1,12,0:0:0:0:
422,223,224917,1,0,0:0:0:0:
334,304,225067,5,2,0:0:0:0:
301,308,225142,1,0,0:0:0:0:
270,312,225217,1,0,0:0:0:0:
251,314,225292,1,0,0:0:0:0:
218,310,225367,2,0,L|171:308,3,45,12|0|0|0,0:0|0:0|0:0|0:0,0:0:0:0:
116,271,225667,2,0,P|159:231|200:229,2,90,4|0|0,0:0|0:0|0:0,0:0:0:0:
108,148,226267,6,0,P|187:109|278:100,1,180,4|2,0:0|0:0,0:0:0:0:
155,183,226867,2,0,P|174:244|205:254,1,90,0|2,0:0|0:0,0:0:0:0:
266,247,227167,1,2,0:0:0:0:
304,175,227317,1,0,0:0:0:0:
377,136,227467,5,0,0:0:0:0:
380,200,227617,1,2,0:0:0:0:
369,272,227767,2,0,P|327:315|294:322,1,90,0|2,0:0|0:0,0:0:0:0:
262,209,228067,2,0,L|207:218,1,45
321,193,228217,2,0,L|367:175,1,45
287,133,228367,2,0,P|256:85|220:57,1,90,2|0,0:0|0:0,0:0:0:0:
116,140,228667,6,0,P|117:202|142:224,1,90
170,171,228967,2,0,P|221:169|276:189,1,90,2|2,0:0|0:0,0:0:0:0:
241,270,229267,2,0,P|299:259|346:225,1,90,0|2,0:0|0:0,0:0:0:0:
371,211,229567,1,2,0:0:0:0:
384,200,229642,1,0,0:0:0:0:
401,180,229717,1,0,0:0:0:0:
404,173,229792,1,0,0:0:0:0:
337,79,229867,6,0,P|322:140|295:176,1,90,0|2,0:0|0:0,0:0:0:0:
196,151,230167,2,0,P|228:220|261:232,1,90,0|2,0:0|0:0,0:0:0:0:
325,235,230467,1,0,0:0:0:0:
302,263,230542,1,0,0:0:0:0:
274,284,230617,1,0,0:0:0:0:
246,306,230692,1,0,0:0:0:0:
215,314,230767,2,0,P|167:313|121:293,1,90,0|2,0:0|0:0,0:0:0:0:
122,163,231067,6,0,P|173:131|232:112,3,90,0|2|2|0,0:0|0:0|0:0|0:0,0:0:0:0:
263,87,231667,2,0,P|293:163|320:160,1,90,0|2,0:0|0:0,0:0:0:0:
368,118,231967,1,2,0:0:0:0:
366,183,232117,1,0,0:0:0:0:
266,220,232267,5,0,0:0:0:0:
192,252,232417,1,2,0:0:0:0:
159,322,232567,2,0,L|221:317,2,45,0|0|2,0:0|0:0|0:0,0:0:0:0:
107,246,232867,1,0,0:0:0:0:
111,157,233017,1,0,0:0:0:0:
169,107,233167,1,0,0:0:0:0:
196,107,233242,1,0,0:0:0:0:
226,120,233317,1,2,0:0:0:0:
250,129,233392,1,0,0:0:0:0:
210,177,233467,6,0,P|278:182|326:165,1,90,0|2,0:0|0:0,0:0:0:0:
376,155,233767,1,2,0:0:0:0:
378,195,233917,1,0,0:0:0:0:
174,236,234067,2,0,B|184:293|184:293|249:303,1,90,0|2,0:0|0:0,0:0:0:0:
345,238,234367,2,0,P|327:288|268:292,1,90,2|0,0:0|0:0,0:0:0:0:
120,153,234667,5,12,0:0:0:0:
157,112,234742,1,0,0:0:0:0:
203,89,234817,1,2,0:0:0:0:
235,77,234892,1,0,0:0:0:0:
280,76,234967,1,12,0:0:0:0:
326,90,235042,1,0,0:0:0:0:
362,110,235117,1,2,0:0:0:0:
391,150,235192,1,0,0:0:0:0:
253,190,235417,5,4,0:0:0:0:
