osu file format v14

[General]
AudioFilename: audio.mp3
AudioLeadIn: 0
PreviewTime: -1
Countdown: 0
SampleSet: Soft
StackLeniency: 0.7
Mode: 3
LetterboxInBreaks: 0
SpecialStyle: 1
WidescreenStoryboard: 0

[Editor]
DistanceSpacing: 0.9
BeatDivisor: 4
GridSize: 4
TimelineZoom: 1.4

[Metadata]
Title:Dynamite (Extended Mix)
TitleUnicode:Dynamite (Extended Mix)
Artist:USAO
ArtistUnicode:USAO
Creator:[Emiria]
Version:Hard
Source:beatmania IIDX
Tags:
BeatmapID:1081663
BeatmapSetID:508623

[Difficulty]
HPDrainRate:8
CircleSize:8
OverallDifficulty:8
ApproachRate:5
SliderMultiplier:1.4
SliderTickRate:1

[Events]
//Background and Video events
0,0,"86624d415e81c98da6925e17fc20b545.jpg",0,0
//Break Periods
2,118471,136271
2,148921,153071
2,178471,186071
//Storyboard Layer 0 (Background)
//Storyboard Layer 1 (Fail)
//Storyboard Layer 2 (Pass)
//Storyboard Layer 3 (Foreground)
//Storyboard Sound Samples

[TimingPoints]
2055,300,4,2,0,5,1,0
54856,299.25187032419,4,2,0,5,1,0
55455,298.507462686567,4,2,0,5,1,0
56052,297.766749379653,4,2,0,5,1,0
56647,297.029702970297,4,2,0,5,1,0
57241,296.296296296296,4,2,0,5,1,0
57833,295.566502463054,4,2,0,5,1,0
58424,294.840294840295,4,2,0,5,1,0
59013,294.117647058824,4,2,0,5,1,0
59601,293.398533007335,4,2,0,5,1,0
60187,292.682926829268,4,2,0,5,1,0
60772,291.970802919708,4,2,0,5,1,0
61355,291.26213592233,4,2,0,5,1,0
61937,290.556900726392,4,2,0,5,1,0
62518,289.855072463768,4,2,0,5,1,0
63097,289.156626506024,4,2,0,5,1,0
63675,288.461538461538,4,2,0,5,1,0
64251,287.081339712919,4,2,0,5,1,0
64815,286.396181384248,4,2,0,5,1,0
65387,285.714285714286,4,2,0,5,1,0
65958,285.035629453682,4,2,0,5,1,0
66528,283.687943262411,4,2,0,5,1,0
67095,283.018867924528,4,2,0,5,1,0
67661,282.352941176471,4,2,0,5,1,0
68225,281.69014084507,4,2,0,5,1,0
68787,280.373831775701,4,2,0,5,1,0
69346,279.72027972028,4,2,0,5,1,0
69904,278.422273781903,4,2,0,5,1,0
70459,277.777777777778,4,2,0,5,1,0
71013,277.777777777778,4,2,0,5,1,0
108790,284.36018957346,4,2,0,5,1,0
109927,292.682926829268,4,2,0,5,1,0
111096,295.566502463054,4,2,0,5,1,0
112277,298.507462686567,4,2,0,5,1,0
113471,300,4,2,0,5,1,0

[HitObjects]
32,192,2055,5,0,0:0:0:0:
96,192,2055,1,0,0:0:0:0:
224,192,2055,1,0,0:0:0:0:
480,192,2055,1,0,0:0:0:0:
288,192,2355,1,0,0:0:0:0:
160,192,2505,1,0,0:0:0:0:
96,192,2655,1,0,0:0:0:0:
480,192,2655,1,0,0:0:0:0:
352,192,2655,1,0,0:0:0:0:
224,192,2955,1,0,0:0:0:0:
352,192,3405,1,0,0:0:0:0:
32,192,3705,1,0,0:0:0:0:
352,192,3705,1,0,0:0:0:0:
32,192,3855,1,0,0:0:0:0:
96,192,3855,1,0,0:0:0:0:
480,192,3855,1,0,0:0:0:0:
32,192,4005,1,0,0:0:0:0:
32,192,4155,1,0,0:0:0:0:
96,192,4455,1,0,0:0:0:0:
224,192,4455,1,0,0:0:0:0:
416,192,4455,1,0,0:0:0:0:
352,192,4755,1,0,0:0:0:0:
32,192,4755,1,0,0:0:0:0:
352,192,4905,1,0,0:0:0:0:
32,192,4905,1,0,0:0:0:0:
32,192,5055,1,0,0:0:0:0:
96,192,5055,1,0,0:0:0:0:
480,192,5055,1,0,0:0:0:0:
32,192,5355,1,0,0:0:0:0:
224,192,5355,1,0,0:0:0:0:
32,192,5505,1,0,0:0:0:0:
32,192,5655,1,0,0:0:0:0:
96,192,5805,1,0,0:0:0:0:
32,192,5955,1,0,0:0:0:0:
352,192,6105,1,0,0:0:0:0:
32,192,6255,1,0,0:0:0:0:
96,192,6255,1,0,0:0:0:0:
480,192,6255,1,0,0:0:0:0:
32,192,6555,1,0,0:0:0:0:
352,192,6555,1,0,0:0:0:0:
96,192,6855,1,0,0:0:0:0:
288,192,6855,1,0,0:0:0:0:
416,192,6855,1,0,0:0:0:0:
32,192,7155,1,0,0:0:0:0:
32,192,7305,1,0,0:0:0:0:
224,192,7305,1,0,0:0:0:0:
32,192,7455,1,0,0:0:0:0:
96,192,7455,1,0,0:0:0:0:
480,192,7455,1,0,0:0:0:0:
32,192,7605,1,0,0:0:0:0:
224,192,7755,1,0,0:0:0:0:
32,192,7905,1,0,0:0:0:0:
32,192,8205,1,0,0:0:0:0:
224,192,8205,1,0,0:0:0:0:
32,192,8505,1,0,0:0:0:0:
288,192,8505,1,0,0:0:0:0:
32,192,8655,1,0,0:0:0:0:
96,192,8655,1,0,0:0:0:0:
480,192,8655,1,0,0:0:0:0:
32,192,8805,1,0,0:0:0:0:
32,192,8955,1,0,0:0:0:0:
288,192,8955,1,0,0:0:0:0:
96,192,9255,1,0,0:0:0:0:
224,192,9255,1,0,0:0:0:0:
416,192,9255,1,0,0:0:0:0:
32,192,9555,1,0,0:0:0:0:
32,192,9705,1,0,0:0:0:0:
32,192,9855,1,0,0:0:0:0:
224,192,9855,1,0,0:0:0:0:
480,192,9855,1,0,0:0:0:0:
32,192,10155,1,0,0:0:0:0:
96,192,10155,1,0,0:0:0:0:
32,192,10305,1,0,0:0:0:0:
32,192,10455,1,0,0:0:0:0:
352,192,10605,1,0,0:0:0:0:
32,192,10755,1,0,0:0:0:0:
352,192,10905,1,0,0:0:0:0:
32,192,11055,1,0,0:0:0:0:
160,192,11205,1,0,0:0:0:0:
32,192,11355,1,0,0:0:0:0:
416,192,11355,1,0,0:0:0:0:
288,192,11505,1,0,0:0:0:0:
32,192,11655,1,0,0:0:0:0:
480,192,11655,1,0,0:0:0:0:
96,192,11655,1,0,0:0:0:0:
224,192,11655,1,0,0:0:0:0:
288,192,11805,1,0,0:0:0:0:
32,192,11955,1,0,0:0:0:0:
416,192,11955,1,0,0:0:0:0:
32,192,12105,1,0,0:0:0:0:
32,192,12255,1,0,0:0:0:0:
96,192,12255,1,0,0:0:0:0:
352,192,12255,1,0,0:0:0:0:
32,192,12555,1,0,0:0:0:0:
224,192,12555,1,0,0:0:0:0:
32,192,12705,1,0,0:0:0:0:
32,192,12855,1,0,0:0:0:0:
224,192,13005,1,0,0:0:0:0:
32,192,13155,1,0,0:0:0:0:
224,192,13305,1,0,0:0:0:0:
32,192,13455,1,0,0:0:0:0:
352,192,13455,1,0,0:0:0:0:
480,192,13455,1,0,0:0:0:0:
32,192,13755,1,0,0:0:0:0:
224,192,13755,1,0,0:0:0:0:
224,192,13905,1,0,0:0:0:0:
224,192,14055,1,0,0:0:0:0:
480,192,14055,1,0,0:0:0:0:
32,192,14355,1,0,0:0:0:0:
352,192,14355,1,0,0:0:0:0:
32,192,14505,1,0,0:0:0:0:
224,192,14505,1,0,0:0:0:0:
32,192,14655,1,0,0:0:0:0:
96,192,14655,1,0,0:0:0:0:
480,192,14655,1,0,0:0:0:0:
32,192,14955,1,0,0:0:0:0:
160,192,14955,1,0,0:0:0:0:
416,192,14955,1,0,0:0:0:0:
32,192,15105,1,0,0:0:0:0:
32,192,15255,1,0,0:0:0:0:
288,192,15255,1,0,0:0:0:0:
96,192,15405,1,0,0:0:0:0:
32,192,15555,1,0,0:0:0:0:
224,192,15555,1,0,0:0:0:0:
352,192,15705,1,0,0:0:0:0:
32,192,15855,1,0,0:0:0:0:
160,192,15855,1,0,0:0:0:0:
480,192,15855,1,0,0:0:0:0:
416,192,16005,1,0,0:0:0:0:
32,192,16155,1,0,0:0:0:0:
96,192,16155,1,0,0:0:0:0:
352,192,16155,1,0,0:0:0:0:
224,192,16305,1,0,0:0:0:0:
32,192,16455,1,0,0:0:0:0:
352,192,16455,1,0,0:0:0:0:
32,192,16605,1,0,0:0:0:0:
32,192,16755,1,0,0:0:0:0:
416,192,16755,1,0,0:0:0:0:
32,192,16905,1,0,0:0:0:0:
96,192,16905,1,0,0:0:0:0:
32,192,17055,1,0,0:0:0:0:
224,192,17055,1,0,0:0:0:0:
352,192,17055,1,0,0:0:0:0:
32,192,17355,1,0,0:0:0:0:
480,192,17355,1,0,0:0:0:0:
96,192,17355,1,0,0:0:0:0:
32,192,17505,1,0,0:0:0:0:
480,192,17505,1,0,0:0:0:0:
32,192,17655,1,0,0:0:0:0:
480,192,17655,1,0,0:0:0:0:
96,192,17805,1,0,0:0:0:0:
32,192,17955,1,0,0:0:0:0:
416,192,17955,1,0,0:0:0:0:
96,192,18105,1,0,0:0:0:0:
32,192,18255,1,0,0:0:0:0:
352,192,18255,1,0,0:0:0:0:
160,192,18255,1,0,0:0:0:0:
480,192,18255,1,0,0:0:0:0:
224,192,18405,1,0,0:0:0:0:
32,192,18555,1,0,0:0:0:0:
288,192,18555,1,0,0:0:0:0:
416,192,18555,1,0,0:0:0:0:
224,192,18705,1,0,0:0:0:0:
352,192,18855,1,0,0:0:0:0:
96,192,18855,1,0,0:0:0:0:
224,192,19005,1,0,0:0:0:0:
32,192,19155,1,0,0:0:0:0:
480,192,19155,1,0,0:0:0:0:
96,192,19155,1,0,0:0:0:0:
32,192,19305,1,0,0:0:0:0:
480,192,19305,1,0,0:0:0:0:
288,192,19305,1,0,0:0:0:0:
32,192,19455,1,0,0:0:0:0:
480,192,19455,1,0,0:0:0:0:
160,192,19455,1,0,0:0:0:0:
288,192,19605,1,0,0:0:0:0:
32,192,19755,1,0,0:0:0:0:
96,192,19755,1,0,0:0:0:0:
416,192,19755,1,0,0:0:0:0:
32,192,19905,1,0,0:0:0:0:
480,192,19905,1,0,0:0:0:0:
224,192,19905,1,0,0:0:0:0:
32,192,20055,1,0,0:0:0:0:
96,192,20055,1,0,0:0:0:0:
352,192,20055,1,0,0:0:0:0:
288,192,20130,1,0,0:0:0:0:
224,192,20205,1,0,0:0:0:0:
480,192,20205,1,0,0:0:0:0:
160,192,20280,1,0,0:0:0:0:
32,192,20355,1,0,0:0:0:0:
96,192,20355,1,0,0:0:0:0:
480,192,20355,1,0,0:0:0:0:
352,192,20430,1,0,0:0:0:0:
160,192,20505,1,0,0:0:0:0:
288,192,20505,1,0,0:0:0:0:
352,192,20580,1,0,0:0:0:0:
32,192,20655,1,0,0:0:0:0:
224,192,20655,1,0,0:0:0:0:
96,192,20655,1,0,0:0:0:0:
480,192,20655,1,0,0:0:0:0:
32,192,21255,1,0,0:0:0:0:
96,192,21255,1,0,0:0:0:0:
224,192,21255,1,0,0:0:0:0:
352,192,21255,1,0,0:0:0:0:
480,192,21255,1,0,0:0:0:0:
96,192,21555,1,0,0:0:0:0:
416,192,21855,1,0,0:0:0:0:
96,192,21855,1,0,0:0:0:0:
416,192,22155,1,0,0:0:0:0:
224,192,22155,1,0,0:0:0:0:
416,192,22305,1,0,0:0:0:0:
160,192,22305,1,0,0:0:0:0:
288,192,22455,1,0,0:0:0:0:
96,192,22455,1,0,0:0:0:0:
288,192,22605,1,0,0:0:0:0:
416,192,22755,1,0,0:0:0:0:
96,192,22755,1,0,0:0:0:0:
416,192,22905,1,0,0:0:0:0:
288,192,23055,1,0,0:0:0:0:
96,192,23055,1,0,0:0:0:0:
288,192,23205,1,0,0:0:0:0:
416,192,23355,1,0,0:0:0:0:
96,192,23355,1,0,0:0:0:0:
352,192,23505,1,0,0:0:0:0:
96,192,23505,1,0,0:0:0:0:
288,192,23655,1,0,0:0:0:0:
96,192,23655,1,0,0:0:0:0:
480,192,23655,1,0,0:0:0:0:
416,192,23655,1,0,0:0:0:0:
224,192,23805,1,0,0:0:0:0:
96,192,23955,1,0,0:0:0:0:
224,192,24105,1,0,0:0:0:0:
416,192,24105,1,0,0:0:0:0:
96,192,24255,1,0,0:0:0:0:
224,192,24405,1,0,0:0:0:0:
480,192,24405,1,0,0:0:0:0:
480,192,24555,1,0,0:0:0:0:
96,192,24555,1,0,0:0:0:0:
224,192,24705,1,0,0:0:0:0:
416,192,24705,1,0,0:0:0:0:
96,192,24855,1,0,0:0:0:0:
416,192,24855,1,0,0:0:0:0:
160,192,24930,1,0,0:0:0:0:
480,192,25005,1,0,0:0:0:0:
288,192,25005,1,0,0:0:0:0:
96,192,25080,1,0,0:0:0:0:
480,192,25155,1,0,0:0:0:0:
160,192,25155,1,0,0:0:0:0:
288,192,25230,1,0,0:0:0:0:
416,192,25305,1,0,0:0:0:0:
96,192,25305,1,0,0:0:0:0:
160,192,25380,1,0,0:0:0:0:
416,192,25455,1,0,0:0:0:0:
288,192,25455,1,0,0:0:0:0:
352,192,25605,1,0,0:0:0:0:
288,192,25755,1,0,0:0:0:0:
224,192,25905,1,0,0:0:0:0:
32,192,26055,1,0,0:0:0:0:
160,192,26055,1,0,0:0:0:0:
96,192,26055,1,0,0:0:0:0:
352,192,26055,1,0,0:0:0:0:
480,192,26055,1,0,0:0:0:0:
288,192,26205,1,0,0:0:0:0:
416,192,26355,1,0,0:0:0:0:
96,192,26655,1,0,0:0:0:0:
480,192,26655,1,0,0:0:0:0:
288,192,26655,1,0,0:0:0:0:
96,192,26955,1,0,0:0:0:0:
416,192,27105,1,0,0:0:0:0:
288,192,27255,1,0,0:0:0:0:
96,192,27405,1,0,0:0:0:0:
288,192,27555,1,0,0:0:0:0:
96,192,27705,1,0,0:0:0:0:
96,192,27855,1,0,0:0:0:0:
416,192,27855,1,0,0:0:0:0:
224,192,27855,1,0,0:0:0:0:
288,192,28005,1,0,0:0:0:0:
416,192,28155,1,0,0:0:0:0:
288,192,28305,1,0,0:0:0:0:
96,192,28455,1,0,0:0:0:0:
160,192,28605,1,0,0:0:0:0:
416,192,28755,1,0,0:0:0:0:
160,192,28905,1,0,0:0:0:0:
96,192,29055,1,0,0:0:0:0:
416,192,29055,1,0,0:0:0:0:
480,192,29055,1,0,0:0:0:0:
288,192,29205,1,0,0:0:0:0:
96,192,29355,1,0,0:0:0:0:
288,192,29505,1,0,0:0:0:0:
416,192,29655,1,0,0:0:0:0:
96,192,29805,1,0,0:0:0:0:
288,192,29955,1,0,0:0:0:0:
96,192,30105,1,0,0:0:0:0:
416,192,30255,1,0,0:0:0:0:
96,192,30255,1,0,0:0:0:0:
224,192,30255,1,0,0:0:0:0:
352,192,30405,1,0,0:0:0:0:
224,192,30555,1,0,0:0:0:0:
288,192,30630,1,0,0:0:0:0:
352,192,30705,1,0,0:0:0:0:
416,192,30780,1,0,0:0:0:0:
32,192,30855,1,0,0:0:0:0:
96,192,30855,1,0,0:0:0:0:
224,192,30855,1,0,0:0:0:0:
352,192,30855,1,0,0:0:0:0:
480,192,30855,1,0,0:0:0:0:
288,192,31005,1,0,0:0:0:0:
160,192,31155,1,0,0:0:0:0:
96,192,31305,1,0,0:0:0:0:
96,192,31455,1,0,0:0:0:0:
480,192,31455,1,0,0:0:0:0:
288,192,31455,1,0,0:0:0:0:
96,192,31755,1,0,0:0:0:0:
288,192,31905,1,0,0:0:0:0:
416,192,32055,1,0,0:0:0:0:
96,192,32205,1,0,0:0:0:0:
352,192,32355,1,0,0:0:0:0:
96,192,32505,1,0,0:0:0:0:
96,192,32655,1,0,0:0:0:0:
480,192,32655,1,0,0:0:0:0:
224,192,32655,1,0,0:0:0:0:
160,192,32805,1,0,0:0:0:0:
288,192,32805,1,0,0:0:0:0:
224,192,32955,1,0,0:0:0:0:
352,192,32955,1,0,0:0:0:0:
288,192,33105,1,0,0:0:0:0:
416,192,33105,1,0,0:0:0:0:
32,192,33255,1,0,0:0:0:0:
96,192,33255,1,0,0:0:0:0:
160,192,33255,1,0,0:0:0:0:
352,192,33255,1,0,0:0:0:0:
480,192,33255,128,0,33555:0:0:0:0:
288,192,33555,128,0,33855:0:0:0:0:
96,192,33855,1,0,0:0:0:0:
224,192,33855,1,0,0:0:0:0:
352,192,34005,1,0,0:0:0:0:
96,192,34155,1,0,0:0:0:0:
288,192,34155,1,0,0:0:0:0:
416,192,34305,128,0,34755:0:0:0:0:
96,192,34605,1,0,0:0:0:0:
288,192,34755,1,0,0:0:0:0:
480,192,34905,128,0,35355:0:0:0:0:
96,192,34905,1,0,0:0:0:0:
96,192,35055,1,0,0:0:0:0:
224,192,35055,1,0,0:0:0:0:
352,192,35355,1,0,0:0:0:0:
288,192,35430,1,0,0:0:0:0:
224,192,35505,1,0,0:0:0:0:
160,192,35580,1,0,0:0:0:0:
32,192,35655,1,0,0:0:0:0:
96,192,35655,1,0,0:0:0:0:
352,192,35655,1,0,0:0:0:0:
480,192,35655,1,0,0:0:0:0:
288,192,35655,1,0,0:0:0:0:
32,192,35955,1,0,0:0:0:0:
416,192,35955,1,0,0:0:0:0:
96,192,36255,1,0,0:0:0:0:
352,192,36255,1,0,0:0:0:0:
480,192,36255,1,0,0:0:0:0:
32,192,36555,1,0,0:0:0:0:
96,192,36555,1,0,0:0:0:0:
224,192,36555,1,0,0:0:0:0:
352,192,36705,1,0,0:0:0:0:
480,192,36855,1,0,0:0:0:0:
96,192,37005,1,0,0:0:0:0:
32,192,37155,1,0,0:0:0:0:
288,192,37155,1,0,0:0:0:0:
96,192,37305,1,0,0:0:0:0:
96,192,37455,1,0,0:0:0:0:
480,192,37455,1,0,0:0:0:0:
224,192,37455,1,0,0:0:0:0:
352,192,37605,1,0,0:0:0:0:
288,192,37605,1,0,0:0:0:0:
32,192,37755,1,0,0:0:0:0:
416,192,37755,1,0,0:0:0:0:
160,192,37755,1,0,0:0:0:0:
352,192,37905,1,0,0:0:0:0:
224,192,37905,1,0,0:0:0:0:
96,192,38055,1,0,0:0:0:0:
480,192,38055,1,0,0:0:0:0:
416,192,38055,1,0,0:0:0:0:
32,192,38355,1,0,0:0:0:0:
224,192,38355,1,0,0:0:0:0:
96,192,38655,1,0,0:0:0:0:
288,192,38655,1,0,0:0:0:0:
480,192,38655,1,0,0:0:0:0:
32,192,38955,1,0,0:0:0:0:
96,192,38955,1,0,0:0:0:0:
416,192,38955,1,0,0:0:0:0:
352,192,39105,1,0,0:0:0:0:
288,192,39255,1,0,0:0:0:0:
96,192,39405,1,0,0:0:0:0:
32,192,39555,1,0,0:0:0:0:
416,192,39555,1,0,0:0:0:0:
96,192,39705,1,0,0:0:0:0:
96,192,39855,1,0,0:0:0:0:
352,192,39855,1,0,0:0:0:0:
480,192,39855,1,0,0:0:0:0:
416,192,40005,1,0,0:0:0:0:
288,192,40005,1,0,0:0:0:0:
32,192,40155,1,0,0:0:0:0:
352,192,40155,1,0,0:0:0:0:
224,192,40155,1,0,0:0:0:0:
160,192,40305,1,0,0:0:0:0:
288,192,40305,1,0,0:0:0:0:
32,192,40455,1,0,0:0:0:0:
96,192,40455,1,0,0:0:0:0:
224,192,40455,1,0,0:0:0:0:
480,192,40455,1,0,0:0:0:0:
416,192,40605,1,0,0:0:0:0:
160,192,40755,1,0,0:0:0:0:
352,192,40905,1,0,0:0:0:0:
96,192,41055,1,0,0:0:0:0:
224,192,41055,1,0,0:0:0:0:
96,192,41205,1,0,0:0:0:0:
288,192,41205,1,0,0:0:0:0:
32,192,41355,1,0,0:0:0:0:
224,192,41355,1,0,0:0:0:0:
480,192,41355,1,0,0:0:0:0:
96,192,41505,1,0,0:0:0:0:
352,192,41505,1,0,0:0:0:0:
480,192,41505,1,0,0:0:0:0:
480,192,41655,1,0,0:0:0:0:
160,192,41655,1,0,0:0:0:0:
224,192,41805,1,0,0:0:0:0:
352,192,41805,1,0,0:0:0:0:
32,192,41955,1,0,0:0:0:0:
160,192,41955,1,0,0:0:0:0:
480,192,41955,1,0,0:0:0:0:
416,192,42105,1,0,0:0:0:0:
224,192,42105,1,0,0:0:0:0:
96,192,42255,1,0,0:0:0:0:
288,192,42255,1,0,0:0:0:0:
480,192,42255,1,0,0:0:0:0:
352,192,42405,1,0,0:0:0:0:
160,192,42405,1,0,0:0:0:0:
32,192,42555,1,0,0:0:0:0:
224,192,42555,1,0,0:0:0:0:
480,192,42555,1,0,0:0:0:0:
416,192,42705,1,0,0:0:0:0:
160,192,42705,1,0,0:0:0:0:
96,192,42855,1,0,0:0:0:0:
352,192,42855,1,0,0:0:0:0:
480,192,42855,1,0,0:0:0:0:
224,192,43005,1,0,0:0:0:0:
416,192,43155,1,0,0:0:0:0:
160,192,43155,1,0,0:0:0:0:
288,192,43305,1,0,0:0:0:0:
96,192,43455,1,0,0:0:0:0:
480,192,43455,1,0,0:0:0:0:
224,192,43455,1,0,0:0:0:0:
96,192,43605,1,0,0:0:0:0:
288,192,43605,1,0,0:0:0:0:
416,192,43605,1,0,0:0:0:0:
352,192,43755,1,0,0:0:0:0:
224,192,43755,1,0,0:0:0:0:
96,192,43905,1,0,0:0:0:0:
288,192,43905,1,0,0:0:0:0:
416,192,43905,1,0,0:0:0:0:
160,192,44055,1,0,0:0:0:0:
288,192,44130,1,0,0:0:0:0:
416,192,44205,1,0,0:0:0:0:
160,192,44280,1,0,0:0:0:0:
96,192,44355,1,0,0:0:0:0:
352,192,44355,1,0,0:0:0:0:
224,192,44355,1,0,0:0:0:0:
480,192,44430,1,0,0:0:0:0:
96,192,44505,1,0,0:0:0:0:
288,192,44505,1,0,0:0:0:0:
416,192,44505,1,0,0:0:0:0:
224,192,44580,1,0,0:0:0:0:
352,192,44655,1,0,0:0:0:0:
32,192,44955,1,0,0:0:0:0:
288,192,44955,1,0,0:0:0:0:
96,192,45255,1,0,0:0:0:0:
480,192,45255,1,0,0:0:0:0:
224,192,45255,1,0,0:0:0:0:
32,192,45555,1,0,0:0:0:0:
352,192,45555,1,0,0:0:0:0:
224,192,45705,1,0,0:0:0:0:
96,192,45855,1,0,0:0:0:0:
480,192,45855,1,0,0:0:0:0:
352,192,45855,1,0,0:0:0:0:
32,192,46155,1,0,0:0:0:0:
96,192,46155,1,0,0:0:0:0:
416,192,46155,1,0,0:0:0:0:
160,192,46305,1,0,0:0:0:0:
416,192,46455,1,0,0:0:0:0:
96,192,46605,1,0,0:0:0:0:
32,192,46755,1,0,0:0:0:0:
288,192,46755,1,0,0:0:0:0:
96,192,46905,1,0,0:0:0:0:
96,192,47055,1,0,0:0:0:0:
480,192,47055,1,0,0:0:0:0:
224,192,47205,1,0,0:0:0:0:
352,192,47205,1,0,0:0:0:0:
32,192,47355,1,0,0:0:0:0:
480,192,47355,1,0,0:0:0:0:
96,192,47355,1,0,0:0:0:0:
416,192,47430,1,0,0:0:0:0:
352,192,47505,1,0,0:0:0:0:
288,192,47580,1,0,0:0:0:0:
96,192,47655,1,0,0:0:0:0:
224,192,47655,1,0,0:0:0:0:
32,192,47955,1,0,0:0:0:0:
288,192,47955,1,0,0:0:0:0:
96,192,48255,1,0,0:0:0:0:
480,192,48255,1,0,0:0:0:0:
32,192,48555,1,0,0:0:0:0:
96,192,48555,1,0,0:0:0:0:
288,192,48555,1,0,0:0:0:0:
416,192,48705,1,0,0:0:0:0:
288,192,48855,1,0,0:0:0:0:
96,192,49005,1,0,0:0:0:0:
32,192,49155,1,0,0:0:0:0:
416,192,49155,1,0,0:0:0:0:
96,192,49305,1,0,0:0:0:0:
480,192,49455,1,0,0:0:0:0:
288,192,49455,1,0,0:0:0:0:
416,192,49605,1,0,0:0:0:0:
224,192,49605,1,0,0:0:0:0:
32,192,49755,1,0,0:0:0:0:
352,192,49755,1,0,0:0:0:0:
160,192,49755,1,0,0:0:0:0:
288,192,49905,1,0,0:0:0:0:
480,192,49905,1,0,0:0:0:0:
32,192,50055,1,0,0:0:0:0:
96,192,50055,1,0,0:0:0:0:
416,192,50055,1,0,0:0:0:0:
224,192,50055,1,0,0:0:0:0:
288,192,50355,1,0,0:0:0:0:
96,192,50655,1,0,0:0:0:0:
352,192,50655,1,0,0:0:0:0:
480,192,50655,1,0,0:0:0:0:
32,192,50955,1,0,0:0:0:0:
96,192,50955,1,0,0:0:0:0:
288,192,50955,1,0,0:0:0:0:
480,192,50955,1,0,0:0:0:0:
416,192,51105,1,0,0:0:0:0:
160,192,51105,1,0,0:0:0:0:
288,192,51255,1,0,0:0:0:0:
480,192,51255,1,0,0:0:0:0:
96,192,51405,1,0,0:0:0:0:
32,192,51555,1,0,0:0:0:0:
224,192,51555,1,0,0:0:0:0:
416,192,51555,1,0,0:0:0:0:
96,192,51705,1,0,0:0:0:0:
96,192,51855,1,0,0:0:0:0:
480,192,51855,1,0,0:0:0:0:
288,192,51855,1,0,0:0:0:0:
416,192,52005,1,0,0:0:0:0:
32,192,52155,1,0,0:0:0:0:
352,192,52155,1,0,0:0:0:0:
160,192,52155,1,0,0:0:0:0:
224,192,52305,1,0,0:0:0:0:
416,192,52305,1,0,0:0:0:0:
96,192,52455,1,0,0:0:0:0:
352,192,52455,1,0,0:0:0:0:
160,192,52455,1,0,0:0:0:0:
224,192,52605,1,0,0:0:0:0:
480,192,52605,1,0,0:0:0:0:
32,192,52755,1,0,0:0:0:0:
288,192,52755,1,0,0:0:0:0:
352,192,52755,1,0,0:0:0:0:
160,192,52905,1,0,0:0:0:0:
480,192,52905,1,0,0:0:0:0:
352,192,53055,1,0,0:0:0:0:
224,192,53205,1,0,0:0:0:0:
480,192,53205,1,0,0:0:0:0:
32,192,53355,1,0,0:0:0:0:
96,192,53355,1,0,0:0:0:0:
352,192,53355,1,0,0:0:0:0:
288,192,53505,1,0,0:0:0:0:
224,192,53505,1,0,0:0:0:0:
480,192,53505,1,0,0:0:0:0:
416,192,53655,1,0,0:0:0:0:
96,192,53655,1,0,0:0:0:0:
224,192,53730,1,0,0:0:0:0:
352,192,53805,1,0,0:0:0:0:
480,192,53805,1,0,0:0:0:0:
160,192,53880,1,0,0:0:0:0:
32,192,53955,1,0,0:0:0:0:
288,192,53955,1,0,0:0:0:0:
416,192,54030,1,0,0:0:0:0:
96,192,54105,1,0,0:0:0:0:
480,192,54105,1,0,0:0:0:0:
352,192,54105,1,0,0:0:0:0:
224,192,54180,1,0,0:0:0:0:
416,192,54255,1,0,0:0:0:0:
288,192,54255,1,0,0:0:0:0:
32,192,54855,1,0,0:0:0:0:
96,192,54855,1,0,0:0:0:0:
160,192,54855,1,0,0:0:0:0:
288,192,54856,1,0,0:0:0:0:
480,192,54856,1,0,0:0:0:0:
416,192,55155,1,0,0:0:0:0:
224,192,55454,1,0,0:0:0:0:
96,192,55454,1,0,0:0:0:0:
416,192,55604,1,0,0:0:0:0:
416,192,55902,1,0,0:0:0:0:
96,192,56052,1,0,0:0:0:0:
96,192,56647,1,0,0:0:0:0:
96,192,57241,1,0,0:0:0:0:
288,192,57537,1,0,0:0:0:0:
96,192,57833,1,0,0:0:0:0:
288,192,57980,1,0,0:0:0:0:
288,192,58276,1,0,0:0:0:0:
96,192,58424,1,0,0:0:0:0:
96,192,59013,1,0,0:0:0:0:
416,192,59013,1,0,0:0:0:0:
416,192,59160,1,0,0:0:0:0:
288,192,59307,1,0,0:0:0:0:
288,192,59454,1,0,0:0:0:0:
32,192,59601,1,0,0:0:0:0:
416,192,59601,1,0,0:0:0:0:
96,192,59601,1,0,0:0:0:0:
224,192,59601,1,0,0:0:0:0:
288,192,59894,1,0,0:0:0:0:
160,192,60187,1,0,0:0:0:0:
96,192,60187,1,0,0:0:0:0:
416,192,60333,1,0,0:0:0:0:
288,192,60626,1,0,0:0:0:0:
96,192,60772,1,0,0:0:0:0:
96,192,61355,1,0,0:0:0:0:
96,192,61937,1,0,0:0:0:0:
288,192,62227,1,0,0:0:0:0:
96,192,62518,1,0,0:0:0:0:
416,192,62662,1,0,0:0:0:0:
416,192,62952,1,0,0:0:0:0:
96,192,63097,1,0,0:0:0:0:
96,192,63675,1,0,0:0:0:0:
224,192,63675,1,0,0:0:0:0:
480,192,63675,1,0,0:0:0:0:
416,192,63819,1,0,0:0:0:0:
288,192,63819,1,0,0:0:0:0:
160,192,63963,1,0,0:0:0:0:
352,192,63963,1,0,0:0:0:0:
288,192,64107,1,0,0:0:0:0:
480,192,64107,1,0,0:0:0:0:
32,192,64251,1,0,0:0:0:0:
352,192,64251,1,0,0:0:0:0:
96,192,64251,1,0,0:0:0:0:
224,192,64251,1,0,0:0:0:0:
288,192,64394,1,0,0:0:0:0:
288,192,64538,1,0,0:0:0:0:
96,192,64538,1,0,0:0:0:0:
416,192,64681,1,0,0:0:0:0:
416,192,64815,1,0,0:0:0:0:
96,192,64815,1,0,0:0:0:0:
224,192,64825,1,0,0:0:0:0:
224,192,64958,1,0,0:0:0:0:
352,192,65101,1,0,0:0:0:0:
96,192,65101,1,0,0:0:0:0:
352,192,65244,1,0,0:0:0:0:
160,192,65387,1,0,0:0:0:0:
96,192,65387,1,0,0:0:0:0:
160,192,65529,1,0,0:0:0:0:
416,192,65672,1,0,0:0:0:0:
96,192,65672,1,0,0:0:0:0:
416,192,65815,1,0,0:0:0:0:
96,192,65958,1,0,0:0:0:0:
288,192,65958,1,0,0:0:0:0:
288,192,66100,1,0,0:0:0:0:
96,192,66243,1,0,0:0:0:0:
480,192,66243,1,0,0:0:0:0:
96,192,66385,1,0,0:0:0:0:
480,192,66385,1,0,0:0:0:0:
32,192,66528,1,0,0:0:0:0:
96,192,66528,1,0,0:0:0:0:
224,192,66528,1,0,0:0:0:0:
416,192,66528,1,0,0:0:0:0:
416,192,66669,1,0,0:0:0:0:
288,192,66811,1,0,0:0:0:0:
96,192,66811,1,0,0:0:0:0:
288,192,66953,1,0,0:0:0:0:
416,192,67095,1,0,0:0:0:0:
96,192,67095,1,0,0:0:0:0:
416,192,67236,1,0,0:0:0:0:
224,192,67378,1,0,0:0:0:0:
96,192,67378,1,0,0:0:0:0:
224,192,67519,1,0,0:0:0:0:
96,192,67661,1,0,0:0:0:0:
288,192,67661,1,0,0:0:0:0:
288,192,67802,1,0,0:0:0:0:
96,192,67943,1,0,0:0:0:0:
416,192,67943,1,0,0:0:0:0:
416,192,68084,1,0,0:0:0:0:
96,192,68225,1,0,0:0:0:0:
480,192,68225,1,0,0:0:0:0:
96,192,68365,1,0,0:0:0:0:
480,192,68365,1,0,0:0:0:0:
96,192,68506,1,0,0:0:0:0:
352,192,68506,1,0,0:0:0:0:
96,192,68647,1,0,0:0:0:0:
352,192,68647,1,0,0:0:0:0:
32,192,68787,1,0,0:0:0:0:
96,192,68787,1,0,0:0:0:0:
480,192,68787,1,0,0:0:0:0:
288,192,68787,1,0,0:0:0:0:
288,192,68927,1,0,0:0:0:0:
96,192,69067,1,0,0:0:0:0:
224,192,69067,1,0,0:0:0:0:
224,192,69207,1,0,0:0:0:0:
96,192,69346,1,0,0:0:0:0:
288,192,69346,1,0,0:0:0:0:
288,192,69485,1,0,0:0:0:0:
96,192,69625,1,0,0:0:0:0:
416,192,69625,1,0,0:0:0:0:
416,192,69765,1,0,0:0:0:0:
160,192,69765,1,0,0:0:0:0:
352,192,69835,1,0,0:0:0:0:
32,192,69904,1,0,0:0:0:0:
96,192,69904,1,0,0:0:0:0:
480,192,69904,1,0,0:0:0:0:
288,192,69904,1,0,0:0:0:0:
288,192,70043,1,0,0:0:0:0:
224,192,70182,1,0,0:0:0:0:
96,192,70182,1,0,0:0:0:0:
224,192,70321,1,0,0:0:0:0:
416,192,70459,1,0,0:0:0:0:
96,192,70459,1,0,0:0:0:0:
416,192,70597,1,0,0:0:0:0:
288,192,70597,1,0,0:0:0:0:
224,192,70667,1,0,0:0:0:0:
96,192,70736,1,0,0:0:0:0:
480,192,70736,1,0,0:0:0:0:
480,192,70875,1,0,0:0:0:0:
224,192,71013,1,0,0:0:0:0:
32,192,71014,1,0,0:0:0:0:
96,192,71014,1,0,0:0:0:0:
352,192,71014,1,0,0:0:0:0:
352,192,71151,1,0,0:0:0:0:
352,192,71290,1,0,0:0:0:0:
96,192,71290,1,0,0:0:0:0:
288,192,71429,1,0,0:0:0:0:
160,192,71429,1,0,0:0:0:0:
416,192,71429,1,0,0:0:0:0:
32,192,71568,1,0,0:0:0:0:
288,192,71568,1,0,0:0:0:0:
288,192,71707,1,0,0:0:0:0:
32,192,71846,1,0,0:0:0:0:
96,192,71846,1,0,0:0:0:0:
224,192,71846,1,0,0:0:0:0:
480,192,71846,1,0,0:0:0:0:
32,192,71985,1,0,0:0:0:0:
352,192,71985,1,0,0:0:0:0:
32,192,72124,1,0,0:0:0:0:
224,192,72124,1,0,0:0:0:0:
288,192,72263,1,0,0:0:0:0:
96,192,72263,1,0,0:0:0:0:
480,192,72263,1,0,0:0:0:0:
32,192,72401,1,0,0:0:0:0:
416,192,72401,1,0,0:0:0:0:
288,192,72540,1,0,0:0:0:0:
480,192,72540,1,0,0:0:0:0:
96,192,72540,1,0,0:0:0:0:
32,192,72679,1,0,0:0:0:0:
416,192,72679,1,0,0:0:0:0:
32,192,73235,1,0,0:0:0:0:
96,192,73235,1,0,0:0:0:0:
224,192,73235,1,0,0:0:0:0:
480,192,73235,1,0,0:0:0:0:
416,192,73235,1,0,0:0:0:0:
288,192,73513,1,0,0:0:0:0:
96,192,73513,1,0,0:0:0:0:
224,192,73790,1,0,0:0:0:0:
96,192,73790,1,0,0:0:0:0:
480,192,73790,1,0,0:0:0:0:
416,192,73929,1,0,0:0:0:0:
288,192,73929,1,0,0:0:0:0:
96,192,74068,1,0,0:0:0:0:
352,192,74068,1,0,0:0:0:0:
224,192,74207,1,0,0:0:0:0:
480,192,74207,1,0,0:0:0:0:
288,192,74485,1,0,0:0:0:0:
352,192,74485,1,0,0:0:0:0:
96,192,74624,1,0,0:0:0:0:
224,192,74624,1,0,0:0:0:0:
352,192,74763,1,0,0:0:0:0:
416,192,74763,1,0,0:0:0:0:
96,192,74901,1,0,0:0:0:0:
480,192,74901,1,0,0:0:0:0:
288,192,74901,1,0,0:0:0:0:
224,192,75040,1,0,0:0:0:0:
352,192,75040,1,0,0:0:0:0:
160,192,75179,1,0,0:0:0:0:
288,192,75318,1,0,0:0:0:0:
96,192,75457,1,0,0:0:0:0:
480,192,75457,1,0,0:0:0:0:
224,192,75596,1,0,0:0:0:0:
416,192,75596,1,0,0:0:0:0:
160,192,75735,1,0,0:0:0:0:
352,192,75874,1,0,0:0:0:0:
480,192,75874,1,0,0:0:0:0:
96,192,76013,1,0,0:0:0:0:
480,192,76013,1,0,0:0:0:0:
352,192,76013,1,0,0:0:0:0:
416,192,76151,1,0,0:0:0:0:
288,192,76151,1,0,0:0:0:0:
96,192,76290,1,0,0:0:0:0:
224,192,76290,1,0,0:0:0:0:
352,192,76429,1,0,0:0:0:0:
480,192,76429,1,0,0:0:0:0:
96,192,76707,1,0,0:0:0:0:
96,192,77124,1,0,0:0:0:0:
32,192,77679,1,0,0:0:0:0:
96,192,77679,1,0,0:0:0:0:
32,192,82124,1,0,0:0:0:0:
32,192,82401,1,0,0:0:0:0:
32,192,82957,1,0,0:0:0:0:
32,192,83513,1,0,0:0:0:0:
32,192,84068,1,0,0:0:0:0:
32,192,84624,1,0,0:0:0:0:
32,192,85179,1,0,0:0:0:0:
32,192,85735,1,0,0:0:0:0:
32,192,86290,1,0,0:0:0:0:
32,192,86568,1,0,0:0:0:0:
32,192,86846,1,0,0:0:0:0:
32,192,87401,1,0,0:0:0:0:
32,192,87957,1,0,0:0:0:0:
32,192,88513,1,0,0:0:0:0:
32,192,89068,1,0,0:0:0:0:
32,192,89624,1,0,0:0:0:0:
32,192,90179,1,0,0:0:0:0:
32,192,90735,1,0,0:0:0:0:
32,192,91013,1,0,0:0:0:0:
32,192,91290,1,0,0:0:0:0:
32,192,91429,1,0,0:0:0:0:
32,192,91568,1,0,0:0:0:0:
32,192,91846,1,0,0:0:0:0:
32,192,91985,1,0,0:0:0:0:
32,192,92124,1,0,0:0:0:0:
32,192,92401,1,0,0:0:0:0:
32,192,92679,1,0,0:0:0:0:
32,192,92957,1,0,0:0:0:0:
32,192,93513,1,0,0:0:0:0:
32,192,93651,1,0,0:0:0:0:
32,192,93790,1,0,0:0:0:0:
32,192,94068,1,0,0:0:0:0:
32,192,94207,1,0,0:0:0:0:
32,192,94346,1,0,0:0:0:0:
32,192,94624,1,0,0:0:0:0:
32,192,94901,1,0,0:0:0:0:
32,192,95179,1,0,0:0:0:0:
32,192,95735,1,0,0:0:0:0:
32,192,95874,1,0,0:0:0:0:
32,192,96013,1,0,0:0:0:0:
32,192,96290,1,0,0:0:0:0:
32,192,96429,1,0,0:0:0:0:
32,192,96568,1,0,0:0:0:0:
32,192,96846,1,0,0:0:0:0:
32,192,97124,1,0,0:0:0:0:
32,192,97401,1,0,0:0:0:0:
32,192,97957,1,0,0:0:0:0:
32,192,98096,1,0,0:0:0:0:
32,192,98235,1,0,0:0:0:0:
32,192,98513,1,0,0:0:0:0:
32,192,98651,1,0,0:0:0:0:
32,192,98790,1,0,0:0:0:0:
32,192,99068,1,0,0:0:0:0:
32,192,99346,1,0,0:0:0:0:
32,192,99624,1,0,0:0:0:0:
32,192,99901,1,0,0:0:0:0:
32,192,100179,1,0,0:0:0:0:
32,192,100318,1,0,0:0:0:0:
32,192,100457,1,0,0:0:0:0:
32,192,100735,1,0,0:0:0:0:
32,192,100874,1,0,0:0:0:0:
32,192,101013,1,0,0:0:0:0:
32,192,101290,1,0,0:0:0:0:
32,192,101568,1,0,0:0:0:0:
32,192,101846,1,0,0:0:0:0:
32,192,102401,1,0,0:0:0:0:
32,192,102540,1,0,0:0:0:0:
32,192,102679,1,0,0:0:0:0:
32,192,102957,1,0,0:0:0:0:
32,192,103096,1,0,0:0:0:0:
32,192,103235,1,0,0:0:0:0:
32,192,103513,1,0,0:0:0:0:
32,192,103790,1,0,0:0:0:0:
32,192,104068,1,0,0:0:0:0:
32,192,104346,1,0,0:0:0:0:
32,192,104901,1,0,0:0:0:0:
32,192,105179,1,0,0:0:0:0:
32,192,105318,1,0,0:0:0:0:
32,192,105457,1,0,0:0:0:0:
32,192,105735,1,0,0:0:0:0:
32,192,105874,1,0,0:0:0:0:
32,192,106013,1,0,0:0:0:0:
32,192,106290,1,0,0:0:0:0:
32,192,106846,1,0,0:0:0:0:
32,192,106985,1,0,0:0:0:0:
32,192,107124,1,0,0:0:0:0:
32,192,107401,1,0,0:0:0:0:
32,192,107540,1,0,0:0:0:0:
32,192,107679,1,0,0:0:0:0:
32,192,108096,128,0,108513:0:0:0:0:
32,192,108790,1,0,0:0:0:0:
32,192,113771,1,0,0:0:0:0:
32,192,113921,1,0,0:0:0:0:
32,192,114221,1,0,0:0:0:0:
32,192,114521,1,0,0:0:0:0:
32,192,114821,1,0,0:0:0:0:
32,192,114971,1,0,0:0:0:0:
32,192,115121,1,0,0:0:0:0:
32,192,115271,1,0,0:0:0:0:
32,192,115421,1,0,0:0:0:0:
32,192,115571,1,0,0:0:0:0:
32,192,115871,1,0,0:0:0:0:
32,192,116021,1,0,0:0:0:0:
32,192,116171,1,0,0:0:0:0:
32,192,116321,1,0,0:0:0:0:
32,192,116471,1,0,0:0:0:0:
32,192,116771,1,0,0:0:0:0:
32,192,116921,1,0,0:0:0:0:
32,192,117071,1,0,0:0:0:0:
32,192,117371,1,0,0:0:0:0:
32,192,117671,1,0,0:0:0:0:
32,192,117971,1,0,0:0:0:0:
32,192,118271,1,0,0:0:0:0:
32,192,137471,5,0,0:0:0:0:
32,192,137621,1,0,0:0:0:0:
32,192,137771,1,0,0:0:0:0:
32,192,137921,1,0,0:0:0:0:
32,192,138071,1,0,0:0:0:0:
32,192,138371,1,0,0:0:0:0:
32,192,138521,1,0,0:0:0:0:
32,192,138671,1,0,0:0:0:0:
32,192,138971,1,0,0:0:0:0:
32,192,139271,1,0,0:0:0:0:
32,192,139571,1,0,0:0:0:0:
32,192,140171,1,0,0:0:0:0:
32,192,140321,1,0,0:0:0:0:
32,192,140471,1,0,0:0:0:0:
32,192,140771,1,0,0:0:0:0:
32,192,140921,1,0,0:0:0:0:
32,192,141071,1,0,0:0:0:0:
32,192,141371,1,0,0:0:0:0:
32,192,141671,1,0,0:0:0:0:
32,192,141971,1,0,0:0:0:0:
32,192,142271,1,0,0:0:0:0:
32,192,142421,1,0,0:0:0:0:
32,192,142571,1,0,0:0:0:0:
32,192,142721,1,0,0:0:0:0:
32,192,142871,1,0,0:0:0:0:
32,192,143171,1,0,0:0:0:0:
32,192,143321,1,0,0:0:0:0:
32,192,143471,1,0,0:0:0:0:
32,192,143621,1,0,0:0:0:0:
32,192,143771,1,0,0:0:0:0:
32,192,143921,1,0,0:0:0:0:
32,192,144071,1,0,0:0:0:0:
32,192,144371,1,0,0:0:0:0:
32,192,144521,1,0,0:0:0:0:
32,192,144971,1,0,0:0:0:0:
32,192,145121,1,0,0:0:0:0:
32,192,145271,1,0,0:0:0:0:
32,192,145571,1,0,0:0:0:0:
32,192,145721,1,0,0:0:0:0:
32,192,145871,1,0,0:0:0:0:
32,192,146171,1,0,0:0:0:0:
32,192,146621,1,0,0:0:0:0:
32,192,148271,1,0,0:0:0:0:
32,192,148496,1,0,0:0:0:0:
32,192,148721,1,0,0:0:0:0:
32,192,154271,5,0,0:0:0:0:
32,192,158771,1,0,0:0:0:0:
32,192,159071,1,0,0:0:0:0:
32,192,163871,1,0,0:0:0:0:
32,192,168671,1,0,0:0:0:0:
32,192,173471,1,0,0:0:0:0:
32,192,175871,1,0,0:0:0:0:
32,192,178271,1,0,0:0:0:0:
32,192,187271,5,0,0:0:0:0:
32,192,187421,1,0,0:0:0:0:
32,192,187571,1,0,0:0:0:0:
32,192,187871,1,0,0:0:0:0:
32,192,192671,1,0,0:0:0:0:
32,192,195071,1,0,0:0:0:0:
32,192,197021,1,0,0:0:0:0:
32,192,197471,1,0,0:0:0:0:
32,192,197621,1,0,0:0:0:0:
32,192,197771,1,0,0:0:0:0:
32,192,197921,1,0,0:0:0:0:
32,192,198071,1,0,0:0:0:0:
32,192,198371,1,0,0:0:0:0:
32,192,198521,1,0,0:0:0:0:
32,192,198671,1,0,0:0:0:0:
32,192,198971,1,0,0:0:0:0:
32,192,199271,1,0,0:0:0:0:
32,192,199571,1,0,0:0:0:0:
32,192,200171,1,0,0:0:0:0:
32,192,200321,1,0,0:0:0:0:
32,192,200471,1,0,0:0:0:0:
32,192,200771,1,0,0:0:0:0:
32,192,200921,1,0,0:0:0:0:
32,192,201071,1,0,0:0:0:0:
32,192,201371,1,0,0:0:0:0:
32,192,201671,1,0,0:0:0:0:
32,192,201971,1,0,0:0:0:0:
32,192,202271,1,0,0:0:0:0:
32,192,202421,1,0,0:0:0:0:
32,192,202571,1,0,0:0:0:0:
32,192,202721,1,0,0:0:0:0:
32,192,202871,1,0,0:0:0:0:
32,192,203171,1,0,0:0:0:0:
32,192,203321,1,0,0:0:0:0:
32,192,203471,1,0,0:0:0:0:
32,192,203771,1,0,0:0:0:0:
32,192,204071,1,0,0:0:0:0:
32,192,204371,1,0,0:0:0:0:
32,192,204971,1,0,0:0:0:0:
32,192,205121,1,0,0:0:0:0:
32,192,205271,1,0,0:0:0:0:
32,192,205571,1,0,0:0:0:0:
32,192,205721,1,0,0:0:0:0:
32,192,205871,1,0,0:0:0:0:
32,192,206171,1,0,0:0:0:0:
32,192,206471,1,0,0:0:0:0:
32,192,206771,1,0,0:0:0:0:
32,192,207071,1,0,0:0:0:0:
32,192,207221,1,0,0:0:0:0:
32,192,207371,1,0,0:0:0:0:
32,192,207521,1,0,0:0:0:0:
32,192,207671,1,0,0:0:0:0:
32,192,207971,1,0,0:0:0:0:
32,192,208121,1,0,0:0:0:0:
32,192,208271,1,0,0:0:0:0:
32,192,208571,1,0,0:0:0:0:
32,192,208871,1,0,0:0:0:0:
32,192,209171,1,0,0:0:0:0:
32,192,209771,1,0,0:0:0:0:
32,192,209921,1,0,0:0:0:0:
32,192,210071,1,0,0:0:0:0:
32,192,210371,1,0,0:0:0:0:
32,192,210521,1,0,0:0:0:0:
32,192,210671,1,0,0:0:0:0:
32,192,210971,1,0,0:0:0:0:
32,192,211271,1,0,0:0:0:0:
32,192,211571,1,0,0:0:0:0:
32,192,211871,1,0,0:0:0:0:
32,192,212021,1,0,0:0:0:0:
32,192,212171,1,0,0:0:0:0:
32,192,212321,1,0,0:0:0:0:
32,192,212471,1,0,0:0:0:0:
32,192,212771,1,0,0:0:0:0:
32,192,212921,1,0,0:0:0:0:
32,192,213071,1,0,0:0:0:0:
32,192,213371,1,0,0:0:0:0:
32,192,213671,1,0,0:0:0:0:
32,192,213971,1,0,0:0:0:0:
32,192,214571,1,0,0:0:0:0:
32,192,214721,1,0,0:0:0:0:
32,192,214871,1,0,0:0:0:0:
32,192,215171,1,0,0:0:0:0:
32,192,215321,1,0,0:0:0:0:
32,192,215471,1,0,0:0:0:0:
32,192,215771,1,0,0:0:0:0:
32,192,216071,1,0,0:0:0:0:
32,192,216371,1,0,0:0:0:0:
32,192,216671,1,0,0:0:0:0:
32,192,216821,1,0,0:0:0:0:
32,192,216971,1,0,0:0:0:0:
32,192,217121,1,0,0:0:0:0:
32,192,217271,1,0,0:0:0:0:
32,192,217571,1,0,0:0:0:0:
32,192,217721,1,0,0:0:0:0:
32,192,217871,1,0,0:0:0:0:
32,192,218171,1,0,0:0:0:0:
32,192,218471,1,0,0:0:0:0:
32,192,218771,1,0,0:0:0:0:
32,192,219371,1,0,0:0:0:0:
32,192,219521,1,0,0:0:0:0:
32,192,219671,1,0,0:0:0:0:
32,192,219971,1,0,0:0:0:0:
32,192,220121,1,0,0:0:0:0:
32,192,220271,1,0,0:0:0:0:
32,192,220571,1,0,0:0:0:0:
32,192,220871,1,0,0:0:0:0:
32,192,221171,1,0,0:0:0:0:
32,192,221471,1,0,0:0:0:0:
32,192,221621,1,0,0:0:0:0:
32,192,221771,1,0,0:0:0:0:
32,192,221921,1,0,0:0:0:0:
32,192,222071,1,0,0:0:0:0:
32,192,222371,1,0,0:0:0:0:
32,192,222521,1,0,0:0:0:0:
32,192,222671,1,0,0:0:0:0:
32,192,222971,1,0,0:0:0:0:
32,192,223271,1,0,0:0:0:0:
32,192,223571,1,0,0:0:0:0:
32,192,224171,1,0,0:0:0:0:
32,192,224321,1,0,0:0:0:0:
32,192,224471,1,0,0:0:0:0:
32,192,224771,1,0,0:0:0:0:
32,192,224921,1,0,0:0:0:0:
32,192,225071,1,0,0:0:0:0:
32,192,225371,1,0,0:0:0:0:
32,192,225671,1,0,0:0:0:0:
32,192,225821,1,0,0:0:0:0:
32,192,225971,1,0,0:0:0:0:
32,192,226271,1,0,0:0:0:0:
32,192,226421,1,0,0:0:0:0:
32,192,226571,1,0,0:0:0:0:
32,192,226721,1,0,0:0:0:0:
32,192,226871,1,0,0:0:0:0:
32,192,227171,1,0,0:0:0:0:
32,192,227321,1,0,0:0:0:0:
32,192,227471,1,0,0:0:0:0:
32,192,227771,1,0,0:0:0:0:
32,192,228071,1,0,0:0:0:0:
32,192,228371,1,0,0:0:0:0:
32,192,228971,1,0,0:0:0:0:
32,192,229121,1,0,0:0:0:0:
32,192,229271,1,0,0:0:0:0:
32,192,229571,1,0,0:0:0:0:
32,192,229721,1,0,0:0:0:0:
32,192,229871,1,0,0:0:0:0:
32,192,230171,1,0,0:0:0:0:
32,192,230471,1,0,0:0:0:0:
32,192,230771,1,0,0:0:0:0:
32,192,231071,1,0,0:0:0:0:
32,192,231221,1,0,0:0:0:0:
32,192,231371,1,0,0:0:0:0:
32,192,231521,1,0,0:0:0:0:
32,192,231671,1,0,0:0:0:0:
32,192,231971,1,0,0:0:0:0:
32,192,232121,1,0,0:0:0:0:
32,192,232271,1,0,0:0:0:0:
32,192,232571,1,0,0:0:0:0:
32,192,232871,1,0,0:0:0:0:
32,192,233171,1,0,0:0:0:0:
32,192,233771,1,0,0:0:0:0:
32,192,233921,1,0,0:0:0:0:
32,192,234071,1,0,0:0:0:0:
32,192,234371,1,0,0:0:0:0:
32,192,234521,1,0,0:0:0:0:
32,192,234671,1,0,0:0:0:0:
32,192,234821,1,0,0:0:0:0:
32,192,234971,1,0,0:0:0:0:
32,192,235121,1,0,0:0:0:0:
32,192,235346,1,0,0:0:0:0:
