osu file format v14

[General]
AudioFilename: audio.mp3
AudioLeadIn: 0
PreviewTime: 73575
Countdown: 0
SampleSet: None
StackLeniency: 0.7
Mode: 3
LetterboxInBreaks: 0
SpecialStyle: 0
WidescreenStoryboard: 1

[Editor]
Bookmarks: 28200,31500
DistanceSpacing: 0.8
BeatDivisor: 8
GridSize: 8
TimelineZoom: 1.4

[Metadata]
Title:Dynamite
TitleUnicode:Dynamite
Artist:USAO
ArtistUnicode:USAO
Creator:AlexDunk
Version:Flame
Source:beatmania IIDX 23 copula
Tags:
BeatmapID:1986376
BeatmapSetID:948671

[Difficulty]
HPDrainRate:8
CircleSize:4
OverallDifficulty:8
ApproachRate:5
SliderMultiplier:1.4
SliderTickRate:1

[Events]
//Background and Video events
0,0,"DYNAMITEver.jpg",0,0
//Break Periods
//Storyboard Layer 0 (Background)
//Storyboard Layer 1 (Fail)
//Storyboard Layer 2 (Pass)
//Storyboard Layer 3 (Foreground)
//Storyboard Sound Samples

[TimingPoints]
2100,300,4,1,0,30,1,0
64500,300,8,1,0,30,1,0
66900,300,8,1,0,30,1,0
69300,300,4,1,0,30,1,0
70500,300,4,1,0,30,1,0
71700,300,4,1,0,30,1,0
72300,300,4,1,0,30,1,0
72900,300,4,1,0,30,1,0
73200,300,4,1,0,30,1,0
73500,300,4,1,0,30,1,0
74100,300,4,1,0,30,1,1
92100,-100,4,1,0,30,0,0
93300,-100,4,1,0,30,0,1
112500,-100,4,1,0,30,0,0

[HitObjects]
64,192,2100,128,0,2400:0:0:0:0:
320,192,2100,128,0,2400:0:0:0:0:
448,192,2100,128,0,2400:0:0:0:0:
192,192,2400,1,0,0:0:0:0:
320,192,2550,1,0,0:0:0:0:
64,192,2700,1,0,0:0:0:0:
448,192,2700,1,0,0:0:0:0:
192,192,2850,1,0,0:0:0:0:
320,192,3000,1,0,0:0:0:0:
448,192,3000,1,0,0:0:0:0:
64,192,3150,1,0,0:0:0:0:
448,192,3300,1,0,0:0:0:0:
64,192,3450,1,0,0:0:0:0:
192,192,3450,1,0,0:0:0:0:
448,192,3600,1,0,0:0:0:0:
64,192,3750,1,0,0:0:0:0:
192,192,3750,1,0,0:0:0:0:
64,192,3900,1,0,0:0:0:0:
448,192,3900,128,0,4200:0:0:0:0:
320,192,4050,128,0,4200:0:0:0:0:
192,192,4200,128,0,4500:0:0:0:0:
320,192,4500,1,0,0:0:0:0:
64,192,4500,128,0,4800:0:0:0:0:
448,192,4500,128,0,4800:0:0:0:0:
192,192,4800,1,0,0:0:0:0:
192,192,4950,1,0,0:0:0:0:
64,192,5100,1,0,0:0:0:0:
448,192,5100,1,0,0:0:0:0:
320,192,5250,1,0,0:0:0:0:
192,192,5400,1,0,0:0:0:0:
64,192,5400,1,0,0:0:0:0:
448,192,5550,1,0,0:0:0:0:
64,192,5700,1,0,0:0:0:0:
320,192,5850,1,0,0:0:0:0:
448,192,5850,1,0,0:0:0:0:
192,192,6000,1,0,0:0:0:0:
320,192,6150,1,0,0:0:0:0:
448,192,6150,1,0,0:0:0:0:
64,192,6300,1,0,0:0:0:0:
448,192,6300,1,0,0:0:0:0:
320,192,6600,128,0,6900:0:0:0:0:
192,192,6600,128,0,6900:0:0:0:0:
64,192,6900,128,0,7200:0:0:0:0:
448,192,6900,128,0,7200:0:0:0:0:
320,192,7200,1,0,0:0:0:0:
64,192,7350,1,0,0:0:0:0:
192,192,7350,1,0,0:0:0:0:
192,192,7500,1,0,0:0:0:0:
448,192,7500,1,0,0:0:0:0:
64,192,7650,1,0,0:0:0:0:
320,192,7800,1,0,0:0:0:0:
448,192,7800,1,0,0:0:0:0:
192,192,7950,1,0,0:0:0:0:
448,192,8100,1,0,0:0:0:0:
192,192,8250,1,0,0:0:0:0:
64,192,8250,1,0,0:0:0:0:
448,192,8400,1,0,0:0:0:0:
192,192,8550,1,0,0:0:0:0:
320,192,8550,1,0,0:0:0:0:
64,192,8700,128,0,8850:0:0:0:0:
448,192,8700,128,0,8850:0:0:0:0:
192,192,8850,128,0,9000:0:0:0:0:
320,192,8850,1,0,0:0:0:0:
320,192,9000,128,0,9300:0:0:0:0:
448,192,9000,128,0,9300:0:0:0:0:
192,192,9300,128,0,9600:0:0:0:0:
64,192,9300,128,0,9600:0:0:0:0:
448,192,9600,1,0,0:0:0:0:
320,192,9750,1,0,0:0:0:0:
192,192,9750,1,0,0:0:0:0:
64,192,9900,1,0,0:0:0:0:
448,192,9900,1,0,0:0:0:0:
192,192,10050,1,0,0:0:0:0:
320,192,10200,1,0,0:0:0:0:
448,192,10200,1,0,0:0:0:0:
64,192,10350,1,0,0:0:0:0:
320,192,10500,1,0,0:0:0:0:
192,192,10650,1,0,0:0:0:0:
64,192,10650,1,0,0:0:0:0:
448,192,10800,1,0,0:0:0:0:
64,192,10950,1,0,0:0:0:0:
192,192,10950,1,0,0:0:0:0:
448,192,11100,1,0,0:0:0:0:
320,192,11250,128,0,11550:0:0:0:0:
192,192,11400,128,0,11550:0:0:0:0:
64,192,11550,128,0,11700:0:0:0:0:
448,192,11700,1,0,0:0:0:0:
192,192,11700,128,0,12000:0:0:0:0:
320,192,11700,128,0,12000:0:0:0:0:
448,192,11850,1,0,0:0:0:0:
448,192,12000,1,0,0:0:0:0:
64,192,12000,128,0,12150:0:0:0:0:
448,192,12150,1,0,0:0:0:0:
64,192,12300,1,0,0:0:0:0:
192,192,12300,1,0,0:0:0:0:
320,192,12300,1,0,0:0:0:0:
448,192,12450,1,0,0:0:0:0:
64,192,12600,1,0,0:0:0:0:
192,192,12600,1,0,0:0:0:0:
448,192,12750,1,0,0:0:0:0:
64,192,12750,1,0,0:0:0:0:
64,192,12900,1,0,0:0:0:0:
192,192,12900,1,0,0:0:0:0:
320,192,13050,1,0,0:0:0:0:
448,192,13050,1,0,0:0:0:0:
64,192,13200,1,0,0:0:0:0:
320,192,13350,1,0,0:0:0:0:
448,192,13350,1,0,0:0:0:0:
64,192,13500,1,0,0:0:0:0:
448,192,13500,1,0,0:0:0:0:
192,192,13500,1,0,0:0:0:0:
320,192,13650,1,0,0:0:0:0:
192,192,13800,1,0,0:0:0:0:
64,192,13800,1,0,0:0:0:0:
64,192,13950,1,0,0:0:0:0:
320,192,13950,1,0,0:0:0:0:
320,192,14100,128,0,14400:0:0:0:0:
448,192,14100,128,0,14400:0:0:0:0:
192,192,14400,1,0,0:0:0:0:
192,192,14550,1,0,0:0:0:0:
64,192,14700,1,0,0:0:0:0:
448,192,14700,1,0,0:0:0:0:
320,192,14700,1,0,0:0:0:0:
448,192,14850,1,0,0:0:0:0:
64,192,15000,1,0,0:0:0:0:
320,192,15000,1,0,0:0:0:0:
192,192,15150,1,0,0:0:0:0:
448,192,15300,1,0,0:0:0:0:
64,192,15450,1,0,0:0:0:0:
320,192,15450,1,0,0:0:0:0:
192,192,15600,1,0,0:0:0:0:
448,192,15750,1,0,0:0:0:0:
320,192,15750,1,0,0:0:0:0:
64,192,15900,1,0,0:0:0:0:
192,192,15900,1,0,0:0:0:0:
320,192,15900,1,0,0:0:0:0:
448,192,16050,128,0,16350:0:0:0:0:
64,192,16200,128,0,16350:0:0:0:0:
192,192,16200,128,0,16350:0:0:0:0:
320,192,16350,128,0,16500:0:0:0:0:
192,192,16500,1,0,0:0:0:0:
448,192,16500,128,0,16800:0:0:0:0:
64,192,16500,128,0,16800:0:0:0:0:
192,192,16650,1,0,0:0:0:0:
192,192,16800,1,0,0:0:0:0:
192,192,16950,1,0,0:0:0:0:
320,192,16950,1,0,0:0:0:0:
448,192,17100,1,0,0:0:0:0:
64,192,17100,1,0,0:0:0:0:
192,192,17100,1,0,0:0:0:0:
320,192,17250,1,0,0:0:0:0:
64,192,17400,1,0,0:0:0:0:
448,192,17400,1,0,0:0:0:0:
320,192,17550,1,0,0:0:0:0:
64,192,17550,1,0,0:0:0:0:
448,192,17700,1,0,0:0:0:0:
192,192,17700,1,0,0:0:0:0:
320,192,17850,1,0,0:0:0:0:
448,192,17850,1,0,0:0:0:0:
64,192,18000,1,0,0:0:0:0:
192,192,18150,1,0,0:0:0:0:
320,192,18150,1,0,0:0:0:0:
64,192,18300,1,0,0:0:0:0:
320,192,18300,1,0,0:0:0:0:
448,192,18300,1,0,0:0:0:0:
192,192,18450,128,0,18750:0:0:0:0:
448,192,18600,1,0,0:0:0:0:
64,192,18600,128,0,18750:0:0:0:0:
320,192,18750,128,0,18900:0:0:0:0:
448,192,18750,1,0,0:0:0:0:
192,192,18900,1,0,0:0:0:0:
448,192,18900,128,0,19200:0:0:0:0:
64,192,18900,128,0,19200:0:0:0:0:
320,192,19050,1,0,0:0:0:0:
192,192,19200,128,0,19500:0:0:0:0:
320,192,19200,1,0,0:0:0:0:
320,192,19350,1,0,0:0:0:0:
64,192,19500,1,0,0:0:0:0:
320,192,19500,1,0,0:0:0:0:
448,192,19500,128,0,19650:0:0:0:0:
192,192,19650,128,0,19800:0:0:0:0:
320,192,19800,128,0,19950:0:0:0:0:
448,192,19800,1,0,0:0:0:0:
64,192,19950,128,0,20400:0:0:0:0:
192,192,20100,1,0,0:0:0:0:
448,192,20175,1,0,0:0:0:0:
192,192,20250,1,0,0:0:0:0:
320,192,20250,1,0,0:0:0:0:
448,192,20325,1,0,0:0:0:0:
320,192,20400,1,0,0:0:0:0:
448,192,20475,1,0,0:0:0:0:
64,192,20550,1,0,0:0:0:0:
192,192,20550,1,0,0:0:0:0:
320,192,20625,1,0,0:0:0:0:
448,192,20700,1,0,0:0:0:0:
64,192,20700,128,0,21000:0:0:0:0:
192,192,20850,128,0,21225:0:0:0:0:
448,192,21000,128,0,21300:0:0:0:0:
320,192,21300,1,0,0:0:0:0:
192,192,21300,1,0,0:0:0:0:
64,192,21300,1,0,0:0:0:0:
320,192,21600,1,0,0:0:0:0:
320,192,21750,1,0,0:0:0:0:
64,192,21900,128,0,22125:0:0:0:0:
64,192,22200,1,0,0:0:0:0:
448,192,22200,1,0,0:0:0:0:
64,192,22350,1,0,0:0:0:0:
320,192,22350,1,0,0:0:0:0:
64,192,22500,1,0,0:0:0:0:
448,192,22500,1,0,0:0:0:0:
64,192,22650,1,0,0:0:0:0:
64,192,22800,1,0,0:0:0:0:
448,192,22800,1,0,0:0:0:0:
64,192,22950,1,0,0:0:0:0:
64,192,23100,1,0,0:0:0:0:
448,192,23100,1,0,0:0:0:0:
64,192,23250,1,0,0:0:0:0:
64,192,23400,128,0,23650:0:0:0:0:
448,192,23400,1,0,0:0:0:0:
192,192,23550,128,0,23650:0:0:0:0:
320,192,23550,1,0,0:0:0:0:
320,192,23700,1,0,0:0:0:0:
448,192,23700,128,0,24000:0:0:0:0:
64,192,23700,128,0,24000:0:0:0:0:
192,192,23850,1,0,0:0:0:0:
192,192,24000,1,0,0:0:0:0:
64,192,24150,1,0,0:0:0:0:
320,192,24150,128,0,24375:0:0:0:0:
64,192,24300,1,0,0:0:0:0:
320,192,24450,1,0,0:0:0:0:
64,192,24450,1,0,0:0:0:0:
64,192,24600,1,0,0:0:0:0:
320,192,24600,1,0,0:0:0:0:
64,192,24750,1,0,0:0:0:0:
320,192,24750,1,0,0:0:0:0:
448,192,24900,1,0,0:0:0:0:
320,192,24900,1,0,0:0:0:0:
192,192,24975,1,0,0:0:0:0:
448,192,25050,1,0,0:0:0:0:
320,192,25050,1,0,0:0:0:0:
64,192,25125,1,0,0:0:0:0:
448,192,25200,1,0,0:0:0:0:
320,192,25200,1,0,0:0:0:0:
192,192,25275,1,0,0:0:0:0:
448,192,25350,1,0,0:0:0:0:
320,192,25350,1,0,0:0:0:0:
448,192,25650,128,0,25950:0:0:0:0:
320,192,25800,128,0,25950:0:0:0:0:
192,192,25950,128,0,26100:0:0:0:0:
320,192,26100,1,0,0:0:0:0:
448,192,26100,1,0,0:0:0:0:
64,192,26100,128,0,26400:0:0:0:0:
192,192,26250,128,0,26550:0:0:0:0:
320,192,26400,128,0,26550:0:0:0:0:
64,192,26700,128,0,27000:0:0:0:0:
448,192,26700,128,0,26850:0:0:0:0:
320,192,27000,1,0,0:0:0:0:
448,192,27000,1,0,0:0:0:0:
64,192,27150,1,0,0:0:0:0:
64,192,27300,1,0,0:0:0:0:
320,192,27450,1,0,0:0:0:0:
448,192,27450,1,0,0:0:0:0:
64,192,27600,1,0,0:0:0:0:
448,192,27750,1,0,0:0:0:0:
320,192,27750,1,0,0:0:0:0:
64,192,27900,1,0,0:0:0:0:
448,192,27900,1,0,0:0:0:0:
64,192,28050,1,0,0:0:0:0:
448,192,28200,128,0,28500:0:0:0:0:
320,192,28200,1,0,0:0:0:0:
320,192,28500,1,0,0:0:0:0:
64,192,28500,128,0,28800:0:0:0:0:
192,192,28500,128,0,28800:0:0:0:0:
448,192,28800,128,0,28950:0:0:0:0:
320,192,28950,128,0,29100:0:0:0:0:
64,192,29100,128,0,29400:0:0:0:0:
448,192,29100,128,0,29250:0:0:0:0:
320,192,29400,1,0,0:0:0:0:
448,192,29400,1,0,0:0:0:0:
64,192,29550,1,0,0:0:0:0:
64,192,29700,128,0,29850:0:0:0:0:
320,192,29850,1,0,0:0:0:0:
448,192,29850,1,0,0:0:0:0:
64,192,30000,1,0,0:0:0:0:
448,192,30150,1,0,0:0:0:0:
320,192,30150,1,0,0:0:0:0:
64,192,30300,1,0,0:0:0:0:
448,192,30300,1,0,0:0:0:0:
64,192,30450,128,0,30750:0:0:0:0:
448,192,30600,128,0,30900:0:0:0:0:
320,192,30750,128,0,30900:0:0:0:0:
192,192,30900,1,0,0:0:0:0:
64,192,30900,128,0,31200:0:0:0:0:
320,192,31050,128,0,31350:0:0:0:0:
448,192,31200,128,0,31350:0:0:0:0:
64,192,31350,1,0,0:0:0:0:
192,192,31350,1,0,0:0:0:0:
448,192,31500,128,0,31800:0:0:0:0:
64,192,31500,128,0,31650:0:0:0:0:
64,192,31800,1,0,0:0:0:0:
192,192,31800,1,0,0:0:0:0:
448,192,31950,1,0,0:0:0:0:
448,192,32100,1,0,0:0:0:0:
64,192,32250,1,0,0:0:0:0:
192,192,32250,1,0,0:0:0:0:
448,192,32400,1,0,0:0:0:0:
64,192,32550,1,0,0:0:0:0:
192,192,32550,1,0,0:0:0:0:
64,192,32700,1,0,0:0:0:0:
448,192,32700,1,0,0:0:0:0:
448,192,32850,128,0,33150:0:0:0:0:
192,192,33000,128,0,33300:0:0:0:0:
64,192,33150,128,0,33300:0:0:0:0:
448,192,33300,1,0,0:0:0:0:
320,192,33300,128,0,33900:0:0:0:0:
64,192,33600,128,0,33900:0:0:0:0:
448,192,33900,1,0,0:0:0:0:
192,192,33900,128,0,34050:0:0:0:0:
320,192,34050,128,0,34200:0:0:0:0:
448,192,34200,128,0,34500:0:0:0:0:
192,192,34200,1,0,0:0:0:0:
64,192,34350,128,0,34800:0:0:0:0:
320,192,34650,1,0,0:0:0:0:
448,192,34650,1,0,0:0:0:0:
448,192,34800,128,0,34950:0:0:0:0:
192,192,34950,128,0,35550:0:0:0:0:
64,192,34950,1,0,0:0:0:0:
448,192,35100,1,0,0:0:0:0:
320,192,35100,1,0,0:0:0:0:
64,192,35250,128,0,35550:0:0:0:0:
320,192,35400,128,0,35550:0:0:0:0:
448,192,35550,128,0,35700:0:0:0:0:
64,192,35700,1,0,0:0:0:0:
320,192,35700,128,0,36000:0:0:0:0:
192,192,35700,128,0,36000:0:0:0:0:
448,192,36000,1,0,0:0:0:0:
64,192,36000,1,0,0:0:0:0:
448,192,36300,1,0,0:0:0:0:
320,192,36300,128,0,36600:0:0:0:0:
192,192,36300,128,0,36600:0:0:0:0:
64,192,36600,1,0,0:0:0:0:
448,192,36600,1,0,0:0:0:0:
448,192,36750,1,0,0:0:0:0:
64,192,36900,1,0,0:0:0:0:
448,192,36900,128,0,37050:0:0:0:0:
192,192,37050,1,0,0:0:0:0:
64,192,37200,1,0,0:0:0:0:
448,192,37200,128,0,37350:0:0:0:0:
192,192,37350,1,0,0:0:0:0:
448,192,37500,1,0,0:0:0:0:
320,192,37500,1,0,0:0:0:0:
448,192,37650,1,0,0:0:0:0:
64,192,37800,1,0,0:0:0:0:
320,192,37800,128,0,38100:0:0:0:0:
64,192,37950,1,0,0:0:0:0:
448,192,38100,1,0,0:0:0:0:
64,192,38100,1,0,0:0:0:0:
192,192,38100,128,0,38400:0:0:0:0:
64,192,38400,1,0,0:0:0:0:
448,192,38400,1,0,0:0:0:0:
320,192,38700,128,0,39000:0:0:0:0:
192,192,38700,128,0,39000:0:0:0:0:
448,192,38700,1,0,0:0:0:0:
64,192,39000,1,0,0:0:0:0:
448,192,39000,1,0,0:0:0:0:
448,192,39150,1,0,0:0:0:0:
448,192,39300,1,0,0:0:0:0:
320,192,39300,128,0,39450:0:0:0:0:
192,192,39450,1,0,0:0:0:0:
64,192,39600,1,0,0:0:0:0:
448,192,39600,128,0,39750:0:0:0:0:
192,192,39750,1,0,0:0:0:0:
448,192,39900,1,0,0:0:0:0:
320,192,39900,128,0,40200:0:0:0:0:
192,192,40050,128,0,40200:0:0:0:0:
64,192,40050,1,0,0:0:0:0:
64,192,40200,1,0,0:0:0:0:
448,192,40200,128,0,40350:0:0:0:0:
64,192,40350,1,0,0:0:0:0:
320,192,40350,128,0,40500:0:0:0:0:
64,192,40500,1,0,0:0:0:0:
192,192,40500,128,0,40800:0:0:0:0:
448,192,40500,1,0,0:0:0:0:
320,192,40650,128,0,40800:0:0:0:0:
448,192,40800,1,0,0:0:0:0:
64,192,40800,1,0,0:0:0:0:
320,192,40950,1,0,0:0:0:0:
448,192,41100,1,0,0:0:0:0:
192,192,41100,128,0,41400:0:0:0:0:
64,192,41400,1,0,0:0:0:0:
448,192,41400,1,0,0:0:0:0:
64,192,41550,1,0,0:0:0:0:
448,192,41550,1,0,0:0:0:0:
448,192,41700,1,0,0:0:0:0:
64,192,41700,128,0,41850:0:0:0:0:
320,192,41850,1,0,0:0:0:0:
448,192,42000,1,0,0:0:0:0:
64,192,42000,128,0,42150:0:0:0:0:
320,192,42150,1,0,0:0:0:0:
64,192,42300,1,0,0:0:0:0:
192,192,42300,1,0,0:0:0:0:
64,192,42450,128,0,42750:0:0:0:0:
192,192,42600,128,0,42900:0:0:0:0:
448,192,42600,1,0,0:0:0:0:
320,192,42750,128,0,42900:0:0:0:0:
448,192,42750,1,0,0:0:0:0:
64,192,42900,1,0,0:0:0:0:
448,192,42900,1,0,0:0:0:0:
448,192,43050,1,0,0:0:0:0:
192,192,43200,1,0,0:0:0:0:
192,192,43350,1,0,0:0:0:0:
320,192,43500,1,0,0:0:0:0:
448,192,43500,1,0,0:0:0:0:
64,192,43500,1,0,0:0:0:0:
192,192,43650,1,0,0:0:0:0:
320,192,43800,1,0,0:0:0:0:
448,192,43800,1,0,0:0:0:0:
64,192,43950,1,0,0:0:0:0:
192,192,44100,1,0,0:0:0:0:
320,192,44175,1,0,0:0:0:0:
64,192,44250,1,0,0:0:0:0:
192,192,44250,1,0,0:0:0:0:
448,192,44325,1,0,0:0:0:0:
320,192,44400,1,0,0:0:0:0:
64,192,44475,1,0,0:0:0:0:
448,192,44550,1,0,0:0:0:0:
320,192,44550,1,0,0:0:0:0:
192,192,44625,1,0,0:0:0:0:
320,192,44700,1,0,0:0:0:0:
64,192,44700,128,0,45000:0:0:0:0:
448,192,44700,128,0,45000:0:0:0:0:
320,192,45300,128,0,45600:0:0:0:0:
64,192,45300,1,0,0:0:0:0:
448,192,45900,128,0,46125:0:0:0:0:
320,192,45900,1,0,0:0:0:0:
448,192,46200,1,0,0:0:0:0:
64,192,46200,1,0,0:0:0:0:
448,192,46350,1,0,0:0:0:0:
448,192,46500,1,0,0:0:0:0:
192,192,46650,1,0,0:0:0:0:
64,192,46650,1,0,0:0:0:0:
448,192,46800,1,0,0:0:0:0:
192,192,46950,1,0,0:0:0:0:
64,192,46950,1,0,0:0:0:0:
448,192,47100,1,0,0:0:0:0:
320,192,47100,1,0,0:0:0:0:
448,192,47250,1,0,0:0:0:0:
64,192,47400,128,0,47700:0:0:0:0:
320,192,47700,128,0,48000:0:0:0:0:
192,192,47700,1,0,0:0:0:0:
64,192,48000,128,0,48300:0:0:0:0:
192,192,48300,1,0,0:0:0:0:
448,192,48300,128,0,48525:0:0:0:0:
448,192,48600,1,0,0:0:0:0:
320,192,48600,1,0,0:0:0:0:
448,192,48750,1,0,0:0:0:0:
448,192,48900,1,0,0:0:0:0:
192,192,49050,1,0,0:0:0:0:
64,192,49050,1,0,0:0:0:0:
448,192,49200,1,0,0:0:0:0:
192,192,49350,1,0,0:0:0:0:
64,192,49350,1,0,0:0:0:0:
64,192,49500,1,0,0:0:0:0:
448,192,49500,128,0,49950:0:0:0:0:
192,192,49650,128,0,49800:0:0:0:0:
320,192,49800,128,0,49950:0:0:0:0:
64,192,49950,128,0,50100:0:0:0:0:
320,192,50100,1,0,0:0:0:0:
192,192,50100,128,0,50400:0:0:0:0:
64,192,50400,1,0,0:0:0:0:
64,192,50550,1,0,0:0:0:0:
448,192,50700,128,0,50925:0:0:0:0:
192,192,50700,1,0,0:0:0:0:
448,192,51000,1,0,0:0:0:0:
320,192,51000,1,0,0:0:0:0:
448,192,51150,1,0,0:0:0:0:
448,192,51300,1,0,0:0:0:0:
192,192,51450,1,0,0:0:0:0:
64,192,51450,1,0,0:0:0:0:
448,192,51600,1,0,0:0:0:0:
192,192,51750,1,0,0:0:0:0:
64,192,51750,1,0,0:0:0:0:
448,192,51900,1,0,0:0:0:0:
64,192,51900,1,0,0:0:0:0:
448,192,52050,128,0,52350:0:0:0:0:
64,192,52200,128,0,52500:0:0:0:0:
192,192,52350,128,0,52500:0:0:0:0:
448,192,52500,1,0,0:0:0:0:
320,192,52500,128,0,52800:0:0:0:0:
64,192,52800,128,0,53100:0:0:0:0:
192,192,53100,1,0,0:0:0:0:
448,192,53100,128,0,53250:0:0:0:0:
320,192,53250,128,0,53400:0:0:0:0:
64,192,53400,128,0,53550:0:0:0:0:
192,192,53400,1,0,0:0:0:0:
448,192,53550,128,0,54000:0:0:0:0:
320,192,53700,1,0,0:0:0:0:
192,192,53850,1,0,0:0:0:0:
64,192,53850,128,0,54150:0:0:0:0:
320,192,54000,128,0,54150:0:0:0:0:
192,192,54150,128,0,54300:0:0:0:0:
448,192,54300,128,0,54900:0:0:0:0:
320,192,54900,1,0,0:0:0:0:
64,192,54900,128,0,54975:0:0:0:0:
192,192,55050,128,0,55125:0:0:0:0:
448,192,55200,128,0,55275:0:0:0:0:
64,192,55350,1,0,0:0:0:0:
320,192,55350,128,0,55425:0:0:0:0:
448,192,55650,128,0,55725:0:0:0:0:
320,192,55800,128,0,55875:0:0:0:0:
64,192,55950,128,0,56025:0:0:0:0:
192,192,56100,128,0,56175:0:0:0:0:
448,192,56100,1,0,0:0:0:0:
320,192,56250,128,0,56325:0:0:0:0:
64,192,56400,128,0,56475:0:0:0:0:
448,192,56550,1,0,0:0:0:0:
192,192,56550,128,0,56625:0:0:0:0:
320,192,56850,1,0,0:0:0:0:
448,192,56850,128,0,56925:0:0:0:0:
192,192,57000,128,0,57075:0:0:0:0:
64,192,57150,128,0,57225:0:0:0:0:
192,192,57300,1,0,0:0:0:0:
320,192,57300,128,0,57375:0:0:0:0:
64,192,57450,128,0,57525:0:0:0:0:
192,192,57600,128,0,57675:0:0:0:0:
448,192,57750,1,0,0:0:0:0:
320,192,57750,128,0,57825:0:0:0:0:
64,192,58050,128,0,58125:0:0:0:0:
320,192,58200,128,0,58275:0:0:0:0:
192,192,58350,128,0,58425:0:0:0:0:
64,192,58500,1,0,0:0:0:0:
448,192,58500,128,0,58575:0:0:0:0:
320,192,58650,128,0,58725:0:0:0:0:
192,192,58800,128,0,58875:0:0:0:0:
64,192,58950,1,0,0:0:0:0:
320,192,58950,128,0,59025:0:0:0:0:
64,192,59250,1,0,0:0:0:0:
448,192,59250,128,0,59325:0:0:0:0:
320,192,59400,128,0,59475:0:0:0:0:
192,192,59550,1,0,0:0:0:0:
64,192,59550,128,0,59625:0:0:0:0:
192,192,59700,1,0,0:0:0:0:
448,192,59700,128,0,59775:0:0:0:0:
320,192,59850,128,0,59925:0:0:0:0:
64,192,60000,128,0,60075:0:0:0:0:
448,192,60150,1,0,0:0:0:0:
192,192,60150,128,0,60225:0:0:0:0:
320,192,60450,128,0,60600:0:0:0:0:
64,192,60600,128,0,60750:0:0:0:0:
192,192,60750,128,0,60900:0:0:0:0:
320,192,60900,128,0,61050:0:0:0:0:
448,192,60900,128,0,60975:0:0:0:0:
64,192,61050,128,0,61200:0:0:0:0:
192,192,61200,128,0,61350:0:0:0:0:
320,192,61350,128,0,61650:0:0:0:0:
448,192,61350,128,0,61425:0:0:0:0:
448,192,61650,128,0,61950:0:0:0:0:
192,192,61650,128,0,61725:0:0:0:0:
64,192,61800,128,0,61950:0:0:0:0:
192,192,61950,128,0,62100:0:0:0:0:
320,192,62100,128,0,62400:0:0:0:0:
448,192,62100,128,0,62250:0:0:0:0:
64,192,62250,128,0,62400:0:0:0:0:
192,192,62400,128,0,62550:0:0:0:0:
448,192,62550,128,0,62850:0:0:0:0:
320,192,62550,128,0,62700:0:0:0:0:
64,192,62850,128,0,63000:0:0:0:0:
320,192,63000,128,0,63150:0:0:0:0:
64,192,63150,128,0,63300:0:0:0:0:
192,192,63300,128,0,63450:0:0:0:0:
448,192,63300,128,0,63600:0:0:0:0:
320,192,63450,128,0,63600:0:0:0:0:
64,192,63600,128,0,63750:0:0:0:0:
192,192,63750,128,0,64500:0:0:0:0:
448,192,63750,128,0,64050:0:0:0:0:
64,192,64500,1,0,0:0:0:0:
448,192,64500,128,0,64575:0:0:0:0:
320,192,64500,1,0,0:0:0:0:
448,192,64650,128,0,64725:0:0:0:0:
448,192,64800,128,0,64875:0:0:0:0:
448,192,64950,128,0,65025:0:0:0:0:
448,192,65100,128,0,65175:0:0:0:0:
320,192,65250,128,0,65325:0:0:0:0:
64,192,65400,128,0,65475:0:0:0:0:
192,192,65550,128,0,65625:0:0:0:0:
448,192,65700,128,0,65775:0:0:0:0:
64,192,65850,128,0,65925:0:0:0:0:
320,192,66000,128,0,66075:0:0:0:0:
64,192,66150,128,0,66225:0:0:0:0:
192,192,66300,128,0,66375:0:0:0:0:
192,192,66450,128,0,66525:0:0:0:0:
320,192,66600,128,0,66900:0:0:0:0:
64,192,66900,1,0,0:0:0:0:
448,192,66900,1,0,0:0:0:0:
192,192,66900,1,0,0:0:0:0:
448,192,67200,128,0,67275:0:0:0:0:
448,192,67350,128,0,67425:0:0:0:0:
448,192,67500,128,0,67575:0:0:0:0:
64,192,67650,128,0,67725:0:0:0:0:
320,192,67800,128,0,67875:0:0:0:0:
192,192,67950,128,0,68025:0:0:0:0:
320,192,68100,128,0,68175:0:0:0:0:
64,192,68250,128,0,68325:0:0:0:0:
448,192,68400,128,0,68475:0:0:0:0:
192,192,68550,128,0,68625:0:0:0:0:
320,192,68700,128,0,68775:0:0:0:0:
64,192,68850,128,0,68925:0:0:0:0:
448,192,68925,1,0,0:0:0:0:
192,192,69000,128,0,69300:0:0:0:0:
320,192,69150,128,0,69225:0:0:0:0:
64,192,69300,1,0,0:0:0:0:
448,192,69300,1,0,0:0:0:0:
320,192,69300,1,0,0:0:0:0:
192,192,69450,128,0,69525:0:0:0:0:
320,192,69600,128,0,69675:0:0:0:0:
320,192,69750,128,0,69825:0:0:0:0:
320,192,69900,128,0,69975:0:0:0:0:
64,192,70050,128,0,70125:0:0:0:0:
192,192,70200,128,0,70275:0:0:0:0:
320,192,70350,128,0,70425:0:0:0:0:
64,192,70500,1,0,0:0:0:0:
448,192,70500,1,0,0:0:0:0:
320,192,70500,1,0,0:0:0:0:
192,192,70650,128,0,70725:0:0:0:0:
320,192,70800,128,0,70875:0:0:0:0:
320,192,70950,128,0,71025:0:0:0:0:
320,192,71100,128,0,71175:0:0:0:0:
64,192,71250,128,0,71325:0:0:0:0:
192,192,71325,1,0,0:0:0:0:
320,192,71400,128,0,71475:0:0:0:0:
192,192,71550,128,0,71625:0:0:0:0:
64,192,71700,1,0,0:0:0:0:
448,192,71700,1,0,0:0:0:0:
320,192,71700,1,0,0:0:0:0:
192,192,71850,128,0,71925:0:0:0:0:
320,192,72000,128,0,72075:0:0:0:0:
320,192,72150,128,0,72225:0:0:0:0:
64,192,72300,1,0,0:0:0:0:
448,192,72300,1,0,0:0:0:0:
320,192,72300,128,0,72375:0:0:0:0:
192,192,72450,128,0,72525:0:0:0:0:
448,192,72600,128,0,72675:0:0:0:0:
320,192,72750,128,0,72825:0:0:0:0:
64,192,72900,1,0,0:0:0:0:
448,192,72900,1,0,0:0:0:0:
192,192,72900,1,0,0:0:0:0:
320,192,72975,1,0,0:0:0:0:
64,192,73050,1,0,0:0:0:0:
192,192,73125,1,0,0:0:0:0:
64,192,73200,1,0,0:0:0:0:
448,192,73200,1,0,0:0:0:0:
320,192,73200,1,0,0:0:0:0:
192,192,73275,1,0,0:0:0:0:
448,192,73350,1,0,0:0:0:0:
320,192,73425,1,0,0:0:0:0:
64,192,73500,1,0,0:0:0:0:
448,192,73500,1,0,0:0:0:0:
192,192,73500,1,0,0:0:0:0:
320,192,73650,128,0,73950:0:0:0:0:
64,192,73875,128,0,74100:0:0:0:0:
192,192,74100,1,0,0:0:0:0:
448,192,74100,1,0,0:0:0:0:
320,192,74100,128,0,74400:0:0:0:0:
64,192,74400,1,0,0:0:0:0:
192,192,74400,1,0,0:0:0:0:
448,192,74400,1,0,0:0:0:0:
448,192,74700,128,0,74925:0:0:0:0:
192,192,74700,1,0,0:0:0:0:
448,192,75000,128,0,75075:0:0:0:0:
192,192,75000,1,0,0:0:0:0:
320,192,75000,1,0,0:0:0:0:
448,192,75150,128,0,75225:0:0:0:0:
448,192,75300,128,0,75375:0:0:0:0:
64,192,75300,1,0,0:0:0:0:
192,192,75300,1,0,0:0:0:0:
448,192,75450,128,0,75525:0:0:0:0:
448,192,75600,128,0,75675:0:0:0:0:
64,192,75600,1,0,0:0:0:0:
320,192,75600,1,0,0:0:0:0:
448,192,75750,128,0,75825:0:0:0:0:
448,192,75900,128,0,75975:0:0:0:0:
64,192,75900,1,0,0:0:0:0:
192,192,75900,1,0,0:0:0:0:
448,192,76050,128,0,76125:0:0:0:0:
64,192,76200,128,0,76500:0:0:0:0:
320,192,76200,1,0,0:0:0:0:
448,192,76200,1,0,0:0:0:0:
448,192,76500,1,0,0:0:0:0:
192,192,76500,1,0,0:0:0:0:
320,192,76500,128,0,76800:0:0:0:0:
64,192,76800,1,0,0:0:0:0:
192,192,76800,1,0,0:0:0:0:
448,192,76800,1,0,0:0:0:0:
448,192,77100,128,0,77325:0:0:0:0:
192,192,77100,1,0,0:0:0:0:
64,192,77400,1,0,0:0:0:0:
448,192,77400,128,0,77475:0:0:0:0:
320,192,77400,1,0,0:0:0:0:
448,192,77550,128,0,77625:0:0:0:0:
448,192,77700,128,0,77925:0:0:0:0:
64,192,77700,1,0,0:0:0:0:
192,192,77700,1,0,0:0:0:0:
448,192,78000,128,0,78075:0:0:0:0:
320,192,78000,1,0,0:0:0:0:
64,192,78000,1,0,0:0:0:0:
448,192,78150,128,0,78225:0:0:0:0:
448,192,78300,128,0,78375:0:0:0:0:
64,192,78300,1,0,0:0:0:0:
192,192,78300,1,0,0:0:0:0:
320,192,78450,128,0,78525:0:0:0:0:
192,192,78600,128,0,78825:0:0:0:0:
320,192,78600,1,0,0:0:0:0:
448,192,78600,1,0,0:0:0:0:
192,192,78900,1,0,0:0:0:0:
320,192,78900,1,0,0:0:0:0:
448,192,78900,1,0,0:0:0:0:
64,192,78900,1,0,0:0:0:0:
64,192,79050,1,0,0:0:0:0:
448,192,79050,1,0,0:0:0:0:
192,192,79200,1,0,0:0:0:0:
320,192,79200,1,0,0:0:0:0:
448,192,79200,1,0,0:0:0:0:
448,192,79500,128,0,79725:0:0:0:0:
192,192,79500,1,0,0:0:0:0:
448,192,79800,128,0,79875:0:0:0:0:
320,192,79800,1,0,0:0:0:0:
192,192,79800,1,0,0:0:0:0:
448,192,79950,128,0,80025:0:0:0:0:
448,192,80100,128,0,80175:0:0:0:0:
192,192,80100,1,0,0:0:0:0:
64,192,80100,1,0,0:0:0:0:
448,192,80250,128,0,80325:0:0:0:0:
448,192,80400,128,0,80475:0:0:0:0:
320,192,80400,1,0,0:0:0:0:
192,192,80400,1,0,0:0:0:0:
448,192,80550,128,0,80625:0:0:0:0:
448,192,80700,128,0,80775:0:0:0:0:
64,192,80700,1,0,0:0:0:0:
192,192,80700,1,0,0:0:0:0:
448,192,80850,128,0,80925:0:0:0:0:
64,192,80850,128,0,81000:0:0:0:0:
448,192,81000,128,0,81075:0:0:0:0:
192,192,81000,1,0,0:0:0:0:
320,192,81000,128,0,81150:0:0:0:0:
192,192,81150,128,0,81300:0:0:0:0:
64,192,81300,1,0,0:0:0:0:
448,192,81300,128,0,81600:0:0:0:0:
64,192,81600,1,0,0:0:0:0:
192,192,81600,1,0,0:0:0:0:
320,192,81600,128,0,81900:0:0:0:0:
448,192,81900,1,0,0:0:0:0:
64,192,81900,128,0,82050:0:0:0:0:
192,192,82050,128,0,82200:0:0:0:0:
448,192,82200,128,0,82350:0:0:0:0:
320,192,82200,1,0,0:0:0:0:
64,192,82200,1,0,0:0:0:0:
192,192,82350,128,0,82800:0:0:0:0:
320,192,82500,1,0,0:0:0:0:
448,192,82500,1,0,0:0:0:0:
448,192,82800,128,0,82950:0:0:0:0:
64,192,82800,1,0,0:0:0:0:
320,192,82800,1,0,0:0:0:0:
320,192,82950,128,0,83400:0:0:0:0:
192,192,83100,1,0,0:0:0:0:
64,192,83100,1,0,0:0:0:0:
64,192,83400,128,0,83700:0:0:0:0:
448,192,83400,128,0,83700:0:0:0:0:
192,192,83400,1,0,0:0:0:0:
320,192,83700,1,0,0:0:0:0:
192,192,83700,128,0,84000:0:0:0:0:
64,192,84000,1,0,0:0:0:0:
320,192,84000,1,0,0:0:0:0:
448,192,84000,1,0,0:0:0:0:
448,192,84300,128,0,84525:0:0:0:0:
192,192,84300,128,0,84600:0:0:0:0:
64,192,84600,1,0,0:0:0:0:
448,192,84600,128,0,84675:0:0:0:0:
320,192,84600,1,0,0:0:0:0:
448,192,84750,128,0,84825:0:0:0:0:
448,192,84900,128,0,84975:0:0:0:0:
64,192,84900,1,0,0:0:0:0:
192,192,84900,128,0,85200:0:0:0:0:
448,192,85050,128,0,85125:0:0:0:0:
448,192,85200,128,0,85275:0:0:0:0:
64,192,85200,1,0,0:0:0:0:
320,192,85200,1,0,0:0:0:0:
448,192,85350,128,0,85425:0:0:0:0:
448,192,85500,128,0,85575:0:0:0:0:
64,192,85500,1,0,0:0:0:0:
192,192,85500,128,0,85800:0:0:0:0:
448,192,85650,128,0,85725:0:0:0:0:
448,192,85800,1,0,0:0:0:0:
64,192,85800,1,0,0:0:0:0:
320,192,85800,128,0,86025:0:0:0:0:
192,192,85950,128,0,86100:0:0:0:0:
64,192,86100,1,0,0:0:0:0:
320,192,86100,128,0,86400:0:0:0:0:
448,192,86100,1,0,0:0:0:0:
64,192,86400,1,0,0:0:0:0:
192,192,86400,1,0,0:0:0:0:
448,192,86400,1,0,0:0:0:0:
448,192,86700,128,0,86925:0:0:0:0:
192,192,86700,128,0,87000:0:0:0:0:
448,192,87000,128,0,87075:0:0:0:0:
64,192,87000,1,0,0:0:0:0:
320,192,87000,1,0,0:0:0:0:
448,192,87150,128,0,87225:0:0:0:0:
448,192,87300,128,0,87525:0:0:0:0:
320,192,87300,1,0,0:0:0:0:
192,192,87300,128,0,87600:0:0:0:0:
448,192,87600,128,0,87675:0:0:0:0:
64,192,87600,1,0,0:0:0:0:
320,192,87600,1,0,0:0:0:0:
448,192,87750,128,0,87825:0:0:0:0:
448,192,87900,128,0,87975:0:0:0:0:
192,192,87900,128,0,88200:0:0:0:0:
64,192,87900,1,0,0:0:0:0:
320,192,88050,128,0,88125:0:0:0:0:
64,192,88200,128,0,88425:0:0:0:0:
448,192,88200,1,0,0:0:0:0:
320,192,88200,1,0,0:0:0:0:
192,192,88350,128,0,88425:0:0:0:0:
64,192,88500,1,0,0:0:0:0:
192,192,88500,1,0,0:0:0:0:
320,192,88500,1,0,0:0:0:0:
448,192,88500,1,0,0:0:0:0:
448,192,88650,1,0,0:0:0:0:
192,192,88650,1,0,0:0:0:0:
448,192,88800,1,0,0:0:0:0:
64,192,88800,1,0,0:0:0:0:
320,192,88800,1,0,0:0:0:0:
192,192,89100,1,0,0:0:0:0:
448,192,89100,128,0,89325:0:0:0:0:
448,192,89400,128,0,89475:0:0:0:0:
64,192,89400,1,0,0:0:0:0:
320,192,89400,1,0,0:0:0:0:
448,192,89550,128,0,89625:0:0:0:0:
64,192,89550,1,0,0:0:0:0:
320,192,89625,1,0,0:0:0:0:
448,192,89700,128,0,89775:0:0:0:0:
64,192,89700,1,0,0:0:0:0:
192,192,89700,1,0,0:0:0:0:
448,192,89850,128,0,89925:0:0:0:0:
192,192,89850,1,0,0:0:0:0:
448,192,90000,128,0,90075:0:0:0:0:
320,192,90000,1,0,0:0:0:0:
64,192,90000,1,0,0:0:0:0:
448,192,90150,128,0,90225:0:0:0:0:
320,192,90150,1,0,0:0:0:0:
448,192,90300,128,0,90375:0:0:0:0:
192,192,90300,1,0,0:0:0:0:
64,192,90300,1,0,0:0:0:0:
64,192,90450,128,0,90600:0:0:0:0:
320,192,90525,1,0,0:0:0:0:
192,192,90600,128,0,90750:0:0:0:0:
448,192,90600,1,0,0:0:0:0:
64,192,90750,1,0,0:0:0:0:
320,192,90750,128,0,90900:0:0:0:0:
448,192,90900,1,0,0:0:0:0:
192,192,90900,128,0,91200:0:0:0:0:
448,192,91050,1,0,0:0:0:0:
64,192,91200,128,0,91500:0:0:0:0:
320,192,91200,1,0,0:0:0:0:
448,192,91350,1,0,0:0:0:0:
320,192,91425,1,0,0:0:0:0:
448,192,91500,1,0,0:0:0:0:
192,192,91500,128,0,91650:0:0:0:0:
448,192,91650,128,0,91800:0:0:0:0:
320,192,91650,1,0,0:0:0:0:
64,192,91800,1,0,0:0:0:0:
320,192,91800,128,0,91950:0:0:0:0:
448,192,91875,1,0,0:0:0:0:
192,192,91950,128,0,92100:0:0:0:0:
64,192,91950,1,0,0:0:0:0:
320,192,92100,1,0,0:0:0:0:
448,192,92100,1,0,0:0:0:0:
64,192,92175,1,0,0:0:0:0:
192,192,92250,1,0,0:0:0:0:
320,192,92325,1,0,0:0:0:0:
448,192,92325,1,0,0:0:0:0:
64,192,92400,1,0,0:0:0:0:
192,192,92475,1,0,0:0:0:0:
320,192,92550,1,0,0:0:0:0:
448,192,92550,128,0,93300:0:0:0:0:
64,192,92775,1,0,0:0:0:0:
192,192,92850,1,0,0:0:0:0:
64,192,92925,1,0,0:0:0:0:
192,192,93000,1,0,0:0:0:0:
64,192,93300,1,0,0:0:0:0:
320,192,93300,128,0,93450:0:0:0:0:
192,192,93450,128,0,93600:0:0:0:0:
64,192,93600,1,0,0:0:0:0:
320,192,93600,1,0,0:0:0:0:
448,192,93600,128,0,93750:0:0:0:0:
320,192,93750,128,0,94050:0:0:0:0:
192,192,93900,1,0,0:0:0:0:
64,192,93900,1,0,0:0:0:0:
64,192,94050,128,0,94200:0:0:0:0:
192,192,94200,128,0,94350:0:0:0:0:
320,192,94200,1,0,0:0:0:0:
448,192,94200,1,0,0:0:0:0:
320,192,94350,128,0,94500:0:0:0:0:
448,192,94500,128,0,94650:0:0:0:0:
64,192,94500,1,0,0:0:0:0:
192,192,94500,1,0,0:0:0:0:
64,192,94650,128,0,94800:0:0:0:0:
320,192,94800,128,0,94950:0:0:0:0:
192,192,94800,1,0,0:0:0:0:
448,192,94800,1,0,0:0:0:0:
192,192,94950,128,0,95250:0:0:0:0:
64,192,95100,1,0,0:0:0:0:
320,192,95100,1,0,0:0:0:0:
448,192,95250,128,0,95400:0:0:0:0:
320,192,95400,128,0,95550:0:0:0:0:
64,192,95400,1,0,0:0:0:0:
192,192,95400,1,0,0:0:0:0:
64,192,95550,128,0,95700:0:0:0:0:
448,192,95700,128,0,95850:0:0:0:0:
320,192,95700,1,0,0:0:0:0:
192,192,95850,128,0,96000:0:0:0:0:
320,192,96000,128,0,96150:0:0:0:0:
64,192,96000,1,0,0:0:0:0:
448,192,96000,1,0,0:0:0:0:
64,192,96150,128,0,96450:0:0:0:0:
192,192,96300,1,0,0:0:0:0:
320,192,96300,1,0,0:0:0:0:
448,192,96450,128,0,96600:0:0:0:0:
192,192,96600,128,0,96750:0:0:0:0:
320,192,96600,1,0,0:0:0:0:
64,192,96600,1,0,0:0:0:0:
320,192,96750,128,0,96900:0:0:0:0:
64,192,96900,128,0,97050:0:0:0:0:
448,192,96900,1,0,0:0:0:0:
192,192,97050,128,0,97200:0:0:0:0:
320,192,97200,128,0,97350:0:0:0:0:
64,192,97200,1,0,0:0:0:0:
448,192,97200,1,0,0:0:0:0:
448,192,97350,128,0,97650:0:0:0:0:
192,192,97500,1,0,0:0:0:0:
320,192,97500,1,0,0:0:0:0:
64,192,97650,128,0,97800:0:0:0:0:
320,192,97800,128,0,97950:0:0:0:0:
192,192,97800,1,0,0:0:0:0:
448,192,97800,1,0,0:0:0:0:
192,192,97950,128,0,98100:0:0:0:0:
448,192,98100,128,0,98250:0:0:0:0:
64,192,98100,1,0,0:0:0:0:
320,192,98250,128,0,98400:0:0:0:0:
192,192,98400,128,0,98550:0:0:0:0:
448,192,98400,1,0,0:0:0:0:
64,192,98400,1,0,0:0:0:0:
64,192,98550,128,0,98850:0:0:0:0:
320,192,98700,1,0,0:0:0:0:
192,192,98700,1,0,0:0:0:0:
448,192,98850,128,0,99000:0:0:0:0:
192,192,99000,128,0,99150:0:0:0:0:
64,192,99000,1,0,0:0:0:0:
320,192,99000,1,0,0:0:0:0:
320,192,99150,128,0,99300:0:0:0:0:
64,192,99300,128,0,99450:0:0:0:0:
448,192,99300,1,0,0:0:0:0:
192,192,99450,128,0,99600:0:0:0:0:
320,192,99600,128,0,99750:0:0:0:0:
64,192,99600,1,0,0:0:0:0:
448,192,99600,1,0,0:0:0:0:
448,192,99750,128,0,100050:0:0:0:0:
64,192,99900,128,0,100050:0:0:0:0:
192,192,99900,1,0,0:0:0:0:
320,192,100050,128,0,100200:0:0:0:0:
448,192,100200,128,0,100350:0:0:0:0:
64,192,100200,1,0,0:0:0:0:
192,192,100200,1,0,0:0:0:0:
192,192,100350,128,0,100500:0:0:0:0:
64,192,100500,128,0,100650:0:0:0:0:
448,192,100500,1,0,0:0:0:0:
320,192,100650,128,0,100800:0:0:0:0:
192,192,100800,128,0,100950:0:0:0:0:
448,192,100950,128,0,101250:0:0:0:0:
64,192,100950,1,0,0:0:0:0:
192,192,101100,1,0,0:0:0:0:
320,192,101100,1,0,0:0:0:0:
64,192,101250,128,0,101400:0:0:0:0:
320,192,101400,128,0,101550:0:0:0:0:
448,192,101400,1,0,0:0:0:0:
64,192,101550,128,0,101700:0:0:0:0:
448,192,101700,128,0,101850:0:0:0:0:
192,192,101700,1,0,0:0:0:0:
320,192,101850,128,0,102000:0:0:0:0:
64,192,101925,1,0,0:0:0:0:
192,192,101925,1,0,0:0:0:0:
448,192,102000,128,0,102150:0:0:0:0:
192,192,102150,1,0,0:0:0:0:
64,192,102150,128,0,102450:0:0:0:0:
320,192,102300,1,0,0:0:0:0:
448,192,102300,1,0,0:0:0:0:
192,192,102450,128,0,102600:0:0:0:0:
320,192,102600,128,0,102750:0:0:0:0:
64,192,102600,128,0,102825:0:0:0:0:
448,192,102750,128,0,102900:0:0:0:0:
192,192,102900,1,0,0:0:0:0:
320,192,102900,1,0,0:0:0:0:
64,192,102900,1,0,0:0:0:0:
192,192,103050,1,0,0:0:0:0:
320,192,103050,1,0,0:0:0:0:
64,192,103200,1,0,0:0:0:0:
320,192,103200,1,0,0:0:0:0:
448,192,103200,1,0,0:0:0:0:
192,192,103350,1,0,0:0:0:0:
64,192,103350,1,0,0:0:0:0:
192,192,103500,1,0,0:0:0:0:
448,192,103500,1,0,0:0:0:0:
320,192,103650,1,0,0:0:0:0:
192,192,103800,1,0,0:0:0:0:
64,192,103800,1,0,0:0:0:0:
448,192,103800,1,0,0:0:0:0:
64,192,103950,1,0,0:0:0:0:
320,192,103950,1,0,0:0:0:0:
320,192,104100,1,0,0:0:0:0:
192,192,104100,1,0,0:0:0:0:
64,192,104250,1,0,0:0:0:0:
320,192,104400,1,0,0:0:0:0:
448,192,104400,1,0,0:0:0:0:
192,192,104400,1,0,0:0:0:0:
64,192,104550,1,0,0:0:0:0:
192,192,104700,1,0,0:0:0:0:
448,192,104700,1,0,0:0:0:0:
320,192,104850,1,0,0:0:0:0:
64,192,105000,1,0,0:0:0:0:
192,192,105000,1,0,0:0:0:0:
448,192,105000,1,0,0:0:0:0:
320,192,105150,1,0,0:0:0:0:
448,192,105150,1,0,0:0:0:0:
64,192,105300,1,0,0:0:0:0:
448,192,105300,1,0,0:0:0:0:
192,192,105450,1,0,0:0:0:0:
64,192,105600,1,0,0:0:0:0:
448,192,105600,1,0,0:0:0:0:
320,192,105600,1,0,0:0:0:0:
192,192,105750,1,0,0:0:0:0:
64,192,105750,1,0,0:0:0:0:
320,192,105900,1,0,0:0:0:0:
448,192,105900,1,0,0:0:0:0:
192,192,106050,1,0,0:0:0:0:
64,192,106200,1,0,0:0:0:0:
448,192,106200,1,0,0:0:0:0:
320,192,106200,1,0,0:0:0:0:
64,192,106350,1,0,0:0:0:0:
192,192,106350,1,0,0:0:0:0:
448,192,106500,1,0,0:0:0:0:
320,192,106500,1,0,0:0:0:0:
192,192,106650,1,0,0:0:0:0:
64,192,106800,1,0,0:0:0:0:
192,192,106800,1,0,0:0:0:0:
320,192,106800,1,0,0:0:0:0:
448,192,106950,1,0,0:0:0:0:
192,192,107100,1,0,0:0:0:0:
320,192,107100,1,0,0:0:0:0:
192,192,107250,1,0,0:0:0:0:
448,192,107250,1,0,0:0:0:0:
320,192,107400,1,0,0:0:0:0:
448,192,107400,1,0,0:0:0:0:
64,192,107400,1,0,0:0:0:0:
192,192,107550,1,0,0:0:0:0:
64,192,107550,1,0,0:0:0:0:
448,192,107700,1,0,0:0:0:0:
192,192,107700,1,0,0:0:0:0:
448,192,107850,1,0,0:0:0:0:
320,192,107850,1,0,0:0:0:0:
448,192,108000,1,0,0:0:0:0:
64,192,108000,1,0,0:0:0:0:
192,192,108000,1,0,0:0:0:0:
448,192,108150,1,0,0:0:0:0:
320,192,108150,1,0,0:0:0:0:
64,192,108300,1,0,0:0:0:0:
448,192,108300,1,0,0:0:0:0:
320,192,108450,1,0,0:0:0:0:
64,192,108600,1,0,0:0:0:0:
192,192,108600,1,0,0:0:0:0:
448,192,108600,1,0,0:0:0:0:
320,192,108750,1,0,0:0:0:0:
64,192,108750,1,0,0:0:0:0:
448,192,108900,1,0,0:0:0:0:
64,192,108900,1,0,0:0:0:0:
192,192,109050,1,0,0:0:0:0:
320,192,109200,1,0,0:0:0:0:
448,192,109200,1,0,0:0:0:0:
64,192,109200,1,0,0:0:0:0:
448,192,109350,1,0,0:0:0:0:
64,192,109500,1,0,0:0:0:0:
320,192,109500,1,0,0:0:0:0:
192,192,109650,1,0,0:0:0:0:
64,192,109800,1,0,0:0:0:0:
448,192,109800,1,0,0:0:0:0:
320,192,109800,1,0,0:0:0:0:
192,192,109950,1,0,0:0:0:0:
320,192,109950,1,0,0:0:0:0:
64,192,110100,1,0,0:0:0:0:
448,192,110100,1,0,0:0:0:0:
192,192,110250,1,0,0:0:0:0:
320,192,110400,1,0,0:0:0:0:
448,192,110400,1,0,0:0:0:0:
64,192,110400,1,0,0:0:0:0:
320,192,110550,1,0,0:0:0:0:
192,192,110550,1,0,0:0:0:0:
192,192,110700,1,0,0:0:0:0:
448,192,110700,1,0,0:0:0:0:
320,192,110850,1,0,0:0:0:0:
64,192,111000,1,0,0:0:0:0:
192,192,111000,1,0,0:0:0:0:
448,192,111000,1,0,0:0:0:0:
64,192,111150,1,0,0:0:0:0:
320,192,111150,1,0,0:0:0:0:
192,192,111300,1,0,0:0:0:0:
320,192,111300,1,0,0:0:0:0:
448,192,111375,1,0,0:0:0:0:
64,192,111450,1,0,0:0:0:0:
320,192,111525,1,0,0:0:0:0:
64,192,111600,1,0,0:0:0:0:
448,192,111675,1,0,0:0:0:0:
320,192,111750,1,0,0:0:0:0:
192,192,111750,1,0,0:0:0:0:
448,192,112050,1,0,0:0:0:0:
320,192,112200,128,0,112500:0:0:0:0:
192,192,112350,128,0,112500:0:0:0:0:
64,192,112500,1,0,0:0:0:0:
448,192,112500,1,0,0:0:0:0:
64,192,112650,1,0,0:0:0:0:
64,192,112800,1,0,0:0:0:0:
64,192,112950,1,0,0:0:0:0:
64,192,113100,1,0,0:0:0:0:
448,192,113100,1,0,0:0:0:0:
320,192,113100,1,0,0:0:0:0:
192,192,113250,128,0,113400:0:0:0:0:
64,192,113400,1,0,0:0:0:0:
320,192,113400,1,0,0:0:0:0:
64,192,113550,1,0,0:0:0:0:
448,192,113550,1,0,0:0:0:0:
64,192,113700,1,0,0:0:0:0:
448,192,113700,1,0,0:0:0:0:
320,192,113850,1,0,0:0:0:0:
192,192,113850,1,0,0:0:0:0:
64,192,114000,1,0,0:0:0:0:
448,192,114000,1,0,0:0:0:0:
192,192,114150,1,0,0:0:0:0:
320,192,114150,1,0,0:0:0:0:
64,192,114300,1,0,0:0:0:0:
448,192,114300,1,0,0:0:0:0:
448,192,114450,1,0,0:0:0:0:
320,192,114600,1,0,0:0:0:0:
64,192,114600,128,0,114900:0:0:0:0:
192,192,114900,128,0,115200:0:0:0:0:
448,192,114900,128,0,115200:0:0:0:0:
64,192,115200,1,0,0:0:0:0:
64,192,115350,1,0,0:0:0:0:
448,192,115500,1,0,0:0:0:0:
320,192,115500,1,0,0:0:0:0:
64,192,115500,1,0,0:0:0:0:
192,192,115650,128,0,115800:0:0:0:0:
448,192,115800,1,0,0:0:0:0:
64,192,115800,1,0,0:0:0:0:
320,192,115950,1,0,0:0:0:0:
64,192,115950,1,0,0:0:0:0:
448,192,116100,1,0,0:0:0:0:
64,192,116100,1,0,0:0:0:0:
320,192,116250,1,0,0:0:0:0:
192,192,116250,1,0,0:0:0:0:
448,192,116400,1,0,0:0:0:0:
64,192,116400,1,0,0:0:0:0:
192,192,116550,1,0,0:0:0:0:
320,192,116550,1,0,0:0:0:0:
448,192,116700,1,0,0:0:0:0:
64,192,116700,1,0,0:0:0:0:
320,192,116850,1,0,0:0:0:0:
448,192,117000,128,0,117225:0:0:0:0:
64,192,117000,128,0,117300:0:0:0:0:
192,192,117300,1,0,0:0:0:0:
320,192,117300,1,0,0:0:0:0:
448,192,117300,1,0,0:0:0:0:
448,192,117450,1,0,0:0:0:0:
192,192,117600,1,0,0:0:0:0:
448,192,117600,1,0,0:0:0:0:
448,192,117750,1,0,0:0:0:0:
448,192,117900,1,0,0:0:0:0:
64,192,117900,128,0,118200:0:0:0:0:
448,192,118200,1,0,0:0:0:0:
192,192,118200,1,0,0:0:0:0:
64,192,118350,1,0,0:0:0:0:
448,192,118350,1,0,0:0:0:0:
64,192,118500,1,0,0:0:0:0:
448,192,118500,1,0,0:0:0:0:
320,192,118650,1,0,0:0:0:0:
192,192,118650,1,0,0:0:0:0:
64,192,118800,1,0,0:0:0:0:
448,192,118800,1,0,0:0:0:0:
192,192,118950,1,0,0:0:0:0:
320,192,118950,1,0,0:0:0:0:
64,192,119100,1,0,0:0:0:0:
448,192,119100,1,0,0:0:0:0:
448,192,119250,1,0,0:0:0:0:
64,192,119250,1,0,0:0:0:0:
64,192,119400,1,0,0:0:0:0:
448,192,119400,128,0,119700:0:0:0:0:
192,192,119550,128,0,119700:0:0:0:0:
64,192,119700,1,0,0:0:0:0:
320,192,119700,1,0,0:0:0:0:
448,192,120000,1,0,0:0:0:0:
64,192,120000,1,0,0:0:0:0:
448,192,120150,1,0,0:0:0:0:
64,192,120150,1,0,0:0:0:0:
448,192,120300,1,0,0:0:0:0:
64,192,120300,1,0,0:0:0:0:
448,192,120450,1,0,0:0:0:0:
192,192,120450,1,0,0:0:0:0:
448,192,120600,1,0,0:0:0:0:
64,192,120600,1,0,0:0:0:0:
448,192,120750,1,0,0:0:0:0:
64,192,120750,1,0,0:0:0:0:
320,192,120900,1,0,0:0:0:0:
192,192,120975,1,0,0:0:0:0:
448,192,121050,1,0,0:0:0:0:
64,192,121125,1,0,0:0:0:0:
448,192,121200,1,0,0:0:0:0:
64,192,121275,1,0,0:0:0:0:
448,192,121350,1,0,0:0:0:0:
192,192,121600,1,0,0:0:0:0:
320,192,121600,1,0,0:0:0:0:
