osu file format v14

[General]
AudioFilename: audio.mp3
AudioLeadIn: 0
PreviewTime: 117635
Countdown: 0
SampleSet: Soft
StackLeniency: 0.7
Mode: 3
LetterboxInBreaks: 0
SpecialStyle: 0
WidescreenStoryboard: 0

[Editor]
DistanceSpacing: 1.4
BeatDivisor: 4
GridSize: 8
TimelineZoom: 2.1

[Metadata]
Title:Cyaegha
TitleUnicode:Cyaegha
Artist:USAO
ArtistUnicode:USAO
Creator:Draftnell
Version:Beginning
Source:Arcaea
Tags:Absolute Reason Conflict H. P. Lovecraft's Cthulhu Mythos 夜浪、旧支配者 Dubstep Hardcore RIP46 DoNotMess Maneh
BeatmapID:2017375
BeatmapSetID:962923

[Difficulty]
HPDrainRate:6.5
CircleSize:4
OverallDifficulty:6.5
ApproachRate:5
SliderMultiplier:1.4
SliderTickRate:1

[Events]
//Background and Video events
0,0,"BG by MEGAtive.jpg",0,0
//Break Periods
//Storyboard Layer 0 (Background)
//Storyboard Layer 1 (Fail)
//Storyboard Layer 2 (Pass)
//Storyboard Layer 3 (Foreground)
//Storyboard Layer 4 (Overlay)
//Storyboard Sound Samples

[TimingPoints]
2435,300,4,2,1,55,1,0
117635,-100,4,2,1,55,0,1
136835,-100,4,2,1,55,0,0

[HitObjects]
64,192,2435,5,4,0:0:0:0:
448,192,2435,1,0,0:0:0:0:
192,192,3335,1,0,0:0:0:0:
320,192,3635,1,0,0:0:0:0:
448,192,4535,1,0,0:0:0:0:
64,192,4835,1,0,0:0:0:0:
320,192,6035,1,0,0:0:0:0:
64,192,6635,1,0,0:0:0:0:
192,192,6935,1,0,0:0:0:0:
64,192,7235,1,4,0:0:0:0:
448,192,7235,1,2,0:0:0:0:
320,192,7535,1,0,0:0:0:0:
192,192,7835,1,0,0:0:0:55:clap.wav
64,192,8135,1,0,0:0:0:0:
448,192,8435,1,0,0:0:0:0:
64,192,8735,1,0,0:0:0:0:
192,192,9035,1,0,0:0:0:55:clap.wav
320,192,9335,1,0,0:0:0:0:
192,192,9635,1,0,0:0:0:0:
64,192,9935,1,0,0:0:0:0:
448,192,10235,1,0,0:0:0:55:clap.wav
192,192,10535,1,0,0:0:0:0:
64,192,10835,1,2,0:0:0:0:
448,192,10835,1,4,0:0:0:0:
320,192,11135,1,0,0:0:0:0:
192,192,11435,128,0,11735:0:0:0:0:
448,192,11735,128,2,12035:0:0:0:0:
64,192,12035,1,4,0:0:0:0:
192,192,12035,1,2,0:0:0:0:
320,192,12335,1,8,0:0:0:0:
448,192,12485,1,8,0:0:0:0:
192,192,12635,1,2,0:0:0:0:
448,192,12935,1,8,0:0:0:0:
64,192,13085,1,8,0:0:0:0:
320,192,13235,1,2,0:0:0:0:
448,192,13535,1,8,0:0:0:0:
320,192,13685,1,8,0:0:0:0:
192,192,13835,1,2,0:0:0:0:
64,192,14135,1,8,0:0:0:0:
192,192,14285,1,8,0:0:0:0:
320,192,14435,1,4,0:0:0:0:
448,192,14435,1,2,0:0:0:0:
64,192,14735,1,8,0:0:0:0:
448,192,14885,1,8,0:0:0:0:
192,192,15035,1,2,0:0:0:0:
320,192,15335,1,8,0:0:0:0:
192,192,15485,1,8,0:0:0:0:
64,192,15635,1,4,0:0:0:0:
448,192,15635,128,2,16235:0:0:0:0:
320,192,16235,128,0,16535:0:0:0:0:
192,192,16535,128,0,16835:0:0:0:0:
64,192,16835,1,2,0:0:0:0:
448,192,16835,1,12,0:0:0:0:
320,192,17135,1,8,0:0:0:0:
64,192,17435,1,8,0:0:0:0:
448,192,17735,1,8,0:0:0:0:
192,192,18035,1,8,0:0:0:0:
320,192,18335,1,8,0:0:0:0:
64,192,18635,1,8,0:0:0:0:
192,192,18935,1,8,0:0:0:0:
64,192,19235,1,6,0:0:0:0:
448,192,19235,1,8,0:0:0:0:
320,192,19385,1,8,0:0:0:0:
192,192,19535,1,8,0:0:0:0:
64,192,19835,1,8,0:0:0:0:
192,192,19985,1,8,0:0:0:0:
448,192,20135,1,8,0:0:0:0:
320,192,20285,1,8,0:0:0:0:
64,192,20435,1,4,0:0:0:0:
192,192,20435,1,2,0:0:0:0:
192,192,21335,1,2,0:0:0:0:
320,192,21485,1,2,0:0:0:0:
64,192,21635,128,4,21935:0:0:0:0:
448,192,21635,1,2,0:0:0:0:
192,192,21935,1,0,0:0:0:0:
448,192,22235,1,8,0:0:0:0:
320,192,22235,1,0,0:0:0:0:
192,192,22535,1,0,0:0:0:0:
192,192,22685,1,0,0:0:0:0:
320,192,22835,1,2,0:0:0:0:
192,192,23135,1,0,0:0:0:0:
320,192,23285,1,0,0:0:0:0:
64,192,23435,1,8,0:0:0:0:
448,192,23435,1,0,0:0:0:0:
192,192,23735,128,0,24035:0:0:0:0:
448,192,24035,1,2,0:0:0:0:
320,192,24335,1,0,0:0:0:0:
320,192,24485,1,0,0:0:0:0:
64,192,24635,1,8,0:0:0:0:
448,192,24635,1,0,0:0:0:0:
192,192,24935,1,0,0:0:0:0:
192,192,25085,1,0,0:0:0:0:
320,192,25235,1,2,0:0:0:0:
448,192,25535,1,0,0:0:0:0:
320,192,25685,1,0,0:0:0:0:
64,192,25835,1,8,0:0:0:0:
192,192,25835,1,0,0:0:0:0:
320,192,26135,128,0,26435:0:0:0:0:
64,192,26435,1,6,0:0:0:0:
448,192,26435,1,0,0:0:0:0:
192,192,26735,1,0,0:0:0:0:
320,192,26885,1,0,0:0:0:0:
448,192,27035,1,8,0:0:0:0:
320,192,27185,1,0,0:0:0:0:
192,192,27335,128,0,27635:0:0:0:0:
448,192,27635,1,2,0:0:0:0:
64,192,27935,1,0,0:0:0:0:
192,192,28085,1,0,0:0:0:0:
320,192,28235,1,8,0:0:0:0:
448,192,28235,1,0,0:0:0:0:
192,192,28535,1,0,0:0:0:0:
448,192,28685,1,0,0:0:0:0:
64,192,28835,1,2,0:0:0:0:
192,192,28985,1,0,0:0:0:0:
448,192,29135,128,0,29435:0:0:0:0:
64,192,29435,1,8,0:0:0:0:
320,192,29435,1,0,0:0:0:0:
192,192,29735,128,0,30035:0:0:0:0:
320,192,30035,1,2,0:0:0:0:
448,192,30035,128,0,30335:0:0:0:0:
64,192,30335,128,0,30635:0:0:0:0:
320,192,30635,128,0,30935:0:0:0:0:
192,192,30935,128,0,31235:0:0:0:0:
64,192,31235,1,2,0:0:0:0:
448,192,31235,128,4,31535:0:0:0:0:
320,192,31535,1,0,0:0:0:0:
64,192,31835,1,8,0:0:0:0:
448,192,31835,1,0,0:0:0:0:
320,192,31985,1,0,0:0:0:0:
192,192,32135,128,0,32435:0:0:0:0:
64,192,32435,1,2,0:0:0:0:
448,192,32735,1,0,0:0:0:0:
320,192,32885,1,0,0:0:0:0:
64,192,33035,1,8,0:0:0:0:
192,192,33035,1,0,0:0:0:0:
448,192,33335,1,0,0:0:0:0:
64,192,33485,1,0,0:0:0:0:
192,192,33635,1,2,0:0:0:0:
448,192,33785,1,0,0:0:0:0:
320,192,33935,128,0,34235:0:0:0:0:
64,192,34235,1,8,0:0:0:0:
448,192,34235,1,0,0:0:0:0:
320,192,34535,1,0,0:0:0:0:
320,192,34685,1,0,0:0:0:0:
64,192,34835,1,2,0:0:0:0:
448,192,34985,1,0,0:0:0:0:
192,192,35135,128,0,35435:0:0:0:0:
448,192,35435,1,8,0:0:0:0:
320,192,35435,1,0,0:0:0:0:
64,192,35585,1,0,0:0:0:0:
448,192,35735,128,0,36035:0:0:0:0:
64,192,36035,128,4,36335:0:0:0:0:
320,192,36035,1,2,0:0:0:0:
192,192,36335,1,0,0:0:0:0:
64,192,36635,1,8,0:0:0:0:
448,192,36635,1,0,0:0:0:0:
192,192,36785,1,0,0:0:0:0:
320,192,36935,128,0,37235:0:0:0:0:
64,192,37235,1,2,0:0:0:0:
448,192,37385,1,0,0:0:0:0:
192,192,37535,1,0,0:0:0:0:
320,192,37685,1,0,0:0:0:0:
448,192,37835,1,8,0:0:0:0:
64,192,37835,128,0,38135:0:0:0:0:
320,192,38135,1,0,0:0:0:0:
320,192,38285,1,0,0:0:0:0:
448,192,38435,1,2,0:0:0:0:
64,192,38585,1,0,0:0:0:0:
320,192,38735,128,0,39035:0:0:0:0:
448,192,39035,1,8,0:0:0:0:
192,192,39035,1,0,0:0:0:0:
64,192,39335,128,0,39635:0:0:0:0:
192,192,39635,1,2,0:0:0:0:
448,192,39785,1,0,0:0:0:0:
320,192,39935,1,0,0:0:0:0:
192,192,40085,1,0,0:0:0:0:
64,192,40235,128,0,40535:0:0:0:0:
448,192,40535,128,8,40835:0:0:0:0:
192,192,40835,128,4,41435:0:0:0:0:
320,192,40835,1,2,0:0:0:0:
448,192,41435,1,8,0:0:0:0:
64,192,41435,1,0,0:0:0:0:
448,192,41585,1,0,0:0:0:0:
320,192,41735,128,0,42035:0:0:0:0:
64,192,42035,128,2,42335:0:0:0:0:
192,192,42335,1,0,0:0:0:0:
192,192,42485,1,0,0:0:0:0:
320,192,42635,1,8,0:0:0:0:
448,192,42635,1,0,0:0:0:0:
64,192,42935,1,0,0:0:0:0:
448,192,43085,1,0,0:0:0:0:
192,192,43235,1,2,0:0:0:0:
320,192,43535,128,0,43835:0:0:0:0:
64,192,43835,1,8,0:0:0:0:
448,192,43835,1,0,0:0:0:0:
64,192,43985,1,0,0:0:0:0:
448,192,44135,1,0,0:0:0:0:
448,192,44285,1,0,0:0:0:0:
192,192,44435,128,2,44735:0:0:0:0:
320,192,44735,1,0,0:0:0:0:
320,192,44885,1,0,0:0:0:0:
64,192,45035,1,8,0:0:0:0:
448,192,45035,1,0,0:0:0:0:
320,192,45335,128,0,45635:0:0:0:0:
64,192,45635,128,4,45935:0:0:0:0:
448,192,45635,1,2,0:0:0:0:
192,192,45935,1,0,0:0:0:0:
448,192,46085,1,0,0:0:0:0:
192,192,46235,1,8,0:0:0:0:
64,192,46235,1,0,0:0:0:0:
448,192,46535,128,0,46835:0:0:0:0:
192,192,46835,1,2,0:0:0:0:
320,192,46985,1,0,0:0:0:0:
64,192,47135,1,0,0:0:0:0:
448,192,47285,1,0,0:0:0:0:
192,192,47435,1,8,0:0:0:0:
320,192,47435,1,0,0:0:0:0:
64,192,47735,1,0,0:0:0:0:
192,192,47885,1,0,0:0:0:0:
448,192,48035,1,2,0:0:0:0:
320,192,48185,1,0,0:0:0:0:
64,192,48335,128,0,48635:0:0:0:0:
192,192,48635,1,8,0:0:0:0:
320,192,48935,1,0,0:0:0:0:
320,192,49085,1,0,0:0:0:0:
64,192,49235,1,4,0:0:0:0:
448,192,49235,1,2,0:0:0:0:
192,192,49535,1,0,0:0:0:0:
320,192,49685,1,0,0:0:0:0:
64,192,49835,128,0,50135:0:0:0:0:
448,192,50135,128,0,50435:0:0:0:0:
64,192,50435,1,2,0:0:0:0:
192,192,50435,128,4,50735:0:0:0:0:
320,192,50735,1,0,0:0:0:0:
64,192,51035,1,8,0:0:0:0:
448,192,51035,1,0,0:0:0:0:
192,192,51185,1,0,0:0:0:0:
192,192,51335,128,0,51635:0:0:0:0:
448,192,51635,128,2,51935:0:0:0:0:
192,192,51935,1,0,0:0:0:0:
320,192,52085,1,0,0:0:0:0:
64,192,52235,1,8,0:0:0:0:
448,192,52235,1,0,0:0:0:0:
320,192,52535,128,0,52835:0:0:0:0:
64,192,52835,1,2,0:0:0:0:
192,192,53135,128,0,53435:0:0:0:0:
448,192,53435,1,8,0:0:0:0:
64,192,53435,1,0,0:0:0:0:
320,192,53585,1,0,0:0:0:0:
320,192,53735,1,0,0:0:0:0:
64,192,53885,1,0,0:0:0:0:
448,192,54035,1,2,0:0:0:0:
192,192,54035,128,0,54335:0:0:0:0:
320,192,54335,1,0,0:0:0:0:
320,192,54485,1,0,0:0:0:0:
64,192,54635,1,8,0:0:0:0:
192,192,54635,1,0,0:0:0:0:
448,192,54935,128,0,55235:0:0:0:0:
64,192,55235,1,4,0:0:0:0:
320,192,55235,1,2,0:0:0:0:
192,192,55535,128,0,55835:0:0:0:0:
448,192,55835,1,8,0:0:0:0:
320,192,55835,1,0,0:0:0:0:
64,192,55985,1,0,0:0:0:0:
320,192,56135,1,0,0:0:0:0:
64,192,56285,1,0,0:0:0:0:
448,192,56435,1,2,0:0:0:0:
192,192,56735,128,0,57035:0:0:0:0:
64,192,57035,1,8,0:0:0:0:
448,192,57035,1,0,0:0:0:0:
192,192,57185,1,0,0:0:0:0:
320,192,57335,128,0,57635:0:0:0:0:
448,192,57635,1,2,0:0:0:0:
192,192,57785,1,0,0:0:0:0:
64,192,57935,128,0,58235:0:0:0:0:
320,192,58235,1,8,0:0:0:0:
448,192,58235,1,0,0:0:0:0:
192,192,58535,128,0,58835:0:0:0:0:
448,192,58835,128,6,59135:0:0:0:0:
320,192,59135,128,0,59435:0:0:0:0:
192,192,59435,128,0,59735:0:0:0:0:
64,192,59735,128,2,60035:0:0:0:0:
448,192,60035,1,4,0:0:0:0:
320,192,60035,1,2,0:0:0:0:
192,192,60335,1,0,0:0:0:0:
320,192,60635,1,0,0:0:0:55:clap.wav
64,192,60935,1,0,0:0:0:0:
448,192,61235,1,0,0:0:0:0:
192,192,61535,1,0,0:0:0:0:
320,192,61835,1,0,0:0:0:55:clap.wav
64,192,62135,1,0,0:0:0:0:
448,192,62435,1,0,0:0:0:0:
320,192,62735,1,0,0:0:0:0:
192,192,63035,1,0,0:0:0:55:clap.wav
64,192,63335,1,0,0:0:0:0:
448,192,63635,1,0,0:0:0:0:
192,192,63935,1,0,0:0:0:0:
320,192,64235,1,0,0:0:0:55:clap.wav
64,192,64535,1,0,0:0:0:0:
448,192,64835,1,0,0:0:0:0:
320,192,65135,1,0,0:0:0:0:
192,192,65435,1,0,0:0:0:55:clap.wav
448,192,65735,1,0,0:0:0:0:
64,192,66035,1,0,0:0:0:0:
192,192,66335,1,0,0:0:0:0:
320,192,66635,1,0,0:0:0:55:clap.wav
448,192,66935,1,0,0:0:0:0:
64,192,67235,1,0,0:0:0:0:
320,192,67535,1,0,0:0:0:0:
192,192,67835,1,0,0:0:0:55:clap.wav
448,192,68135,1,0,0:0:0:0:
64,192,68435,1,0,0:0:0:0:
192,192,68735,1,0,0:0:0:0:
320,192,69035,1,0,0:0:0:55:clap.wav
448,192,69335,1,0,0:0:0:0:
192,192,69635,1,2,0:0:0:0:
320,192,69635,1,4,0:0:0:0:
64,192,69935,1,0,0:0:0:0:
192,192,70235,1,8,0:0:0:0:
448,192,70235,1,0,0:0:0:0:
320,192,70535,1,0,0:0:0:0:
64,192,70835,1,2,0:0:0:0:
192,192,71135,1,0,0:0:0:0:
64,192,71435,1,8,0:0:0:0:
448,192,71435,1,0,0:0:0:0:
320,192,71735,1,0,0:0:0:0:
192,192,72035,1,2,0:0:0:0:
448,192,72335,1,0,0:0:0:0:
64,192,72635,1,8,0:0:0:0:
192,192,72635,1,0,0:0:0:0:
320,192,72935,1,0,0:0:0:0:
192,192,73235,1,2,0:0:0:0:
64,192,73535,128,0,73835:0:0:0:0:
192,192,73835,128,8,74135:0:0:0:0:
448,192,73835,1,0,0:0:0:0:
320,192,74135,128,0,74435:0:0:0:0:
64,192,74435,1,4,0:0:0:0:
448,192,74435,1,2,0:0:0:0:
192,192,74735,1,0,0:0:0:0:
64,192,75035,1,8,0:0:0:0:
448,192,75035,1,0,0:0:0:0:
320,192,75335,1,0,0:0:0:0:
192,192,75635,1,2,0:0:0:0:
448,192,75935,1,0,0:0:0:0:
64,192,76235,1,8,0:0:0:0:
192,192,76235,1,0,0:0:0:0:
320,192,76535,1,0,0:0:0:0:
448,192,76835,128,2,77135:0:0:0:0:
320,192,77135,128,0,77435:0:0:0:0:
64,192,77435,1,8,0:0:0:0:
192,192,77435,128,0,77735:0:0:0:0:
448,192,77735,128,0,78035:0:0:0:0:
64,192,78035,128,2,78335:0:0:0:0:
320,192,78335,128,0,78635:0:0:0:0:
64,192,78635,1,8,0:0:0:0:
192,192,78635,128,0,78935:0:0:0:0:
448,192,78935,128,0,79235:0:0:0:0:
64,192,79235,1,4,0:0:0:0:
320,192,79235,1,2,0:0:0:0:
192,192,79685,1,8,0:0:0:0:
448,192,80135,1,8,0:0:0:0:
320,192,80285,1,8,0:0:0:0:
192,192,80435,1,8,0:0:0:0:
64,192,80885,1,8,0:0:0:0:
320,192,81335,1,8,0:0:0:0:
64,192,81485,1,8,0:0:0:0:
448,192,81635,1,8,0:0:0:0:
192,192,82085,1,8,0:0:0:0:
320,192,82535,1,8,0:0:0:0:
192,192,82685,1,8,0:0:0:0:
64,192,82835,1,2,0:0:0:0:
448,192,82835,1,12,0:0:0:0:
64,192,83435,1,0,0:0:0:0:
192,192,83735,1,2,0:0:0:0:
320,192,84035,1,4,0:0:0:0:
448,192,84035,1,2,0:0:0:0:
64,192,84335,1,8,0:0:0:0:
192,192,84635,1,2,0:0:0:0:
320,192,84785,1,8,0:0:0:0:
448,192,84935,128,2,85235:0:0:0:0:
64,192,85235,128,2,85535:0:0:0:0:
192,192,85535,1,8,0:0:0:0:
448,192,85685,1,8,0:0:0:0:
320,192,85835,128,2,86135:0:0:0:0:
192,192,86135,128,8,86435:0:0:0:0:
448,192,86435,128,10,86735:0:0:0:0:
64,192,86735,128,8,87035:0:0:0:0:
192,192,87035,128,10,87335:0:0:0:0:
320,192,87335,128,8,87635:0:0:0:0:
64,192,87635,1,2,0:0:0:0:
448,192,87635,1,4,0:0:0:0:
192,192,87935,1,0,0:0:0:55:clap.wav
320,192,88085,1,0,0:0:0:55:clap.wav
448,192,88235,128,8,88535:0:0:0:0:
64,192,88535,128,0,88835:0:0:0:0:
320,192,88835,1,2,0:0:0:0:
448,192,88835,1,4,0:0:0:0:
320,192,89285,1,8,0:0:0:0:
448,192,89285,1,0,0:0:0:0:
64,192,89735,1,8,0:0:0:0:
192,192,89735,1,0,0:0:0:0:
448,192,89885,1,8,0:0:0:0:
192,192,90035,1,2,0:0:0:0:
320,192,90035,1,0,0:0:0:0:
64,192,90485,1,8,0:0:0:0:
192,192,90485,1,0,0:0:0:0:
448,192,90935,1,8,0:0:0:0:
320,192,90935,1,0,0:0:0:0:
64,192,91085,1,8,0:0:0:0:
192,192,91235,1,2,0:0:0:0:
320,192,91235,1,0,0:0:0:0:
64,192,91685,1,8,0:0:0:0:
448,192,91685,1,0,0:0:0:0:
192,192,92135,1,8,0:0:0:0:
320,192,92135,1,0,0:0:0:0:
64,192,92285,1,8,0:0:0:0:
320,192,92435,1,2,0:0:0:0:
448,192,92435,1,0,0:0:0:0:
192,192,92885,1,8,0:0:0:0:
320,192,92885,1,0,0:0:0:0:
64,192,93335,1,8,0:0:0:0:
448,192,93335,1,0,0:0:0:0:
320,192,93485,1,0,0:0:0:0:
192,192,93635,1,2,0:0:0:0:
64,192,93635,1,4,0:0:0:0:
448,192,93935,1,8,0:0:0:0:
320,192,94235,1,2,0:0:0:0:
192,192,94535,1,8,0:0:0:0:
64,192,94835,1,4,0:0:0:0:
448,192,94835,1,2,0:0:0:0:
320,192,95135,1,8,0:0:0:0:
192,192,95435,1,2,0:0:0:0:
320,192,95735,1,8,0:0:0:0:
64,192,96035,1,4,0:0:0:0:
448,192,96035,1,2,0:0:0:0:
192,192,96185,1,2,0:0:0:0:
448,192,96335,1,10,0:0:0:0:
64,192,96485,1,2,0:0:0:0:
192,192,96635,1,2,0:0:0:0:
320,192,96635,128,0,97235:0:0:0:0:
64,192,97235,1,4,0:0:0:0:
448,192,97235,1,2,0:0:0:0:
64,192,98135,1,2,0:0:0:0:
192,192,98285,1,2,0:0:0:0:
320,192,98435,1,2,0:0:0:0:
448,192,98435,1,4,0:0:0:0:
64,192,98735,1,8,0:0:0:0:
192,192,98735,1,0,0:0:0:0:
320,192,99035,1,2,0:0:0:0:
192,192,99185,1,0,0:0:0:0:
64,192,99335,1,8,0:0:0:0:
448,192,99335,128,0,99635:0:0:0:0:
192,192,99635,128,2,99935:0:0:0:0:
320,192,99935,1,0,0:0:0:0:
64,192,99935,1,8,0:0:0:0:
192,192,100085,1,0,0:0:0:0:
448,192,100235,128,2,100535:0:0:0:0:
320,192,100535,1,0,0:0:0:0:
64,192,100535,1,8,0:0:0:0:
192,192,100835,1,2,0:0:0:0:
320,192,101135,1,8,0:0:0:0:
448,192,101135,1,0,0:0:0:0:
64,192,101435,1,2,0:0:0:0:
192,192,101735,1,8,0:0:0:0:
320,192,101735,1,0,0:0:0:0:
448,192,102035,1,2,0:0:0:0:
320,192,102185,1,0,0:0:0:0:
64,192,102335,128,8,102635:0:0:0:0:
192,192,102335,1,0,0:0:0:0:
320,192,102635,128,2,102935:0:0:0:0:
448,192,102635,1,0,0:0:0:0:
64,192,102935,1,8,0:0:0:0:
192,192,102935,128,0,103235:0:0:0:0:
320,192,103235,1,4,0:0:0:0:
448,192,103235,1,2,0:0:0:0:
64,192,103385,1,2,0:0:0:0:
192,192,103535,1,8,0:0:0:0:
448,192,103535,1,0,0:0:0:0:
320,192,103835,1,2,0:0:0:0:
448,192,103985,1,0,0:0:0:0:
64,192,104135,1,8,0:0:0:0:
192,192,104135,128,0,104435:0:0:0:0:
448,192,104435,128,2,104735:0:0:0:0:
64,192,104735,1,8,0:0:0:0:
320,192,104735,1,0,0:0:0:0:
192,192,104885,1,0,0:0:0:0:
320,192,105035,128,2,105335:0:0:0:0:
64,192,105335,1,8,0:0:0:0:
448,192,105335,1,0,0:0:0:0:
192,192,105635,1,2,0:0:0:0:
64,192,105935,1,8,0:0:0:0:
448,192,105935,1,0,0:0:0:0:
320,192,106235,1,2,0:0:0:0:
64,192,106535,1,8,0:0:0:0:
448,192,106535,1,0,0:0:0:0:
192,192,106685,1,8,0:0:0:0:
320,192,106835,128,8,107135:0:0:0:0:
448,192,106835,1,0,0:0:0:0:
64,192,107135,128,8,107435:0:0:0:0:
192,192,107135,1,0,0:0:0:0:
320,192,107435,1,2,0:0:0:0:
448,192,107435,128,0,107735:0:0:0:0:
192,192,107735,128,0,108035:0:0:0:0:
64,192,108035,1,4,0:0:0:0:
320,192,108035,1,2,0:0:0:0:
64,192,108335,1,4,0:0:0:0:
448,192,108335,1,8,0:0:0:0:
192,192,108635,1,2,0:0:0:0:
192,192,108785,1,0,0:0:0:0:
320,192,108935,1,8,0:0:0:0:
448,192,108935,128,0,109235:0:0:0:0:
64,192,109235,128,2,109535:0:0:0:0:
192,192,109235,1,0,0:0:0:0:
320,192,109535,1,8,0:0:0:0:
320,192,109685,1,0,0:0:0:0:
64,192,109835,1,2,0:0:0:0:
320,192,110135,1,8,0:0:0:0:
448,192,110135,1,0,0:0:0:0:
192,192,110435,1,2,0:0:0:0:
64,192,110735,1,8,0:0:0:0:
448,192,110735,1,0,0:0:0:0:
320,192,111035,1,2,0:0:0:0:
320,192,111185,1,0,0:0:0:0:
64,192,111335,1,8,0:0:0:0:
64,192,111485,1,0,0:0:0:0:
320,192,111635,1,2,0:0:0:0:
448,192,111635,128,0,111935:0:0:0:0:
192,192,111935,1,8,0:0:0:0:
64,192,112085,1,0,0:0:0:0:
320,192,112235,1,2,0:0:0:0:
64,192,112535,1,8,0:0:0:0:
448,192,112535,1,0,0:0:0:0:
192,192,112835,1,4,0:0:0:0:
320,192,112835,1,2,0:0:0:0:
64,192,113135,128,0,113435:0:0:0:0:
448,192,113435,1,8,0:0:0:0:
320,192,113585,1,0,0:0:0:0:
192,192,113735,128,0,114035:0:0:0:0:
448,192,114035,128,2,114335:0:0:0:0:
64,192,114335,1,0,0:0:0:0:
192,192,114485,1,0,0:0:0:0:
320,192,114635,1,4,0:0:0:0:
448,192,114635,1,2,0:0:0:0:
192,192,114935,1,2,0:0:0:0:
320,192,114935,1,4,0:0:0:0:
64,192,115235,1,4,0:0:0:0:
448,192,115235,128,2,115535:0:0:0:0:
320,192,115535,1,8,0:0:0:0:
192,192,115535,128,2,115835:0:0:0:0:
320,192,115835,128,2,116135:0:0:0:0:
448,192,116135,1,8,0:0:0:0:
64,192,116135,128,2,116435:0:0:0:0:
192,192,116435,1,2,0:0:0:0:
448,192,116435,1,4,0:0:0:0:
320,192,116660,1,6,0:0:0:0:
192,192,116885,1,6,0:0:0:0:
448,192,117035,128,6,117335:0:0:0:0:
64,192,117335,128,8,117635:0:0:0:0:
320,192,117635,1,2,0:0:0:0:
192,192,117635,1,4,0:0:0:0:
192,192,117935,1,8,0:0:0:0:
448,192,117935,1,0,0:0:0:0:
64,192,118235,1,2,0:0:0:0:
320,192,118535,1,8,0:0:0:0:
448,192,118535,1,0,0:0:0:0:
192,192,118835,1,2,0:0:0:0:
64,192,119135,1,8,0:0:0:0:
448,192,119135,1,0,0:0:0:0:
320,192,119435,1,2,0:0:0:0:
192,192,119735,1,8,0:0:0:0:
448,192,119735,1,0,0:0:0:0:
64,192,120035,1,2,0:0:0:0:
320,192,120335,1,8,0:0:0:0:
448,192,120335,1,0,0:0:0:0:
192,192,120635,1,2,0:0:0:0:
64,192,120935,1,8,0:0:0:0:
448,192,120935,1,0,0:0:0:0:
192,192,121235,1,2,0:0:0:0:
320,192,121535,1,8,0:0:0:0:
64,192,121535,128,0,121835:0:0:0:0:
192,192,121835,128,2,122135:0:0:0:0:
448,192,122135,1,8,0:0:0:0:
320,192,122135,128,0,122435:0:0:0:0:
64,192,122435,1,4,0:0:0:0:
192,192,122435,1,2,0:0:0:0:
320,192,122735,1,8,0:0:0:0:
448,192,122735,1,0,0:0:0:0:
192,192,123035,1,2,0:0:0:0:
64,192,123335,1,8,0:0:0:0:
448,192,123335,1,0,0:0:0:0:
320,192,123635,1,2,0:0:0:0:
64,192,123935,1,8,0:0:0:0:
192,192,123935,1,0,0:0:0:0:
448,192,124235,1,2,0:0:0:0:
192,192,124535,1,8,0:0:0:0:
320,192,124535,1,0,0:0:0:0:
64,192,124835,1,2,0:0:0:0:
192,192,125135,1,8,0:0:0:0:
448,192,125135,1,0,0:0:0:0:
320,192,125435,1,2,0:0:0:0:
64,192,125735,1,8,0:0:0:0:
448,192,125735,1,0,0:0:0:0:
192,192,126035,1,2,0:0:0:0:
320,192,126335,1,8,0:0:0:0:
448,192,126335,128,0,126635:0:0:0:0:
64,192,126635,128,2,126935:0:0:0:0:
320,192,126935,128,8,127235:0:0:0:0:
192,192,126935,1,0,0:0:0:0:
64,192,127235,1,4,0:0:0:0:
448,192,127235,1,2,0:0:0:0:
192,192,127535,128,8,127835:0:0:0:0:
320,192,127535,1,0,0:0:0:0:
64,192,127835,1,2,0:0:0:0:
320,192,127835,128,0,128135:0:0:0:0:
192,192,128135,1,8,0:0:0:0:
448,192,128135,128,0,128435:0:0:0:0:
64,192,128435,128,2,128735:0:0:0:0:
320,192,128435,1,0,0:0:0:0:
192,192,128735,1,8,0:0:0:0:
320,192,128735,128,0,129035:0:0:0:0:
192,192,129035,128,2,129335:0:0:0:0:
448,192,129035,1,0,0:0:0:0:
64,192,129335,1,8,0:0:0:0:
448,192,129335,128,0,129635:0:0:0:0:
64,192,129635,128,2,129935:0:0:0:0:
320,192,129635,1,0,0:0:0:0:
192,192,129935,128,8,130235:0:0:0:0:
448,192,129935,1,0,0:0:0:0:
64,192,130235,1,2,0:0:0:0:
320,192,130235,128,0,130535:0:0:0:0:
192,192,130535,1,8,0:0:0:0:
448,192,130535,128,0,130835:0:0:0:0:
64,192,130835,128,2,131135:0:0:0:0:
320,192,130835,1,0,0:0:0:0:
320,192,131135,128,8,131435:0:0:0:0:
448,192,131135,1,0,0:0:0:0:
64,192,131435,1,2,0:0:0:0:
192,192,131435,128,0,131735:0:0:0:0:
320,192,131735,1,8,0:0:0:0:
448,192,131735,128,0,132035:0:0:0:0:
192,192,132035,1,2,0:0:0:0:
64,192,132035,1,4,0:0:0:0:
320,192,132335,1,8,0:0:0:0:
448,192,132335,1,2,0:0:0:0:
192,192,132635,1,10,0:0:0:0:
320,192,132935,1,8,0:0:0:0:
64,192,132935,1,2,0:0:0:0:
448,192,133235,1,2,0:0:0:0:
192,192,133535,1,2,0:0:0:0:
320,192,133535,1,8,0:0:0:0:
64,192,133835,1,10,0:0:0:0:
320,192,134135,1,2,0:0:0:0:
448,192,134135,1,8,0:0:0:0:
64,192,134435,1,2,0:0:0:0:
192,192,134585,1,2,0:0:0:0:
320,192,134735,1,8,0:0:0:0:
448,192,134735,1,2,0:0:0:0:
64,192,135035,1,2,0:0:0:0:
448,192,135185,1,2,0:0:0:0:
320,192,135335,1,10,0:0:0:0:
192,192,135485,1,2,0:0:0:0:
64,192,135635,1,6,0:0:0:0:
448,192,135860,1,6,0:0:0:0:
64,192,136085,1,6,0:0:0:0:
320,192,136235,128,6,136535:0:0:0:0:
192,192,136535,128,2,136835:0:0:0:0:
64,192,136835,1,4,0:0:0:0:
448,192,136835,1,2,0:0:0:0:
