osu file format v14

[General]
AudioFilename: USAO - Cyaegha.mp3
AudioLeadIn: 0
PreviewTime:117485
Countdown: 0
SampleSet: Soft
StackLeniency: 0.7
Mode: 0
LetterboxInBreaks: 0
WidescreenStoryboard: 1
EpilepsyWarning: 1

[Editor]
Bookmarks: 2435,12035,21635,31235,40835,50435,60035,69635,79235,88835,98435,108035,117635,127235,136835
DistanceSpacing: 1.5
BeatDivisor: 4
GridSize: 4
TimelineZoom: 3.800001

[Metadata]
Title:Cyaegha
TitleUnicode:Cyaegha
Artist:USAO
ArtistUnicode:USAO
Creator:- AzRaeL -
Version:Hard
Source:Arcaea
Tags:Electronic Instrumental Dubstep Hardcore Tribecore Cyäegha Absolute Reason 夜浪、旧支配者 Cthulhu Mythos TANO*C Lowiro Sound Collection Memories of Conflict IROCD-002 XTREME UOM Records USAO-017 CHUNITHM PARADISE SUPER STAR maimai でらっくす Splash Dora- doraemonelf [_Drop_] 0922_
BeatmapID:2944141
BeatmapSetID:1314759

[Difficulty]
HPDrainRate:4.5
CircleSize:3.5
OverallDifficulty:6.5
ApproachRate:8
SliderMultiplier:1.4
SliderTickRate:1

[Events]
//Background and Video events
0,0,"BG.jpg",0,0
//Break Periods
2,60235,68885
//Storyboard Layer 0 (Background)
Sprite,Background,Centre,"SB/Pixel.jpg",448,408 S,19,16834,17834,0,100 F,18,16834,17834,1,0 R,19,16834,17834,1.446645,-4.83654
Sprite,Background,Centre,"SB/Pixel.jpg",448,408 C,0,16834,16834,0,0,0 S,19,16834,17834,0,90 R,19,16834,17834,1.446645,-4.83654
Sprite,Background,Centre,"SB/Pixel.jpg",428,167 S,19,21635,22635,0,100 F,18,21635,22635,1,0 R,19,21635,22635,1.642759,-4.640426
Sprite,Background,Centre,"SB/Pixel.jpg",428,167 C,0,21635,21635,0,0,0 S,19,21635,22635,0,90 R,19,21635,22635,1.642759,-4.640426
Sprite,Background,Centre,"SB/Pixel.jpg",543,232 S,19,26434,27434,0,100 F,18,26434,27434,1,0 R,19,26434,27434,3.700115,9.9833
Sprite,Background,Centre,"SB/Pixel.jpg",543,232 C,0,26434,26434,0,0,0 S,19,26434,27434,0,90 R,19,26434,27434,3.700115,9.9833
Sprite,Background,Centre,"SB/Pixel.jpg",400,374 S,19,31235,32235,0,100 F,18,31235,32235,1,0 R,19,31235,32235,6.02889,12.31208
Sprite,Background,Centre,"SB/Pixel.jpg",400,374 C,0,31235,31235,0,0,0 S,19,31235,32235,0,90 R,19,31235,32235,6.02889,12.31208
Sprite,Background,Centre,"SB/Pixel.jpg",92,293 S,19,36034,37034,0,100 F,18,36034,37034,1,0 R,19,36034,37034,1.531454,7.81464
Sprite,Background,Centre,"SB/Pixel.jpg",92,293 C,0,36034,36034,0,0,0 S,19,36034,37034,0,90 R,19,36034,37034,1.531454,7.81464
Sprite,Background,Centre,"SB/Pixel.jpg",110,384 S,19,40834,41834,0,100 F,18,40834,41834,1,0 R,19,40834,41834,2.812339,9.095524
Sprite,Background,Centre,"SB/Pixel.jpg",110,384 C,0,40834,40834,0,0,0 S,19,40834,41834,0,90 R,19,40834,41834,2.812339,9.095524
Sprite,Background,Centre,"SB/Pixel.jpg",522,59 S,19,45634,46634,0,100 F,18,45634,46634,1,0 R,19,45634,46634,5.746311,12.0295
Sprite,Background,Centre,"SB/Pixel.jpg",522,59 C,0,45634,45634,0,0,0 S,19,45634,46634,0,90 R,19,45634,46634,5.746311,12.0295
Sprite,Background,Centre,"SB/Pixel.jpg",294,370 S,19,50435,51435,0,100 F,18,50435,51435,1,0 R,19,50435,51435,5.83205,-0.4511356
Sprite,Background,Centre,"SB/Pixel.jpg",294,370 C,0,50435,50435,0,0,0 S,19,50435,51435,0,90 R,19,50435,51435,5.83205,-0.4511356
Sprite,Background,Centre,"SB/Pixel.jpg",498,231 S,19,55235,56235,0,100 F,18,55235,56235,1,0 R,19,55235,56235,3.044773,9.327958
Sprite,Background,Centre,"SB/Pixel.jpg",498,231 C,0,55235,55235,0,0,0 S,19,55235,56235,0,90 R,19,55235,56235,3.044773,9.327958
Sprite,Background,Centre,"SB/Pixel.jpg",551,130 S,19,60034,61034,0,100 F,18,60034,61034,1,0 R,19,60034,61034,6.132342,12.41553
Sprite,Background,Centre,"SB/Pixel.jpg",551,130 C,0,60034,60034,0,0,0 S,19,60034,61034,0,90 R,19,60034,61034,6.132342,12.41553
Sprite,Background,Centre,"SB/Pixel.jpg",282,75 S,19,84035,85035,0,100 F,18,84035,85035,1,0 R,19,84035,85035,3.886865,-2.39632
Sprite,Background,Centre,"SB/Pixel.jpg",282,75 C,0,84035,84035,0,0,0 S,19,84035,85035,0,90 R,19,84035,85035,3.886865,-2.39632
Sprite,Background,Centre,"SB/Pixel.jpg",370,157 S,19,88834,89834,0,100 F,18,88834,89834,1,0 R,19,88834,89834,3.756426,10.03961
Sprite,Background,Centre,"SB/Pixel.jpg",370,157 C,0,88834,88834,0,0,0 S,19,88834,89834,0,90 R,19,88834,89834,3.756426,10.03961
Sprite,Background,Centre,"SB/Pixel.jpg",423,106 S,19,98434,99434,0,100 F,18,98434,99434,1,0 R,19,98434,99434,5.703828,-0.5793571
Sprite,Background,Centre,"SB/Pixel.jpg",423,106 C,0,98434,98434,0,0,0 S,19,98434,99434,0,90 R,19,98434,99434,5.703828,-0.5793571
Sprite,Background,Centre,"SB/Pixel.jpg",377,218 S,19,108334,109334,0,100 F,18,108334,109334,1,0 R,19,108334,109334,1.932762,-4.350423
Sprite,Background,Centre,"SB/Pixel.jpg",377,218 C,0,108334,108334,0,0,0 S,19,108334,109334,0,90 R,19,108334,109334,1.932762,-4.350423
Sprite,Background,Centre,"SB/Pixel.jpg",342,393 S,19,117635,118635,0,100 F,18,117635,118635,1,0 R,19,117635,118635,5.113471,11.39666
Sprite,Background,Centre,"SB/Pixel.jpg",342,393 C,0,117635,117635,0,0,0 S,19,117635,118635,0,90 R,19,117635,118635,5.113471,11.39666
Sprite,Background,Centre,"SB/Pixel.jpg",453,251 S,19,127535,128535,0,100 F,18,127535,128535,1,0 R,19,127535,128535,0.368227,-5.914958
Sprite,Background,Centre,"SB/Pixel.jpg",453,251 C,0,127535,127535,0,0,0 S,19,127535,128535,0,90 R,19,127535,128535,0.368227,-5.914958
Sprite,Background,Centre,"sb/glow.png",408,190 C,0,26135,26135,255,0,255 S,0,26135,26135,0.5 F,0,26135,26635,1,0
Sprite,Background,Centre,"sb/glow.png",415,185 C,0,26153,26153,255,0,255 S,0,26153,26153,0.5 F,0,26153,26653,1,0
Sprite,Background,Centre,"sb/glow.png",423,182 C,0,26172,26172,255,0,255 S,0,26172,26172,0.5 F,0,26172,26672,1,0
Sprite,Background,Centre,"sb/glow.png",432,179 C,0,26191,26191,255,0,255 S,0,26191,26191,0.5 F,0,26191,26691,1,0
Sprite,Background,Centre,"sb/glow.png",440,177 C,0,26210,26210,255,0,255 S,0,26210,26210,0.5 F,0,26210,26710,1,0
Sprite,Background,Centre,"sb/glow.png",449,175 C,0,26228,26228,255,0,255 S,0,26228,26228,0.5 F,0,26228,26728,1,0
Sprite,Background,Centre,"sb/glow.png",457,175 C,0,26247,26247,255,0,255 S,0,26247,26247,0.5 F,0,26247,26747,1,0
Sprite,Background,Centre,"sb/glow.png",466,175 C,0,26266,26266,255,0,255 S,0,26266,26266,0.5 F,0,26266,26766,1,0
Sprite,Background,Centre,"sb/glow.png",475,177 C,0,26285,26285,255,0,255 S,0,26285,26285,0.5 F,0,26285,26785,1,0
Sprite,Background,Centre,"sb/glow.png",483,179 C,0,26303,26303,255,0,255 S,0,26303,26303,0.5 F,0,26303,26803,1,0
Sprite,Background,Centre,"sb/glow.png",491,182 C,0,26322,26322,255,0,255 S,0,26322,26322,0.5 F,0,26322,26822,1,0
Sprite,Background,Centre,"sb/glow.png",499,185 C,0,26341,26341,255,0,255 S,0,26341,26341,0.5 F,0,26341,26841,1,0
Sprite,Background,Centre,"sb/glow.png",507,190 C,0,26360,26360,255,0,255 S,0,26360,26360,0.5 F,0,26360,26860,1,0
Sprite,Background,Centre,"sb/glow.png",521,206 C,0,26378,26378,255,0,255 S,0,26378,26378,0.5 F,0,26378,26878,1,0
Sprite,Background,Centre,"sb/glow.png",532,220 C,0,26397,26397,255,0,255 S,0,26397,26397,0.5 F,0,26397,26897,1,0
Sprite,Background,Centre,"sb/glow.png",540,229 C,0,26416,26416,255,0,255 S,0,26416,26416,0.5 F,0,26416,26916,1,0
Sprite,Background,Centre,"sb/glow.png",543,232 C,0,26435,26435,255,128,192 S,0,26435,26435,0.5 F,0,26435,26935,1,0
Sprite,Background,Centre,"sb/glow.png",542,222 C,0,26453,26453,255,128,192 S,0,26453,26453,0.5 F,0,26453,26953,1,0
Sprite,Background,Centre,"sb/glow.png",541,211 C,0,26472,26472,255,128,192 S,0,26472,26472,0.5 F,0,26472,26972,1,0
Sprite,Background,Centre,"sb/glow.png",540,201 C,0,26491,26491,255,128,192 S,0,26491,26491,0.5 F,0,26491,26991,1,0
Sprite,Background,Centre,"sb/glow.png",539,190 C,0,26510,26510,255,128,192 S,0,26510,26510,0.5 F,0,26510,27010,1,0
Sprite,Background,Centre,"sb/glow.png",539,180 C,0,26528,26528,255,128,192 S,0,26528,26528,0.5 F,0,26528,27028,1,0
Sprite,Background,Centre,"sb/glow.png",538,169 C,0,26547,26547,255,128,192 S,0,26547,26547,0.5 F,0,26547,27047,1,0
Sprite,Background,Centre,"sb/glow.png",537,159 C,0,26566,26566,255,128,192 S,0,26566,26566,0.5 F,0,26566,27066,1,0
Sprite,Background,Centre,"sb/glow.png",536,148 C,0,26585,26585,255,128,192 S,0,26585,26585,0.5 F,0,26585,27085,1,0
Sprite,Background,Centre,"sb/glow.png",535,138 C,0,26603,26603,255,128,192 S,0,26603,26603,0.5 F,0,26603,27103,1,0
Sprite,Background,Centre,"sb/glow.png",534,127 C,0,26622,26622,255,128,192 S,0,26622,26622,0.5 F,0,26622,27122,1,0
Sprite,Background,Centre,"sb/glow.png",533,117 C,0,26641,26641,255,128,192 S,0,26641,26641,0.5 F,0,26641,27141,1,0
Sprite,Background,Centre,"sb/glow.png",532,106 C,0,26660,26660,255,128,192 S,0,26660,26660,0.5 F,0,26660,27160,1,0
Sprite,Background,Centre,"sb/glow.png",531,96 C,0,26678,26678,255,128,192 S,0,26678,26678,0.5 F,0,26678,27178,1,0
Sprite,Background,Centre,"sb/glow.png",530,86 C,0,26697,26697,255,128,192 S,0,26697,26697,0.5 F,0,26697,27197,1,0
Sprite,Background,Centre,"sb/glow.png",530,75 C,0,26716,26716,255,128,192 S,0,26716,26716,0.5 F,0,26716,27216,1,0
Sprite,Background,Centre,"sb/glow.png",529,65 C,0,26735,26735,255,128,192 S,0,26735,26735,0.5 F,0,26735,27235,1,0
Sprite,Background,Centre,"sb/glow.png",530,75 C,0,26753,26753,255,128,192 S,0,26753,26753,0.5 F,0,26753,27253,1,0
Sprite,Background,Centre,"sb/glow.png",530,86 C,0,26772,26772,255,128,192 S,0,26772,26772,0.5 F,0,26772,27272,1,0
Sprite,Background,Centre,"sb/glow.png",531,96 C,0,26791,26791,255,128,192 S,0,26791,26791,0.5 F,0,26791,27291,1,0
Sprite,Background,Centre,"sb/glow.png",532,106 C,0,26810,26810,255,128,192 S,0,26810,26810,0.5 F,0,26810,27310,1,0
Sprite,Background,Centre,"sb/glow.png",533,117 C,0,26828,26828,255,128,192 S,0,26828,26828,0.5 F,0,26828,27328,1,0
Sprite,Background,Centre,"sb/glow.png",534,127 C,0,26847,26847,255,128,192 S,0,26847,26847,0.5 F,0,26847,27347,1,0
Sprite,Background,Centre,"sb/glow.png",535,138 C,0,26866,26866,255,128,192 S,0,26866,26866,0.5 F,0,26866,27366,1,0
Sprite,Background,Centre,"sb/glow.png",536,148 C,0,26885,26885,255,128,192 S,0,26885,26885,0.5 F,0,26885,27385,1,0
Sprite,Background,Centre,"sb/glow.png",537,159 C,0,26903,26903,255,128,192 S,0,26903,26903,0.5 F,0,26903,27403,1,0
Sprite,Background,Centre,"sb/glow.png",538,169 C,0,26922,26922,255,128,192 S,0,26922,26922,0.5 F,0,26922,27422,1,0
Sprite,Background,Centre,"sb/glow.png",539,180 C,0,26941,26941,255,128,192 S,0,26941,26941,0.5 F,0,26941,27441,1,0
Sprite,Background,Centre,"sb/glow.png",539,190 C,0,26960,26960,255,128,192 S,0,26960,26960,0.5 F,0,26960,27460,1,0
Sprite,Background,Centre,"sb/glow.png",540,201 C,0,26978,26978,255,128,192 S,0,26978,26978,0.5 F,0,26978,27478,1,0
Sprite,Background,Centre,"sb/glow.png",541,211 C,0,26997,26997,255,128,192 S,0,26997,26997,0.5 F,0,26997,27497,1,0
Sprite,Background,Centre,"sb/glow.png",542,222 C,0,27016,27016,255,128,192 S,0,27016,27016,0.5 F,0,27016,27516,1,0
Sprite,Background,Centre,"sb/glow.png",251,278 C,0,35735,35735,255,128,192 S,0,35735,35735,0.5 F,0,35735,36235,1,0
Sprite,Background,Centre,"sb/glow.png",242,279 C,0,35753,35753,255,128,192 S,0,35753,35753,0.5 F,0,35753,36253,1,0
Sprite,Background,Centre,"sb/glow.png",234,280 C,0,35772,35772,255,128,192 S,0,35772,35772,0.5 F,0,35772,36272,1,0
Sprite,Background,Centre,"sb/glow.png",225,280 C,0,35791,35791,255,128,192 S,0,35791,35791,0.5 F,0,35791,36291,1,0
Sprite,Background,Centre,"sb/glow.png",216,281 C,0,35810,35810,255,128,192 S,0,35810,35810,0.5 F,0,35810,36310,1,0
Sprite,Background,Centre,"sb/glow.png",207,282 C,0,35828,35828,255,128,192 S,0,35828,35828,0.5 F,0,35828,36328,1,0
Sprite,Background,Centre,"sb/glow.png",199,283 C,0,35847,35847,255,128,192 S,0,35847,35847,0.5 F,0,35847,36347,1,0
Sprite,Background,Centre,"sb/glow.png",190,284 C,0,35866,35866,255,128,192 S,0,35866,35866,0.5 F,0,35866,36366,1,0
Sprite,Background,Centre,"sb/glow.png",181,285 C,0,35885,35885,255,128,192 S,0,35885,35885,0.5 F,0,35885,36385,1,0
Sprite,Background,Centre,"sb/glow.png",173,285 C,0,35903,35903,255,128,192 S,0,35903,35903,0.5 F,0,35903,36403,1,0
Sprite,Background,Centre,"sb/glow.png",164,286 C,0,35922,35922,255,128,192 S,0,35922,35922,0.5 F,0,35922,36422,1,0
Sprite,Background,Centre,"sb/glow.png",155,287 C,0,35941,35941,255,128,192 S,0,35941,35941,0.5 F,0,35941,36441,1,0
Sprite,Background,Centre,"sb/glow.png",146,288 C,0,35960,35960,255,128,192 S,0,35960,35960,0.5 F,0,35960,36460,1,0
Sprite,Background,Centre,"sb/glow.png",126,290 C,0,35978,35978,255,128,192 S,0,35978,35978,0.5 F,0,35978,36478,1,0
Sprite,Background,Centre,"sb/glow.png",108,291 C,0,35997,35997,255,128,192 S,0,35997,35997,0.5 F,0,35997,36497,1,0
Sprite,Background,Centre,"sb/glow.png",96,293 C,0,36016,36016,255,128,192 S,0,36016,36016,0.5 F,0,36016,36516,1,0
Sprite,Background,Centre,"sb/glow.png",92,293 C,0,36035,36035,255,0,128 S,0,36035,36035,0.5 F,0,36035,36535,1,0
Sprite,Background,Centre,"sb/glow.png",101,298 C,0,36053,36053,255,0,128 S,0,36053,36053,0.5 F,0,36053,36553,1,0
Sprite,Background,Centre,"sb/glow.png",110,304 C,0,36072,36072,255,0,128 S,0,36072,36072,0.5 F,0,36072,36572,1,0
Sprite,Background,Centre,"sb/glow.png",118,311 C,0,36091,36091,255,0,128 S,0,36091,36091,0.5 F,0,36091,36591,1,0
Sprite,Background,Centre,"sb/glow.png",125,319 C,0,36110,36110,255,0,128 S,0,36110,36110,0.5 F,0,36110,36610,1,0
Sprite,Background,Centre,"sb/glow.png",131,327 C,0,36128,36128,255,0,128 S,0,36128,36128,0.5 F,0,36128,36628,1,0
Sprite,Background,Centre,"sb/glow.png",136,336 C,0,36147,36147,255,0,128 S,0,36147,36147,0.5 F,0,36147,36647,1,0
Sprite,Background,Centre,"sb/glow.png",140,346 C,0,36166,36166,255,0,128 S,0,36166,36166,0.5 F,0,36166,36666,1,0
Sprite,Background,Centre,"sb/glow.png",143,356 C,0,36185,36185,255,0,128 S,0,36185,36185,0.5 F,0,36185,36685,1,0
Sprite,Background,Centre,"sb/glow.png",145,366 C,0,36203,36203,255,0,128 S,0,36203,36203,0.5 F,0,36203,36703,1,0
Sprite,Background,Centre,"sb/glow.png",145,377 C,0,36222,36222,255,0,128 S,0,36222,36222,0.5 F,0,36222,36722,1,0
Sprite,Background,Centre,"sb/glow.png",145,387 C,0,36241,36241,255,0,128 S,0,36241,36241,0.5 F,0,36241,36741,1,0
Sprite,Background,Centre,"sb/glow.png",143,398 C,0,36260,36260,255,0,128 S,0,36260,36260,0.5 F,0,36260,36760,1,0
Sprite,Background,Centre,"sb/glow.png",140,408 C,0,36278,36278,255,0,128 S,0,36278,36278,0.5 F,0,36278,36778,1,0
Sprite,Background,Centre,"sb/glow.png",136,417 C,0,36297,36297,255,0,128 S,0,36297,36297,0.5 F,0,36297,36797,1,0
Sprite,Background,Centre,"sb/glow.png",130,426 C,0,36316,36316,255,0,128 S,0,36316,36316,0.5 F,0,36316,36816,1,0
Sprite,Background,Centre,"sb/glow.png",124,435 C,0,36335,36335,255,0,128 S,0,36335,36335,0.5 F,0,36335,36835,1,0
Sprite,Background,Centre,"sb/glow.png",130,426 C,0,36353,36353,255,0,128 S,0,36353,36353,0.5 F,0,36353,36853,1,0
Sprite,Background,Centre,"sb/glow.png",136,417 C,0,36372,36372,255,0,128 S,0,36372,36372,0.5 F,0,36372,36872,1,0
Sprite,Background,Centre,"sb/glow.png",140,408 C,0,36391,36391,255,0,128 S,0,36391,36391,0.5 F,0,36391,36891,1,0
Sprite,Background,Centre,"sb/glow.png",143,398 C,0,36410,36410,255,0,128 S,0,36410,36410,0.5 F,0,36410,36910,1,0
Sprite,Background,Centre,"sb/glow.png",145,387 C,0,36428,36428,255,0,128 S,0,36428,36428,0.5 F,0,36428,36928,1,0
Sprite,Background,Centre,"sb/glow.png",145,377 C,0,36447,36447,255,0,128 S,0,36447,36447,0.5 F,0,36447,36947,1,0
Sprite,Background,Centre,"sb/glow.png",145,366 C,0,36466,36466,255,0,128 S,0,36466,36466,0.5 F,0,36466,36966,1,0
Sprite,Background,Centre,"sb/glow.png",143,356 C,0,36485,36485,255,0,128 S,0,36485,36485,0.5 F,0,36485,36985,1,0
Sprite,Background,Centre,"sb/glow.png",140,346 C,0,36503,36503,255,0,128 S,0,36503,36503,0.5 F,0,36503,37003,1,0
Sprite,Background,Centre,"sb/glow.png",136,336 C,0,36522,36522,255,0,128 S,0,36522,36522,0.5 F,0,36522,37022,1,0
Sprite,Background,Centre,"sb/glow.png",131,327 C,0,36541,36541,255,0,128 S,0,36541,36541,0.5 F,0,36541,37041,1,0
Sprite,Background,Centre,"sb/glow.png",125,319 C,0,36560,36560,255,0,128 S,0,36560,36560,0.5 F,0,36560,37060,1,0
Sprite,Background,Centre,"sb/glow.png",118,311 C,0,36578,36578,255,0,128 S,0,36578,36578,0.5 F,0,36578,37078,1,0
Sprite,Background,Centre,"sb/glow.png",110,304 C,0,36597,36597,255,0,128 S,0,36597,36597,0.5 F,0,36597,37097,1,0
Sprite,Background,Centre,"sb/glow.png",101,298 C,0,36616,36616,255,0,128 S,0,36616,36616,0.5 F,0,36616,37116,1,0
Sprite,Background,Centre,"sb/glow.png",491,197 C,0,45334,45334,255,88,102 S,0,45334,45334,0.5 F,0,45334,45834,1,0
Sprite,Background,Centre,"sb/glow.png",486,190 C,0,45352,45352,255,88,102 S,0,45352,45352,0.5 F,0,45352,45852,1,0
Sprite,Background,Centre,"sb/glow.png",482,182 C,0,45371,45371,255,88,102 S,0,45371,45371,0.5 F,0,45371,45871,1,0
Sprite,Background,Centre,"sb/glow.png",479,174 C,0,45390,45390,255,88,102 S,0,45390,45390,0.5 F,0,45390,45890,1,0
Sprite,Background,Centre,"sb/glow.png",476,166 C,0,45409,45409,255,88,102 S,0,45409,45409,0.5 F,0,45409,45909,1,0
Sprite,Background,Centre,"sb/glow.png",474,158 C,0,45427,45427,255,88,102 S,0,45427,45427,0.5 F,0,45427,45927,1,0
Sprite,Background,Centre,"sb/glow.png",473,149 C,0,45446,45446,255,88,102 S,0,45446,45446,0.5 F,0,45446,45946,1,0
Sprite,Background,Centre,"sb/glow.png",473,140 C,0,45465,45465,255,88,102 S,0,45465,45465,0.5 F,0,45465,45965,1,0
Sprite,Background,Centre,"sb/glow.png",473,131 C,0,45484,45484,255,88,102 S,0,45484,45484,0.5 F,0,45484,45984,1,0
Sprite,Background,Centre,"sb/glow.png",475,123 C,0,45502,45502,255,88,102 S,0,45502,45502,0.5 F,0,45502,46002,1,0
Sprite,Background,Centre,"sb/glow.png",477,114 C,0,45521,45521,255,88,102 S,0,45521,45521,0.5 F,0,45521,46021,1,0
Sprite,Background,Centre,"sb/glow.png",480,106 C,0,45540,45540,255,88,102 S,0,45540,45540,0.5 F,0,45540,46040,1,0
Sprite,Background,Centre,"sb/glow.png",483,98 C,0,45559,45559,255,88,102 S,0,45559,45559,0.5 F,0,45559,46059,1,0
Sprite,Background,Centre,"sb/glow.png",498,84 C,0,45577,45577,255,88,102 S,0,45577,45577,0.5 F,0,45577,46077,1,0
Sprite,Background,Centre,"sb/glow.png",510,71 C,0,45596,45596,255,88,102 S,0,45596,45596,0.5 F,0,45596,46096,1,0
Sprite,Background,Centre,"sb/glow.png",519,62 C,0,45615,45615,255,88,102 S,0,45615,45615,0.5 F,0,45615,46115,1,0
Sprite,Background,Centre,"sb/glow.png",522,59 C,0,45634,45634,255,88,102 S,0,45634,45634,0.5 F,0,45634,46134,1,0
Sprite,Background,Centre,"sb/glow.png",515,66 C,0,45652,45652,255,0,255 S,0,45652,45652,0.5 F,0,45652,46152,1,0
Sprite,Background,Centre,"sb/glow.png",508,73 C,0,45671,45671,255,0,255 S,0,45671,45671,0.5 F,0,45671,46171,1,0
Sprite,Background,Centre,"sb/glow.png",499,79 C,0,45690,45690,255,0,255 S,0,45690,45690,0.5 F,0,45690,46190,1,0
Sprite,Background,Centre,"sb/glow.png",490,85 C,0,45709,45709,255,0,255 S,0,45709,45709,0.5 F,0,45709,46209,1,0
Sprite,Background,Centre,"sb/glow.png",480,89 C,0,45727,45727,255,0,255 S,0,45727,45727,0.5 F,0,45727,46227,1,0
Sprite,Background,Centre,"sb/glow.png",470,92 C,0,45746,45746,255,0,255 S,0,45746,45746,0.5 F,0,45746,46246,1,0
Sprite,Background,Centre,"sb/glow.png",460,94 C,0,45765,45765,255,0,255 S,0,45765,45765,0.5 F,0,45765,46265,1,0
Sprite,Background,Centre,"sb/glow.png",450,95 C,0,45784,45784,255,0,255 S,0,45784,45784,0.5 F,0,45784,46284,1,0
Sprite,Background,Centre,"sb/glow.png",439,94 C,0,45802,45802,255,0,255 S,0,45802,45802,0.5 F,0,45802,46302,1,0
Sprite,Background,Centre,"sb/glow.png",429,93 C,0,45821,45821,255,0,255 S,0,45821,45821,0.5 F,0,45821,46321,1,0
Sprite,Background,Centre,"sb/glow.png",419,90 C,0,45840,45840,255,0,255 S,0,45840,45840,0.5 F,0,45840,46340,1,0
Sprite,Background,Centre,"sb/glow.png",409,86 C,0,45859,45859,255,0,255 S,0,45859,45859,0.5 F,0,45859,46359,1,0
Sprite,Background,Centre,"sb/glow.png",400,81 C,0,45877,45877,255,0,255 S,0,45877,45877,0.5 F,0,45877,46377,1,0
Sprite,Background,Centre,"sb/glow.png",391,76 C,0,45896,45896,255,0,255 S,0,45896,45896,0.5 F,0,45896,46396,1,0
Sprite,Background,Centre,"sb/glow.png",383,69 C,0,45915,45915,255,0,255 S,0,45915,45915,0.5 F,0,45915,46415,1,0
Sprite,Background,Centre,"sb/glow.png",376,61 C,0,45934,45934,255,0,255 S,0,45934,45934,0.5 F,0,45934,46434,1,0
Sprite,Background,Centre,"sb/glow.png",454,99 C,0,54935,54935,255,128,192 S,0,54935,54935,0.5 F,0,54935,55435,1,0
Sprite,Background,Centre,"sb/glow.png",461,104 C,0,54953,54953,255,128,192 S,0,54953,54953,0.5 F,0,54953,55453,1,0
Sprite,Background,Centre,"sb/glow.png",469,108 C,0,54972,54972,255,128,192 S,0,54972,54972,0.5 F,0,54972,55472,1,0
Sprite,Background,Centre,"sb/glow.png",476,113 C,0,54991,54991,255,128,192 S,0,54991,54991,0.5 F,0,54991,55491,1,0
Sprite,Background,Centre,"sb/glow.png",484,117 C,0,55010,55010,255,128,192 S,0,55010,55010,0.5 F,0,55010,55510,1,0
Sprite,Background,Centre,"sb/glow.png",491,122 C,0,55028,55028,255,128,192 S,0,55028,55028,0.5 F,0,55028,55528,1,0
Sprite,Background,Centre,"sb/glow.png",498,127 C,0,55047,55047,255,128,192 S,0,55047,55047,0.5 F,0,55047,55547,1,0
Sprite,Background,Centre,"sb/glow.png",500,135 C,0,55066,55066,255,128,192 S,0,55066,55066,0.5 F,0,55066,55566,1,0
Sprite,Background,Centre,"sb/glow.png",502,144 C,0,55085,55085,255,128,192 S,0,55085,55085,0.5 F,0,55085,55585,1,0
Sprite,Background,Centre,"sb/glow.png",504,152 C,0,55103,55103,255,128,192 S,0,55103,55103,0.5 F,0,55103,55603,1,0
Sprite,Background,Centre,"sb/glow.png",506,161 C,0,55122,55122,255,128,192 S,0,55122,55122,0.5 F,0,55122,55622,1,0
Sprite,Background,Centre,"sb/glow.png",508,169 C,0,55141,55141,255,128,192 S,0,55141,55141,0.5 F,0,55141,55641,1,0
Sprite,Background,Centre,"sb/glow.png",510,178 C,0,55160,55160,255,128,192 S,0,55160,55160,0.5 F,0,55160,55660,1,0
Sprite,Background,Centre,"sb/glow.png",506,198 C,0,55178,55178,255,128,192 S,0,55178,55178,0.5 F,0,55178,55678,1,0
Sprite,Background,Centre,"sb/glow.png",502,215 C,0,55197,55197,255,128,192 S,0,55197,55197,0.5 F,0,55197,55697,1,0
Sprite,Background,Centre,"sb/glow.png",499,227 C,0,55216,55216,255,128,192 S,0,55216,55216,0.5 F,0,55216,55716,1,0
Sprite,Background,Centre,"sb/glow.png",498,231 C,0,55235,55235,255,0,128 S,0,55235,55235,0.5 F,0,55235,55735,1,0
Sprite,Background,Centre,"sb/glow.png",497,241 C,0,55253,55253,255,0,128 S,0,55253,55253,0.5 F,0,55253,55753,1,0
Sprite,Background,Centre,"sb/glow.png",497,252 C,0,55272,55272,255,0,128 S,0,55272,55272,0.5 F,0,55272,55772,1,0
Sprite,Background,Centre,"sb/glow.png",496,262 C,0,55291,55291,255,0,128 S,0,55291,55291,0.5 F,0,55291,55791,1,0
Sprite,Background,Centre,"sb/glow.png",496,273 C,0,55310,55310,255,0,128 S,0,55310,55310,0.5 F,0,55310,55810,1,0
Sprite,Background,Centre,"sb/glow.png",495,283 C,0,55328,55328,255,0,128 S,0,55328,55328,0.5 F,0,55328,55828,1,0
Sprite,Background,Centre,"sb/glow.png",494,294 C,0,55347,55347,255,0,128 S,0,55347,55347,0.5 F,0,55347,55847,1,0
Sprite,Background,Centre,"sb/glow.png",494,304 C,0,55366,55366,255,0,128 S,0,55366,55366,0.5 F,0,55366,55866,1,0
Sprite,Background,Centre,"sb/glow.png",493,315 C,0,55385,55385,255,0,128 S,0,55385,55385,0.5 F,0,55385,55885,1,0
Sprite,Background,Centre,"sb/glow.png",492,325 C,0,55403,55403,255,0,128 S,0,55403,55403,0.5 F,0,55403,55903,1,0
Sprite,Background,Centre,"sb/glow.png",492,336 C,0,55422,55422,255,0,128 S,0,55422,55422,0.5 F,0,55422,55922,1,0
Sprite,Background,Centre,"sb/glow.png",491,346 C,0,55441,55441,255,0,128 S,0,55441,55441,0.5 F,0,55441,55941,1,0
Sprite,Background,Centre,"sb/glow.png",491,357 C,0,55460,55460,255,0,128 S,0,55460,55460,0.5 F,0,55460,55960,1,0
Sprite,Background,Centre,"sb/glow.png",490,367 C,0,55478,55478,255,0,128 S,0,55478,55478,0.5 F,0,55478,55978,1,0
Sprite,Background,Centre,"sb/glow.png",489,378 C,0,55497,55497,255,0,128 S,0,55497,55497,0.5 F,0,55497,55997,1,0
Sprite,Background,Centre,"sb/glow.png",489,388 C,0,55516,55516,255,0,128 S,0,55516,55516,0.5 F,0,55516,56016,1,0
Sprite,Background,Centre,"sb/glow.png",423,106 C,0,98434,98434,255,0,128 S,0,98434,98434,0.5 F,0,98434,98934,1,0
Sprite,Background,Centre,"sb/glow.png",433,107 C,0,98452,98452,255,0,128 S,0,98452,98452,0.5 F,0,98452,98952,1,0
Sprite,Background,Centre,"sb/glow.png",443,108 C,0,98471,98471,255,0,128 S,0,98471,98471,0.5 F,0,98471,98971,1,0
Sprite,Background,Centre,"sb/glow.png",454,109 C,0,98490,98490,255,0,128 S,0,98490,98490,0.5 F,0,98490,98990,1,0
Sprite,Background,Centre,"sb/glow.png",464,109 C,0,98509,98509,255,0,128 S,0,98509,98509,0.5 F,0,98509,99009,1,0
Sprite,Background,Centre,"sb/glow.png",475,110 C,0,98527,98527,255,0,128 S,0,98527,98527,0.5 F,0,98527,99027,1,0
Sprite,Background,Centre,"sb/glow.png",485,111 C,0,98546,98546,255,0,128 S,0,98546,98546,0.5 F,0,98546,99046,1,0
Sprite,Background,Centre,"sb/glow.png",496,112 C,0,98565,98565,255,0,128 S,0,98565,98565,0.5 F,0,98565,99065,1,0
Sprite,Background,Centre,"sb/glow.png",506,113 C,0,98584,98584,255,0,128 S,0,98584,98584,0.5 F,0,98584,99084,1,0
Sprite,Background,Centre,"sb/glow.png",514,128 C,0,98602,98602,255,0,128 S,0,98602,98602,0.5 F,0,98602,99102,1,0
Sprite,Background,Centre,"sb/glow.png",521,144 C,0,98621,98621,255,0,128 S,0,98621,98621,0.5 F,0,98621,99121,1,0
Sprite,Background,Centre,"sb/glow.png",528,158 C,0,98640,98640,255,0,128 S,0,98640,98640,0.5 F,0,98640,99140,1,0
Sprite,Background,Centre,"sb/glow.png",534,171 C,0,98659,98659,255,0,128 S,0,98659,98659,0.5 F,0,98659,99159,1,0
Sprite,Background,Centre,"sb/glow.png",539,181 C,0,98677,98677,255,0,128 S,0,98677,98677,0.5 F,0,98677,99177,1,0
Sprite,Background,Centre,"sb/glow.png",543,189 C,0,98696,98696,255,0,128 S,0,98696,98696,0.5 F,0,98696,99196,1,0
Sprite,Background,Centre,"sb/glow.png",545,194 C,0,98715,98715,255,0,128 S,0,98715,98715,0.5 F,0,98715,99215,1,0
Sprite,Background,Centre,"sb/glow.png",546,196 C,0,98734,98734,255,0,128 S,0,98734,98734,0.5 F,0,98734,99234,1,0
Sprite,Background,Centre,"sb/glow.png",536,197 C,0,98752,98752,255,0,128 S,0,98752,98752,0.5 F,0,98752,99252,1,0
Sprite,Background,Centre,"sb/glow.png",526,198 C,0,98771,98771,255,0,128 S,0,98771,98771,0.5 F,0,98771,99271,1,0
Sprite,Background,Centre,"sb/glow.png",515,199 C,0,98790,98790,255,0,128 S,0,98790,98790,0.5 F,0,98790,99290,1,0
Sprite,Background,Centre,"sb/glow.png",505,199 C,0,98809,98809,255,0,128 S,0,98809,98809,0.5 F,0,98809,99309,1,0
Sprite,Background,Centre,"sb/glow.png",494,200 C,0,98827,98827,255,0,128 S,0,98827,98827,0.5 F,0,98827,99327,1,0
Sprite,Background,Centre,"sb/glow.png",484,201 C,0,98846,98846,255,0,128 S,0,98846,98846,0.5 F,0,98846,99346,1,0
Sprite,Background,Centre,"sb/glow.png",473,202 C,0,98865,98865,255,0,128 S,0,98865,98865,0.5 F,0,98865,99365,1,0
Sprite,Background,Centre,"sb/glow.png",463,203 C,0,98884,98884,255,0,128 S,0,98884,98884,0.5 F,0,98884,99384,1,0
Sprite,Background,Centre,"sb/glow.png",448,212 C,0,98902,98902,255,0,128 S,0,98902,98902,0.5 F,0,98902,99402,1,0
Sprite,Background,Centre,"sb/glow.png",434,222 C,0,98921,98921,255,0,128 S,0,98921,98921,0.5 F,0,98921,99421,1,0
Sprite,Background,Centre,"sb/glow.png",421,231 C,0,98940,98940,255,0,128 S,0,98940,98940,0.5 F,0,98940,99440,1,0
Sprite,Background,Centre,"sb/glow.png",409,239 C,0,98959,98959,255,0,128 S,0,98959,98959,0.5 F,0,98959,99459,1,0
Sprite,Background,Centre,"sb/glow.png",399,246 C,0,98977,98977,255,0,128 S,0,98977,98977,0.5 F,0,98977,99477,1,0
Sprite,Background,Centre,"sb/glow.png",392,251 C,0,98996,98996,255,0,128 S,0,98996,98996,0.5 F,0,98996,99496,1,0
Sprite,Background,Centre,"sb/glow.png",388,254 C,0,99015,99015,255,0,128 S,0,99015,99015,0.5 F,0,99015,99515,1,0
Sprite,Background,Centre,"sb/glow.png",386,255 C,0,99034,99034,255,0,128 S,0,99034,99034,0.5 F,0,99034,99534,1,0
Sprite,Background,Centre,"sb/glow.png",386,255 C,0,99052,99052,255,0,128 S,0,99052,99052,0.5 F,0,99052,99552,1,0
Sprite,Background,Centre,"sb/glow.png",386,255 C,0,99071,99071,255,0,128 S,0,99071,99071,0.5 F,0,99071,99571,1,0
Sprite,Background,Centre,"sb/glow.png",386,255 C,0,99090,99090,255,0,128 S,0,99090,99090,0.5 F,0,99090,99590,1,0
Sprite,Background,Centre,"sb/glow.png",386,255 C,0,99109,99109,255,0,128 S,0,99109,99109,0.5 F,0,99109,99609,1,0
Sprite,Background,Centre,"sb/glow.png",386,255 C,0,99127,99127,255,0,128 S,0,99127,99127,0.5 F,0,99127,99627,1,0
Sprite,Background,Centre,"sb/glow.png",386,255 C,0,99146,99146,255,0,128 S,0,99146,99146,0.5 F,0,99146,99646,1,0
Sprite,Background,Centre,"sb/glow.png",386,255 C,0,99165,99165,255,0,128 S,0,99165,99165,0.5 F,0,99165,99665,1,0
Sprite,Background,Centre,"sb/glow.png",386,255 C,0,99184,99184,255,0,128 S,0,99184,99184,0.5 F,0,99184,99684,1,0
Sprite,Background,Centre,"sb/glow.png",402,260 C,0,99202,99202,255,0,128 S,0,99202,99202,0.5 F,0,99202,99702,1,0
Sprite,Background,Centre,"sb/glow.png",419,265 C,0,99221,99221,255,0,128 S,0,99221,99221,0.5 F,0,99221,99721,1,0
Sprite,Background,Centre,"sb/glow.png",434,270 C,0,99240,99240,255,0,128 S,0,99240,99240,0.5 F,0,99240,99740,1,0
Sprite,Background,Centre,"sb/glow.png",448,275 C,0,99259,99259,255,0,128 S,0,99259,99259,0.5 F,0,99259,99759,1,0
Sprite,Background,Centre,"sb/glow.png",459,278 C,0,99277,99277,255,0,128 S,0,99277,99277,0.5 F,0,99277,99777,1,0
Sprite,Background,Centre,"sb/glow.png",467,281 C,0,99296,99296,255,0,128 S,0,99296,99296,0.5 F,0,99296,99796,1,0
Sprite,Background,Centre,"sb/glow.png",472,282 C,0,99315,99315,255,0,128 S,0,99315,99315,0.5 F,0,99315,99815,1,0
Sprite,Background,Centre,"sb/glow.png",474,283 C,0,99334,99334,255,0,128 S,0,99334,99334,0.5 F,0,99334,99834,1,0
Sprite,Background,Centre,"sb/glow.png",476,273 C,0,99352,99352,255,0,128 S,0,99352,99352,0.5 F,0,99352,99852,1,0
Sprite,Background,Centre,"sb/glow.png",478,263 C,0,99371,99371,255,0,128 S,0,99371,99371,0.5 F,0,99371,99871,1,0
Sprite,Background,Centre,"sb/glow.png",478,253 C,0,99390,99390,255,0,128 S,0,99390,99390,0.5 F,0,99390,99890,1,0
Sprite,Background,Centre,"sb/glow.png",477,242 C,0,99409,99409,255,0,128 S,0,99409,99409,0.5 F,0,99409,99909,1,0
Sprite,Background,Centre,"sb/glow.png",475,232 C,0,99427,99427,255,0,128 S,0,99427,99427,0.5 F,0,99427,99927,1,0
Sprite,Background,Centre,"sb/glow.png",472,222 C,0,99446,99446,255,0,128 S,0,99446,99446,0.5 F,0,99446,99946,1,0
Sprite,Background,Centre,"sb/glow.png",468,212 C,0,99465,99465,255,0,128 S,0,99465,99465,0.5 F,0,99465,99965,1,0
Sprite,Background,Centre,"sb/glow.png",462,203 C,0,99484,99484,255,0,128 S,0,99484,99484,0.5 F,0,99484,99984,1,0
Sprite,Background,Centre,"sb/glow.png",433,205 C,0,99502,99502,255,0,128 S,0,99502,99502,0.5 F,0,99502,100002,1,0
Sprite,Background,Centre,"sb/glow.png",403,208 C,0,99521,99521,255,0,128 S,0,99521,99521,0.5 F,0,99521,100021,1,0
Sprite,Background,Centre,"sb/glow.png",375,210 C,0,99540,99540,255,0,128 S,0,99540,99540,0.5 F,0,99540,100040,1,0
Sprite,Background,Centre,"sb/glow.png",351,212 C,0,99559,99559,255,0,128 S,0,99559,99559,0.5 F,0,99559,100059,1,0
Sprite,Background,Centre,"sb/glow.png",331,214 C,0,99577,99577,255,0,128 S,0,99577,99577,0.5 F,0,99577,100077,1,0
Sprite,Background,Centre,"sb/glow.png",316,215 C,0,99596,99596,255,0,128 S,0,99596,99596,0.5 F,0,99596,100096,1,0
Sprite,Background,Centre,"sb/glow.png",306,216 C,0,99615,99615,255,0,128 S,0,99615,99615,0.5 F,0,99615,100115,1,0
Sprite,Background,Centre,"sb/glow.png",303,216 C,0,99634,99634,255,0,128 S,0,99634,99634,0.5 F,0,99634,100134,1,0
Sprite,Background,Centre,"sb/glow.png",302,226 C,0,99652,99652,255,88,102 S,0,99652,99652,0.5 F,0,99652,100152,1,0
Sprite,Background,Centre,"sb/glow.png",301,236 C,0,99671,99671,255,88,102 S,0,99671,99671,0.5 F,0,99671,100171,1,0
Sprite,Background,Centre,"sb/glow.png",299,247 C,0,99690,99690,255,88,102 S,0,99690,99690,0.5 F,0,99690,100190,1,0
Sprite,Background,Centre,"sb/glow.png",298,257 C,0,99709,99709,255,88,102 S,0,99709,99709,0.5 F,0,99709,100209,1,0
Sprite,Background,Centre,"sb/glow.png",297,268 C,0,99727,99727,255,88,102 S,0,99727,99727,0.5 F,0,99727,100227,1,0
Sprite,Background,Centre,"sb/glow.png",296,278 C,0,99746,99746,255,88,102 S,0,99746,99746,0.5 F,0,99746,100246,1,0
Sprite,Background,Centre,"sb/glow.png",295,288 C,0,99765,99765,255,88,102 S,0,99765,99765,0.5 F,0,99765,100265,1,0
Sprite,Background,Centre,"sb/glow.png",294,299 C,0,99784,99784,255,88,102 S,0,99784,99784,0.5 F,0,99784,100284,1,0
Sprite,Background,Centre,"sb/glow.png",300,315 C,0,99802,99802,255,88,102 S,0,99802,99802,0.5 F,0,99802,100302,1,0
Sprite,Background,Centre,"sb/glow.png",306,331 C,0,99821,99821,255,88,102 S,0,99821,99821,0.5 F,0,99821,100321,1,0
Sprite,Background,Centre,"sb/glow.png",312,346 C,0,99840,99840,255,88,102 S,0,99840,99840,0.5 F,0,99840,100340,1,0
Sprite,Background,Centre,"sb/glow.png",318,359 C,0,99859,99859,255,88,102 S,0,99859,99859,0.5 F,0,99859,100359,1,0
Sprite,Background,Centre,"sb/glow.png",322,370 C,0,99877,99877,255,88,102 S,0,99877,99877,0.5 F,0,99877,100377,1,0
Sprite,Background,Centre,"sb/glow.png",325,378 C,0,99896,99896,255,88,102 S,0,99896,99896,0.5 F,0,99896,100396,1,0
Sprite,Background,Centre,"sb/glow.png",327,383 C,0,99915,99915,255,88,102 S,0,99915,99915,0.5 F,0,99915,100415,1,0
Sprite,Background,Centre,"sb/glow.png",328,385 C,0,99934,99934,255,88,102 S,0,99934,99934,0.5 F,0,99934,100434,1,0
Sprite,Background,Centre,"sb/glow.png",311,383 C,0,99952,99952,255,88,102 S,0,99952,99952,0.5 F,0,99952,100452,1,0
Sprite,Background,Centre,"sb/glow.png",294,380 C,0,99971,99971,255,88,102 S,0,99971,99971,0.5 F,0,99971,100471,1,0
Sprite,Background,Centre,"sb/glow.png",278,378 C,0,99990,99990,255,88,102 S,0,99990,99990,0.5 F,0,99990,100490,1,0
Sprite,Background,Centre,"sb/glow.png",264,376 C,0,100009,100009,255,88,102 S,0,100009,100009,0.5 F,0,100009,100509,1,0
Sprite,Background,Centre,"sb/glow.png",253,374 C,0,100027,100027,255,88,102 S,0,100027,100027,0.5 F,0,100027,100527,1,0
Sprite,Background,Centre,"sb/glow.png",244,373 C,0,100046,100046,255,88,102 S,0,100046,100046,0.5 F,0,100046,100546,1,0
Sprite,Background,Centre,"sb/glow.png",239,372 C,0,100065,100065,255,88,102 S,0,100065,100065,0.5 F,0,100065,100565,1,0
Sprite,Background,Centre,"sb/glow.png",237,372 C,0,100084,100084,255,88,102 S,0,100084,100084,0.5 F,0,100084,100584,1,0
Sprite,Background,Centre,"sb/glow.png",223,382 C,0,100102,100102,255,88,102 S,0,100102,100102,0.5 F,0,100102,100602,1,0
Sprite,Background,Centre,"sb/glow.png",209,392 C,0,100121,100121,255,88,102 S,0,100121,100121,0.5 F,0,100121,100621,1,0
Sprite,Background,Centre,"sb/glow.png",197,402 C,0,100140,100140,255,88,102 S,0,100140,100140,0.5 F,0,100140,100640,1,0
Sprite,Background,Centre,"sb/glow.png",185,410 C,0,100159,100159,255,88,102 S,0,100159,100159,0.5 F,0,100159,100659,1,0
Sprite,Background,Centre,"sb/glow.png",176,417 C,0,100177,100177,255,88,102 S,0,100177,100177,0.5 F,0,100177,100677,1,0
Sprite,Background,Centre,"sb/glow.png",169,422 C,0,100196,100196,255,88,102 S,0,100196,100196,0.5 F,0,100196,100696,1,0
Sprite,Background,Centre,"sb/glow.png",165,425 C,0,100215,100215,255,88,102 S,0,100215,100215,0.5 F,0,100215,100715,1,0
Sprite,Background,Centre,"sb/glow.png",163,426 C,0,100234,100234,255,88,102 S,0,100234,100234,0.5 F,0,100234,100734,1,0
Sprite,Background,Centre,"sb/glow.png",158,418 C,0,100252,100252,255,88,102 S,0,100252,100252,0.5 F,0,100252,100752,1,0
Sprite,Background,Centre,"sb/glow.png",153,408 C,0,100271,100271,255,88,102 S,0,100271,100271,0.5 F,0,100271,100771,1,0
Sprite,Background,Centre,"sb/glow.png",150,398 C,0,100290,100290,255,88,102 S,0,100290,100290,0.5 F,0,100290,100790,1,0
Sprite,Background,Centre,"sb/glow.png",147,388 C,0,100309,100309,255,88,102 S,0,100309,100309,0.5 F,0,100309,100809,1,0
Sprite,Background,Centre,"sb/glow.png",146,378 C,0,100327,100327,255,88,102 S,0,100327,100327,0.5 F,0,100327,100827,1,0
Sprite,Background,Centre,"sb/glow.png",146,367 C,0,100346,100346,255,88,102 S,0,100346,100346,0.5 F,0,100346,100846,1,0
Sprite,Background,Centre,"sb/glow.png",147,357 C,0,100365,100365,255,88,102 S,0,100365,100365,0.5 F,0,100365,100865,1,0
Sprite,Background,Centre,"sb/glow.png",149,347 C,0,100384,100384,255,88,102 S,0,100384,100384,0.5 F,0,100384,100884,1,0
Sprite,Background,Centre,"sb/glow.png",153,337 C,0,100402,100402,255,88,102 S,0,100402,100402,0.5 F,0,100402,100902,1,0
Sprite,Background,Centre,"sb/glow.png",157,327 C,0,100421,100421,255,88,102 S,0,100421,100421,0.5 F,0,100421,100921,1,0
Sprite,Background,Centre,"sb/glow.png",163,318 C,0,100440,100440,255,88,102 S,0,100440,100440,0.5 F,0,100440,100940,1,0
Sprite,Background,Centre,"sb/glow.png",169,310 C,0,100459,100459,255,88,102 S,0,100459,100459,0.5 F,0,100459,100959,1,0
Sprite,Background,Centre,"sb/glow.png",177,303 C,0,100477,100477,255,88,102 S,0,100477,100477,0.5 F,0,100477,100977,1,0
Sprite,Background,Centre,"sb/glow.png",185,296 C,0,100496,100496,255,88,102 S,0,100496,100496,0.5 F,0,100496,100996,1,0
Sprite,Background,Centre,"sb/glow.png",194,291 C,0,100515,100515,255,88,102 S,0,100515,100515,0.5 F,0,100515,101015,1,0
Sprite,Background,Centre,"sb/glow.png",203,286 C,0,100534,100534,255,88,102 S,0,100534,100534,0.5 F,0,100534,101034,1,0
Sprite,Background,Centre,"sb/glow.png",227,304 C,0,100552,100552,255,88,102 S,0,100552,100552,0.5 F,0,100552,101052,1,0
Sprite,Background,Centre,"sb/glow.png",250,323 C,0,100571,100571,255,88,102 S,0,100571,100571,0.5 F,0,100571,101071,1,0
Sprite,Background,Centre,"sb/glow.png",272,340 C,0,100590,100590,255,88,102 S,0,100590,100590,0.5 F,0,100590,101090,1,0
Sprite,Background,Centre,"sb/glow.png",291,355 C,0,100609,100609,255,88,102 S,0,100609,100609,0.5 F,0,100609,101109,1,0
Sprite,Background,Centre,"sb/glow.png",306,368 C,0,100627,100627,255,88,102 S,0,100627,100627,0.5 F,0,100627,101127,1,0
Sprite,Background,Centre,"sb/glow.png",318,377 C,0,100646,100646,255,88,102 S,0,100646,100646,0.5 F,0,100646,101146,1,0
Sprite,Background,Centre,"sb/glow.png",325,383 C,0,100665,100665,255,88,102 S,0,100665,100665,0.5 F,0,100665,101165,1,0
Sprite,Background,Centre,"sb/glow.png",328,385 C,0,100684,100684,255,88,102 S,0,100684,100684,0.5 F,0,100684,101184,1,0
Sprite,Background,Centre,"sb/glow.png",328,385 C,0,100702,100702,255,88,102 S,0,100702,100702,0.5 F,0,100702,101202,1,0
Sprite,Background,Centre,"sb/glow.png",328,385 C,0,100721,100721,255,88,102 S,0,100721,100721,0.5 F,0,100721,101221,1,0
Sprite,Background,Centre,"sb/glow.png",328,385 C,0,100740,100740,255,88,102 S,0,100740,100740,0.5 F,0,100740,101240,1,0
Sprite,Background,Centre,"sb/glow.png",328,385 C,0,100759,100759,255,88,102 S,0,100759,100759,0.5 F,0,100759,101259,1,0
Sprite,Background,Centre,"sb/glow.png",328,385 C,0,100777,100777,255,88,102 S,0,100777,100777,0.5 F,0,100777,101277,1,0
Sprite,Background,Centre,"sb/glow.png",328,385 C,0,100796,100796,255,88,102 S,0,100796,100796,0.5 F,0,100796,101296,1,0
Sprite,Background,Centre,"sb/glow.png",328,385 C,0,100815,100815,255,88,102 S,0,100815,100815,0.5 F,0,100815,101315,1,0
Sprite,Background,Centre,"sb/glow.png",328,385 C,0,100834,100834,255,88,102 S,0,100834,100834,0.5 F,0,100834,101334,1,0
Sprite,Background,Centre,"sb/glow.png",338,384 C,0,100852,100852,255,0,255 S,0,100852,100852,0.5 F,0,100852,101352,1,0
Sprite,Background,Centre,"sb/glow.png",348,382 C,0,100871,100871,255,0,255 S,0,100871,100871,0.5 F,0,100871,101371,1,0
Sprite,Background,Centre,"sb/glow.png",359,381 C,0,100890,100890,255,0,255 S,0,100890,100890,0.5 F,0,100890,101390,1,0
Sprite,Background,Centre,"sb/glow.png",369,380 C,0,100909,100909,255,0,255 S,0,100909,100909,0.5 F,0,100909,101409,1,0
Sprite,Background,Centre,"sb/glow.png",380,378 C,0,100927,100927,255,0,255 S,0,100927,100927,0.5 F,0,100927,101427,1,0
Sprite,Background,Centre,"sb/glow.png",390,377 C,0,100946,100946,255,0,255 S,0,100946,100946,0.5 F,0,100946,101446,1,0
Sprite,Background,Centre,"sb/glow.png",400,376 C,0,100965,100965,255,0,255 S,0,100965,100965,0.5 F,0,100965,101465,1,0
Sprite,Background,Centre,"sb/glow.png",411,374 C,0,100984,100984,255,0,255 S,0,100984,100984,0.5 F,0,100984,101484,1,0
Sprite,Background,Centre,"sb/glow.png",426,383 C,0,101002,101002,255,0,255 S,0,101002,101002,0.5 F,0,101002,101502,1,0
Sprite,Background,Centre,"sb/glow.png",440,393 C,0,101021,101021,255,0,255 S,0,101021,101021,0.5 F,0,101021,101521,1,0
Sprite,Background,Centre,"sb/glow.png",454,401 C,0,101040,101040,255,0,255 S,0,101040,101040,0.5 F,0,101040,101540,1,0
Sprite,Background,Centre,"sb/glow.png",466,409 C,0,101059,101059,255,0,255 S,0,101059,101059,0.5 F,0,101059,101559,1,0
Sprite,Background,Centre,"sb/glow.png",475,415 C,0,101077,101077,255,0,255 S,0,101077,101077,0.5 F,0,101077,101577,1,0
Sprite,Background,Centre,"sb/glow.png",483,420 C,0,101096,101096,255,0,255 S,0,101096,101096,0.5 F,0,101096,101596,1,0
Sprite,Background,Centre,"sb/glow.png",487,423 C,0,101115,101115,255,0,255 S,0,101115,101115,0.5 F,0,101115,101615,1,0
Sprite,Background,Centre,"sb/glow.png",489,424 C,0,101134,101134,255,0,255 S,0,101134,101134,0.5 F,0,101134,101634,1,0
Sprite,Background,Centre,"sb/glow.png",494,415 C,0,101152,101152,255,0,255 S,0,101152,101152,0.5 F,0,101152,101652,1,0
Sprite,Background,Centre,"sb/glow.png",498,406 C,0,101171,101171,255,0,255 S,0,101171,101171,0.5 F,0,101171,101671,1,0
Sprite,Background,Centre,"sb/glow.png",501,396 C,0,101190,101190,255,0,255 S,0,101190,101190,0.5 F,0,101190,101690,1,0
Sprite,Background,Centre,"sb/glow.png",503,386 C,0,101209,101209,255,0,255 S,0,101209,101209,0.5 F,0,101209,101709,1,0
Sprite,Background,Centre,"sb/glow.png",504,375 C,0,101227,101227,255,0,255 S,0,101227,101227,0.5 F,0,101227,101727,1,0
Sprite,Background,Centre,"sb/glow.png",503,365 C,0,101246,101246,255,0,255 S,0,101246,101246,0.5 F,0,101246,101746,1,0
Sprite,Background,Centre,"sb/glow.png",501,355 C,0,101265,101265,255,0,255 S,0,101265,101265,0.5 F,0,101265,101765,1,0
Sprite,Background,Centre,"sb/glow.png",498,345 C,0,101284,101284,255,0,255 S,0,101284,101284,0.5 F,0,101284,101784,1,0
Sprite,Background,Centre,"sb/glow.png",485,333 C,0,101302,101302,255,0,255 S,0,101302,101302,0.5 F,0,101302,101802,1,0
Sprite,Background,Centre,"sb/glow.png",472,322 C,0,101321,101321,255,0,255 S,0,101321,101321,0.5 F,0,101321,101821,1,0
Sprite,Background,Centre,"sb/glow.png",460,311 C,0,101340,101340,255,0,255 S,0,101340,101340,0.5 F,0,101340,101840,1,0
Sprite,Background,Centre,"sb/glow.png",450,302 C,0,101359,101359,255,0,255 S,0,101359,101359,0.5 F,0,101359,101859,1,0
Sprite,Background,Centre,"sb/glow.png",441,294 C,0,101377,101377,255,0,255 S,0,101377,101377,0.5 F,0,101377,101877,1,0
Sprite,Background,Centre,"sb/glow.png",435,289 C,0,101396,101396,255,0,255 S,0,101396,101396,0.5 F,0,101396,101896,1,0
Sprite,Background,Centre,"sb/glow.png",430,285 C,0,101415,101415,255,0,255 S,0,101415,101415,0.5 F,0,101415,101915,1,0
Sprite,Background,Centre,"sb/glow.png",429,284 C,0,101434,101434,255,0,255 S,0,101434,101434,0.5 F,0,101434,101934,1,0
Sprite,Background,Centre,"sb/glow.png",429,284 C,0,101452,101452,255,0,255 S,0,101452,101452,0.5 F,0,101452,101952,1,0
Sprite,Background,Centre,"sb/glow.png",429,284 C,0,101471,101471,255,0,255 S,0,101471,101471,0.5 F,0,101471,101971,1,0
Sprite,Background,Centre,"sb/glow.png",429,284 C,0,101490,101490,255,0,255 S,0,101490,101490,0.5 F,0,101490,101990,1,0
Sprite,Background,Centre,"sb/glow.png",429,284 C,0,101509,101509,255,0,255 S,0,101509,101509,0.5 F,0,101509,102009,1,0
Sprite,Background,Centre,"sb/glow.png",429,284 C,0,101527,101527,255,0,255 S,0,101527,101527,0.5 F,0,101527,102027,1,0
Sprite,Background,Centre,"sb/glow.png",429,284 C,0,101546,101546,255,0,255 S,0,101546,101546,0.5 F,0,101546,102046,1,0
Sprite,Background,Centre,"sb/glow.png",429,284 C,0,101565,101565,255,0,255 S,0,101565,101565,0.5 F,0,101565,102065,1,0
Sprite,Background,Centre,"sb/glow.png",429,284 C,0,101584,101584,255,0,255 S,0,101584,101584,0.5 F,0,101584,102084,1,0
Sprite,Background,Centre,"sb/glow.png",432,268 C,0,101602,101602,255,0,255 S,0,101602,101602,0.5 F,0,101602,102102,1,0
Sprite,Background,Centre,"sb/glow.png",436,251 C,0,101621,101621,255,0,255 S,0,101621,101621,0.5 F,0,101621,102121,1,0
Sprite,Background,Centre,"sb/glow.png",439,235 C,0,101640,101640,255,0,255 S,0,101640,101640,0.5 F,0,101640,102140,1,0
Sprite,Background,Centre,"sb/glow.png",442,222 C,0,101659,101659,255,0,255 S,0,101659,101659,0.5 F,0,101659,102159,1,0
Sprite,Background,Centre,"sb/glow.png",444,211 C,0,101677,101677,255,0,255 S,0,101677,101677,0.5 F,0,101677,102177,1,0
Sprite,Background,Centre,"sb/glow.png",446,202 C,0,101696,101696,255,0,255 S,0,101696,101696,0.5 F,0,101696,102196,1,0
Sprite,Background,Centre,"sb/glow.png",447,197 C,0,101715,101715,255,0,255 S,0,101715,101715,0.5 F,0,101715,102215,1,0
Sprite,Background,Centre,"sb/glow.png",447,195 C,0,101734,101734,255,0,255 S,0,101734,101734,0.5 F,0,101734,102234,1,0
Sprite,Background,Centre,"sb/glow.png",447,195 C,0,101752,101752,255,0,255 S,0,101752,101752,0.5 F,0,101752,102252,1,0
Sprite,Background,Centre,"sb/glow.png",447,195 C,0,101771,101771,255,0,255 S,0,101771,101771,0.5 F,0,101771,102271,1,0
Sprite,Background,Centre,"sb/glow.png",447,195 C,0,101790,101790,255,0,255 S,0,101790,101790,0.5 F,0,101790,102290,1,0
Sprite,Background,Centre,"sb/glow.png",447,195 C,0,101809,101809,255,0,255 S,0,101809,101809,0.5 F,0,101809,102309,1,0
Sprite,Background,Centre,"sb/glow.png",447,195 C,0,101827,101827,255,0,255 S,0,101827,101827,0.5 F,0,101827,102327,1,0
Sprite,Background,Centre,"sb/glow.png",447,195 C,0,101846,101846,255,0,255 S,0,101846,101846,0.5 F,0,101846,102346,1,0
Sprite,Background,Centre,"sb/glow.png",447,195 C,0,101865,101865,255,0,255 S,0,101865,101865,0.5 F,0,101865,102365,1,0
Sprite,Background,Centre,"sb/glow.png",447,195 C,0,101884,101884,255,0,255 S,0,101884,101884,0.5 F,0,101884,102384,1,0
Sprite,Background,Centre,"sb/glow.png",432,185 C,0,101902,101902,255,0,255 S,0,101902,101902,0.5 F,0,101902,102402,1,0
Sprite,Background,Centre,"sb/glow.png",417,174 C,0,101921,101921,255,0,255 S,0,101921,101921,0.5 F,0,101921,102421,1,0
Sprite,Background,Centre,"sb/glow.png",403,165 C,0,101940,101940,255,0,255 S,0,101940,101940,0.5 F,0,101940,102440,1,0
Sprite,Background,Centre,"sb/glow.png",391,157 C,0,101959,101959,255,0,255 S,0,101959,101959,0.5 F,0,101959,102459,1,0
Sprite,Background,Centre,"sb/glow.png",381,150 C,0,101977,101977,255,0,255 S,0,101977,101977,0.5 F,0,101977,102477,1,0
Sprite,Background,Centre,"sb/glow.png",373,144 C,0,101996,101996,255,0,255 S,0,101996,101996,0.5 F,0,101996,102496,1,0
Sprite,Background,Centre,"sb/glow.png",369,141 C,0,102015,102015,255,0,255 S,0,102015,102015,0.5 F,0,102015,102515,1,0
Sprite,Background,Centre,"sb/glow.png",367,140 C,0,102034,102034,255,0,255 S,0,102034,102034,0.5 F,0,102034,102534,1,0
Sprite,Background,Centre,"sb/glow.png",366,150 C,0,102052,102052,255,128,192 S,0,102052,102052,0.5 F,0,102052,102552,1,0
Sprite,Background,Centre,"sb/glow.png",366,160 C,0,102071,102071,255,128,192 S,0,102071,102071,0.5 F,0,102071,102571,1,0
Sprite,Background,Centre,"sb/glow.png",365,171 C,0,102090,102090,255,128,192 S,0,102090,102090,0.5 F,0,102090,102590,1,0
Sprite,Background,Centre,"sb/glow.png",364,181 C,0,102109,102109,255,128,192 S,0,102109,102109,0.5 F,0,102109,102609,1,0
Sprite,Background,Centre,"sb/glow.png",363,192 C,0,102127,102127,255,128,192 S,0,102127,102127,0.5 F,0,102127,102627,1,0
Sprite,Background,Centre,"sb/glow.png",363,202 C,0,102146,102146,255,128,192 S,0,102146,102146,0.5 F,0,102146,102646,1,0
Sprite,Background,Centre,"sb/glow.png",362,213 C,0,102165,102165,255,128,192 S,0,102165,102165,0.5 F,0,102165,102665,1,0
Sprite,Background,Centre,"sb/glow.png",361,223 C,0,102184,102184,255,128,192 S,0,102184,102184,0.5 F,0,102184,102684,1,0
Sprite,Background,Centre,"sb/glow.png",345,230 C,0,102202,102202,255,128,192 S,0,102202,102202,0.5 F,0,102202,102702,1,0
Sprite,Background,Centre,"sb/glow.png",329,236 C,0,102221,102221,255,128,192 S,0,102221,102221,0.5 F,0,102221,102721,1,0
Sprite,Background,Centre,"sb/glow.png",313,242 C,0,102240,102240,255,128,192 S,0,102240,102240,0.5 F,0,102240,102740,1,0
Sprite,Background,Centre,"sb/glow.png",300,247 C,0,102259,102259,255,128,192 S,0,102259,102259,0.5 F,0,102259,102759,1,0
Sprite,Background,Centre,"sb/glow.png",289,251 C,0,102277,102277,255,128,192 S,0,102277,102277,0.5 F,0,102277,102777,1,0
Sprite,Background,Centre,"sb/glow.png",281,254 C,0,102296,102296,255,128,192 S,0,102296,102296,0.5 F,0,102296,102796,1,0
Sprite,Background,Centre,"sb/glow.png",276,256 C,0,102315,102315,255,128,192 S,0,102315,102315,0.5 F,0,102315,102815,1,0
Sprite,Background,Centre,"sb/glow.png",274,257 C,0,102334,102334,255,128,192 S,0,102334,102334,0.5 F,0,102334,102834,1,0
Sprite,Background,Centre,"sb/glow.png",273,247 C,0,102352,102352,255,128,192 S,0,102352,102352,0.5 F,0,102352,102852,1,0
Sprite,Background,Centre,"sb/glow.png",273,237 C,0,102371,102371,255,128,192 S,0,102371,102371,0.5 F,0,102371,102871,1,0
Sprite,Background,Centre,"sb/glow.png",272,226 C,0,102390,102390,255,128,192 S,0,102390,102390,0.5 F,0,102390,102890,1,0
Sprite,Background,Centre,"sb/glow.png",271,216 C,0,102409,102409,255,128,192 S,0,102409,102409,0.5 F,0,102409,102909,1,0
Sprite,Background,Centre,"sb/glow.png",270,205 C,0,102427,102427,255,128,192 S,0,102427,102427,0.5 F,0,102427,102927,1,0
Sprite,Background,Centre,"sb/glow.png",270,195 C,0,102446,102446,255,128,192 S,0,102446,102446,0.5 F,0,102446,102946,1,0
Sprite,Background,Centre,"sb/glow.png",269,184 C,0,102465,102465,255,128,192 S,0,102465,102465,0.5 F,0,102465,102965,1,0
Sprite,Background,Centre,"sb/glow.png",268,174 C,0,102484,102484,255,128,192 S,0,102484,102484,0.5 F,0,102484,102984,1,0
Sprite,Background,Centre,"sb/glow.png",273,157 C,0,102502,102502,255,128,192 S,0,102502,102502,0.5 F,0,102502,103002,1,0
Sprite,Background,Centre,"sb/glow.png",277,140 C,0,102521,102521,255,128,192 S,0,102521,102521,0.5 F,0,102521,103021,1,0
Sprite,Background,Centre,"sb/glow.png",282,124 C,0,102540,102540,255,128,192 S,0,102540,102540,0.5 F,0,102540,103040,1,0
Sprite,Background,Centre,"sb/glow.png",285,111 C,0,102559,102559,255,128,192 S,0,102559,102559,0.5 F,0,102559,103059,1,0
Sprite,Background,Centre,"sb/glow.png",289,100 C,0,102577,102577,255,128,192 S,0,102577,102577,0.5 F,0,102577,103077,1,0
Sprite,Background,Centre,"sb/glow.png",291,91 C,0,102596,102596,255,128,192 S,0,102596,102596,0.5 F,0,102596,103096,1,0
Sprite,Background,Centre,"sb/glow.png",292,86 C,0,102615,102615,255,128,192 S,0,102615,102615,0.5 F,0,102615,103115,1,0
Sprite,Background,Centre,"sb/glow.png",293,84 C,0,102634,102634,255,128,192 S,0,102634,102634,0.5 F,0,102634,103134,1,0
Sprite,Background,Centre,"sb/glow.png",283,82 C,0,102652,102652,255,128,192 S,0,102652,102652,0.5 F,0,102652,103152,1,0
Sprite,Background,Centre,"sb/glow.png",273,80 C,0,102671,102671,255,128,192 S,0,102671,102671,0.5 F,0,102671,103171,1,0
Sprite,Background,Centre,"sb/glow.png",262,80 C,0,102690,102690,255,128,192 S,0,102690,102690,0.5 F,0,102690,103190,1,0
Sprite,Background,Centre,"sb/glow.png",252,82 C,0,102709,102709,255,128,192 S,0,102709,102709,0.5 F,0,102709,103209,1,0
Sprite,Background,Centre,"sb/glow.png",242,84 C,0,102727,102727,255,128,192 S,0,102727,102727,0.5 F,0,102727,103227,1,0
Sprite,Background,Centre,"sb/glow.png",232,88 C,0,102746,102746,255,128,192 S,0,102746,102746,0.5 F,0,102746,103246,1,0
Sprite,Background,Centre,"sb/glow.png",223,93 C,0,102765,102765,255,128,192 S,0,102765,102765,0.5 F,0,102765,103265,1,0
Sprite,Background,Centre,"sb/glow.png",214,99 C,0,102784,102784,255,128,192 S,0,102784,102784,0.5 F,0,102784,103284,1,0
Sprite,Background,Centre,"sb/glow.png",205,105 C,0,102802,102802,255,128,192 S,0,102802,102802,0.5 F,0,102802,103302,1,0
Sprite,Background,Centre,"sb/glow.png",196,110 C,0,102821,102821,255,128,192 S,0,102821,102821,0.5 F,0,102821,103321,1,0
Sprite,Background,Centre,"sb/glow.png",187,114 C,0,102840,102840,255,128,192 S,0,102840,102840,0.5 F,0,102840,103340,1,0
Sprite,Background,Centre,"sb/glow.png",177,117 C,0,102859,102859,255,128,192 S,0,102859,102859,0.5 F,0,102859,103359,1,0
Sprite,Background,Centre,"sb/glow.png",166,118 C,0,102877,102877,255,128,192 S,0,102877,102877,0.5 F,0,102877,103377,1,0
Sprite,Background,Centre,"sb/glow.png",156,118 C,0,102896,102896,255,128,192 S,0,102896,102896,0.5 F,0,102896,103396,1,0
Sprite,Background,Centre,"sb/glow.png",145,117 C,0,102915,102915,255,128,192 S,0,102915,102915,0.5 F,0,102915,103415,1,0
Sprite,Background,Centre,"sb/glow.png",135,114 C,0,102934,102934,255,128,192 S,0,102934,102934,0.5 F,0,102934,103434,1,0
Sprite,Background,Centre,"sb/glow.png",129,130 C,0,102952,102952,255,128,192 S,0,102952,102952,0.5 F,0,102952,103452,1,0
Sprite,Background,Centre,"sb/glow.png",123,147 C,0,102971,102971,255,128,192 S,0,102971,102971,0.5 F,0,102971,103471,1,0
Sprite,Background,Centre,"sb/glow.png",117,164 C,0,102990,102990,255,128,192 S,0,102990,102990,0.5 F,0,102990,103490,1,0
Sprite,Background,Centre,"sb/glow.png",111,180 C,0,103009,103009,255,128,192 S,0,103009,103009,0.5 F,0,103009,103509,1,0
Sprite,Background,Centre,"sb/glow.png",105,195 C,0,103027,103027,255,128,192 S,0,103027,103027,0.5 F,0,103027,103527,1,0
Sprite,Background,Centre,"sb/glow.png",100,210 C,0,103046,103046,255,128,192 S,0,103046,103046,0.5 F,0,103046,103546,1,0
Sprite,Background,Centre,"sb/glow.png",95,224 C,0,103065,103065,255,128,192 S,0,103065,103065,0.5 F,0,103065,103565,1,0
Sprite,Background,Centre,"sb/glow.png",91,236 C,0,103084,103084,255,128,192 S,0,103084,103084,0.5 F,0,103084,103584,1,0
Sprite,Background,Centre,"sb/glow.png",86,248 C,0,103102,103102,255,128,192 S,0,103102,103102,0.5 F,0,103102,103602,1,0
Sprite,Background,Centre,"sb/glow.png",83,258 C,0,103121,103121,255,128,192 S,0,103121,103121,0.5 F,0,103121,103621,1,0
Sprite,Background,Centre,"sb/glow.png",80,267 C,0,103140,103140,255,128,192 S,0,103140,103140,0.5 F,0,103140,103640,1,0
Sprite,Background,Centre,"sb/glow.png",77,274 C,0,103159,103159,255,128,192 S,0,103159,103159,0.5 F,0,103159,103659,1,0
Sprite,Background,Centre,"sb/glow.png",75,280 C,0,103177,103177,255,128,192 S,0,103177,103177,0.5 F,0,103177,103677,1,0
Sprite,Background,Centre,"sb/glow.png",73,284 C,0,103196,103196,255,128,192 S,0,103196,103196,0.5 F,0,103196,103696,1,0
Sprite,Background,Centre,"sb/glow.png",72,287 C,0,103215,103215,255,128,192 S,0,103215,103215,0.5 F,0,103215,103715,1,0
Sprite,Background,Centre,"sb/glow.png",72,288 C,0,103234,103234,255,128,192 S,0,103234,103234,0.5 F,0,103234,103734,1,0
Sprite,Background,Centre,"sb/glow.png",75,305 C,0,103252,103252,255,0,128 S,0,103252,103252,0.5 F,0,103252,103752,1,0
Sprite,Background,Centre,"sb/glow.png",78,322 C,0,103271,103271,255,0,128 S,0,103271,103271,0.5 F,0,103271,103771,1,0
Sprite,Background,Centre,"sb/glow.png",80,338 C,0,103290,103290,255,0,128 S,0,103290,103290,0.5 F,0,103290,103790,1,0
Sprite,Background,Centre,"sb/glow.png",82,352 C,0,103309,103309,255,0,128 S,0,103309,103309,0.5 F,0,103309,103809,1,0
Sprite,Background,Centre,"sb/glow.png",84,363 C,0,103327,103327,255,0,128 S,0,103327,103327,0.5 F,0,103327,103827,1,0
Sprite,Background,Centre,"sb/glow.png",86,372 C,0,103346,103346,255,0,128 S,0,103346,103346,0.5 F,0,103346,103846,1,0
Sprite,Background,Centre,"sb/glow.png",87,377 C,0,103365,103365,255,0,128 S,0,103365,103365,0.5 F,0,103365,103865,1,0
Sprite,Background,Centre,"sb/glow.png",87,379 C,0,103384,103384,255,0,128 S,0,103384,103384,0.5 F,0,103384,103884,1,0
Sprite,Background,Centre,"sb/glow.png",100,368 C,0,103402,103402,255,0,128 S,0,103402,103402,0.5 F,0,103402,103902,1,0
Sprite,Background,Centre,"sb/glow.png",114,357 C,0,103421,103421,255,0,128 S,0,103421,103421,0.5 F,0,103421,103921,1,0
Sprite,Background,Centre,"sb/glow.png",126,347 C,0,103440,103440,255,0,128 S,0,103440,103440,0.5 F,0,103440,103940,1,0
Sprite,Background,Centre,"sb/glow.png",137,338 C,0,103459,103459,255,0,128 S,0,103459,103459,0.5 F,0,103459,103959,1,0
Sprite,Background,Centre,"sb/glow.png",146,331 C,0,103477,103477,255,0,128 S,0,103477,103477,0.5 F,0,103477,103977,1,0
Sprite,Background,Centre,"sb/glow.png",153,326 C,0,103496,103496,255,0,128 S,0,103496,103496,0.5 F,0,103496,103996,1,0
Sprite,Background,Centre,"sb/glow.png",157,322 C,0,103515,103515,255,0,128 S,0,103515,103515,0.5 F,0,103515,104015,1,0
Sprite,Background,Centre,"sb/glow.png",159,321 C,0,103534,103534,255,0,128 S,0,103534,103534,0.5 F,0,103534,104034,1,0
Sprite,Background,Centre,"sb/glow.png",169,320 C,0,103552,103552,255,0,128 S,0,103552,103552,0.5 F,0,103552,104052,1,0
Sprite,Background,Centre,"sb/glow.png",179,320 C,0,103571,103571,255,0,128 S,0,103571,103571,0.5 F,0,103571,104071,1,0
Sprite,Background,Centre,"sb/glow.png",190,322 C,0,103590,103590,255,0,128 S,0,103590,103590,0.5 F,0,103590,104090,1,0
Sprite,Background,Centre,"sb/glow.png",200,324 C,0,103609,103609,255,0,128 S,0,103609,103609,0.5 F,0,103609,104109,1,0
Sprite,Background,Centre,"sb/glow.png",210,327 C,0,103627,103627,255,0,128 S,0,103627,103627,0.5 F,0,103627,104127,1,0
Sprite,Background,Centre,"sb/glow.png",219,332 C,0,103646,103646,255,0,128 S,0,103646,103646,0.5 F,0,103646,104146,1,0
Sprite,Background,Centre,"sb/glow.png",228,338 C,0,103665,103665,255,0,128 S,0,103665,103665,0.5 F,0,103665,104165,1,0
Sprite,Background,Centre,"sb/glow.png",236,344 C,0,103684,103684,255,0,128 S,0,103684,103684,0.5 F,0,103684,104184,1,0
Sprite,Background,Centre,"sb/glow.png",241,361 C,0,103702,103702,255,0,128 S,0,103702,103702,0.5 F,0,103702,104202,1,0
Sprite,Background,Centre,"sb/glow.png",246,378 C,0,103721,103721,255,0,128 S,0,103721,103721,0.5 F,0,103721,104221,1,0
Sprite,Background,Centre,"sb/glow.png",251,393 C,0,103740,103740,255,0,128 S,0,103740,103740,0.5 F,0,103740,104240,1,0
Sprite,Background,Centre,"sb/glow.png",255,406 C,0,103759,103759,255,0,128 S,0,103759,103759,0.5 F,0,103759,104259,1,0
Sprite,Background,Centre,"sb/glow.png",258,418 C,0,103777,103777,255,0,128 S,0,103777,103777,0.5 F,0,103777,104277,1,0
Sprite,Background,Centre,"sb/glow.png",261,426 C,0,103796,103796,255,0,128 S,0,103796,103796,0.5 F,0,103796,104296,1,0
Sprite,Background,Centre,"sb/glow.png",262,431 C,0,103815,103815,255,0,128 S,0,103815,103815,0.5 F,0,103815,104315,1,0
Sprite,Background,Centre,"sb/glow.png",263,433 C,0,103834,103834,255,0,128 S,0,103834,103834,0.5 F,0,103834,104334,1,0
Sprite,Background,Centre,"sb/glow.png",272,429 C,0,103852,103852,255,0,128 S,0,103852,103852,0.5 F,0,103852,104352,1,0
Sprite,Background,Centre,"sb/glow.png",281,424 C,0,103871,103871,255,0,128 S,0,103871,103871,0.5 F,0,103871,104371,1,0
Sprite,Background,Centre,"sb/glow.png",290,419 C,0,103890,103890,255,0,128 S,0,103890,103890,0.5 F,0,103890,104390,1,0
Sprite,Background,Centre,"sb/glow.png",299,412 C,0,103909,103909,255,0,128 S,0,103909,103909,0.5 F,0,103909,104409,1,0
Sprite,Background,Centre,"sb/glow.png",306,405 C,0,103927,103927,255,0,128 S,0,103927,103927,0.5 F,0,103927,104427,1,0
Sprite,Background,Centre,"sb/glow.png",312,397 C,0,103946,103946,255,0,128 S,0,103946,103946,0.5 F,0,103946,104446,1,0
Sprite,Background,Centre,"sb/glow.png",318,388 C,0,103965,103965,255,0,128 S,0,103965,103965,0.5 F,0,103965,104465,1,0
Sprite,Background,Centre,"sb/glow.png",323,378 C,0,103984,103984,255,0,128 S,0,103984,103984,0.5 F,0,103984,104484,1,0
Sprite,Background,Centre,"sb/glow.png",321,361 C,0,104002,104002,255,0,128 S,0,104002,104002,0.5 F,0,104002,104502,1,0
Sprite,Background,Centre,"sb/glow.png",318,344 C,0,104021,104021,255,0,128 S,0,104021,104021,0.5 F,0,104021,104521,1,0
Sprite,Background,Centre,"sb/glow.png",316,328 C,0,104040,104040,255,0,128 S,0,104040,104040,0.5 F,0,104040,104540,1,0
Sprite,Background,Centre,"sb/glow.png",314,314 C,0,104059,104059,255,0,128 S,0,104059,104059,0.5 F,0,104059,104559,1,0
Sprite,Background,Centre,"sb/glow.png",312,303 C,0,104077,104077,255,0,128 S,0,104077,104077,0.5 F,0,104077,104577,1,0
Sprite,Background,Centre,"sb/glow.png",311,294 C,0,104096,104096,255,0,128 S,0,104096,104096,0.5 F,0,104096,104596,1,0
Sprite,Background,Centre,"sb/glow.png",310,289 C,0,104115,104115,255,0,128 S,0,104115,104115,0.5 F,0,104115,104615,1,0
Sprite,Background,Centre,"sb/glow.png",310,287 C,0,104134,104134,255,0,128 S,0,104134,104134,0.5 F,0,104134,104634,1,0
Sprite,Background,Centre,"sb/glow.png",320,286 C,0,104152,104152,255,0,128 S,0,104152,104152,0.5 F,0,104152,104652,1,0
Sprite,Background,Centre,"sb/glow.png",330,285 C,0,104171,104171,255,0,128 S,0,104171,104171,0.5 F,0,104171,104671,1,0
Sprite,Background,Centre,"sb/glow.png",341,283 C,0,104190,104190,255,0,128 S,0,104190,104190,0.5 F,0,104190,104690,1,0
Sprite,Background,Centre,"sb/glow.png",351,282 C,0,104209,104209,255,0,128 S,0,104209,104209,0.5 F,0,104209,104709,1,0
Sprite,Background,Centre,"sb/glow.png",362,281 C,0,104227,104227,255,0,128 S,0,104227,104227,0.5 F,0,104227,104727,1,0
Sprite,Background,Centre,"sb/glow.png",372,280 C,0,104246,104246,255,0,128 S,0,104246,104246,0.5 F,0,104246,104746,1,0
Sprite,Background,Centre,"sb/glow.png",382,279 C,0,104265,104265,255,0,128 S,0,104265,104265,0.5 F,0,104265,104765,1,0
Sprite,Background,Centre,"sb/glow.png",393,277 C,0,104284,104284,255,0,128 S,0,104284,104284,0.5 F,0,104284,104784,1,0
Sprite,Background,Centre,"sb/glow.png",406,306 C,0,104302,104302,255,0,128 S,0,104302,104302,0.5 F,0,104302,104802,1,0
Sprite,Background,Centre,"sb/glow.png",419,336 C,0,104321,104321,255,0,128 S,0,104321,104321,0.5 F,0,104321,104821,1,0
Sprite,Background,Centre,"sb/glow.png",431,364 C,0,104340,104340,255,0,128 S,0,104340,104340,0.5 F,0,104340,104840,1,0
Sprite,Background,Centre,"sb/glow.png",441,388 C,0,104359,104359,255,0,128 S,0,104359,104359,0.5 F,0,104359,104859,1,0
Sprite,Background,Centre,"sb/glow.png",450,407 C,0,104377,104377,255,0,128 S,0,104377,104377,0.5 F,0,104377,104877,1,0
Sprite,Background,Centre,"sb/glow.png",457,422 C,0,104396,104396,255,0,128 S,0,104396,104396,0.5 F,0,104396,104896,1,0
Sprite,Background,Centre,"sb/glow.png",461,432 C,0,104415,104415,255,0,128 S,0,104415,104415,0.5 F,0,104415,104915,1,0
Sprite,Background,Centre,"sb/glow.png",462,435 C,0,104434,104434,255,0,128 S,0,104434,104434,0.5 F,0,104434,104934,1,0
Sprite,Background,Centre,"sb/glow.png",455,428 C,0,104452,104452,255,88,102 S,0,104452,104452,0.5 F,0,104452,104952,1,0
Sprite,Background,Centre,"sb/glow.png",449,420 C,0,104471,104471,255,88,102 S,0,104471,104471,0.5 F,0,104471,104971,1,0
Sprite,Background,Centre,"sb/glow.png",443,411 C,0,104490,104490,255,88,102 S,0,104490,104490,0.5 F,0,104490,104990,1,0
Sprite,Background,Centre,"sb/glow.png",439,401 C,0,104509,104509,255,88,102 S,0,104509,104509,0.5 F,0,104509,105009,1,0
Sprite,Background,Centre,"sb/glow.png",435,391 C,0,104527,104527,255,88,102 S,0,104527,104527,0.5 F,0,104527,105027,1,0
Sprite,Background,Centre,"sb/glow.png",433,381 C,0,104546,104546,255,88,102 S,0,104546,104546,0.5 F,0,104546,105046,1,0
Sprite,Background,Centre,"sb/glow.png",432,371 C,0,104565,104565,255,88,102 S,0,104565,104565,0.5 F,0,104565,105065,1,0
Sprite,Background,Centre,"sb/glow.png",432,360 C,0,104584,104584,255,88,102 S,0,104584,104584,0.5 F,0,104584,105084,1,0
Sprite,Background,Centre,"sb/glow.png",442,346 C,0,104602,104602,255,88,102 S,0,104602,104602,0.5 F,0,104602,105102,1,0
Sprite,Background,Centre,"sb/glow.png",452,331 C,0,104621,104621,255,88,102 S,0,104621,104621,0.5 F,0,104621,105121,1,0
Sprite,Background,Centre,"sb/glow.png",461,318 C,0,104640,104640,255,88,102 S,0,104640,104640,0.5 F,0,104640,105140,1,0
Sprite,Background,Centre,"sb/glow.png",469,307 C,0,104659,104659,255,88,102 S,0,104659,104659,0.5 F,0,104659,105159,1,0
Sprite,Background,Centre,"sb/glow.png",476,297 C,0,104677,104677,255,88,102 S,0,104677,104677,0.5 F,0,104677,105177,1,0
Sprite,Background,Centre,"sb/glow.png",481,290 C,0,104696,104696,255,88,102 S,0,104696,104696,0.5 F,0,104696,105196,1,0
Sprite,Background,Centre,"sb/glow.png",484,286 C,0,104715,104715,255,88,102 S,0,104715,104715,0.5 F,0,104715,105215,1,0
Sprite,Background,Centre,"sb/glow.png",485,284 C,0,104734,104734,255,88,102 S,0,104734,104734,0.5 F,0,104734,105234,1,0
Sprite,Background,Centre,"sb/glow.png",485,274 C,0,104752,104752,255,88,102 S,0,104752,104752,0.5 F,0,104752,105252,1,0
Sprite,Background,Centre,"sb/glow.png",484,264 C,0,104771,104771,255,88,102 S,0,104771,104771,0.5 F,0,104771,105271,1,0
Sprite,Background,Centre,"sb/glow.png",482,253 C,0,104790,104790,255,88,102 S,0,104790,104790,0.5 F,0,104790,105290,1,0
Sprite,Background,Centre,"sb/glow.png",479,243 C,0,104809,104809,255,88,102 S,0,104809,104809,0.5 F,0,104809,105309,1,0
Sprite,Background,Centre,"sb/glow.png",475,234 C,0,104827,104827,255,88,102 S,0,104827,104827,0.5 F,0,104827,105327,1,0
Sprite,Background,Centre,"sb/glow.png",469,225 C,0,104846,104846,255,88,102 S,0,104846,104846,0.5 F,0,104846,105346,1,0
Sprite,Background,Centre,"sb/glow.png",463,217 C,0,104865,104865,255,88,102 S,0,104865,104865,0.5 F,0,104865,105365,1,0
Sprite,Background,Centre,"sb/glow.png",456,209 C,0,104884,104884,255,88,102 S,0,104884,104884,0.5 F,0,104884,105384,1,0
Sprite,Background,Centre,"sb/glow.png",447,194 C,0,104902,104902,255,88,102 S,0,104902,104902,0.5 F,0,104902,105402,1,0
Sprite,Background,Centre,"sb/glow.png",439,179 C,0,104921,104921,255,88,102 S,0,104921,104921,0.5 F,0,104921,105421,1,0
Sprite,Background,Centre,"sb/glow.png",431,165 C,0,104940,104940,255,88,102 S,0,104940,104940,0.5 F,0,104940,105440,1,0
Sprite,Background,Centre,"sb/glow.png",424,152 C,0,104959,104959,255,88,102 S,0,104959,104959,0.5 F,0,104959,105459,1,0
Sprite,Background,Centre,"sb/glow.png",418,142 C,0,104977,104977,255,88,102 S,0,104977,104977,0.5 F,0,104977,105477,1,0
Sprite,Background,Centre,"sb/glow.png",414,134 C,0,104996,104996,255,88,102 S,0,104996,104996,0.5 F,0,104996,105496,1,0
Sprite,Background,Centre,"sb/glow.png",411,130 C,0,105015,105015,255,88,102 S,0,105015,105015,0.5 F,0,105015,105515,1,0
Sprite,Background,Centre,"sb/glow.png",410,128 C,0,105034,105034,255,88,102 S,0,105034,105034,0.5 F,0,105034,105534,1,0
Sprite,Background,Centre,"sb/glow.png",420,127 C,0,105052,105052,255,88,102 S,0,105052,105052,0.5 F,0,105052,105552,1,0
Sprite,Background,Centre,"sb/glow.png",430,126 C,0,105071,105071,255,88,102 S,0,105071,105071,0.5 F,0,105071,105571,1,0
Sprite,Background,Centre,"sb/glow.png",441,125 C,0,105090,105090,255,88,102 S,0,105090,105090,0.5 F,0,105090,105590,1,0
Sprite,Background,Centre,"sb/glow.png",451,124 C,0,105109,105109,255,88,102 S,0,105109,105109,0.5 F,0,105109,105609,1,0
Sprite,Background,Centre,"sb/glow.png",462,123 C,0,105127,105127,255,88,102 S,0,105127,105127,0.5 F,0,105127,105627,1,0
Sprite,Background,Centre,"sb/glow.png",472,122 C,0,105146,105146,255,88,102 S,0,105146,105146,0.5 F,0,105146,105646,1,0
Sprite,Background,Centre,"sb/glow.png",483,121 C,0,105165,105165,255,88,102 S,0,105165,105165,0.5 F,0,105165,105665,1,0
Sprite,Background,Centre,"sb/glow.png",493,120 C,0,105184,105184,255,88,102 S,0,105184,105184,0.5 F,0,105184,105684,1,0
Sprite,Background,Centre,"sb/glow.png",504,119 C,0,105202,105202,255,88,102 S,0,105202,105202,0.5 F,0,105202,105702,1,0
Sprite,Background,Centre,"sb/glow.png",514,118 C,0,105221,105221,255,88,102 S,0,105221,105221,0.5 F,0,105221,105721,1,0
Sprite,Background,Centre,"sb/glow.png",524,117 C,0,105240,105240,255,88,102 S,0,105240,105240,0.5 F,0,105240,105740,1,0
Sprite,Background,Centre,"sb/glow.png",535,116 C,0,105259,105259,255,88,102 S,0,105259,105259,0.5 F,0,105259,105759,1,0
Sprite,Background,Centre,"sb/glow.png",545,115 C,0,105277,105277,255,88,102 S,0,105277,105277,0.5 F,0,105277,105777,1,0
Sprite,Background,Centre,"sb/glow.png",556,114 C,0,105296,105296,255,88,102 S,0,105296,105296,0.5 F,0,105296,105796,1,0
Sprite,Background,Centre,"sb/glow.png",566,113 C,0,105315,105315,255,88,102 S,0,105315,105315,0.5 F,0,105315,105815,1,0
Sprite,Background,Centre,"sb/glow.png",577,112 C,0,105334,105334,255,88,102 S,0,105334,105334,0.5 F,0,105334,105834,1,0
Sprite,Background,Centre,"sb/glow.png",556,108 C,0,105352,105352,255,88,102 S,0,105352,105352,0.5 F,0,105352,105852,1,0
Sprite,Background,Centre,"sb/glow.png",533,103 C,0,105371,105371,255,88,102 S,0,105371,105371,0.5 F,0,105371,105871,1,0
Sprite,Background,Centre,"sb/glow.png",511,98 C,0,105390,105390,255,88,102 S,0,105390,105390,0.5 F,0,105390,105890,1,0
Sprite,Background,Centre,"sb/glow.png",490,93 C,0,105409,105409,255,88,102 S,0,105409,105409,0.5 F,0,105409,105909,1,0
Sprite,Background,Centre,"sb/glow.png",469,89 C,0,105427,105427,255,88,102 S,0,105427,105427,0.5 F,0,105427,105927,1,0
Sprite,Background,Centre,"sb/glow.png",449,85 C,0,105446,105446,255,88,102 S,0,105446,105446,0.5 F,0,105446,105946,1,0
Sprite,Background,Centre,"sb/glow.png",431,81 C,0,105465,105465,255,88,102 S,0,105465,105465,0.5 F,0,105465,105965,1,0
Sprite,Background,Centre,"sb/glow.png",414,77 C,0,105484,105484,255,88,102 S,0,105484,105484,0.5 F,0,105484,105984,1,0
Sprite,Background,Centre,"sb/glow.png",398,74 C,0,105502,105502,255,88,102 S,0,105502,105502,0.5 F,0,105502,106002,1,0
Sprite,Background,Centre,"sb/glow.png",385,71 C,0,105521,105521,255,88,102 S,0,105521,105521,0.5 F,0,105521,106021,1,0
Sprite,Background,Centre,"sb/glow.png",373,68 C,0,105540,105540,255,88,102 S,0,105540,105540,0.5 F,0,105540,106040,1,0
Sprite,Background,Centre,"sb/glow.png",363,66 C,0,105559,105559,255,88,102 S,0,105559,105559,0.5 F,0,105559,106059,1,0
Sprite,Background,Centre,"sb/glow.png",355,64 C,0,105577,105577,255,88,102 S,0,105577,105577,0.5 F,0,105577,106077,1,0
Sprite,Background,Centre,"sb/glow.png",350,63 C,0,105596,105596,255,88,102 S,0,105596,105596,0.5 F,0,105596,106096,1,0
Sprite,Background,Centre,"sb/glow.png",346,62 C,0,105615,105615,255,88,102 S,0,105615,105615,0.5 F,0,105615,106115,1,0
Sprite,Background,Centre,"sb/glow.png",345,62 C,0,105634,105634,255,88,102 S,0,105634,105634,0.5 F,0,105634,106134,1,0
Sprite,Background,Centre,"sb/glow.png",339,70 C,0,105652,105652,255,0,255 S,0,105652,105652,0.5 F,0,105652,106152,1,0
Sprite,Background,Centre,"sb/glow.png",333,78 C,0,105671,105671,255,0,255 S,0,105671,105671,0.5 F,0,105671,106171,1,0
Sprite,Background,Centre,"sb/glow.png",328,87 C,0,105690,105690,255,0,255 S,0,105690,105690,0.5 F,0,105690,106190,1,0
Sprite,Background,Centre,"sb/glow.png",324,97 C,0,105709,105709,255,0,255 S,0,105709,105709,0.5 F,0,105709,106209,1,0
Sprite,Background,Centre,"sb/glow.png",321,107 C,0,105727,105727,255,0,255 S,0,105727,105727,0.5 F,0,105727,106227,1,0
Sprite,Background,Centre,"sb/glow.png",319,118 C,0,105746,105746,255,0,255 S,0,105746,105746,0.5 F,0,105746,106246,1,0
Sprite,Background,Centre,"sb/glow.png",318,128 C,0,105765,105765,255,0,255 S,0,105765,105765,0.5 F,0,105765,106265,1,0
Sprite,Background,Centre,"sb/glow.png",319,138 C,0,105784,105784,255,0,255 S,0,105784,105784,0.5 F,0,105784,106284,1,0
Sprite,Background,Centre,"sb/glow.png",321,149 C,0,105802,105802,255,0,255 S,0,105802,105802,0.5 F,0,105802,106302,1,0
Sprite,Background,Centre,"sb/glow.png",323,159 C,0,105821,105821,255,0,255 S,0,105821,105821,0.5 F,0,105821,106321,1,0
Sprite,Background,Centre,"sb/glow.png",327,169 C,0,105840,105840,255,0,255 S,0,105840,105840,0.5 F,0,105840,106340,1,0
Sprite,Background,Centre,"sb/glow.png",332,178 C,0,105859,105859,255,0,255 S,0,105859,105859,0.5 F,0,105859,106359,1,0
Sprite,Background,Centre,"sb/glow.png",338,186 C,0,105877,105877,255,0,255 S,0,105877,105877,0.5 F,0,105877,106377,1,0
Sprite,Background,Centre,"sb/glow.png",345,194 C,0,105896,105896,255,0,255 S,0,105896,105896,0.5 F,0,105896,106396,1,0
Sprite,Background,Centre,"sb/glow.png",353,201 C,0,105915,105915,255,0,255 S,0,105915,105915,0.5 F,0,105915,106415,1,0
Sprite,Background,Centre,"sb/glow.png",361,208 C,0,105934,105934,255,0,255 S,0,105934,105934,0.5 F,0,105934,106434,1,0
Sprite,Background,Centre,"sb/glow.png",378,212 C,0,105952,105952,255,0,255 S,0,105952,105952,0.5 F,0,105952,106452,1,0
Sprite,Background,Centre,"sb/glow.png",395,216 C,0,105971,105971,255,0,255 S,0,105971,105971,0.5 F,0,105971,106471,1,0
Sprite,Background,Centre,"sb/glow.png",410,220 C,0,105990,105990,255,0,255 S,0,105990,105990,0.5 F,0,105990,106490,1,0
Sprite,Background,Centre,"sb/glow.png",423,223 C,0,106009,106009,255,0,255 S,0,106009,106009,0.5 F,0,106009,106509,1,0
Sprite,Background,Centre,"sb/glow.png",435,226 C,0,106027,106027,255,0,255 S,0,106027,106027,0.5 F,0,106027,106527,1,0
Sprite,Background,Centre,"sb/glow.png",443,228 C,0,106046,106046,255,0,255 S,0,106046,106046,0.5 F,0,106046,106546,1,0
Sprite,Background,Centre,"sb/glow.png",448,230 C,0,106065,106065,255,0,255 S,0,106065,106065,0.5 F,0,106065,106565,1,0
Sprite,Background,Centre,"sb/glow.png",450,230 C,0,106084,106084,255,0,255 S,0,106084,106084,0.5 F,0,106084,106584,1,0
Sprite,Background,Centre,"sb/glow.png",440,244 C,0,106102,106102,255,0,255 S,0,106102,106102,0.5 F,0,106102,106602,1,0
Sprite,Background,Centre,"sb/glow.png",430,258 C,0,106121,106121,255,0,255 S,0,106121,106121,0.5 F,0,106121,106621,1,0
Sprite,Background,Centre,"sb/glow.png",420,270 C,0,106140,106140,255,0,255 S,0,106140,106140,0.5 F,0,106140,106640,1,0
Sprite,Background,Centre,"sb/glow.png",412,282 C,0,106159,106159,255,0,255 S,0,106159,106159,0.5 F,0,106159,106659,1,0
Sprite,Background,Centre,"sb/glow.png",405,291 C,0,106177,106177,255,0,255 S,0,106177,106177,0.5 F,0,106177,106677,1,0
Sprite,Background,Centre,"sb/glow.png",400,298 C,0,106196,106196,255,0,255 S,0,106196,106196,0.5 F,0,106196,106696,1,0
Sprite,Background,Centre,"sb/glow.png",397,302 C,0,106215,106215,255,0,255 S,0,106215,106215,0.5 F,0,106215,106715,1,0
Sprite,Background,Centre,"sb/glow.png",396,304 C,0,106234,106234,255,0,255 S,0,106234,106234,0.5 F,0,106234,106734,1,0
Sprite,Background,Centre,"sb/glow.png",386,303 C,0,106252,106252,255,0,255 S,0,106252,106252,0.5 F,0,106252,106752,1,0
Sprite,Background,Centre,"sb/glow.png",376,302 C,0,106271,106271,255,0,255 S,0,106271,106271,0.5 F,0,106271,106771,1,0
Sprite,Background,Centre,"sb/glow.png",365,301 C,0,106290,106290,255,0,255 S,0,106290,106290,0.5 F,0,106290,106790,1,0
Sprite,Background,Centre,"sb/glow.png",355,300 C,0,106309,106309,255,0,255 S,0,106309,106309,0.5 F,0,106309,106809,1,0
Sprite,Background,Centre,"sb/glow.png",344,299 C,0,106327,106327,255,0,255 S,0,106327,106327,0.5 F,0,106327,106827,1,0
Sprite,Background,Centre,"sb/glow.png",334,298 C,0,106346,106346,255,0,255 S,0,106346,106346,0.5 F,0,106346,106846,1,0
Sprite,Background,Centre,"sb/glow.png",324,296 C,0,106365,106365,255,0,255 S,0,106365,106365,0.5 F,0,106365,106865,1,0
Sprite,Background,Centre,"sb/glow.png",316,290 C,0,106384,106384,255,0,255 S,0,106384,106384,0.5 F,0,106384,106884,1,0
Sprite,Background,Centre,"sb/glow.png",308,283 C,0,106402,106402,255,0,255 S,0,106402,106402,0.5 F,0,106402,106902,1,0
Sprite,Background,Centre,"sb/glow.png",299,278 C,0,106421,106421,255,0,255 S,0,106421,106421,0.5 F,0,106421,106921,1,0
Sprite,Background,Centre,"sb/glow.png",289,277 C,0,106440,106440,255,0,255 S,0,106440,106440,0.5 F,0,106440,106940,1,0
Sprite,Background,Centre,"sb/glow.png",278,276 C,0,106459,106459,255,0,255 S,0,106459,106459,0.5 F,0,106459,106959,1,0
Sprite,Background,Centre,"sb/glow.png",268,275 C,0,106477,106477,255,0,255 S,0,106477,106477,0.5 F,0,106477,106977,1,0
Sprite,Background,Centre,"sb/glow.png",257,274 C,0,106496,106496,255,0,255 S,0,106496,106496,0.5 F,0,106496,106996,1,0
Sprite,Background,Centre,"sb/glow.png",247,274 C,0,106515,106515,255,0,255 S,0,106515,106515,0.5 F,0,106515,107015,1,0
Sprite,Background,Centre,"sb/glow.png",236,273 C,0,106534,106534,255,0,255 S,0,106534,106534,0.5 F,0,106534,107034,1,0
Sprite,Background,Centre,"sb/glow.png",221,283 C,0,106552,106552,255,0,255 S,0,106552,106552,0.5 F,0,106552,107052,1,0
Sprite,Background,Centre,"sb/glow.png",206,293 C,0,106571,106571,255,0,255 S,0,106571,106571,0.5 F,0,106571,107071,1,0
Sprite,Background,Centre,"sb/glow.png",192,302 C,0,106590,106590,255,0,255 S,0,106590,106590,0.5 F,0,106590,107090,1,0
Sprite,Background,Centre,"sb/glow.png",180,311 C,0,106609,106609,255,0,255 S,0,106609,106609,0.5 F,0,106609,107109,1,0
Sprite,Background,Centre,"sb/glow.png",170,318 C,0,106627,106627,255,0,255 S,0,106627,106627,0.5 F,0,106627,107127,1,0
Sprite,Background,Centre,"sb/glow.png",162,323 C,0,106646,106646,255,0,255 S,0,106646,106646,0.5 F,0,106646,107146,1,0
Sprite,Background,Centre,"sb/glow.png",158,326 C,0,106665,106665,255,0,255 S,0,106665,106665,0.5 F,0,106665,107165,1,0
Sprite,Background,Centre,"sb/glow.png",156,327 C,0,106684,106684,255,0,255 S,0,106684,106684,0.5 F,0,106684,107184,1,0
Sprite,Background,Centre,"sb/glow.png",156,327 C,0,106702,106702,255,0,255 S,0,106702,106702,0.5 F,0,106702,107202,1,0
Sprite,Background,Centre,"sb/glow.png",156,327 C,0,106721,106721,255,0,255 S,0,106721,106721,0.5 F,0,106721,107221,1,0
Sprite,Background,Centre,"sb/glow.png",156,327 C,0,106740,106740,255,0,255 S,0,106740,106740,0.5 F,0,106740,107240,1,0
Sprite,Background,Centre,"sb/glow.png",156,327 C,0,106759,106759,255,0,255 S,0,106759,106759,0.5 F,0,106759,107259,1,0
Sprite,Background,Centre,"sb/glow.png",156,327 C,0,106777,106777,255,0,255 S,0,106777,106777,0.5 F,0,106777,107277,1,0
Sprite,Background,Centre,"sb/glow.png",156,327 C,0,106796,106796,255,0,255 S,0,106796,106796,0.5 F,0,106796,107296,1,0
Sprite,Background,Centre,"sb/glow.png",156,327 C,0,106815,106815,255,0,255 S,0,106815,106815,0.5 F,0,106815,107315,1,0
Sprite,Background,Centre,"sb/glow.png",156,327 C,0,106834,106834,255,0,255 S,0,106834,106834,0.5 F,0,106834,107334,1,0
Sprite,Background,Centre,"sb/glow.png",155,317 C,0,106852,106852,255,128,192 S,0,106852,106852,0.5 F,0,106852,107352,1,0
Sprite,Background,Centre,"sb/glow.png",154,307 C,0,106871,106871,255,128,192 S,0,106871,106871,0.5 F,0,106871,107371,1,0
Sprite,Background,Centre,"sb/glow.png",153,296 C,0,106890,106890,255,128,192 S,0,106890,106890,0.5 F,0,106890,107390,1,0
Sprite,Background,Centre,"sb/glow.png",152,286 C,0,106909,106909,255,128,192 S,0,106909,106909,0.5 F,0,106909,107409,1,0
Sprite,Background,Centre,"sb/glow.png",151,275 C,0,106927,106927,255,128,192 S,0,106927,106927,0.5 F,0,106927,107427,1,0
Sprite,Background,Centre,"sb/glow.png",150,265 C,0,106946,106946,255,128,192 S,0,106946,106946,0.5 F,0,106946,107446,1,0
Sprite,Background,Centre,"sb/glow.png",149,254 C,0,106965,106965,255,128,192 S,0,106965,106965,0.5 F,0,106965,107465,1,0
Sprite,Background,Centre,"sb/glow.png",148,244 C,0,106984,106984,255,128,192 S,0,106984,106984,0.5 F,0,106984,107484,1,0
Sprite,Background,Centre,"sb/glow.png",139,228 C,0,107002,107002,255,128,192 S,0,107002,107002,0.5 F,0,107002,107502,1,0
Sprite,Background,Centre,"sb/glow.png",130,213 C,0,107021,107021,255,128,192 S,0,107021,107021,0.5 F,0,107021,107521,1,0
Sprite,Background,Centre,"sb/glow.png",122,199 C,0,107040,107040,255,128,192 S,0,107040,107040,0.5 F,0,107040,107540,1,0
Sprite,Background,Centre,"sb/glow.png",115,187 C,0,107059,107059,255,128,192 S,0,107059,107059,0.5 F,0,107059,107559,1,0
Sprite,Background,Centre,"sb/glow.png",108,177 C,0,107077,107077,255,128,192 S,0,107077,107077,0.5 F,0,107077,107577,1,0
Sprite,Background,Centre,"sb/glow.png",104,169 C,0,107096,107096,255,128,192 S,0,107096,107096,0.5 F,0,107096,107596,1,0
Sprite,Background,Centre,"sb/glow.png",101,165 C,0,107115,107115,255,128,192 S,0,107115,107115,0.5 F,0,107115,107615,1,0
Sprite,Background,Centre,"sb/glow.png",100,163 C,0,107134,107134,255,128,192 S,0,107134,107134,0.5 F,0,107134,107634,1,0
Sprite,Background,Centre,"sb/glow.png",109,162 C,0,107152,107152,255,128,192 S,0,107152,107152,0.5 F,0,107152,107652,1,0
Sprite,Background,Centre,"sb/glow.png",119,161 C,0,107171,107171,255,128,192 S,0,107171,107171,0.5 F,0,107171,107671,1,0
Sprite,Background,Centre,"sb/glow.png",128,160 C,0,107190,107190,255,128,192 S,0,107190,107190,0.5 F,0,107190,107690,1,0
Sprite,Background,Centre,"sb/glow.png",138,160 C,0,107209,107209,255,128,192 S,0,107209,107209,0.5 F,0,107209,107709,1,0
Sprite,Background,Centre,"sb/glow.png",147,159 C,0,107227,107227,255,128,192 S,0,107227,107227,0.5 F,0,107227,107727,1,0
Sprite,Background,Centre,"sb/glow.png",157,158 C,0,107246,107246,255,128,192 S,0,107246,107246,0.5 F,0,107246,107746,1,0
Sprite,Background,Centre,"sb/glow.png",167,157 C,0,107265,107265,255,128,192 S,0,107265,107265,0.5 F,0,107265,107765,1,0
Sprite,Background,Centre,"sb/glow.png",176,156 C,0,107284,107284,255,128,192 S,0,107284,107284,0.5 F,0,107284,107784,1,0
Sprite,Background,Centre,"sb/glow.png",192,148 C,0,107302,107302,255,128,192 S,0,107302,107302,0.5 F,0,107302,107802,1,0
Sprite,Background,Centre,"sb/glow.png",207,141 C,0,107321,107321,255,128,192 S,0,107321,107321,0.5 F,0,107321,107821,1,0
Sprite,Background,Centre,"sb/glow.png",221,134 C,0,107340,107340,255,128,192 S,0,107340,107340,0.5 F,0,107340,107840,1,0
Sprite,Background,Centre,"sb/glow.png",234,127 C,0,107359,107359,255,128,192 S,0,107359,107359,0.5 F,0,107359,107859,1,0
Sprite,Background,Centre,"sb/glow.png",244,122 C,0,107377,107377,255,128,192 S,0,107377,107377,0.5 F,0,107377,107877,1,0
Sprite,Background,Centre,"sb/glow.png",251,118 C,0,107396,107396,255,128,192 S,0,107396,107396,0.5 F,0,107396,107896,1,0
Sprite,Background,Centre,"sb/glow.png",256,116 C,0,107415,107415,255,128,192 S,0,107415,107415,0.5 F,0,107415,107915,1,0
Sprite,Background,Centre,"sb/glow.png",258,115 C,0,107434,107434,255,128,192 S,0,107434,107434,0.5 F,0,107434,107934,1,0
Sprite,Background,Centre,"sb/glow.png",259,123 C,0,107452,107452,255,128,192 S,0,107452,107452,0.5 F,0,107452,107952,1,0
Sprite,Background,Centre,"sb/glow.png",260,132 C,0,107471,107471,255,128,192 S,0,107471,107471,0.5 F,0,107471,107971,1,0
Sprite,Background,Centre,"sb/glow.png",260,141 C,0,107490,107490,255,128,192 S,0,107490,107490,0.5 F,0,107490,107990,1,0
Sprite,Background,Centre,"sb/glow.png",261,149 C,0,107509,107509,255,128,192 S,0,107509,107509,0.5 F,0,107509,108009,1,0
Sprite,Background,Centre,"sb/glow.png",262,158 C,0,107527,107527,255,128,192 S,0,107527,107527,0.5 F,0,107527,108027,1,0
Sprite,Background,Centre,"sb/glow.png",263,167 C,0,107546,107546,255,128,192 S,0,107546,107546,0.5 F,0,107546,108046,1,0
Sprite,Background,Centre,"sb/glow.png",264,176 C,0,107565,107565,255,128,192 S,0,107565,107565,0.5 F,0,107565,108065,1,0
Sprite,Background,Centre,"sb/glow.png",264,184 C,0,107584,107584,255,128,192 S,0,107584,107584,0.5 F,0,107584,108084,1,0
Sprite,Background,Centre,"sb/glow.png",271,200 C,0,107602,107602,255,128,192 S,0,107602,107602,0.5 F,0,107602,108102,1,0
Sprite,Background,Centre,"sb/glow.png",277,215 C,0,107621,107621,255,128,192 S,0,107621,107621,0.5 F,0,107621,108121,1,0
Sprite,Background,Centre,"sb/glow.png",283,229 C,0,107640,107640,255,128,192 S,0,107640,107640,0.5 F,0,107640,108140,1,0
Sprite,Background,Centre,"sb/glow.png",288,242 C,0,107659,107659,255,128,192 S,0,107659,107659,0.5 F,0,107659,108159,1,0
Sprite,Background,Centre,"sb/glow.png",292,252 C,0,107677,107677,255,128,192 S,0,107677,107677,0.5 F,0,107677,108177,1,0
Sprite,Background,Centre,"sb/glow.png",295,259 C,0,107696,107696,255,128,192 S,0,107696,107696,0.5 F,0,107696,108196,1,0
Sprite,Background,Centre,"sb/glow.png",297,264 C,0,107715,107715,255,128,192 S,0,107715,107715,0.5 F,0,107715,108215,1,0
Sprite,Background,Centre,"sb/glow.png",298,266 C,0,107734,107734,255,128,192 S,0,107734,107734,0.5 F,0,107734,108234,1,0
Sprite,Background,Centre,"sb/glow.png",291,267 C,0,107752,107752,255,128,192 S,0,107752,107752,0.5 F,0,107752,108252,1,0
Sprite,Background,Centre,"sb/glow.png",283,267 C,0,107771,107771,255,128,192 S,0,107771,107771,0.5 F,0,107771,108271,1,0
Sprite,Background,Centre,"sb/glow.png",275,268 C,0,107790,107790,255,128,192 S,0,107790,107790,0.5 F,0,107790,108290,1,0
Sprite,Background,Centre,"sb/glow.png",267,269 C,0,107809,107809,255,128,192 S,0,107809,107809,0.5 F,0,107809,108309,1,0
Sprite,Background,Centre,"sb/glow.png",259,270 C,0,107827,107827,255,128,192 S,0,107827,107827,0.5 F,0,107827,108327,1,0
Sprite,Background,Centre,"sb/glow.png",251,270 C,0,107846,107846,255,128,192 S,0,107846,107846,0.5 F,0,107846,108346,1,0
Sprite,Background,Centre,"sb/glow.png",244,271 C,0,107865,107865,255,128,192 S,0,107865,107865,0.5 F,0,107865,108365,1,0
Sprite,Background,Centre,"sb/glow.png",236,272 C,0,107884,107884,255,128,192 S,0,107884,107884,0.5 F,0,107884,108384,1,0
Sprite,Background,Centre,"sb/glow.png",219,266 C,0,107902,107902,255,128,192 S,0,107902,107902,0.5 F,0,107902,108402,1,0
Sprite,Background,Centre,"sb/glow.png",203,261 C,0,107921,107921,255,128,192 S,0,107921,107921,0.5 F,0,107921,108421,1,0
Sprite,Background,Centre,"sb/glow.png",188,256 C,0,107940,107940,255,128,192 S,0,107940,107940,0.5 F,0,107940,108440,1,0
Sprite,Background,Centre,"sb/glow.png",174,252 C,0,107959,107959,255,128,192 S,0,107959,107959,0.5 F,0,107959,108459,1,0
Sprite,Background,Centre,"sb/glow.png",163,248 C,0,107977,107977,255,128,192 S,0,107977,107977,0.5 F,0,107977,108477,1,0
Sprite,Background,Centre,"sb/glow.png",155,245 C,0,107996,107996,255,128,192 S,0,107996,107996,0.5 F,0,107996,108496,1,0
Sprite,Background,Centre,"sb/glow.png",150,244 C,0,108015,108015,255,128,192 S,0,108015,108015,0.5 F,0,108015,108515,1,0
Sprite,Background,Centre,"sb/glow.png",148,243 C,0,108034,108034,255,128,192 S,0,108034,108034,0.5 F,0,108034,108534,1,0
Sprite,Background,Centre,"sb/glow.png",169,241 C,0,108052,108052,255,0,128 S,0,108052,108052,0.5 F,0,108052,108552,1,0
Sprite,Background,Centre,"sb/glow.png",191,238 C,0,108071,108071,255,0,128 S,0,108071,108071,0.5 F,0,108071,108571,1,0
Sprite,Background,Centre,"sb/glow.png",213,236 C,0,108090,108090,255,0,128 S,0,108090,108090,0.5 F,0,108090,108590,1,0
Sprite,Background,Centre,"sb/glow.png",235,234 C,0,108109,108109,255,0,128 S,0,108109,108109,0.5 F,0,108109,108609,1,0
Sprite,Background,Centre,"sb/glow.png",255,231 C,0,108127,108127,255,0,128 S,0,108127,108127,0.5 F,0,108127,108627,1,0
Sprite,Background,Centre,"sb/glow.png",274,229 C,0,108146,108146,255,0,128 S,0,108146,108146,0.5 F,0,108146,108646,1,0
Sprite,Background,Centre,"sb/glow.png",292,227 C,0,108165,108165,255,0,128 S,0,108165,108165,0.5 F,0,108165,108665,1,0
Sprite,Background,Centre,"sb/glow.png",309,225 C,0,108184,108184,255,0,128 S,0,108184,108184,0.5 F,0,108184,108684,1,0
Sprite,Background,Centre,"sb/glow.png",324,224 C,0,108202,108202,255,0,128 S,0,108202,108202,0.5 F,0,108202,108702,1,0
Sprite,Background,Centre,"sb/glow.png",338,222 C,0,108221,108221,255,0,128 S,0,108221,108221,0.5 F,0,108221,108721,1,0
Sprite,Background,Centre,"sb/glow.png",349,221 C,0,108240,108240,255,0,128 S,0,108240,108240,0.5 F,0,108240,108740,1,0
Sprite,Background,Centre,"sb/glow.png",359,220 C,0,108259,108259,255,0,128 S,0,108259,108259,0.5 F,0,108259,108759,1,0
Sprite,Background,Centre,"sb/glow.png",367,219 C,0,108277,108277,255,0,128 S,0,108277,108277,0.5 F,0,108277,108777,1,0
Sprite,Background,Centre,"sb/glow.png",372,219 C,0,108296,108296,255,0,128 S,0,108296,108296,0.5 F,0,108296,108796,1,0
Sprite,Background,Centre,"sb/glow.png",376,218 C,0,108315,108315,255,0,128 S,0,108315,108315,0.5 F,0,108315,108815,1,0
Sprite,Background,Centre,"sb/glow.png",377,218 C,0,108334,108334,255,0,128 S,0,108334,108334,0.5 F,0,108334,108834,1,0
Sprite,Background,Centre,"sb/glow.png",381,227 C,0,108352,108352,255,0,128 S,0,108352,108352,0.5 F,0,108352,108852,1,0
Sprite,Background,Centre,"sb/glow.png",385,237 C,0,108371,108371,255,0,128 S,0,108371,108371,0.5 F,0,108371,108871,1,0
Sprite,Background,Centre,"sb/glow.png",388,247 C,0,108390,108390,255,0,128 S,0,108390,108390,0.5 F,0,108390,108890,1,0
Sprite,Background,Centre,"sb/glow.png",392,256 C,0,108409,108409,255,0,128 S,0,108409,108409,0.5 F,0,108409,108909,1,0
Sprite,Background,Centre,"sb/glow.png",391,267 C,0,108427,108427,255,0,128 S,0,108427,108427,0.5 F,0,108427,108927,1,0
Sprite,Background,Centre,"sb/glow.png",389,277 C,0,108446,108446,255,0,128 S,0,108446,108446,0.5 F,0,108446,108946,1,0
Sprite,Background,Centre,"sb/glow.png",387,287 C,0,108465,108465,255,0,128 S,0,108465,108465,0.5 F,0,108465,108965,1,0
Sprite,Background,Centre,"sb/glow.png",385,298 C,0,108484,108484,255,0,128 S,0,108484,108484,0.5 F,0,108484,108984,1,0
Sprite,Background,Centre,"sb/glow.png",381,315 C,0,108502,108502,255,0,128 S,0,108502,108502,0.5 F,0,108502,109002,1,0
Sprite,Background,Centre,"sb/glow.png",378,332 C,0,108521,108521,255,0,128 S,0,108521,108521,0.5 F,0,108521,109021,1,0
Sprite,Background,Centre,"sb/glow.png",375,348 C,0,108540,108540,255,0,128 S,0,108540,108540,0.5 F,0,108540,109040,1,0
Sprite,Background,Centre,"sb/glow.png",372,362 C,0,108559,108559,255,0,128 S,0,108559,108559,0.5 F,0,108559,109059,1,0
Sprite,Background,Centre,"sb/glow.png",369,373 C,0,108577,108577,255,0,128 S,0,108577,108577,0.5 F,0,108577,109077,1,0
Sprite,Background,Centre,"sb/glow.png",368,382 C,0,108596,108596,255,0,128 S,0,108596,108596,0.5 F,0,108596,109096,1,0
Sprite,Background,Centre,"sb/glow.png",366,387 C,0,108615,108615,255,0,128 S,0,108615,108615,0.5 F,0,108615,109115,1,0
Sprite,Background,Centre,"sb/glow.png",366,389 C,0,108634,108634,255,0,128 S,0,108634,108634,0.5 F,0,108634,109134,1,0
Sprite,Background,Centre,"sb/glow.png",366,389 C,0,108652,108652,255,88,102 S,0,108652,108652,0.5 F,0,108652,109152,1,0
Sprite,Background,Centre,"sb/glow.png",366,389 C,0,108671,108671,255,88,102 S,0,108671,108671,0.5 F,0,108671,109171,1,0
Sprite,Background,Centre,"sb/glow.png",366,389 C,0,108690,108690,255,88,102 S,0,108690,108690,0.5 F,0,108690,109190,1,0
Sprite,Background,Centre,"sb/glow.png",366,389 C,0,108709,108709,255,88,102 S,0,108709,108709,0.5 F,0,108709,109209,1,0
Sprite,Background,Centre,"sb/glow.png",366,389 C,0,108727,108727,255,88,102 S,0,108727,108727,0.5 F,0,108727,109227,1,0
Sprite,Background,Centre,"sb/glow.png",366,389 C,0,108746,108746,255,88,102 S,0,108746,108746,0.5 F,0,108746,109246,1,0
Sprite,Background,Centre,"sb/glow.png",366,389 C,0,108765,108765,255,88,102 S,0,108765,108765,0.5 F,0,108765,109265,1,0
Sprite,Background,Centre,"sb/glow.png",366,389 C,0,108784,108784,255,88,102 S,0,108784,108784,0.5 F,0,108784,109284,1,0
Sprite,Background,Centre,"sb/glow.png",366,389 C,0,108802,108802,255,88,102 S,0,108802,108802,0.5 F,0,108802,109302,1,0
Sprite,Background,Centre,"sb/glow.png",366,389 C,0,108821,108821,255,88,102 S,0,108821,108821,0.5 F,0,108821,109321,1,0
Sprite,Background,Centre,"sb/glow.png",366,389 C,0,108840,108840,255,88,102 S,0,108840,108840,0.5 F,0,108840,109340,1,0
Sprite,Background,Centre,"sb/glow.png",366,389 C,0,108859,108859,255,88,102 S,0,108859,108859,0.5 F,0,108859,109359,1,0
Sprite,Background,Centre,"sb/glow.png",366,389 C,0,108877,108877,255,88,102 S,0,108877,108877,0.5 F,0,108877,109377,1,0
Sprite,Background,Centre,"sb/glow.png",366,389 C,0,108896,108896,255,88,102 S,0,108896,108896,0.5 F,0,108896,109396,1,0
Sprite,Background,Centre,"sb/glow.png",366,389 C,0,108915,108915,255,88,102 S,0,108915,108915,0.5 F,0,108915,109415,1,0
Sprite,Background,Centre,"sb/glow.png",366,389 C,0,108934,108934,255,88,102 S,0,108934,108934,0.5 F,0,108934,109434,1,0
Sprite,Background,Centre,"sb/glow.png",376,388 C,0,108952,108952,255,88,102 S,0,108952,108952,0.5 F,0,108952,109452,1,0
Sprite,Background,Centre,"sb/glow.png",386,388 C,0,108971,108971,255,88,102 S,0,108971,108971,0.5 F,0,108971,109471,1,0
Sprite,Background,Centre,"sb/glow.png",397,387 C,0,108990,108990,255,88,102 S,0,108990,108990,0.5 F,0,108990,109490,1,0
Sprite,Background,Centre,"sb/glow.png",407,387 C,0,109009,109009,255,88,102 S,0,109009,109009,0.5 F,0,109009,109509,1,0
Sprite,Background,Centre,"sb/glow.png",418,386 C,0,109027,109027,255,88,102 S,0,109027,109027,0.5 F,0,109027,109527,1,0
Sprite,Background,Centre,"sb/glow.png",428,386 C,0,109046,109046,255,88,102 S,0,109046,109046,0.5 F,0,109046,109546,1,0
Sprite,Background,Centre,"sb/glow.png",439,385 C,0,109065,109065,255,88,102 S,0,109065,109065,0.5 F,0,109065,109565,1,0
Sprite,Background,Centre,"sb/glow.png",449,384 C,0,109084,109084,255,88,102 S,0,109084,109084,0.5 F,0,109084,109584,1,0
Sprite,Background,Centre,"sb/glow.png",453,368 C,0,109102,109102,255,88,102 S,0,109102,109102,0.5 F,0,109102,109602,1,0
Sprite,Background,Centre,"sb/glow.png",457,351 C,0,109121,109121,255,88,102 S,0,109121,109121,0.5 F,0,109121,109621,1,0
Sprite,Background,Centre,"sb/glow.png",460,335 C,0,109140,109140,255,88,102 S,0,109140,109140,0.5 F,0,109140,109640,1,0
Sprite,Background,Centre,"sb/glow.png",463,321 C,0,109159,109159,255,88,102 S,0,109159,109159,0.5 F,0,109159,109659,1,0
Sprite,Background,Centre,"sb/glow.png",465,310 C,0,109177,109177,255,88,102 S,0,109177,109177,0.5 F,0,109177,109677,1,0
Sprite,Background,Centre,"sb/glow.png",467,301 C,0,109196,109196,255,88,102 S,0,109196,109196,0.5 F,0,109196,109696,1,0
Sprite,Background,Centre,"sb/glow.png",468,296 C,0,109215,109215,255,88,102 S,0,109215,109215,0.5 F,0,109215,109715,1,0
Sprite,Background,Centre,"sb/glow.png",468,294 C,0,109234,109234,255,88,102 S,0,109234,109234,0.5 F,0,109234,109734,1,0
Sprite,Background,Centre,"sb/glow.png",458,294 C,0,109252,109252,255,88,102 S,0,109252,109252,0.5 F,0,109252,109752,1,0
Sprite,Background,Centre,"sb/glow.png",448,295 C,0,109271,109271,255,88,102 S,0,109271,109271,0.5 F,0,109271,109771,1,0
Sprite,Background,Centre,"sb/glow.png",437,295 C,0,109290,109290,255,88,102 S,0,109290,109290,0.5 F,0,109290,109790,1,0
Sprite,Background,Centre,"sb/glow.png",427,296 C,0,109309,109309,255,88,102 S,0,109309,109309,0.5 F,0,109309,109809,1,0
Sprite,Background,Centre,"sb/glow.png",416,296 C,0,109327,109327,255,88,102 S,0,109327,109327,0.5 F,0,109327,109827,1,0
Sprite,Background,Centre,"sb/glow.png",406,297 C,0,109346,109346,255,88,102 S,0,109346,109346,0.5 F,0,109346,109846,1,0
Sprite,Background,Centre,"sb/glow.png",395,297 C,0,109365,109365,255,88,102 S,0,109365,109365,0.5 F,0,109365,109865,1,0
Sprite,Background,Centre,"sb/glow.png",385,298 C,0,109384,109384,255,88,102 S,0,109384,109384,0.5 F,0,109384,109884,1,0
Sprite,Background,Centre,"sb/glow.png",368,303 C,0,109402,109402,255,88,102 S,0,109402,109402,0.5 F,0,109402,109902,1,0
Sprite,Background,Centre,"sb/glow.png",351,309 C,0,109421,109421,255,88,102 S,0,109421,109421,0.5 F,0,109421,109921,1,0
Sprite,Background,Centre,"sb/glow.png",336,314 C,0,109440,109440,255,88,102 S,0,109440,109440,0.5 F,0,109440,109940,1,0
Sprite,Background,Centre,"sb/glow.png",322,318 C,0,109459,109459,255,88,102 S,0,109459,109459,0.5 F,0,109459,109959,1,0
Sprite,Background,Centre,"sb/glow.png",311,322 C,0,109477,109477,255,88,102 S,0,109477,109477,0.5 F,0,109477,109977,1,0
Sprite,Background,Centre,"sb/glow.png",303,325 C,0,109496,109496,255,88,102 S,0,109496,109496,0.5 F,0,109496,109996,1,0
Sprite,Background,Centre,"sb/glow.png",298,326 C,0,109515,109515,255,88,102 S,0,109515,109515,0.5 F,0,109515,110015,1,0
Sprite,Background,Centre,"sb/glow.png",296,327 C,0,109534,109534,255,88,102 S,0,109534,109534,0.5 F,0,109534,110034,1,0
Sprite,Background,Centre,"sb/glow.png",296,327 C,0,109552,109552,255,88,102 S,0,109552,109552,0.5 F,0,109552,110052,1,0
Sprite,Background,Centre,"sb/glow.png",296,327 C,0,109571,109571,255,88,102 S,0,109571,109571,0.5 F,0,109571,110071,1,0
Sprite,Background,Centre,"sb/glow.png",296,327 C,0,109590,109590,255,88,102 S,0,109590,109590,0.5 F,0,109590,110090,1,0
Sprite,Background,Centre,"sb/glow.png",296,327 C,0,109609,109609,255,88,102 S,0,109609,109609,0.5 F,0,109609,110109,1,0
Sprite,Background,Centre,"sb/glow.png",296,327 C,0,109627,109627,255,88,102 S,0,109627,109627,0.5 F,0,109627,110127,1,0
Sprite,Background,Centre,"sb/glow.png",296,327 C,0,109646,109646,255,88,102 S,0,109646,109646,0.5 F,0,109646,110146,1,0
Sprite,Background,Centre,"sb/glow.png",296,327 C,0,109665,109665,255,88,102 S,0,109665,109665,0.5 F,0,109665,110165,1,0
Sprite,Background,Centre,"sb/glow.png",296,327 C,0,109684,109684,255,88,102 S,0,109684,109684,0.5 F,0,109684,110184,1,0
Sprite,Background,Centre,"sb/glow.png",282,337 C,0,109702,109702,255,88,102 S,0,109702,109702,0.5 F,0,109702,110202,1,0
Sprite,Background,Centre,"sb/glow.png",268,346 C,0,109721,109721,255,88,102 S,0,109721,109721,0.5 F,0,109721,110221,1,0
Sprite,Background,Centre,"sb/glow.png",254,355 C,0,109740,109740,255,88,102 S,0,109740,109740,0.5 F,0,109740,110240,1,0
Sprite,Background,Centre,"sb/glow.png",243,363 C,0,109759,109759,255,88,102 S,0,109759,109759,0.5 F,0,109759,110259,1,0
Sprite,Background,Centre,"sb/glow.png",233,370 C,0,109777,109777,255,88,102 S,0,109777,109777,0.5 F,0,109777,110277,1,0
Sprite,Background,Centre,"sb/glow.png",226,375 C,0,109796,109796,255,88,102 S,0,109796,109796,0.5 F,0,109796,110296,1,0
Sprite,Background,Centre,"sb/glow.png",222,378 C,0,109815,109815,255,88,102 S,0,109815,109815,0.5 F,0,109815,110315,1,0
Sprite,Background,Centre,"sb/glow.png",220,379 C,0,109834,109834,255,88,102 S,0,109834,109834,0.5 F,0,109834,110334,1,0
Sprite,Background,Centre,"sb/glow.png",215,370 C,0,109852,109852,255,0,255 S,0,109852,109852,0.5 F,0,109852,110352,1,0
Sprite,Background,Centre,"sb/glow.png",211,361 C,0,109871,109871,255,0,255 S,0,109871,109871,0.5 F,0,109871,110371,1,0
Sprite,Background,Centre,"sb/glow.png",208,351 C,0,109890,109890,255,0,255 S,0,109890,109890,0.5 F,0,109890,110390,1,0
Sprite,Background,Centre,"sb/glow.png",206,340 C,0,109909,109909,255,0,255 S,0,109909,109909,0.5 F,0,109909,110409,1,0
Sprite,Background,Centre,"sb/glow.png",205,330 C,0,109927,109927,255,0,255 S,0,109927,109927,0.5 F,0,109927,110427,1,0
Sprite,Background,Centre,"sb/glow.png",206,319 C,0,109946,109946,255,0,255 S,0,109946,109946,0.5 F,0,109946,110446,1,0
Sprite,Background,Centre,"sb/glow.png",207,309 C,0,109965,109965,255,0,255 S,0,109965,109965,0.5 F,0,109965,110465,1,0
Sprite,Background,Centre,"sb/glow.png",209,299 C,0,109984,109984,255,0,255 S,0,109984,109984,0.5 F,0,109984,110484,1,0
Sprite,Background,Centre,"sb/glow.png",198,286 C,0,110002,110002,255,0,255 S,0,110002,110002,0.5 F,0,110002,110502,1,0
Sprite,Background,Centre,"sb/glow.png",186,274 C,0,110021,110021,255,0,255 S,0,110021,110021,0.5 F,0,110021,110521,1,0
Sprite,Background,Centre,"sb/glow.png",174,262 C,0,110040,110040,255,0,255 S,0,110040,110040,0.5 F,0,110040,110540,1,0
Sprite,Background,Centre,"sb/glow.png",164,252 C,0,110059,110059,255,0,255 S,0,110059,110059,0.5 F,0,110059,110559,1,0
Sprite,Background,Centre,"sb/glow.png",156,244 C,0,110077,110077,255,0,255 S,0,110077,110077,0.5 F,0,110077,110577,1,0
Sprite,Background,Centre,"sb/glow.png",150,237 C,0,110096,110096,255,0,255 S,0,110096,110096,0.5 F,0,110096,110596,1,0
Sprite,Background,Centre,"sb/glow.png",146,233 C,0,110115,110115,255,0,255 S,0,110115,110115,0.5 F,0,110115,110615,1,0
Sprite,Background,Centre,"sb/glow.png",145,232 C,0,110134,110134,255,0,255 S,0,110134,110134,0.5 F,0,110134,110634,1,0
Sprite,Background,Centre,"sb/glow.png",150,223 C,0,110152,110152,255,0,255 S,0,110152,110152,0.5 F,0,110152,110652,1,0
Sprite,Background,Centre,"sb/glow.png",154,214 C,0,110171,110171,255,0,255 S,0,110171,110171,0.5 F,0,110171,110671,1,0
Sprite,Background,Centre,"sb/glow.png",157,204 C,0,110190,110190,255,0,255 S,0,110190,110190,0.5 F,0,110190,110690,1,0
Sprite,Background,Centre,"sb/glow.png",159,193 C,0,110209,110209,255,0,255 S,0,110209,110209,0.5 F,0,110209,110709,1,0
Sprite,Background,Centre,"sb/glow.png",160,183 C,0,110227,110227,255,0,255 S,0,110227,110227,0.5 F,0,110227,110727,1,0
Sprite,Background,Centre,"sb/glow.png",159,172 C,0,110246,110246,255,0,255 S,0,110246,110246,0.5 F,0,110246,110746,1,0
Sprite,Background,Centre,"sb/glow.png",158,162 C,0,110265,110265,255,0,255 S,0,110265,110265,0.5 F,0,110265,110765,1,0
Sprite,Background,Centre,"sb/glow.png",156,152 C,0,110284,110284,255,0,255 S,0,110284,110284,0.5 F,0,110284,110784,1,0
Sprite,Background,Centre,"sb/glow.png",163,136 C,0,110302,110302,255,0,255 S,0,110302,110302,0.5 F,0,110302,110802,1,0
Sprite,Background,Centre,"sb/glow.png",170,120 C,0,110321,110321,255,0,255 S,0,110321,110321,0.5 F,0,110321,110821,1,0
Sprite,Background,Centre,"sb/glow.png",176,106 C,0,110340,110340,255,0,255 S,0,110340,110340,0.5 F,0,110340,110840,1,0
Sprite,Background,Centre,"sb/glow.png",182,93 C,0,110359,110359,255,0,255 S,0,110359,110359,0.5 F,0,110359,110859,1,0
Sprite,Background,Centre,"sb/glow.png",187,83 C,0,110377,110377,255,0,255 S,0,110377,110377,0.5 F,0,110377,110877,1,0
Sprite,Background,Centre,"sb/glow.png",191,75 C,0,110396,110396,255,0,255 S,0,110396,110396,0.5 F,0,110396,110896,1,0
Sprite,Background,Centre,"sb/glow.png",193,70 C,0,110415,110415,255,0,255 S,0,110415,110415,0.5 F,0,110415,110915,1,0
Sprite,Background,Centre,"sb/glow.png",194,68 C,0,110434,110434,255,0,255 S,0,110434,110434,0.5 F,0,110434,110934,1,0
Sprite,Background,Centre,"sb/glow.png",184,67 C,0,110452,110452,255,128,192 S,0,110452,110452,0.5 F,0,110452,110952,1,0
Sprite,Background,Centre,"sb/glow.png",174,66 C,0,110471,110471,255,128,192 S,0,110471,110471,0.5 F,0,110471,110971,1,0
Sprite,Background,Centre,"sb/glow.png",163,65 C,0,110490,110490,255,128,192 S,0,110490,110490,0.5 F,0,110490,110990,1,0
Sprite,Background,Centre,"sb/glow.png",153,64 C,0,110509,110509,255,128,192 S,0,110509,110509,0.5 F,0,110509,111009,1,0
Sprite,Background,Centre,"sb/glow.png",142,63 C,0,110527,110527,255,128,192 S,0,110527,110527,0.5 F,0,110527,111027,1,0
Sprite,Background,Centre,"sb/glow.png",132,62 C,0,110546,110546,255,128,192 S,0,110546,110546,0.5 F,0,110546,111046,1,0
Sprite,Background,Centre,"sb/glow.png",121,62 C,0,110565,110565,255,128,192 S,0,110565,110565,0.5 F,0,110565,111065,1,0
Sprite,Background,Centre,"sb/glow.png",111,61 C,0,110584,110584,255,128,192 S,0,110584,110584,0.5 F,0,110584,111084,1,0
Sprite,Background,Centre,"sb/glow.png",120,61 C,0,110602,110602,255,128,192 S,0,110602,110602,0.5 F,0,110602,111102,1,0
Sprite,Background,Centre,"sb/glow.png",131,62 C,0,110621,110621,255,128,192 S,0,110621,110621,0.5 F,0,110621,111121,1,0
Sprite,Background,Centre,"sb/glow.png",141,63 C,0,110640,110640,255,128,192 S,0,110640,110640,0.5 F,0,110640,111140,1,0
Sprite,Background,Centre,"sb/glow.png",152,64 C,0,110659,110659,255,128,192 S,0,110659,110659,0.5 F,0,110659,111159,1,0
Sprite,Background,Centre,"sb/glow.png",162,65 C,0,110677,110677,255,128,192 S,0,110677,110677,0.5 F,0,110677,111177,1,0
Sprite,Background,Centre,"sb/glow.png",173,66 C,0,110696,110696,255,128,192 S,0,110696,110696,0.5 F,0,110696,111196,1,0
Sprite,Background,Centre,"sb/glow.png",183,67 C,0,110715,110715,255,128,192 S,0,110715,110715,0.5 F,0,110715,111215,1,0
Sprite,Background,Centre,"sb/glow.png",193,68 C,0,110734,110734,255,128,192 S,0,110734,110734,0.5 F,0,110734,111234,1,0
Sprite,Background,Centre,"sb/glow.png",210,72 C,0,110752,110752,255,128,192 S,0,110752,110752,0.5 F,0,110752,111252,1,0
Sprite,Background,Centre,"sb/glow.png",228,77 C,0,110771,110771,255,128,192 S,0,110771,110771,0.5 F,0,110771,111271,1,0
Sprite,Background,Centre,"sb/glow.png",244,81 C,0,110790,110790,255,128,192 S,0,110790,110790,0.5 F,0,110790,111290,1,0
Sprite,Background,Centre,"sb/glow.png",261,86 C,0,110809,110809,255,128,192 S,0,110809,110809,0.5 F,0,110809,111309,1,0
Sprite,Background,Centre,"sb/glow.png",277,90 C,0,110827,110827,255,128,192 S,0,110827,110827,0.5 F,0,110827,111327,1,0
Sprite,Background,Centre,"sb/glow.png",292,94 C,0,110846,110846,255,128,192 S,0,110846,110846,0.5 F,0,110846,111346,1,0
Sprite,Background,Centre,"sb/glow.png",306,98 C,0,110865,110865,255,128,192 S,0,110865,110865,0.5 F,0,110865,111365,1,0
Sprite,Background,Centre,"sb/glow.png",319,101 C,0,110884,110884,255,128,192 S,0,110884,110884,0.5 F,0,110884,111384,1,0
Sprite,Background,Centre,"sb/glow.png",330,104 C,0,110902,110902,255,128,192 S,0,110902,110902,0.5 F,0,110902,111402,1,0
Sprite,Background,Centre,"sb/glow.png",341,107 C,0,110921,110921,255,128,192 S,0,110921,110921,0.5 F,0,110921,111421,1,0
Sprite,Background,Centre,"sb/glow.png",350,109 C,0,110940,110940,255,128,192 S,0,110940,110940,0.5 F,0,110940,111440,1,0
Sprite,Background,Centre,"sb/glow.png",357,111 C,0,110959,110959,255,128,192 S,0,110959,110959,0.5 F,0,110959,111459,1,0
Sprite,Background,Centre,"sb/glow.png",363,113 C,0,110977,110977,255,128,192 S,0,110977,110977,0.5 F,0,110977,111477,1,0
Sprite,Background,Centre,"sb/glow.png",367,114 C,0,110996,110996,255,128,192 S,0,110996,110996,0.5 F,0,110996,111496,1,0
Sprite,Background,Centre,"sb/glow.png",370,115 C,0,111015,111015,255,128,192 S,0,111015,111015,0.5 F,0,111015,111515,1,0
Sprite,Background,Centre,"sb/glow.png",371,115 C,0,111034,111034,255,128,192 S,0,111034,111034,0.5 F,0,111034,111534,1,0
Sprite,Background,Centre,"sb/glow.png",371,115 C,0,111052,111052,255,0,128 S,0,111052,111052,0.5 F,0,111052,111552,1,0
Sprite,Background,Centre,"sb/glow.png",371,115 C,0,111071,111071,255,0,128 S,0,111071,111071,0.5 F,0,111071,111571,1,0
Sprite,Background,Centre,"sb/glow.png",371,115 C,0,111090,111090,255,0,128 S,0,111090,111090,0.5 F,0,111090,111590,1,0
Sprite,Background,Centre,"sb/glow.png",371,115 C,0,111109,111109,255,0,128 S,0,111109,111109,0.5 F,0,111109,111609,1,0
Sprite,Background,Centre,"sb/glow.png",371,115 C,0,111127,111127,255,0,128 S,0,111127,111127,0.5 F,0,111127,111627,1,0
Sprite,Background,Centre,"sb/glow.png",371,115 C,0,111146,111146,255,0,128 S,0,111146,111146,0.5 F,0,111146,111646,1,0
Sprite,Background,Centre,"sb/glow.png",371,115 C,0,111165,111165,255,0,128 S,0,111165,111165,0.5 F,0,111165,111665,1,0
Sprite,Background,Centre,"sb/glow.png",371,115 C,0,111184,111184,255,0,128 S,0,111184,111184,0.5 F,0,111184,111684,1,0
Sprite,Background,Centre,"sb/glow.png",386,108 C,0,111202,111202,255,0,128 S,0,111202,111202,0.5 F,0,111202,111702,1,0
Sprite,Background,Centre,"sb/glow.png",402,100 C,0,111221,111221,255,0,128 S,0,111221,111221,0.5 F,0,111221,111721,1,0
Sprite,Background,Centre,"sb/glow.png",416,94 C,0,111240,111240,255,0,128 S,0,111240,111240,0.5 F,0,111240,111740,1,0
Sprite,Background,Centre,"sb/glow.png",429,88 C,0,111259,111259,255,0,128 S,0,111259,111259,0.5 F,0,111259,111759,1,0
Sprite,Background,Centre,"sb/glow.png",440,83 C,0,111277,111277,255,0,128 S,0,111277,111277,0.5 F,0,111277,111777,1,0
Sprite,Background,Centre,"sb/glow.png",447,79 C,0,111296,111296,255,0,128 S,0,111296,111296,0.5 F,0,111296,111796,1,0
Sprite,Background,Centre,"sb/glow.png",452,77 C,0,111315,111315,255,0,128 S,0,111315,111315,0.5 F,0,111315,111815,1,0
Sprite,Background,Centre,"sb/glow.png",454,76 C,0,111334,111334,255,0,128 S,0,111334,111334,0.5 F,0,111334,111834,1,0
Sprite,Background,Centre,"sb/glow.png",454,76 C,0,111352,111352,255,0,128 S,0,111352,111352,0.5 F,0,111352,111852,1,0
Sprite,Background,Centre,"sb/glow.png",454,76 C,0,111371,111371,255,0,128 S,0,111371,111371,0.5 F,0,111371,111871,1,0
Sprite,Background,Centre,"sb/glow.png",454,76 C,0,111390,111390,255,0,128 S,0,111390,111390,0.5 F,0,111390,111890,1,0
Sprite,Background,Centre,"sb/glow.png",454,76 C,0,111409,111409,255,0,128 S,0,111409,111409,0.5 F,0,111409,111909,1,0
Sprite,Background,Centre,"sb/glow.png",454,76 C,0,111427,111427,255,0,128 S,0,111427,111427,0.5 F,0,111427,111927,1,0
Sprite,Background,Centre,"sb/glow.png",454,76 C,0,111446,111446,255,0,128 S,0,111446,111446,0.5 F,0,111446,111946,1,0
Sprite,Background,Centre,"sb/glow.png",454,76 C,0,111465,111465,255,0,128 S,0,111465,111465,0.5 F,0,111465,111965,1,0
Sprite,Background,Centre,"sb/glow.png",454,76 C,0,111484,111484,255,0,128 S,0,111484,111484,0.5 F,0,111484,111984,1,0
Sprite,Background,Centre,"sb/glow.png",468,86 C,0,111502,111502,255,0,128 S,0,111502,111502,0.5 F,0,111502,112002,1,0
Sprite,Background,Centre,"sb/glow.png",482,96 C,0,111521,111521,255,0,128 S,0,111521,111521,0.5 F,0,111521,112021,1,0
Sprite,Background,Centre,"sb/glow.png",496,105 C,0,111540,111540,255,0,128 S,0,111540,111540,0.5 F,0,111540,112040,1,0
Sprite,Background,Centre,"sb/glow.png",507,113 C,0,111559,111559,255,0,128 S,0,111559,111559,0.5 F,0,111559,112059,1,0
Sprite,Background,Centre,"sb/glow.png",517,120 C,0,111577,111577,255,0,128 S,0,111577,111577,0.5 F,0,111577,112077,1,0
Sprite,Background,Centre,"sb/glow.png",524,125 C,0,111596,111596,255,0,128 S,0,111596,111596,0.5 F,0,111596,112096,1,0
Sprite,Background,Centre,"sb/glow.png",528,128 C,0,111615,111615,255,0,128 S,0,111615,111615,0.5 F,0,111615,112115,1,0
Sprite,Background,Centre,"sb/glow.png",530,129 C,0,111634,111634,255,0,128 S,0,111634,111634,0.5 F,0,111634,112134,1,0
Sprite,Background,Centre,"sb/glow.png",529,139 C,0,111652,111652,255,0,128 S,0,111652,111652,0.5 F,0,111652,112152,1,0
Sprite,Background,Centre,"sb/glow.png",528,149 C,0,111671,111671,255,0,128 S,0,111671,111671,0.5 F,0,111671,112171,1,0
Sprite,Background,Centre,"sb/glow.png",527,160 C,0,111690,111690,255,0,128 S,0,111690,111690,0.5 F,0,111690,112190,1,0
Sprite,Background,Centre,"sb/glow.png",526,170 C,0,111709,111709,255,0,128 S,0,111709,111709,0.5 F,0,111709,112209,1,0
Sprite,Background,Centre,"sb/glow.png",525,181 C,0,111727,111727,255,0,128 S,0,111727,111727,0.5 F,0,111727,112227,1,0
Sprite,Background,Centre,"sb/glow.png",524,191 C,0,111746,111746,255,0,128 S,0,111746,111746,0.5 F,0,111746,112246,1,0
Sprite,Background,Centre,"sb/glow.png",523,202 C,0,111765,111765,255,0,128 S,0,111765,111765,0.5 F,0,111765,112265,1,0
Sprite,Background,Centre,"sb/glow.png",522,212 C,0,111784,111784,255,0,128 S,0,111784,111784,0.5 F,0,111784,112284,1,0
Sprite,Background,Centre,"sb/glow.png",525,229 C,0,111802,111802,255,0,128 S,0,111802,111802,0.5 F,0,111802,112302,1,0
Sprite,Background,Centre,"sb/glow.png",528,247 C,0,111821,111821,255,0,128 S,0,111821,111821,0.5 F,0,111821,112321,1,0
Sprite,Background,Centre,"sb/glow.png",531,263 C,0,111840,111840,255,0,128 S,0,111840,111840,0.5 F,0,111840,112340,1,0
Sprite,Background,Centre,"sb/glow.png",533,277 C,0,111859,111859,255,0,128 S,0,111859,111859,0.5 F,0,111859,112359,1,0
Sprite,Background,Centre,"sb/glow.png",535,288 C,0,111877,111877,255,0,128 S,0,111877,111877,0.5 F,0,111877,112377,1,0
Sprite,Background,Centre,"sb/glow.png",537,297 C,0,111896,111896,255,0,128 S,0,111896,111896,0.5 F,0,111896,112396,1,0
Sprite,Background,Centre,"sb/glow.png",538,302 C,0,111915,111915,255,0,128 S,0,111915,111915,0.5 F,0,111915,112415,1,0
Sprite,Background,Centre,"sb/glow.png",538,304 C,0,111934,111934,255,0,128 S,0,111934,111934,0.5 F,0,111934,112434,1,0
Sprite,Background,Centre,"sb/glow.png",538,304 C,0,111952,111952,255,0,128 S,0,111952,111952,0.5 F,0,111952,112452,1,0
Sprite,Background,Centre,"sb/glow.png",538,304 C,0,111971,111971,255,0,128 S,0,111971,111971,0.5 F,0,111971,112471,1,0
Sprite,Background,Centre,"sb/glow.png",538,304 C,0,111990,111990,255,0,128 S,0,111990,111990,0.5 F,0,111990,112490,1,0
Sprite,Background,Centre,"sb/glow.png",538,304 C,0,112009,112009,255,0,128 S,0,112009,112009,0.5 F,0,112009,112509,1,0
Sprite,Background,Centre,"sb/glow.png",538,304 C,0,112027,112027,255,0,128 S,0,112027,112027,0.5 F,0,112027,112527,1,0
Sprite,Background,Centre,"sb/glow.png",538,304 C,0,112046,112046,255,0,128 S,0,112046,112046,0.5 F,0,112046,112546,1,0
Sprite,Background,Centre,"sb/glow.png",538,304 C,0,112065,112065,255,0,128 S,0,112065,112065,0.5 F,0,112065,112565,1,0
Sprite,Background,Centre,"sb/glow.png",538,304 C,0,112084,112084,255,0,128 S,0,112084,112084,0.5 F,0,112084,112584,1,0
Sprite,Background,Centre,"sb/glow.png",522,298 C,0,112102,112102,255,0,128 S,0,112102,112102,0.5 F,0,112102,112602,1,0
Sprite,Background,Centre,"sb/glow.png",506,292 C,0,112121,112121,255,0,128 S,0,112121,112121,0.5 F,0,112121,112621,1,0
Sprite,Background,Centre,"sb/glow.png",491,286 C,0,112140,112140,255,0,128 S,0,112140,112140,0.5 F,0,112140,112640,1,0
Sprite,Background,Centre,"sb/glow.png",478,281 C,0,112159,112159,255,0,128 S,0,112159,112159,0.5 F,0,112159,112659,1,0
Sprite,Background,Centre,"sb/glow.png",467,277 C,0,112177,112177,255,0,128 S,0,112177,112177,0.5 F,0,112177,112677,1,0
Sprite,Background,Centre,"sb/glow.png",459,274 C,0,112196,112196,255,0,128 S,0,112196,112196,0.5 F,0,112196,112696,1,0
Sprite,Background,Centre,"sb/glow.png",454,272 C,0,112215,112215,255,0,128 S,0,112215,112215,0.5 F,0,112215,112715,1,0
Sprite,Background,Centre,"sb/glow.png",452,271 C,0,112234,112234,255,0,128 S,0,112234,112234,0.5 F,0,112234,112734,1,0
Sprite,Background,Centre,"sb/glow.png",443,267 C,0,112252,112252,255,88,102 S,0,112252,112252,0.5 F,0,112252,112752,1,0
Sprite,Background,Centre,"sb/glow.png",433,263 C,0,112271,112271,255,88,102 S,0,112271,112271,0.5 F,0,112271,112771,1,0
Sprite,Background,Centre,"sb/glow.png",423,261 C,0,112290,112290,255,88,102 S,0,112290,112290,0.5 F,0,112290,112790,1,0
Sprite,Background,Centre,"sb/glow.png",413,259 C,0,112309,112309,255,88,102 S,0,112309,112309,0.5 F,0,112309,112809,1,0
Sprite,Background,Centre,"sb/glow.png",402,259 C,0,112327,112327,255,88,102 S,0,112327,112327,0.5 F,0,112327,112827,1,0
Sprite,Background,Centre,"sb/glow.png",392,260 C,0,112346,112346,255,88,102 S,0,112346,112346,0.5 F,0,112346,112846,1,0
Sprite,Background,Centre,"sb/glow.png",382,263 C,0,112365,112365,255,88,102 S,0,112365,112365,0.5 F,0,112365,112865,1,0
Sprite,Background,Centre,"sb/glow.png",372,267 C,0,112384,112384,255,88,102 S,0,112384,112384,0.5 F,0,112384,112884,1,0
Sprite,Background,Centre,"sb/glow.png",363,282 C,0,112402,112402,255,88,102 S,0,112402,112402,0.5 F,0,112402,112902,1,0
Sprite,Background,Centre,"sb/glow.png",355,297 C,0,112421,112421,255,88,102 S,0,112421,112421,0.5 F,0,112421,112921,1,0
Sprite,Background,Centre,"sb/glow.png",347,311 C,0,112440,112440,255,88,102 S,0,112440,112440,0.5 F,0,112440,112940,1,0
Sprite,Background,Centre,"sb/glow.png",340,323 C,0,112459,112459,255,88,102 S,0,112459,112459,0.5 F,0,112459,112959,1,0
Sprite,Background,Centre,"sb/glow.png",334,333 C,0,112477,112477,255,88,102 S,0,112477,112477,0.5 F,0,112477,112977,1,0
Sprite,Background,Centre,"sb/glow.png",330,341 C,0,112496,112496,255,88,102 S,0,112496,112496,0.5 F,0,112496,112996,1,0
Sprite,Background,Centre,"sb/glow.png",327,345 C,0,112515,112515,255,88,102 S,0,112515,112515,0.5 F,0,112515,113015,1,0
Sprite,Background,Centre,"sb/glow.png",326,347 C,0,112534,112534,255,88,102 S,0,112534,112534,0.5 F,0,112534,113034,1,0
Sprite,Background,Centre,"sb/glow.png",335,351 C,0,112552,112552,255,88,102 S,0,112552,112552,0.5 F,0,112552,113052,1,0
Sprite,Background,Centre,"sb/glow.png",345,355 C,0,112571,112571,255,88,102 S,0,112571,112571,0.5 F,0,112571,113071,1,0
Sprite,Background,Centre,"sb/glow.png",355,357 C,0,112590,112590,255,88,102 S,0,112590,112590,0.5 F,0,112590,113090,1,0
Sprite,Background,Centre,"sb/glow.png",365,359 C,0,112609,112609,255,88,102 S,0,112609,112609,0.5 F,0,112609,113109,1,0
Sprite,Background,Centre,"sb/glow.png",376,359 C,0,112627,112627,255,88,102 S,0,112627,112627,0.5 F,0,112627,113127,1,0
Sprite,Background,Centre,"sb/glow.png",386,358 C,0,112646,112646,255,88,102 S,0,112646,112646,0.5 F,0,112646,113146,1,0
Sprite,Background,Centre,"sb/glow.png",396,355 C,0,112665,112665,255,88,102 S,0,112665,112665,0.5 F,0,112665,113165,1,0
Sprite,Background,Centre,"sb/glow.png",406,351 C,0,112684,112684,255,88,102 S,0,112684,112684,0.5 F,0,112684,113184,1,0
Sprite,Background,Centre,"sb/glow.png",383,336 C,0,112702,112702,255,88,102 S,0,112702,112702,0.5 F,0,112702,113202,1,0
Sprite,Background,Centre,"sb/glow.png",359,320 C,0,112721,112721,255,88,102 S,0,112721,112721,0.5 F,0,112721,113221,1,0
Sprite,Background,Centre,"sb/glow.png",337,306 C,0,112740,112740,255,88,102 S,0,112740,112740,0.5 F,0,112740,113240,1,0
Sprite,Background,Centre,"sb/glow.png",317,293 C,0,112759,112759,255,88,102 S,0,112759,112759,0.5 F,0,112759,113259,1,0
Sprite,Background,Centre,"sb/glow.png",301,283 C,0,112777,112777,255,88,102 S,0,112777,112777,0.5 F,0,112777,113277,1,0
Sprite,Background,Centre,"sb/glow.png",289,275 C,0,112796,112796,255,88,102 S,0,112796,112796,0.5 F,0,112796,113296,1,0
Sprite,Background,Centre,"sb/glow.png",282,270 C,0,112815,112815,255,88,102 S,0,112815,112815,0.5 F,0,112815,113315,1,0
Sprite,Background,Centre,"sb/glow.png",279,268 C,0,112834,112834,255,88,102 S,0,112834,112834,0.5 F,0,112834,113334,1,0
Sprite,Background,Centre,"sb/glow.png",279,276 C,0,112852,112852,255,0,255 S,0,112852,112852,0.5 F,0,112852,113352,1,0
Sprite,Background,Centre,"sb/glow.png",278,285 C,0,112871,112871,255,0,255 S,0,112871,112871,0.5 F,0,112871,113371,1,0
Sprite,Background,Centre,"sb/glow.png",278,294 C,0,112890,112890,255,0,255 S,0,112890,112890,0.5 F,0,112890,113390,1,0
Sprite,Background,Centre,"sb/glow.png",277,302 C,0,112909,112909,255,0,255 S,0,112909,112909,0.5 F,0,112909,113409,1,0
Sprite,Background,Centre,"sb/glow.png",277,311 C,0,112927,112927,255,0,255 S,0,112927,112927,0.5 F,0,112927,113427,1,0
Sprite,Background,Centre,"sb/glow.png",276,320 C,0,112946,112946,255,0,255 S,0,112946,112946,0.5 F,0,112946,113446,1,0
Sprite,Background,Centre,"sb/glow.png",276,329 C,0,112965,112965,255,0,255 S,0,112965,112965,0.5 F,0,112965,113465,1,0
Sprite,Background,Centre,"sb/glow.png",276,337 C,0,112984,112984,255,0,255 S,0,112984,112984,0.5 F,0,112984,113484,1,0
Sprite,Background,Centre,"sb/glow.png",275,346 C,0,113002,113002,255,0,255 S,0,113002,113002,0.5 F,0,113002,113502,1,0
Sprite,Background,Centre,"sb/glow.png",275,355 C,0,113021,113021,255,0,255 S,0,113021,113021,0.5 F,0,113021,113521,1,0
Sprite,Background,Centre,"sb/glow.png",274,364 C,0,113040,113040,255,0,255 S,0,113040,113040,0.5 F,0,113040,113540,1,0
Sprite,Background,Centre,"sb/glow.png",274,372 C,0,113059,113059,255,0,255 S,0,113059,113059,0.5 F,0,113059,113559,1,0
Sprite,Background,Centre,"sb/glow.png",273,381 C,0,113077,113077,255,0,255 S,0,113077,113077,0.5 F,0,113077,113577,1,0
Sprite,Background,Centre,"sb/glow.png",273,390 C,0,113096,113096,255,0,255 S,0,113096,113096,0.5 F,0,113096,113596,1,0
Sprite,Background,Centre,"sb/glow.png",272,399 C,0,113115,113115,255,0,255 S,0,113115,113115,0.5 F,0,113115,113615,1,0
Sprite,Background,Centre,"sb/glow.png",272,407 C,0,113134,113134,255,0,255 S,0,113134,113134,0.5 F,0,113134,113634,1,0
Sprite,Background,Centre,"sb/glow.png",258,398 C,0,113152,113152,255,0,255 S,0,113152,113152,0.5 F,0,113152,113652,1,0
Sprite,Background,Centre,"sb/glow.png",244,387 C,0,113171,113171,255,0,255 S,0,113171,113171,0.5 F,0,113171,113671,1,0
Sprite,Background,Centre,"sb/glow.png",230,376 C,0,113190,113190,255,0,255 S,0,113190,113190,0.5 F,0,113190,113690,1,0
Sprite,Background,Centre,"sb/glow.png",217,366 C,0,113209,113209,255,0,255 S,0,113209,113209,0.5 F,0,113209,113709,1,0
Sprite,Background,Centre,"sb/glow.png",204,357 C,0,113227,113227,255,0,255 S,0,113227,113227,0.5 F,0,113227,113727,1,0
Sprite,Background,Centre,"sb/glow.png",192,347 C,0,113246,113246,255,0,255 S,0,113246,113246,0.5 F,0,113246,113746,1,0
Sprite,Background,Centre,"sb/glow.png",180,339 C,0,113265,113265,255,0,255 S,0,113265,113265,0.5 F,0,113265,113765,1,0
Sprite,Background,Centre,"sb/glow.png",169,331 C,0,113284,113284,255,0,255 S,0,113284,113284,0.5 F,0,113284,113784,1,0
Sprite,Background,Centre,"sb/glow.png",160,323 C,0,113302,113302,255,0,255 S,0,113302,113302,0.5 F,0,113302,113802,1,0
Sprite,Background,Centre,"sb/glow.png",151,317 C,0,113321,113321,255,0,255 S,0,113321,113321,0.5 F,0,113321,113821,1,0
Sprite,Background,Centre,"sb/glow.png",144,311 C,0,113340,113340,255,0,255 S,0,113340,113340,0.5 F,0,113340,113840,1,0
Sprite,Background,Centre,"sb/glow.png",137,307 C,0,113359,113359,255,0,255 S,0,113359,113359,0.5 F,0,113359,113859,1,0
Sprite,Background,Centre,"sb/glow.png",133,303 C,0,113377,113377,255,0,255 S,0,113377,113377,0.5 F,0,113377,113877,1,0
Sprite,Background,Centre,"sb/glow.png",129,300 C,0,113396,113396,255,0,255 S,0,113396,113396,0.5 F,0,113396,113896,1,0
Sprite,Background,Centre,"sb/glow.png",127,299 C,0,113415,113415,255,0,255 S,0,113415,113415,0.5 F,0,113415,113915,1,0
Sprite,Background,Centre,"sb/glow.png",126,298 C,0,113434,113434,255,0,255 S,0,113434,113434,0.5 F,0,113434,113934,1,0
Sprite,Background,Centre,"sb/glow.png",126,290 C,0,113452,113452,255,0,255 S,0,113452,113452,0.5 F,0,113452,113952,1,0
Sprite,Background,Centre,"sb/glow.png",127,281 C,0,113471,113471,255,0,255 S,0,113471,113471,0.5 F,0,113471,113971,1,0
Sprite,Background,Centre,"sb/glow.png",127,272 C,0,113490,113490,255,0,255 S,0,113490,113490,0.5 F,0,113490,113990,1,0
Sprite,Background,Centre,"sb/glow.png",127,263 C,0,113509,113509,255,0,255 S,0,113509,113509,0.5 F,0,113509,114009,1,0
Sprite,Background,Centre,"sb/glow.png",128,255 C,0,113527,113527,255,0,255 S,0,113527,113527,0.5 F,0,113527,114027,1,0
Sprite,Background,Centre,"sb/glow.png",128,246 C,0,113546,113546,255,0,255 S,0,113546,113546,0.5 F,0,113546,114046,1,0
Sprite,Background,Centre,"sb/glow.png",128,237 C,0,113565,113565,255,0,255 S,0,113565,113565,0.5 F,0,113565,114065,1,0
Sprite,Background,Centre,"sb/glow.png",129,229 C,0,113584,113584,255,0,255 S,0,113584,113584,0.5 F,0,113584,114084,1,0
Sprite,Background,Centre,"sb/glow.png",117,215 C,0,113602,113602,255,0,255 S,0,113602,113602,0.5 F,0,113602,114102,1,0
Sprite,Background,Centre,"sb/glow.png",106,203 C,0,113621,113621,255,0,255 S,0,113621,113621,0.5 F,0,113621,114121,1,0
Sprite,Background,Centre,"sb/glow.png",95,191 C,0,113640,113640,255,0,255 S,0,113640,113640,0.5 F,0,113640,114140,1,0
Sprite,Background,Centre,"sb/glow.png",86,180 C,0,113659,113659,255,0,255 S,0,113659,113659,0.5 F,0,113659,114159,1,0
Sprite,Background,Centre,"sb/glow.png",78,172 C,0,113677,113677,255,0,255 S,0,113677,113677,0.5 F,0,113677,114177,1,0
Sprite,Background,Centre,"sb/glow.png",72,165 C,0,113696,113696,255,0,255 S,0,113696,113696,0.5 F,0,113696,114196,1,0
Sprite,Background,Centre,"sb/glow.png",68,161 C,0,113715,113715,255,0,255 S,0,113715,113715,0.5 F,0,113715,114215,1,0
Sprite,Background,Centre,"sb/glow.png",67,160 C,0,113734,113734,255,0,255 S,0,113734,113734,0.5 F,0,113734,114234,1,0
Sprite,Background,Centre,"sb/glow.png",73,155 C,0,113752,113752,255,0,255 S,0,113752,113752,0.5 F,0,113752,114252,1,0
Sprite,Background,Centre,"sb/glow.png",80,150 C,0,113771,113771,255,0,255 S,0,113771,113771,0.5 F,0,113771,114271,1,0
Sprite,Background,Centre,"sb/glow.png",88,145 C,0,113790,113790,255,0,255 S,0,113790,113790,0.5 F,0,113790,114290,1,0
Sprite,Background,Centre,"sb/glow.png",96,142 C,0,113809,113809,255,0,255 S,0,113809,113809,0.5 F,0,113809,114309,1,0
Sprite,Background,Centre,"sb/glow.png",104,139 C,0,113827,113827,255,0,255 S,0,113827,113827,0.5 F,0,113827,114327,1,0
Sprite,Background,Centre,"sb/glow.png",113,137 C,0,113846,113846,255,0,255 S,0,113846,113846,0.5 F,0,113846,114346,1,0
Sprite,Background,Centre,"sb/glow.png",121,136 C,0,113865,113865,255,0,255 S,0,113865,113865,0.5 F,0,113865,114365,1,0
Sprite,Background,Centre,"sb/glow.png",130,135 C,0,113884,113884,255,0,255 S,0,113884,113884,0.5 F,0,113884,114384,1,0
Sprite,Background,Centre,"sb/glow.png",139,136 C,0,113902,113902,255,0,255 S,0,113902,113902,0.5 F,0,113902,114402,1,0
Sprite,Background,Centre,"sb/glow.png",147,137 C,0,113921,113921,255,0,255 S,0,113921,113921,0.5 F,0,113921,114421,1,0
Sprite,Background,Centre,"sb/glow.png",156,140 C,0,113940,113940,255,0,255 S,0,113940,113940,0.5 F,0,113940,114440,1,0
Sprite,Background,Centre,"sb/glow.png",164,143 C,0,113959,113959,255,0,255 S,0,113959,113959,0.5 F,0,113959,114459,1,0
Sprite,Background,Centre,"sb/glow.png",175,150 C,0,113977,113977,255,0,255 S,0,113977,113977,0.5 F,0,113977,114477,1,0
Sprite,Background,Centre,"sb/glow.png",185,156 C,0,113996,113996,255,0,255 S,0,113996,113996,0.5 F,0,113996,114496,1,0
Sprite,Background,Centre,"sb/glow.png",192,160 C,0,114015,114015,255,0,255 S,0,114015,114015,0.5 F,0,114015,114515,1,0
Sprite,Background,Centre,"sb/glow.png",194,162 C,0,114034,114034,255,0,255 S,0,114034,114034,0.5 F,0,114034,114534,1,0
Sprite,Background,Centre,"sb/glow.png",201,167 C,0,114052,114052,255,128,192 S,0,114052,114052,0.5 F,0,114052,114552,1,0
Sprite,Background,Centre,"sb/glow.png",208,171 C,0,114071,114071,255,128,192 S,0,114071,114071,0.5 F,0,114071,114571,1,0
Sprite,Background,Centre,"sb/glow.png",216,175 C,0,114090,114090,255,128,192 S,0,114090,114090,0.5 F,0,114090,114590,1,0
Sprite,Background,Centre,"sb/glow.png",224,178 C,0,114109,114109,255,128,192 S,0,114109,114109,0.5 F,0,114109,114609,1,0
Sprite,Background,Centre,"sb/glow.png",233,180 C,0,114127,114127,255,128,192 S,0,114127,114127,0.5 F,0,114127,114627,1,0
Sprite,Background,Centre,"sb/glow.png",241,181 C,0,114146,114146,255,128,192 S,0,114146,114146,0.5 F,0,114146,114646,1,0
Sprite,Background,Centre,"sb/glow.png",250,182 C,0,114165,114165,255,128,192 S,0,114165,114165,0.5 F,0,114165,114665,1,0
Sprite,Background,Centre,"sb/glow.png",259,182 C,0,114184,114184,255,128,192 S,0,114184,114184,0.5 F,0,114184,114684,1,0
Sprite,Background,Centre,"sb/glow.png",268,180 C,0,114202,114202,255,128,192 S,0,114202,114202,0.5 F,0,114202,114702,1,0
Sprite,Background,Centre,"sb/glow.png",276,178 C,0,114221,114221,255,128,192 S,0,114221,114221,0.5 F,0,114221,114721,1,0
Sprite,Background,Centre,"sb/glow.png",284,176 C,0,114240,114240,255,128,192 S,0,114240,114240,0.5 F,0,114240,114740,1,0
Sprite,Background,Centre,"sb/glow.png",292,172 C,0,114259,114259,255,128,192 S,0,114259,114259,0.5 F,0,114259,114759,1,0
Sprite,Background,Centre,"sb/glow.png",300,168 C,0,114277,114277,255,128,192 S,0,114277,114277,0.5 F,0,114277,114777,1,0
Sprite,Background,Centre,"sb/glow.png",307,163 C,0,114296,114296,255,128,192 S,0,114296,114296,0.5 F,0,114296,114796,1,0
Sprite,Background,Centre,"sb/glow.png",314,157 C,0,114315,114315,255,128,192 S,0,114315,114315,0.5 F,0,114315,114815,1,0
Sprite,Background,Centre,"sb/glow.png",319,152 C,0,114334,114334,255,128,192 S,0,114334,114334,0.5 F,0,114334,114834,1,0
Sprite,Background,Centre,"sb/glow.png",328,138 C,0,114352,114352,255,128,192 S,0,114352,114352,0.5 F,0,114352,114852,1,0
Sprite,Background,Centre,"sb/glow.png",338,123 C,0,114371,114371,255,128,192 S,0,114371,114371,0.5 F,0,114371,114871,1,0
Sprite,Background,Centre,"sb/glow.png",347,109 C,0,114390,114390,255,128,192 S,0,114390,114390,0.5 F,0,114390,114890,1,0
Sprite,Background,Centre,"sb/glow.png",355,97 C,0,114409,114409,255,128,192 S,0,114409,114409,0.5 F,0,114409,114909,1,0
Sprite,Background,Centre,"sb/glow.png",361,88 C,0,114427,114427,255,128,192 S,0,114427,114427,0.5 F,0,114427,114927,1,0
Sprite,Background,Centre,"sb/glow.png",366,80 C,0,114446,114446,255,128,192 S,0,114446,114446,0.5 F,0,114446,114946,1,0
Sprite,Background,Centre,"sb/glow.png",369,76 C,0,114465,114465,255,128,192 S,0,114465,114465,0.5 F,0,114465,114965,1,0
Sprite,Background,Centre,"sb/glow.png",370,74 C,0,114484,114484,255,128,192 S,0,114484,114484,0.5 F,0,114484,114984,1,0
Sprite,Background,Centre,"sb/glow.png",378,89 C,0,114502,114502,255,128,192 S,0,114502,114502,0.5 F,0,114502,115002,1,0
Sprite,Background,Centre,"sb/glow.png",386,104 C,0,114521,114521,255,128,192 S,0,114521,114521,0.5 F,0,114521,115021,1,0
Sprite,Background,Centre,"sb/glow.png",393,118 C,0,114540,114540,255,128,192 S,0,114540,114540,0.5 F,0,114540,115040,1,0
Sprite,Background,Centre,"sb/glow.png",399,131 C,0,114559,114559,255,128,192 S,0,114559,114559,0.5 F,0,114559,115059,1,0
Sprite,Background,Centre,"sb/glow.png",405,141 C,0,114577,114577,255,128,192 S,0,114577,114577,0.5 F,0,114577,115077,1,0
Sprite,Background,Centre,"sb/glow.png",409,149 C,0,114596,114596,255,128,192 S,0,114596,114596,0.5 F,0,114596,115096,1,0
Sprite,Background,Centre,"sb/glow.png",411,153 C,0,114615,114615,255,128,192 S,0,114615,114615,0.5 F,0,114615,115115,1,0
Sprite,Background,Centre,"sb/glow.png",412,155 C,0,114634,114634,255,128,192 S,0,114634,114634,0.5 F,0,114634,115134,1,0
Sprite,Background,Centre,"sb/glow.png",413,163 C,0,114652,114652,255,128,192 S,0,114652,114652,0.5 F,0,114652,115152,1,0
Sprite,Background,Centre,"sb/glow.png",413,172 C,0,114671,114671,255,128,192 S,0,114671,114671,0.5 F,0,114671,115171,1,0
Sprite,Background,Centre,"sb/glow.png",414,181 C,0,114690,114690,255,128,192 S,0,114690,114690,0.5 F,0,114690,115190,1,0
Sprite,Background,Centre,"sb/glow.png",415,189 C,0,114709,114709,255,128,192 S,0,114709,114709,0.5 F,0,114709,115209,1,0
Sprite,Background,Centre,"sb/glow.png",416,198 C,0,114727,114727,255,128,192 S,0,114727,114727,0.5 F,0,114727,115227,1,0
Sprite,Background,Centre,"sb/glow.png",416,207 C,0,114746,114746,255,128,192 S,0,114746,114746,0.5 F,0,114746,115246,1,0
Sprite,Background,Centre,"sb/glow.png",417,216 C,0,114765,114765,255,128,192 S,0,114765,114765,0.5 F,0,114765,115265,1,0
Sprite,Background,Centre,"sb/glow.png",418,224 C,0,114784,114784,255,128,192 S,0,114784,114784,0.5 F,0,114784,115284,1,0
Sprite,Background,Centre,"sb/glow.png",434,213 C,0,114802,114802,255,128,192 S,0,114802,114802,0.5 F,0,114802,115302,1,0
Sprite,Background,Centre,"sb/glow.png",450,200 C,0,114821,114821,255,128,192 S,0,114821,114821,0.5 F,0,114821,115321,1,0
Sprite,Background,Centre,"sb/glow.png",464,189 C,0,114840,114840,255,128,192 S,0,114840,114840,0.5 F,0,114840,115340,1,0
Sprite,Background,Centre,"sb/glow.png",477,179 C,0,114859,114859,255,128,192 S,0,114859,114859,0.5 F,0,114859,115359,1,0
Sprite,Background,Centre,"sb/glow.png",488,170 C,0,114877,114877,255,128,192 S,0,114877,114877,0.5 F,0,114877,115377,1,0
Sprite,Background,Centre,"sb/glow.png",496,164 C,0,114896,114896,255,128,192 S,0,114896,114896,0.5 F,0,114896,115396,1,0
Sprite,Background,Centre,"sb/glow.png",501,160 C,0,114915,114915,255,128,192 S,0,114915,114915,0.5 F,0,114915,115415,1,0
Sprite,Background,Centre,"sb/glow.png",503,159 C,0,114934,114934,255,128,192 S,0,114934,114934,0.5 F,0,114934,115434,1,0
Sprite,Background,Centre,"sb/glow.png",504,167 C,0,114952,114952,255,128,192 S,0,114952,114952,0.5 F,0,114952,115452,1,0
Sprite,Background,Centre,"sb/glow.png",504,176 C,0,114971,114971,255,128,192 S,0,114971,114971,0.5 F,0,114971,115471,1,0
Sprite,Background,Centre,"sb/glow.png",505,185 C,0,114990,114990,255,128,192 S,0,114990,114990,0.5 F,0,114990,115490,1,0
Sprite,Background,Centre,"sb/glow.png",506,193 C,0,115009,115009,255,128,192 S,0,115009,115009,0.5 F,0,115009,115509,1,0
Sprite,Background,Centre,"sb/glow.png",507,202 C,0,115027,115027,255,128,192 S,0,115027,115027,0.5 F,0,115027,115527,1,0
Sprite,Background,Centre,"sb/glow.png",507,211 C,0,115046,115046,255,128,192 S,0,115046,115046,0.5 F,0,115046,115546,1,0
Sprite,Background,Centre,"sb/glow.png",508,220 C,0,115065,115065,255,128,192 S,0,115065,115065,0.5 F,0,115065,115565,1,0
Sprite,Background,Centre,"sb/glow.png",509,228 C,0,115084,115084,255,128,192 S,0,115084,115084,0.5 F,0,115084,115584,1,0
Sprite,Background,Centre,"sb/glow.png",500,243 C,0,115102,115102,255,128,192 S,0,115102,115102,0.5 F,0,115102,115602,1,0
Sprite,Background,Centre,"sb/glow.png",491,258 C,0,115121,115121,255,128,192 S,0,115121,115121,0.5 F,0,115121,115621,1,0
Sprite,Background,Centre,"sb/glow.png",482,272 C,0,115140,115140,255,128,192 S,0,115140,115140,0.5 F,0,115140,115640,1,0
Sprite,Background,Centre,"sb/glow.png",475,284 C,0,115159,115159,255,128,192 S,0,115159,115159,0.5 F,0,115159,115659,1,0
Sprite,Background,Centre,"sb/glow.png",469,294 C,0,115177,115177,255,128,192 S,0,115177,115177,0.5 F,0,115177,115677,1,0
Sprite,Background,Centre,"sb/glow.png",464,302 C,0,115196,115196,255,128,192 S,0,115196,115196,0.5 F,0,115196,115696,1,0
Sprite,Background,Centre,"sb/glow.png",461,306 C,0,115215,115215,255,128,192 S,0,115215,115215,0.5 F,0,115215,115715,1,0
Sprite,Background,Centre,"sb/glow.png",460,308 C,0,115234,115234,255,128,192 S,0,115234,115234,0.5 F,0,115234,115734,1,0
Sprite,Background,Centre,"sb/glow.png",469,312 C,0,115252,115252,255,0,128 S,0,115252,115252,0.5 F,0,115252,115752,1,0
Sprite,Background,Centre,"sb/glow.png",479,316 C,0,115271,115271,255,0,128 S,0,115271,115271,0.5 F,0,115271,115771,1,0
Sprite,Background,Centre,"sb/glow.png",489,319 C,0,115290,115290,255,0,128 S,0,115290,115290,0.5 F,0,115290,115790,1,0
Sprite,Background,Centre,"sb/glow.png",499,320 C,0,115309,115309,255,0,128 S,0,115309,115309,0.5 F,0,115309,115809,1,0
Sprite,Background,Centre,"sb/glow.png",510,321 C,0,115327,115327,255,0,128 S,0,115327,115327,0.5 F,0,115327,115827,1,0
Sprite,Background,Centre,"sb/glow.png",520,321 C,0,115346,115346,255,0,128 S,0,115346,115346,0.5 F,0,115346,115846,1,0
Sprite,Background,Centre,"sb/glow.png",530,319 C,0,115365,115365,255,0,128 S,0,115365,115365,0.5 F,0,115365,115865,1,0
Sprite,Background,Centre,"sb/glow.png",541,316 C,0,115384,115384,255,0,128 S,0,115384,115384,0.5 F,0,115384,115884,1,0
Sprite,Background,Centre,"sb/glow.png",518,299 C,0,115402,115402,255,0,128 S,0,115402,115402,0.5 F,0,115402,115902,1,0
Sprite,Background,Centre,"sb/glow.png",495,282 C,0,115421,115421,255,0,128 S,0,115421,115421,0.5 F,0,115421,115921,1,0
Sprite,Background,Centre,"sb/glow.png",474,266 C,0,115440,115440,255,0,128 S,0,115440,115440,0.5 F,0,115440,115940,1,0
Sprite,Background,Centre,"sb/glow.png",455,252 C,0,115459,115459,255,0,128 S,0,115459,115459,0.5 F,0,115459,115959,1,0
Sprite,Background,Centre,"sb/glow.png",439,241 C,0,115477,115477,255,0,128 S,0,115477,115477,0.5 F,0,115477,115977,1,0
Sprite,Background,Centre,"sb/glow.png",428,232 C,0,115496,115496,255,0,128 S,0,115496,115496,0.5 F,0,115496,115996,1,0
Sprite,Background,Centre,"sb/glow.png",421,227 C,0,115515,115515,255,0,128 S,0,115515,115515,0.5 F,0,115515,116015,1,0
Sprite,Background,Centre,"sb/glow.png",418,225 C,0,115534,115534,255,0,128 S,0,115534,115534,0.5 F,0,115534,116034,1,0
Sprite,Background,Centre,"sb/glow.png",408,223 C,0,115552,115552,255,0,128 S,0,115552,115552,0.5 F,0,115552,116052,1,0
Sprite,Background,Centre,"sb/glow.png",398,221 C,0,115571,115571,255,0,128 S,0,115571,115571,0.5 F,0,115571,116071,1,0
Sprite,Background,Centre,"sb/glow.png",388,220 C,0,115590,115590,255,0,128 S,0,115590,115590,0.5 F,0,115590,116090,1,0
Sprite,Background,Centre,"sb/glow.png",377,221 C,0,115609,115609,255,0,128 S,0,115609,115609,0.5 F,0,115609,116109,1,0
Sprite,Background,Centre,"sb/glow.png",367,222 C,0,115627,115627,255,0,128 S,0,115627,115627,0.5 F,0,115627,116127,1,0
Sprite,Background,Centre,"sb/glow.png",357,225 C,0,115646,115646,255,0,128 S,0,115646,115646,0.5 F,0,115646,116146,1,0
Sprite,Background,Centre,"sb/glow.png",347,229 C,0,115665,115665,255,0,128 S,0,115665,115665,0.5 F,0,115665,116165,1,0
Sprite,Background,Centre,"sb/glow.png",338,233 C,0,115684,115684,255,0,128 S,0,115684,115684,0.5 F,0,115684,116184,1,0
Sprite,Background,Centre,"sb/glow.png",329,248 C,0,115702,115702,255,0,128 S,0,115702,115702,0.5 F,0,115702,116202,1,0
Sprite,Background,Centre,"sb/glow.png",321,264 C,0,115721,115721,255,0,128 S,0,115721,115721,0.5 F,0,115721,116221,1,0
Sprite,Background,Centre,"sb/glow.png",313,278 C,0,115740,115740,255,0,128 S,0,115740,115740,0.5 F,0,115740,116240,1,0
Sprite,Background,Centre,"sb/glow.png",306,290 C,0,115759,115759,255,0,128 S,0,115759,115759,0.5 F,0,115759,116259,1,0
Sprite,Background,Centre,"sb/glow.png",301,300 C,0,115777,115777,255,0,128 S,0,115777,115777,0.5 F,0,115777,116277,1,0
Sprite,Background,Centre,"sb/glow.png",297,308 C,0,115796,115796,255,0,128 S,0,115796,115796,0.5 F,0,115796,116296,1,0
Sprite,Background,Centre,"sb/glow.png",294,312 C,0,115815,115815,255,0,128 S,0,115815,115815,0.5 F,0,115815,116315,1,0
Sprite,Background,Centre,"sb/glow.png",293,314 C,0,115834,115834,255,0,128 S,0,115834,115834,0.5 F,0,115834,116334,1,0
Sprite,Background,Centre,"sb/glow.png",293,314 C,0,115852,115852,255,88,102 S,0,115852,115852,0.5 F,0,115852,116352,1,0
Sprite,Background,Centre,"sb/glow.png",293,314 C,0,115871,115871,255,88,102 S,0,115871,115871,0.5 F,0,115871,116371,1,0
Sprite,Background,Centre,"sb/glow.png",293,314 C,0,115890,115890,255,88,102 S,0,115890,115890,0.5 F,0,115890,116390,1,0
Sprite,Background,Centre,"sb/glow.png",293,314 C,0,115909,115909,255,88,102 S,0,115909,115909,0.5 F,0,115909,116409,1,0
Sprite,Background,Centre,"sb/glow.png",293,314 C,0,115927,115927,255,88,102 S,0,115927,115927,0.5 F,0,115927,116427,1,0
Sprite,Background,Centre,"sb/glow.png",293,314 C,0,115946,115946,255,88,102 S,0,115946,115946,0.5 F,0,115946,116446,1,0
Sprite,Background,Centre,"sb/glow.png",293,314 C,0,115965,115965,255,88,102 S,0,115965,115965,0.5 F,0,115965,116465,1,0
Sprite,Background,Centre,"sb/glow.png",293,314 C,0,115984,115984,255,88,102 S,0,115984,115984,0.5 F,0,115984,116484,1,0
Sprite,Background,Centre,"sb/glow.png",284,299 C,0,116002,116002,255,88,102 S,0,116002,116002,0.5 F,0,116002,116502,1,0
Sprite,Background,Centre,"sb/glow.png",275,285 C,0,116021,116021,255,88,102 S,0,116021,116021,0.5 F,0,116021,116521,1,0
Sprite,Background,Centre,"sb/glow.png",266,271 C,0,116040,116040,255,88,102 S,0,116040,116040,0.5 F,0,116040,116540,1,0
Sprite,Background,Centre,"sb/glow.png",259,259 C,0,116059,116059,255,88,102 S,0,116059,116059,0.5 F,0,116059,116559,1,0
Sprite,Background,Centre,"sb/glow.png",253,249 C,0,116077,116077,255,88,102 S,0,116077,116077,0.5 F,0,116077,116577,1,0
Sprite,Background,Centre,"sb/glow.png",248,241 C,0,116096,116096,255,88,102 S,0,116096,116096,0.5 F,0,116096,116596,1,0
Sprite,Background,Centre,"sb/glow.png",245,237 C,0,116115,116115,255,88,102 S,0,116115,116115,0.5 F,0,116115,116615,1,0
Sprite,Background,Centre,"sb/glow.png",244,235 C,0,116134,116134,255,88,102 S,0,116134,116134,0.5 F,0,116134,116634,1,0
Sprite,Background,Centre,"sb/glow.png",244,235 C,0,116152,116152,255,88,102 S,0,116152,116152,0.5 F,0,116152,116652,1,0
Sprite,Background,Centre,"sb/glow.png",244,235 C,0,116171,116171,255,88,102 S,0,116171,116171,0.5 F,0,116171,116671,1,0
Sprite,Background,Centre,"sb/glow.png",244,235 C,0,116190,116190,255,88,102 S,0,116190,116190,0.5 F,0,116190,116690,1,0
Sprite,Background,Centre,"sb/glow.png",244,235 C,0,116209,116209,255,88,102 S,0,116209,116209,0.5 F,0,116209,116709,1,0
Sprite,Background,Centre,"sb/glow.png",244,235 C,0,116227,116227,255,88,102 S,0,116227,116227,0.5 F,0,116227,116727,1,0
Sprite,Background,Centre,"sb/glow.png",244,235 C,0,116246,116246,255,88,102 S,0,116246,116246,0.5 F,0,116246,116746,1,0
Sprite,Background,Centre,"sb/glow.png",244,235 C,0,116265,116265,255,88,102 S,0,116265,116265,0.5 F,0,116265,116765,1,0
Sprite,Background,Centre,"sb/glow.png",244,235 C,0,116284,116284,255,88,102 S,0,116284,116284,0.5 F,0,116284,116784,1,0
Sprite,Background,Centre,"sb/glow.png",230,251 C,0,116302,116302,255,88,102 S,0,116302,116302,0.5 F,0,116302,116802,1,0
Sprite,Background,Centre,"sb/glow.png",215,268 C,0,116321,116321,255,88,102 S,0,116321,116321,0.5 F,0,116321,116821,1,0
Sprite,Background,Centre,"sb/glow.png",202,283 C,0,116340,116340,255,88,102 S,0,116340,116340,0.5 F,0,116340,116840,1,0
Sprite,Background,Centre,"sb/glow.png",190,297 C,0,116359,116359,255,88,102 S,0,116359,116359,0.5 F,0,116359,116859,1,0
Sprite,Background,Centre,"sb/glow.png",180,308 C,0,116377,116377,255,88,102 S,0,116377,116377,0.5 F,0,116377,116877,1,0
Sprite,Background,Centre,"sb/glow.png",173,316 C,0,116396,116396,255,88,102 S,0,116396,116396,0.5 F,0,116396,116896,1,0
Sprite,Background,Centre,"sb/glow.png",169,321 C,0,116415,116415,255,88,102 S,0,116415,116415,0.5 F,0,116415,116915,1,0
Sprite,Background,Centre,"sb/glow.png",167,323 C,0,116434,116434,255,88,102 S,0,116434,116434,0.5 F,0,116434,116934,1,0
Sprite,Background,Centre,"sb/glow.png",177,322 C,0,116452,116452,255,0,255 S,0,116452,116452,0.5 F,0,116452,116952,1,0
Sprite,Background,Centre,"sb/glow.png",187,322 C,0,116471,116471,255,0,255 S,0,116471,116471,0.5 F,0,116471,116971,1,0
Sprite,Background,Centre,"sb/glow.png",198,321 C,0,116490,116490,255,0,255 S,0,116490,116490,0.5 F,0,116490,116990,1,0
Sprite,Background,Centre,"sb/glow.png",208,320 C,0,116509,116509,255,0,255 S,0,116509,116509,0.5 F,0,116509,117009,1,0
Sprite,Background,Centre,"sb/glow.png",219,319 C,0,116527,116527,255,0,255 S,0,116527,116527,0.5 F,0,116527,117027,1,0
Sprite,Background,Centre,"sb/glow.png",229,319 C,0,116546,116546,255,0,255 S,0,116546,116546,0.5 F,0,116546,117046,1,0
Sprite,Background,Centre,"sb/glow.png",240,318 C,0,116565,116565,255,0,255 S,0,116565,116565,0.5 F,0,116565,117065,1,0
Sprite,Background,Centre,"sb/glow.png",250,317 C,0,116584,116584,255,0,255 S,0,116584,116584,0.5 F,0,116584,117084,1,0
Sprite,Background,Centre,"sb/glow.png",261,316 C,0,116602,116602,255,0,255 S,0,116602,116602,0.5 F,0,116602,117102,1,0
Sprite,Background,Centre,"sb/glow.png",271,316 C,0,116621,116621,255,0,255 S,0,116621,116621,0.5 F,0,116621,117121,1,0
Sprite,Background,Centre,"sb/glow.png",282,315 C,0,116640,116640,255,0,255 S,0,116640,116640,0.5 F,0,116640,117140,1,0
Sprite,Background,Centre,"sb/glow.png",292,314 C,0,116659,116659,255,0,255 S,0,116659,116659,0.5 F,0,116659,117159,1,0
Sprite,Background,Centre,"sb/glow.png",283,315 C,0,116677,116677,255,0,255 S,0,116677,116677,0.5 F,0,116677,117177,1,0
Sprite,Background,Centre,"sb/glow.png",272,315 C,0,116696,116696,255,0,255 S,0,116696,116696,0.5 F,0,116696,117196,1,0
Sprite,Background,Centre,"sb/glow.png",262,316 C,0,116715,116715,255,0,255 S,0,116715,116715,0.5 F,0,116715,117215,1,0
Sprite,Background,Centre,"sb/glow.png",251,317 C,0,116734,116734,255,0,255 S,0,116734,116734,0.5 F,0,116734,117234,1,0
Sprite,Background,Centre,"sb/glow.png",241,318 C,0,116752,116752,255,0,255 S,0,116752,116752,0.5 F,0,116752,117252,1,0
Sprite,Background,Centre,"sb/glow.png",230,318 C,0,116771,116771,255,0,255 S,0,116771,116771,0.5 F,0,116771,117271,1,0
Sprite,Background,Centre,"sb/glow.png",220,319 C,0,116790,116790,255,0,255 S,0,116790,116790,0.5 F,0,116790,117290,1,0
Sprite,Background,Centre,"sb/glow.png",209,320 C,0,116809,116809,255,0,255 S,0,116809,116809,0.5 F,0,116809,117309,1,0
Sprite,Background,Centre,"sb/glow.png",199,321 C,0,116827,116827,255,0,255 S,0,116827,116827,0.5 F,0,116827,117327,1,0
Sprite,Background,Centre,"sb/glow.png",189,321 C,0,116846,116846,255,0,255 S,0,116846,116846,0.5 F,0,116846,117346,1,0
Sprite,Background,Centre,"sb/glow.png",178,322 C,0,116865,116865,255,0,255 S,0,116865,116865,0.5 F,0,116865,117365,1,0
Sprite,Background,Centre,"sb/glow.png",168,323 C,0,116884,116884,255,0,255 S,0,116884,116884,0.5 F,0,116884,117384,1,0
Sprite,Background,Centre,"sb/glow.png",154,334 C,0,116902,116902,255,0,255 S,0,116902,116902,0.5 F,0,116902,117402,1,0
Sprite,Background,Centre,"sb/glow.png",141,345 C,0,116921,116921,255,0,255 S,0,116921,116921,0.5 F,0,116921,117421,1,0
Sprite,Background,Centre,"sb/glow.png",129,356 C,0,116940,116940,255,0,255 S,0,116940,116940,0.5 F,0,116940,117440,1,0
Sprite,Background,Centre,"sb/glow.png",118,365 C,0,116959,116959,255,0,255 S,0,116959,116959,0.5 F,0,116959,117459,1,0
Sprite,Background,Centre,"sb/glow.png",109,373 C,0,116977,116977,255,0,255 S,0,116977,116977,0.5 F,0,116977,117477,1,0
Sprite,Background,Centre,"sb/glow.png",103,378 C,0,116996,116996,255,0,255 S,0,116996,116996,0.5 F,0,116996,117496,1,0
Sprite,Background,Centre,"sb/glow.png",98,382 C,0,117015,117015,255,0,255 S,0,117015,117015,0.5 F,0,117015,117515,1,0
Sprite,Background,Centre,"sb/glow.png",97,383 C,0,117034,117034,255,0,255 S,0,117034,117034,0.5 F,0,117034,117534,1,0
Sprite,Background,Centre,"sb/glow.png",91,375 C,0,117052,117052,255,0,255 S,0,117052,117052,0.5 F,0,117052,117552,1,0
Sprite,Background,Centre,"sb/glow.png",86,366 C,0,117071,117071,255,0,255 S,0,117071,117071,0.5 F,0,117071,117571,1,0
Sprite,Background,Centre,"sb/glow.png",81,356 C,0,117090,117090,255,0,255 S,0,117090,117090,0.5 F,0,117090,117590,1,0
Sprite,Background,Centre,"sb/glow.png",78,347 C,0,117109,117109,255,0,255 S,0,117109,117109,0.5 F,0,117109,117609,1,0
Sprite,Background,Centre,"sb/glow.png",76,336 C,0,117127,117127,255,0,255 S,0,117127,117127,0.5 F,0,117127,117627,1,0
Sprite,Background,Centre,"sb/glow.png",75,326 C,0,117146,117146,255,0,255 S,0,117146,117146,0.5 F,0,117146,117646,1,0
Sprite,Background,Centre,"sb/glow.png",76,315 C,0,117165,117165,255,0,255 S,0,117165,117165,0.5 F,0,117165,117665,1,0
Sprite,Background,Centre,"sb/glow.png",77,305 C,0,117184,117184,255,0,255 S,0,117184,117184,0.5 F,0,117184,117684,1,0
Sprite,Background,Centre,"sb/glow.png",79,295 C,0,117202,117202,255,0,255 S,0,117202,117202,0.5 F,0,117202,117702,1,0
Sprite,Background,Centre,"sb/glow.png",83,285 C,0,117221,117221,255,0,255 S,0,117221,117221,0.5 F,0,117221,117721,1,0
Sprite,Background,Centre,"sb/glow.png",88,276 C,0,117240,117240,255,0,255 S,0,117240,117240,0.5 F,0,117240,117740,1,0
Sprite,Background,Centre,"sb/glow.png",94,267 C,0,117259,117259,255,0,255 S,0,117259,117259,0.5 F,0,117259,117759,1,0
Sprite,Background,Centre,"sb/glow.png",101,259 C,0,117277,117277,255,0,255 S,0,117277,117277,0.5 F,0,117277,117777,1,0
Sprite,Background,Centre,"sb/glow.png",109,252 C,0,117296,117296,255,0,255 S,0,117296,117296,0.5 F,0,117296,117796,1,0
Sprite,Background,Centre,"sb/glow.png",117,246 C,0,117315,117315,255,0,255 S,0,117315,117315,0.5 F,0,117315,117815,1,0
Sprite,Background,Centre,"sb/glow.png",126,241 C,0,117334,117334,255,0,255 S,0,117334,117334,0.5 F,0,117334,117834,1,0
Sprite,Background,Centre,"sb/glow.png",146,255 C,0,117352,117352,255,0,255 S,0,117352,117352,0.5 F,0,117352,117852,1,0
Sprite,Background,Centre,"sb/glow.png",167,270 C,0,117371,117371,255,0,255 S,0,117371,117371,0.5 F,0,117371,117871,1,0
Sprite,Background,Centre,"sb/glow.png",188,284 C,0,117390,117390,255,0,255 S,0,117390,117390,0.5 F,0,117390,117890,1,0
Sprite,Background,Centre,"sb/glow.png",208,298 C,0,117409,117409,255,0,255 S,0,117409,117409,0.5 F,0,117409,117909,1,0
Sprite,Background,Centre,"sb/glow.png",227,312 C,0,117427,117427,255,0,255 S,0,117427,117427,0.5 F,0,117427,117927,1,0
Sprite,Background,Centre,"sb/glow.png",245,325 C,0,117446,117446,255,0,255 S,0,117446,117446,0.5 F,0,117446,117946,1,0
Sprite,Background,Centre,"sb/glow.png",262,337 C,0,117465,117465,255,0,255 S,0,117465,117465,0.5 F,0,117465,117965,1,0
Sprite,Background,Centre,"sb/glow.png",278,348 C,0,117484,117484,255,0,255 S,0,117484,117484,0.5 F,0,117484,117984,1,0
Sprite,Background,Centre,"sb/glow.png",292,358 C,0,117502,117502,255,0,255 S,0,117502,117502,0.5 F,0,117502,118002,1,0
Sprite,Background,Centre,"sb/glow.png",305,367 C,0,117521,117521,255,0,255 S,0,117521,117521,0.5 F,0,117521,118021,1,0
Sprite,Background,Centre,"sb/glow.png",316,375 C,0,117540,117540,255,0,255 S,0,117540,117540,0.5 F,0,117540,118040,1,0
Sprite,Background,Centre,"sb/glow.png",325,381 C,0,117559,117559,255,0,255 S,0,117559,117559,0.5 F,0,117559,118059,1,0
Sprite,Background,Centre,"sb/glow.png",332,386 C,0,117577,117577,255,0,255 S,0,117577,117577,0.5 F,0,117577,118077,1,0
Sprite,Background,Centre,"sb/glow.png",338,390 C,0,117596,117596,255,0,255 S,0,117596,117596,0.5 F,0,117596,118096,1,0
Sprite,Background,Centre,"sb/glow.png",341,392 C,0,117615,117615,255,0,255 S,0,117615,117615,0.5 F,0,117615,118115,1,0
Sprite,Background,Centre,"sb/glow.png",342,393 C,0,117634,117634,255,0,255 S,0,117634,117634,0.5 F,0,117634,118134,1,0
Sprite,Background,Centre,"sb/glow.png",350,394 C,0,117652,117652,255,128,192 S,0,117652,117652,0.5 F,0,117652,118152,1,0
Sprite,Background,Centre,"sb/glow.png",359,395 C,0,117671,117671,255,128,192 S,0,117671,117671,0.5 F,0,117671,118171,1,0
Sprite,Background,Centre,"sb/glow.png",368,394 C,0,117690,117690,255,128,192 S,0,117690,117690,0.5 F,0,117690,118190,1,0
Sprite,Background,Centre,"sb/glow.png",376,393 C,0,117709,117709,255,128,192 S,0,117709,117709,0.5 F,0,117709,118209,1,0
Sprite,Background,Centre,"sb/glow.png",385,391 C,0,117727,117727,255,128,192 S,0,117727,117727,0.5 F,0,117727,118227,1,0
Sprite,Background,Centre,"sb/glow.png",393,388 C,0,117746,117746,255,128,192 S,0,117746,117746,0.5 F,0,117746,118246,1,0
Sprite,Background,Centre,"sb/glow.png",401,384 C,0,117765,117765,255,128,192 S,0,117765,117765,0.5 F,0,117765,118265,1,0
Sprite,Background,Centre,"sb/glow.png",409,380 C,0,117784,117784,255,128,192 S,0,117784,117784,0.5 F,0,117784,118284,1,0
Sprite,Background,Centre,"sb/glow.png",406,363 C,0,117802,117802,255,128,192 S,0,117802,117802,0.5 F,0,117802,118302,1,0
Sprite,Background,Centre,"sb/glow.png",402,347 C,0,117821,117821,255,128,192 S,0,117821,117821,0.5 F,0,117821,118321,1,0
Sprite,Background,Centre,"sb/glow.png",399,331 C,0,117840,117840,255,128,192 S,0,117840,117840,0.5 F,0,117840,118340,1,0
Sprite,Background,Centre,"sb/glow.png",396,317 C,0,117859,117859,255,128,192 S,0,117859,117859,0.5 F,0,117859,118359,1,0
Sprite,Background,Centre,"sb/glow.png",393,306 C,0,117877,117877,255,128,192 S,0,117877,117877,0.5 F,0,117877,118377,1,0
Sprite,Background,Centre,"sb/glow.png",392,297 C,0,117896,117896,255,128,192 S,0,117896,117896,0.5 F,0,117896,118396,1,0
Sprite,Background,Centre,"sb/glow.png",390,292 C,0,117915,117915,255,128,192 S,0,117915,117915,0.5 F,0,117915,118415,1,0
Sprite,Background,Centre,"sb/glow.png",390,290 C,0,117934,117934,255,128,192 S,0,117934,117934,0.5 F,0,117934,118434,1,0
Sprite,Background,Centre,"sb/glow.png",398,289 C,0,117952,117952,255,128,192 S,0,117952,117952,0.5 F,0,117952,118452,1,0
Sprite,Background,Centre,"sb/glow.png",407,288 C,0,117971,117971,255,128,192 S,0,117971,117971,0.5 F,0,117971,118471,1,0
Sprite,Background,Centre,"sb/glow.png",416,288 C,0,117990,117990,255,128,192 S,0,117990,117990,0.5 F,0,117990,118490,1,0
Sprite,Background,Centre,"sb/glow.png",424,289 C,0,118009,118009,255,128,192 S,0,118009,118009,0.5 F,0,118009,118509,1,0
Sprite,Background,Centre,"sb/glow.png",433,291 C,0,118027,118027,255,128,192 S,0,118027,118027,0.5 F,0,118027,118527,1,0
Sprite,Background,Centre,"sb/glow.png",441,294 C,0,118046,118046,255,128,192 S,0,118046,118046,0.5 F,0,118046,118546,1,0
Sprite,Background,Centre,"sb/glow.png",449,297 C,0,118065,118065,255,128,192 S,0,118065,118065,0.5 F,0,118065,118565,1,0
Sprite,Background,Centre,"sb/glow.png",457,302 C,0,118084,118084,255,128,192 S,0,118084,118084,0.5 F,0,118084,118584,1,0
Sprite,Background,Centre,"sb/glow.png",466,317 C,0,118102,118102,255,128,192 S,0,118102,118102,0.5 F,0,118102,118602,1,0
Sprite,Background,Centre,"sb/glow.png",474,332 C,0,118121,118121,255,128,192 S,0,118121,118121,0.5 F,0,118121,118621,1,0
Sprite,Background,Centre,"sb/glow.png",482,347 C,0,118140,118140,255,128,192 S,0,118140,118140,0.5 F,0,118140,118640,1,0
Sprite,Background,Centre,"sb/glow.png",489,359 C,0,118159,118159,255,128,192 S,0,118159,118159,0.5 F,0,118159,118659,1,0
Sprite,Background,Centre,"sb/glow.png",495,370 C,0,118177,118177,255,128,192 S,0,118177,118177,0.5 F,0,118177,118677,1,0
Sprite,Background,Centre,"sb/glow.png",499,377 C,0,118196,118196,255,128,192 S,0,118196,118196,0.5 F,0,118196,118696,1,0
Sprite,Background,Centre,"sb/glow.png",502,382 C,0,118215,118215,255,128,192 S,0,118215,118215,0.5 F,0,118215,118715,1,0
Sprite,Background,Centre,"sb/glow.png",503,384 C,0,118234,118234,255,128,192 S,0,118234,118234,0.5 F,0,118234,118734,1,0
Sprite,Background,Centre,"sb/glow.png",503,376 C,0,118252,118252,255,128,192 S,0,118252,118252,0.5 F,0,118252,118752,1,0
Sprite,Background,Centre,"sb/glow.png",504,367 C,0,118271,118271,255,128,192 S,0,118271,118271,0.5 F,0,118271,118771,1,0
Sprite,Background,Centre,"sb/glow.png",504,358 C,0,118290,118290,255,128,192 S,0,118290,118290,0.5 F,0,118290,118790,1,0
Sprite,Background,Centre,"sb/glow.png",504,349 C,0,118309,118309,255,128,192 S,0,118309,118309,0.5 F,0,118309,118809,1,0
Sprite,Background,Centre,"sb/glow.png",504,341 C,0,118327,118327,255,128,192 S,0,118327,118327,0.5 F,0,118327,118827,1,0
Sprite,Background,Centre,"sb/glow.png",505,332 C,0,118346,118346,255,128,192 S,0,118346,118346,0.5 F,0,118346,118846,1,0
Sprite,Background,Centre,"sb/glow.png",505,323 C,0,118365,118365,255,128,192 S,0,118365,118365,0.5 F,0,118365,118865,1,0
Sprite,Background,Centre,"sb/glow.png",505,315 C,0,118384,118384,255,128,192 S,0,118384,118384,0.5 F,0,118384,118884,1,0
Sprite,Background,Centre,"sb/glow.png",505,306 C,0,118402,118402,255,128,192 S,0,118402,118402,0.5 F,0,118402,118902,1,0
Sprite,Background,Centre,"sb/glow.png",506,297 C,0,118421,118421,255,128,192 S,0,118421,118421,0.5 F,0,118421,118921,1,0
Sprite,Background,Centre,"sb/glow.png",506,288 C,0,118440,118440,255,128,192 S,0,118440,118440,0.5 F,0,118440,118940,1,0
Sprite,Background,Centre,"sb/glow.png",506,280 C,0,118459,118459,255,128,192 S,0,118459,118459,0.5 F,0,118459,118959,1,0
Sprite,Background,Centre,"sb/glow.png",507,271 C,0,118477,118477,255,128,192 S,0,118477,118477,0.5 F,0,118477,118977,1,0
Sprite,Background,Centre,"sb/glow.png",507,262 C,0,118496,118496,255,128,192 S,0,118496,118496,0.5 F,0,118496,118996,1,0
Sprite,Background,Centre,"sb/glow.png",507,253 C,0,118515,118515,255,128,192 S,0,118515,118515,0.5 F,0,118515,119015,1,0
Sprite,Background,Centre,"sb/glow.png",507,245 C,0,118534,118534,255,128,192 S,0,118534,118534,0.5 F,0,118534,119034,1,0
Sprite,Background,Centre,"sb/glow.png",499,229 C,0,118552,118552,255,128,192 S,0,118552,118552,0.5 F,0,118552,119052,1,0
Sprite,Background,Centre,"sb/glow.png",491,214 C,0,118571,118571,255,128,192 S,0,118571,118571,0.5 F,0,118571,119071,1,0
Sprite,Background,Centre,"sb/glow.png",483,200 C,0,118590,118590,255,128,192 S,0,118590,118590,0.5 F,0,118590,119090,1,0
Sprite,Background,Centre,"sb/glow.png",476,188 C,0,118609,118609,255,128,192 S,0,118609,118609,0.5 F,0,118609,119109,1,0
Sprite,Background,Centre,"sb/glow.png",470,178 C,0,118627,118627,255,128,192 S,0,118627,118627,0.5 F,0,118627,119127,1,0
Sprite,Background,Centre,"sb/glow.png",466,170 C,0,118646,118646,255,128,192 S,0,118646,118646,0.5 F,0,118646,119146,1,0
Sprite,Background,Centre,"sb/glow.png",463,166 C,0,118665,118665,255,128,192 S,0,118665,118665,0.5 F,0,118665,119165,1,0
Sprite,Background,Centre,"sb/glow.png",462,164 C,0,118684,118684,255,128,192 S,0,118684,118684,0.5 F,0,118684,119184,1,0
Sprite,Background,Centre,"sb/glow.png",467,148 C,0,118702,118702,255,128,192 S,0,118702,118702,0.5 F,0,118702,119202,1,0
Sprite,Background,Centre,"sb/glow.png",472,131 C,0,118721,118721,255,128,192 S,0,118721,118721,0.5 F,0,118721,119221,1,0
Sprite,Background,Centre,"sb/glow.png",477,115 C,0,118740,118740,255,128,192 S,0,118740,118740,0.5 F,0,118740,119240,1,0
Sprite,Background,Centre,"sb/glow.png",482,102 C,0,118759,118759,255,128,192 S,0,118759,118759,0.5 F,0,118759,119259,1,0
Sprite,Background,Centre,"sb/glow.png",485,91 C,0,118777,118777,255,128,192 S,0,118777,118777,0.5 F,0,118777,119277,1,0
Sprite,Background,Centre,"sb/glow.png",488,82 C,0,118796,118796,255,128,192 S,0,118796,118796,0.5 F,0,118796,119296,1,0
Sprite,Background,Centre,"sb/glow.png",489,77 C,0,118815,118815,255,128,192 S,0,118815,118815,0.5 F,0,118815,119315,1,0
Sprite,Background,Centre,"sb/glow.png",490,75 C,0,118834,118834,255,128,192 S,0,118834,118834,0.5 F,0,118834,119334,1,0
Sprite,Background,Centre,"sb/glow.png",482,76 C,0,118852,118852,255,0,128 S,0,118852,118852,0.5 F,0,118852,119352,1,0
Sprite,Background,Centre,"sb/glow.png",473,77 C,0,118871,118871,255,0,128 S,0,118871,118871,0.5 F,0,118871,119371,1,0
Sprite,Background,Centre,"sb/glow.png",464,77 C,0,118890,118890,255,0,128 S,0,118890,118890,0.5 F,0,118890,119390,1,0
Sprite,Background,Centre,"sb/glow.png",456,78 C,0,118909,118909,255,0,128 S,0,118909,118909,0.5 F,0,118909,119409,1,0
Sprite,Background,Centre,"sb/glow.png",447,79 C,0,118927,118927,255,0,128 S,0,118927,118927,0.5 F,0,118927,119427,1,0
Sprite,Background,Centre,"sb/glow.png",438,80 C,0,118946,118946,255,0,128 S,0,118946,118946,0.5 F,0,118946,119446,1,0
Sprite,Background,Centre,"sb/glow.png",429,81 C,0,118965,118965,255,0,128 S,0,118965,118965,0.5 F,0,118965,119465,1,0
Sprite,Background,Centre,"sb/glow.png",421,82 C,0,118984,118984,255,0,128 S,0,118984,118984,0.5 F,0,118984,119484,1,0
Sprite,Background,Centre,"sb/glow.png",406,91 C,0,119002,119002,255,0,128 S,0,119002,119002,0.5 F,0,119002,119502,1,0
Sprite,Background,Centre,"sb/glow.png",391,100 C,0,119021,119021,255,0,128 S,0,119021,119021,0.5 F,0,119021,119521,1,0
Sprite,Background,Centre,"sb/glow.png",377,109 C,0,119040,119040,255,0,128 S,0,119040,119040,0.5 F,0,119040,119540,1,0
Sprite,Background,Centre,"sb/glow.png",366,116 C,0,119059,119059,255,0,128 S,0,119059,119059,0.5 F,0,119059,119559,1,0
Sprite,Background,Centre,"sb/glow.png",356,122 C,0,119077,119077,255,0,128 S,0,119077,119077,0.5 F,0,119077,119577,1,0
Sprite,Background,Centre,"sb/glow.png",348,127 C,0,119096,119096,255,0,128 S,0,119096,119096,0.5 F,0,119096,119596,1,0
Sprite,Background,Centre,"sb/glow.png",344,130 C,0,119115,119115,255,0,128 S,0,119115,119115,0.5 F,0,119115,119615,1,0
Sprite,Background,Centre,"sb/glow.png",342,131 C,0,119134,119134,255,0,128 S,0,119134,119134,0.5 F,0,119134,119634,1,0
Sprite,Background,Centre,"sb/glow.png",334,130 C,0,119152,119152,255,0,128 S,0,119152,119152,0.5 F,0,119152,119652,1,0
Sprite,Background,Centre,"sb/glow.png",325,129 C,0,119171,119171,255,0,128 S,0,119171,119171,0.5 F,0,119171,119671,1,0
Sprite,Background,Centre,"sb/glow.png",316,128 C,0,119190,119190,255,0,128 S,0,119190,119190,0.5 F,0,119190,119690,1,0
Sprite,Background,Centre,"sb/glow.png",308,128 C,0,119209,119209,255,0,128 S,0,119209,119209,0.5 F,0,119209,119709,1,0
Sprite,Background,Centre,"sb/glow.png",299,127 C,0,119227,119227,255,0,128 S,0,119227,119227,0.5 F,0,119227,119727,1,0
Sprite,Background,Centre,"sb/glow.png",290,126 C,0,119246,119246,255,0,128 S,0,119246,119246,0.5 F,0,119246,119746,1,0
Sprite,Background,Centre,"sb/glow.png",282,125 C,0,119265,119265,255,0,128 S,0,119265,119265,0.5 F,0,119265,119765,1,0
Sprite,Background,Centre,"sb/glow.png",273,124 C,0,119284,119284,255,0,128 S,0,119284,119284,0.5 F,0,119284,119784,1,0
Sprite,Background,Centre,"sb/glow.png",261,112 C,0,119302,119302,255,0,128 S,0,119302,119302,0.5 F,0,119302,119802,1,0
Sprite,Background,Centre,"sb/glow.png",249,99 C,0,119321,119321,255,0,128 S,0,119321,119321,0.5 F,0,119321,119821,1,0
Sprite,Background,Centre,"sb/glow.png",238,88 C,0,119340,119340,255,0,128 S,0,119340,119340,0.5 F,0,119340,119840,1,0
Sprite,Background,Centre,"sb/glow.png",228,78 C,0,119359,119359,255,0,128 S,0,119359,119359,0.5 F,0,119359,119859,1,0
Sprite,Background,Centre,"sb/glow.png",220,70 C,0,119377,119377,255,0,128 S,0,119377,119377,0.5 F,0,119377,119877,1,0
Sprite,Background,Centre,"sb/glow.png",214,63 C,0,119396,119396,255,0,128 S,0,119396,119396,0.5 F,0,119396,119896,1,0
Sprite,Background,Centre,"sb/glow.png",210,59 C,0,119415,119415,255,0,128 S,0,119415,119415,0.5 F,0,119415,119915,1,0
Sprite,Background,Centre,"sb/glow.png",209,58 C,0,119434,119434,255,0,128 S,0,119434,119434,0.5 F,0,119434,119934,1,0
Sprite,Background,Centre,"sb/glow.png",203,64 C,0,119452,119452,255,0,128 S,0,119452,119452,0.5 F,0,119452,119952,1,0
Sprite,Background,Centre,"sb/glow.png",198,71 C,0,119471,119471,255,0,128 S,0,119471,119471,0.5 F,0,119471,119971,1,0
Sprite,Background,Centre,"sb/glow.png",193,78 C,0,119490,119490,255,0,128 S,0,119490,119490,0.5 F,0,119490,119990,1,0
Sprite,Background,Centre,"sb/glow.png",189,86 C,0,119509,119509,255,0,128 S,0,119509,119509,0.5 F,0,119509,120009,1,0
Sprite,Background,Centre,"sb/glow.png",186,94 C,0,119527,119527,255,0,128 S,0,119527,119527,0.5 F,0,119527,120027,1,0
Sprite,Background,Centre,"sb/glow.png",183,102 C,0,119546,119546,255,0,128 S,0,119546,119546,0.5 F,0,119546,120046,1,0
Sprite,Background,Centre,"sb/glow.png",181,111 C,0,119565,119565,255,0,128 S,0,119565,119565,0.5 F,0,119565,120065,1,0
Sprite,Background,Centre,"sb/glow.png",181,119 C,0,119584,119584,255,0,128 S,0,119584,119584,0.5 F,0,119584,120084,1,0
Sprite,Background,Centre,"sb/glow.png",181,128 C,0,119602,119602,255,0,128 S,0,119602,119602,0.5 F,0,119602,120102,1,0
Sprite,Background,Centre,"sb/glow.png",181,137 C,0,119621,119621,255,0,128 S,0,119621,119621,0.5 F,0,119621,120121,1,0
Sprite,Background,Centre,"sb/glow.png",183,145 C,0,119640,119640,255,0,128 S,0,119640,119640,0.5 F,0,119640,120140,1,0
Sprite,Background,Centre,"sb/glow.png",186,154 C,0,119659,119659,255,0,128 S,0,119659,119659,0.5 F,0,119659,120159,1,0
Sprite,Background,Centre,"sb/glow.png",189,162 C,0,119677,119677,255,0,128 S,0,119677,119677,0.5 F,0,119677,120177,1,0
Sprite,Background,Centre,"sb/glow.png",193,170 C,0,119696,119696,255,0,128 S,0,119696,119696,0.5 F,0,119696,120196,1,0
Sprite,Background,Centre,"sb/glow.png",198,177 C,0,119715,119715,255,0,128 S,0,119715,119715,0.5 F,0,119715,120215,1,0
Sprite,Background,Centre,"sb/glow.png",203,184 C,0,119734,119734,255,0,128 S,0,119734,119734,0.5 F,0,119734,120234,1,0
Sprite,Background,Centre,"sb/glow.png",215,197 C,0,119752,119752,255,0,128 S,0,119752,119752,0.5 F,0,119752,120252,1,0
Sprite,Background,Centre,"sb/glow.png",226,210 C,0,119771,119771,255,0,128 S,0,119771,119771,0.5 F,0,119771,120271,1,0
Sprite,Background,Centre,"sb/glow.png",237,222 C,0,119790,119790,255,0,128 S,0,119790,119790,0.5 F,0,119790,120290,1,0
Sprite,Background,Centre,"sb/glow.png",246,232 C,0,119809,119809,255,0,128 S,0,119809,119809,0.5 F,0,119809,120309,1,0
Sprite,Background,Centre,"sb/glow.png",253,241 C,0,119827,119827,255,0,128 S,0,119827,119827,0.5 F,0,119827,120327,1,0
Sprite,Background,Centre,"sb/glow.png",259,247 C,0,119846,119846,255,0,128 S,0,119846,119846,0.5 F,0,119846,120346,1,0
Sprite,Background,Centre,"sb/glow.png",263,252 C,0,119865,119865,255,0,128 S,0,119865,119865,0.5 F,0,119865,120365,1,0
Sprite,Background,Centre,"sb/glow.png",264,253 C,0,119884,119884,255,0,128 S,0,119884,119884,0.5 F,0,119884,120384,1,0
Sprite,Background,Centre,"sb/glow.png",247,256 C,0,119902,119902,255,0,128 S,0,119902,119902,0.5 F,0,119902,120402,1,0
Sprite,Background,Centre,"sb/glow.png",230,260 C,0,119921,119921,255,0,128 S,0,119921,119921,0.5 F,0,119921,120421,1,0
Sprite,Background,Centre,"sb/glow.png",214,263 C,0,119940,119940,255,0,128 S,0,119940,119940,0.5 F,0,119940,120440,1,0
Sprite,Background,Centre,"sb/glow.png",200,266 C,0,119959,119959,255,0,128 S,0,119959,119959,0.5 F,0,119959,120459,1,0
Sprite,Background,Centre,"sb/glow.png",189,268 C,0,119977,119977,255,0,128 S,0,119977,119977,0.5 F,0,119977,120477,1,0
Sprite,Background,Centre,"sb/glow.png",180,270 C,0,119996,119996,255,0,128 S,0,119996,119996,0.5 F,0,119996,120496,1,0
Sprite,Background,Centre,"sb/glow.png",175,271 C,0,120015,120015,255,0,128 S,0,120015,120015,0.5 F,0,120015,120515,1,0
Sprite,Background,Centre,"sb/glow.png",173,271 C,0,120034,120034,255,0,128 S,0,120034,120034,0.5 F,0,120034,120534,1,0
Sprite,Background,Centre,"sb/glow.png",165,270 C,0,120052,120052,255,88,102 S,0,120052,120052,0.5 F,0,120052,120552,1,0
Sprite,Background,Centre,"sb/glow.png",156,270 C,0,120071,120071,255,88,102 S,0,120071,120071,0.5 F,0,120071,120571,1,0
Sprite,Background,Centre,"sb/glow.png",147,269 C,0,120090,120090,255,88,102 S,0,120090,120090,0.5 F,0,120090,120590,1,0
Sprite,Background,Centre,"sb/glow.png",139,268 C,0,120109,120109,255,88,102 S,0,120109,120109,0.5 F,0,120109,120609,1,0
Sprite,Background,Centre,"sb/glow.png",130,267 C,0,120127,120127,255,88,102 S,0,120127,120127,0.5 F,0,120127,120627,1,0
Sprite,Background,Centre,"sb/glow.png",121,266 C,0,120146,120146,255,88,102 S,0,120146,120146,0.5 F,0,120146,120646,1,0
Sprite,Background,Centre,"sb/glow.png",112,266 C,0,120165,120165,255,88,102 S,0,120165,120165,0.5 F,0,120165,120665,1,0
Sprite,Background,Centre,"sb/glow.png",104,265 C,0,120184,120184,255,88,102 S,0,120184,120184,0.5 F,0,120184,120684,1,0
Sprite,Background,Centre,"sb/glow.png",102,282 C,0,120202,120202,255,88,102 S,0,120202,120202,0.5 F,0,120202,120702,1,0
Sprite,Background,Centre,"sb/glow.png",100,299 C,0,120221,120221,255,88,102 S,0,120221,120221,0.5 F,0,120221,120721,1,0
Sprite,Background,Centre,"sb/glow.png",98,315 C,0,120240,120240,255,88,102 S,0,120240,120240,0.5 F,0,120240,120740,1,0
Sprite,Background,Centre,"sb/glow.png",97,329 C,0,120259,120259,255,88,102 S,0,120259,120259,0.5 F,0,120259,120759,1,0
Sprite,Background,Centre,"sb/glow.png",96,341 C,0,120277,120277,255,88,102 S,0,120277,120277,0.5 F,0,120277,120777,1,0
Sprite,Background,Centre,"sb/glow.png",95,350 C,0,120296,120296,255,88,102 S,0,120296,120296,0.5 F,0,120296,120796,1,0
Sprite,Background,Centre,"sb/glow.png",94,355 C,0,120315,120315,255,88,102 S,0,120315,120315,0.5 F,0,120315,120815,1,0
Sprite,Background,Centre,"sb/glow.png",94,357 C,0,120334,120334,255,88,102 S,0,120334,120334,0.5 F,0,120334,120834,1,0
Sprite,Background,Centre,"sb/glow.png",102,358 C,0,120352,120352,255,88,102 S,0,120352,120352,0.5 F,0,120352,120852,1,0
Sprite,Background,Centre,"sb/glow.png",111,358 C,0,120371,120371,255,88,102 S,0,120371,120371,0.5 F,0,120371,120871,1,0
Sprite,Background,Centre,"sb/glow.png",120,359 C,0,120390,120390,255,88,102 S,0,120390,120390,0.5 F,0,120390,120890,1,0
Sprite,Background,Centre,"sb/glow.png",128,360 C,0,120409,120409,255,88,102 S,0,120409,120409,0.5 F,0,120409,120909,1,0
Sprite,Background,Centre,"sb/glow.png",137,361 C,0,120427,120427,255,88,102 S,0,120427,120427,0.5 F,0,120427,120927,1,0
Sprite,Background,Centre,"sb/glow.png",146,362 C,0,120446,120446,255,88,102 S,0,120446,120446,0.5 F,0,120446,120946,1,0
Sprite,Background,Centre,"sb/glow.png",155,362 C,0,120465,120465,255,88,102 S,0,120465,120465,0.5 F,0,120465,120965,1,0
Sprite,Background,Centre,"sb/glow.png",163,363 C,0,120484,120484,255,88,102 S,0,120484,120484,0.5 F,0,120484,120984,1,0
Sprite,Background,Centre,"sb/glow.png",177,373 C,0,120502,120502,255,88,102 S,0,120502,120502,0.5 F,0,120502,121002,1,0
Sprite,Background,Centre,"sb/glow.png",192,383 C,0,120521,120521,255,88,102 S,0,120521,120521,0.5 F,0,120521,121021,1,0
Sprite,Background,Centre,"sb/glow.png",205,392 C,0,120540,120540,255,88,102 S,0,120540,120540,0.5 F,0,120540,121040,1,0
Sprite,Background,Centre,"sb/glow.png",217,400 C,0,120559,120559,255,88,102 S,0,120559,120559,0.5 F,0,120559,121059,1,0
Sprite,Background,Centre,"sb/glow.png",227,407 C,0,120577,120577,255,88,102 S,0,120577,120577,0.5 F,0,120577,121077,1,0
Sprite,Background,Centre,"sb/glow.png",234,412 C,0,120596,120596,255,88,102 S,0,120596,120596,0.5 F,0,120596,121096,1,0
Sprite,Background,Centre,"sb/glow.png",238,415 C,0,120615,120615,255,88,102 S,0,120615,120615,0.5 F,0,120615,121115,1,0
Sprite,Background,Centre,"sb/glow.png",240,416 C,0,120634,120634,255,88,102 S,0,120634,120634,0.5 F,0,120634,121134,1,0
Sprite,Background,Centre,"sb/glow.png",248,415 C,0,120652,120652,255,88,102 S,0,120652,120652,0.5 F,0,120652,121152,1,0
Sprite,Background,Centre,"sb/glow.png",257,414 C,0,120671,120671,255,88,102 S,0,120671,120671,0.5 F,0,120671,121171,1,0
Sprite,Background,Centre,"sb/glow.png",266,414 C,0,120690,120690,255,88,102 S,0,120690,120690,0.5 F,0,120690,121190,1,0
Sprite,Background,Centre,"sb/glow.png",274,413 C,0,120709,120709,255,88,102 S,0,120709,120709,0.5 F,0,120709,121209,1,0
Sprite,Background,Centre,"sb/glow.png",283,412 C,0,120727,120727,255,88,102 S,0,120727,120727,0.5 F,0,120727,121227,1,0
Sprite,Background,Centre,"sb/glow.png",292,411 C,0,120746,120746,255,88,102 S,0,120746,120746,0.5 F,0,120746,121246,1,0
Sprite,Background,Centre,"sb/glow.png",301,410 C,0,120765,120765,255,88,102 S,0,120765,120765,0.5 F,0,120765,121265,1,0
Sprite,Background,Centre,"sb/glow.png",309,410 C,0,120784,120784,255,88,102 S,0,120784,120784,0.5 F,0,120784,121284,1,0
Sprite,Background,Centre,"sb/glow.png",318,409 C,0,120802,120802,255,88,102 S,0,120802,120802,0.5 F,0,120802,121302,1,0
Sprite,Background,Centre,"sb/glow.png",327,408 C,0,120821,120821,255,88,102 S,0,120821,120821,0.5 F,0,120821,121321,1,0
Sprite,Background,Centre,"sb/glow.png",335,407 C,0,120840,120840,255,88,102 S,0,120840,120840,0.5 F,0,120840,121340,1,0
Sprite,Background,Centre,"sb/glow.png",344,406 C,0,120859,120859,255,88,102 S,0,120859,120859,0.5 F,0,120859,121359,1,0
Sprite,Background,Centre,"sb/glow.png",353,406 C,0,120877,120877,255,88,102 S,0,120877,120877,0.5 F,0,120877,121377,1,0
Sprite,Background,Centre,"sb/glow.png",362,405 C,0,120896,120896,255,88,102 S,0,120896,120896,0.5 F,0,120896,121396,1,0
Sprite,Background,Centre,"sb/glow.png",370,404 C,0,120915,120915,255,88,102 S,0,120915,120915,0.5 F,0,120915,121415,1,0
Sprite,Background,Centre,"sb/glow.png",379,403 C,0,120934,120934,255,88,102 S,0,120934,120934,0.5 F,0,120934,121434,1,0
Sprite,Background,Centre,"sb/glow.png",396,407 C,0,120952,120952,255,88,102 S,0,120952,120952,0.5 F,0,120952,121452,1,0
Sprite,Background,Centre,"sb/glow.png",413,410 C,0,120971,120971,255,88,102 S,0,120971,120971,0.5 F,0,120971,121471,1,0
Sprite,Background,Centre,"sb/glow.png",428,413 C,0,120990,120990,255,88,102 S,0,120990,120990,0.5 F,0,120990,121490,1,0
Sprite,Background,Centre,"sb/glow.png",442,416 C,0,121009,121009,255,88,102 S,0,121009,121009,0.5 F,0,121009,121509,1,0
Sprite,Background,Centre,"sb/glow.png",453,419 C,0,121027,121027,255,88,102 S,0,121027,121027,0.5 F,0,121027,121527,1,0
Sprite,Background,Centre,"sb/glow.png",462,420 C,0,121046,121046,255,88,102 S,0,121046,121046,0.5 F,0,121046,121546,1,0
Sprite,Background,Centre,"sb/glow.png",467,422 C,0,121065,121065,255,88,102 S,0,121065,121065,0.5 F,0,121065,121565,1,0
Sprite,Background,Centre,"sb/glow.png",469,422 C,0,121084,121084,255,88,102 S,0,121084,121084,0.5 F,0,121084,121584,1,0
Sprite,Background,Centre,"sb/glow.png",464,406 C,0,121102,121102,255,88,102 S,0,121102,121102,0.5 F,0,121102,121602,1,0
Sprite,Background,Centre,"sb/glow.png",458,390 C,0,121121,121121,255,88,102 S,0,121121,121121,0.5 F,0,121121,121621,1,0
Sprite,Background,Centre,"sb/glow.png",453,374 C,0,121140,121140,255,88,102 S,0,121140,121140,0.5 F,0,121140,121640,1,0
Sprite,Background,Centre,"sb/glow.png",449,361 C,0,121159,121159,255,88,102 S,0,121159,121159,0.5 F,0,121159,121659,1,0
Sprite,Background,Centre,"sb/glow.png",445,350 C,0,121177,121177,255,88,102 S,0,121177,121177,0.5 F,0,121177,121677,1,0
Sprite,Background,Centre,"sb/glow.png",442,342 C,0,121196,121196,255,88,102 S,0,121196,121196,0.5 F,0,121196,121696,1,0
Sprite,Background,Centre,"sb/glow.png",441,337 C,0,121215,121215,255,88,102 S,0,121215,121215,0.5 F,0,121215,121715,1,0
Sprite,Background,Centre,"sb/glow.png",440,335 C,0,121234,121234,255,88,102 S,0,121234,121234,0.5 F,0,121234,121734,1,0
Sprite,Background,Centre,"sb/glow.png",438,327 C,0,121252,121252,255,0,255 S,0,121252,121252,0.5 F,0,121252,121752,1,0
Sprite,Background,Centre,"sb/glow.png",437,318 C,0,121271,121271,255,0,255 S,0,121271,121271,0.5 F,0,121271,121771,1,0
Sprite,Background,Centre,"sb/glow.png",436,310 C,0,121290,121290,255,0,255 S,0,121290,121290,0.5 F,0,121290,121790,1,0
Sprite,Background,Centre,"sb/glow.png",437,301 C,0,121309,121309,255,0,255 S,0,121309,121309,0.5 F,0,121309,121809,1,0
Sprite,Background,Centre,"sb/glow.png",438,292 C,0,121327,121327,255,0,255 S,0,121327,121327,0.5 F,0,121327,121827,1,0
Sprite,Background,Centre,"sb/glow.png",440,284 C,0,121346,121346,255,0,255 S,0,121346,121346,0.5 F,0,121346,121846,1,0
Sprite,Background,Centre,"sb/glow.png",443,276 C,0,121365,121365,255,0,255 S,0,121365,121365,0.5 F,0,121365,121865,1,0
Sprite,Background,Centre,"sb/glow.png",447,268 C,0,121384,121384,255,0,255 S,0,121384,121384,0.5 F,0,121384,121884,1,0
Sprite,Background,Centre,"sb/glow.png",455,252 C,0,121402,121402,255,0,255 S,0,121402,121402,0.5 F,0,121402,121902,1,0
Sprite,Background,Centre,"sb/glow.png",463,237 C,0,121421,121421,255,0,255 S,0,121421,121421,0.5 F,0,121421,121921,1,0
Sprite,Background,Centre,"sb/glow.png",470,222 C,0,121440,121440,255,0,255 S,0,121440,121440,0.5 F,0,121440,121940,1,0
Sprite,Background,Centre,"sb/glow.png",476,210 C,0,121459,121459,255,0,255 S,0,121459,121459,0.5 F,0,121459,121959,1,0
Sprite,Background,Centre,"sb/glow.png",482,199 C,0,121477,121477,255,0,255 S,0,121477,121477,0.5 F,0,121477,121977,1,0
Sprite,Background,Centre,"sb/glow.png",486,192 C,0,121496,121496,255,0,255 S,0,121496,121496,0.5 F,0,121496,121996,1,0
Sprite,Background,Centre,"sb/glow.png",488,187 C,0,121515,121515,255,0,255 S,0,121515,121515,0.5 F,0,121515,122015,1,0
Sprite,Background,Centre,"sb/glow.png",489,185 C,0,121534,121534,255,0,255 S,0,121534,121534,0.5 F,0,121534,122034,1,0
Sprite,Background,Centre,"sb/glow.png",492,177 C,0,121552,121552,255,0,255 S,0,121552,121552,0.5 F,0,121552,122052,1,0
Sprite,Background,Centre,"sb/glow.png",495,169 C,0,121571,121571,255,0,255 S,0,121571,121571,0.5 F,0,121571,122071,1,0
Sprite,Background,Centre,"sb/glow.png",497,160 C,0,121590,121590,255,0,255 S,0,121590,121590,0.5 F,0,121590,122090,1,0
Sprite,Background,Centre,"sb/glow.png",498,152 C,0,121609,121609,255,0,255 S,0,121609,121609,0.5 F,0,121609,122109,1,0
Sprite,Background,Centre,"sb/glow.png",498,143 C,0,121627,121627,255,0,255 S,0,121627,121627,0.5 F,0,121627,122127,1,0
Sprite,Background,Centre,"sb/glow.png",498,134 C,0,121646,121646,255,0,255 S,0,121646,121646,0.5 F,0,121646,122146,1,0
Sprite,Background,Centre,"sb/glow.png",497,126 C,0,121665,121665,255,0,255 S,0,121665,121665,0.5 F,0,121665,122165,1,0
Sprite,Background,Centre,"sb/glow.png",495,117 C,0,121684,121684,255,0,255 S,0,121684,121684,0.5 F,0,121684,122184,1,0
Sprite,Background,Centre,"sb/glow.png",479,122 C,0,121702,121702,255,0,255 S,0,121702,121702,0.5 F,0,121702,122202,1,0
Sprite,Background,Centre,"sb/glow.png",462,127 C,0,121721,121721,255,0,255 S,0,121721,121721,0.5 F,0,121721,122221,1,0
Sprite,Background,Centre,"sb/glow.png",447,131 C,0,121740,121740,255,0,255 S,0,121740,121740,0.5 F,0,121740,122240,1,0
Sprite,Background,Centre,"sb/glow.png",433,135 C,0,121759,121759,255,0,255 S,0,121759,121759,0.5 F,0,121759,122259,1,0
Sprite,Background,Centre,"sb/glow.png",422,138 C,0,121777,121777,255,0,255 S,0,121777,121777,0.5 F,0,121777,122277,1,0
Sprite,Background,Centre,"sb/glow.png",414,141 C,0,121796,121796,255,0,255 S,0,121796,121796,0.5 F,0,121796,122296,1,0
Sprite,Background,Centre,"sb/glow.png",409,142 C,0,121815,121815,255,0,255 S,0,121815,121815,0.5 F,0,121815,122315,1,0
Sprite,Background,Centre,"sb/glow.png",407,143 C,0,121834,121834,255,0,255 S,0,121834,121834,0.5 F,0,121834,122334,1,0
Sprite,Background,Centre,"sb/glow.png",399,142 C,0,121852,121852,255,0,255 S,0,121852,121852,0.5 F,0,121852,122352,1,0
Sprite,Background,Centre,"sb/glow.png",390,142 C,0,121871,121871,255,0,255 S,0,121871,121871,0.5 F,0,121871,122371,1,0
Sprite,Background,Centre,"sb/glow.png",381,141 C,0,121890,121890,255,0,255 S,0,121890,121890,0.5 F,0,121890,122390,1,0
Sprite,Background,Centre,"sb/glow.png",373,140 C,0,121909,121909,255,0,255 S,0,121909,121909,0.5 F,0,121909,122409,1,0
Sprite,Background,Centre,"sb/glow.png",364,140 C,0,121927,121927,255,0,255 S,0,121927,121927,0.5 F,0,121927,122427,1,0
Sprite,Background,Centre,"sb/glow.png",355,139 C,0,121946,121946,255,0,255 S,0,121946,121946,0.5 F,0,121946,122446,1,0
Sprite,Background,Centre,"sb/glow.png",346,139 C,0,121965,121965,255,0,255 S,0,121965,121965,0.5 F,0,121965,122465,1,0
Sprite,Background,Centre,"sb/glow.png",338,138 C,0,121984,121984,255,0,255 S,0,121984,121984,0.5 F,0,121984,122484,1,0
Sprite,Background,Centre,"sb/glow.png",323,129 C,0,122002,122002,255,0,255 S,0,122002,122002,0.5 F,0,122002,122502,1,0
Sprite,Background,Centre,"sb/glow.png",308,119 C,0,122021,122021,255,0,255 S,0,122021,122021,0.5 F,0,122021,122521,1,0
Sprite,Background,Centre,"sb/glow.png",295,111 C,0,122040,122040,255,0,255 S,0,122040,122040,0.5 F,0,122040,122540,1,0
Sprite,Background,Centre,"sb/glow.png",283,103 C,0,122059,122059,255,0,255 S,0,122059,122059,0.5 F,0,122059,122559,1,0
Sprite,Background,Centre,"sb/glow.png",273,97 C,0,122077,122077,255,0,255 S,0,122077,122077,0.5 F,0,122077,122577,1,0
Sprite,Background,Centre,"sb/glow.png",266,92 C,0,122096,122096,255,0,255 S,0,122096,122096,0.5 F,0,122096,122596,1,0
Sprite,Background,Centre,"sb/glow.png",262,89 C,0,122115,122115,255,0,255 S,0,122115,122115,0.5 F,0,122115,122615,1,0
Sprite,Background,Centre,"sb/glow.png",260,88 C,0,122134,122134,255,0,255 S,0,122134,122134,0.5 F,0,122134,122634,1,0
Sprite,Background,Centre,"sb/glow.png",252,89 C,0,122152,122152,255,0,255 S,0,122152,122152,0.5 F,0,122152,122652,1,0
Sprite,Background,Centre,"sb/glow.png",243,89 C,0,122171,122171,255,0,255 S,0,122171,122171,0.5 F,0,122171,122671,1,0
Sprite,Background,Centre,"sb/glow.png",234,90 C,0,122190,122190,255,0,255 S,0,122190,122190,0.5 F,0,122190,122690,1,0
Sprite,Background,Centre,"sb/glow.png",226,90 C,0,122209,122209,255,0,255 S,0,122209,122209,0.5 F,0,122209,122709,1,0
Sprite,Background,Centre,"sb/glow.png",217,91 C,0,122227,122227,255,0,255 S,0,122227,122227,0.5 F,0,122227,122727,1,0
Sprite,Background,Centre,"sb/glow.png",208,92 C,0,122246,122246,255,0,255 S,0,122246,122246,0.5 F,0,122246,122746,1,0
Sprite,Background,Centre,"sb/glow.png",199,92 C,0,122265,122265,255,0,255 S,0,122265,122265,0.5 F,0,122265,122765,1,0
Sprite,Background,Centre,"sb/glow.png",191,93 C,0,122284,122284,255,0,255 S,0,122284,122284,0.5 F,0,122284,122784,1,0
Sprite,Background,Centre,"sb/glow.png",172,105 C,0,122302,122302,255,0,255 S,0,122302,122302,0.5 F,0,122302,122802,1,0
Sprite,Background,Centre,"sb/glow.png",154,116 C,0,122321,122321,255,0,255 S,0,122321,122321,0.5 F,0,122321,122821,1,0
Sprite,Background,Centre,"sb/glow.png",138,127 C,0,122340,122340,255,0,255 S,0,122340,122340,0.5 F,0,122340,122840,1,0
Sprite,Background,Centre,"sb/glow.png",123,137 C,0,122359,122359,255,0,255 S,0,122359,122359,0.5 F,0,122359,122859,1,0
Sprite,Background,Centre,"sb/glow.png",111,145 C,0,122377,122377,255,0,255 S,0,122377,122377,0.5 F,0,122377,122877,1,0
Sprite,Background,Centre,"sb/glow.png",102,151 C,0,122396,122396,255,0,255 S,0,122396,122396,0.5 F,0,122396,122896,1,0
Sprite,Background,Centre,"sb/glow.png",96,155 C,0,122415,122415,255,0,255 S,0,122415,122415,0.5 F,0,122415,122915,1,0
Sprite,Background,Centre,"sb/glow.png",94,156 C,0,122434,122434,255,0,255 S,0,122434,122434,0.5 F,0,122434,122934,1,0
Sprite,Background,Centre,"sb/glow.png",95,148 C,0,122452,122452,255,128,192 S,0,122452,122452,0.5 F,0,122452,122952,1,0
Sprite,Background,Centre,"sb/glow.png",95,139 C,0,122471,122471,255,128,192 S,0,122471,122471,0.5 F,0,122471,122971,1,0
Sprite,Background,Centre,"sb/glow.png",96,130 C,0,122490,122490,255,128,192 S,0,122490,122490,0.5 F,0,122490,122990,1,0
Sprite,Background,Centre,"sb/glow.png",96,122 C,0,122509,122509,255,128,192 S,0,122509,122509,0.5 F,0,122509,123009,1,0
Sprite,Background,Centre,"sb/glow.png",97,113 C,0,122527,122527,255,128,192 S,0,122527,122527,0.5 F,0,122527,123027,1,0
Sprite,Background,Centre,"sb/glow.png",98,104 C,0,122546,122546,255,128,192 S,0,122546,122546,0.5 F,0,122546,123046,1,0
Sprite,Background,Centre,"sb/glow.png",98,95 C,0,122565,122565,255,128,192 S,0,122565,122565,0.5 F,0,122565,123065,1,0
Sprite,Background,Centre,"sb/glow.png",99,87 C,0,122584,122584,255,128,192 S,0,122584,122584,0.5 F,0,122584,123084,1,0
Sprite,Background,Centre,"sb/glow.png",116,87 C,0,122602,122602,255,128,192 S,0,122602,122602,0.5 F,0,122602,123102,1,0
Sprite,Background,Centre,"sb/glow.png",133,89 C,0,122621,122621,255,128,192 S,0,122621,122621,0.5 F,0,122621,123121,1,0
Sprite,Background,Centre,"sb/glow.png",149,90 C,0,122640,122640,255,128,192 S,0,122640,122640,0.5 F,0,122640,123140,1,0
Sprite,Background,Centre,"sb/glow.png",163,91 C,0,122659,122659,255,128,192 S,0,122659,122659,0.5 F,0,122659,123159,1,0
Sprite,Background,Centre,"sb/glow.png",174,92 C,0,122677,122677,255,128,192 S,0,122677,122677,0.5 F,0,122677,123177,1,0
Sprite,Background,Centre,"sb/glow.png",183,92 C,0,122696,122696,255,128,192 S,0,122696,122696,0.5 F,0,122696,123196,1,0
Sprite,Background,Centre,"sb/glow.png",188,93 C,0,122715,122715,255,128,192 S,0,122715,122715,0.5 F,0,122715,123215,1,0
Sprite,Background,Centre,"sb/glow.png",190,93 C,0,122734,122734,255,128,192 S,0,122734,122734,0.5 F,0,122734,123234,1,0
Sprite,Background,Centre,"sb/glow.png",189,101 C,0,122752,122752,255,128,192 S,0,122752,122752,0.5 F,0,122752,123252,1,0
Sprite,Background,Centre,"sb/glow.png",189,110 C,0,122771,122771,255,128,192 S,0,122771,122771,0.5 F,0,122771,123271,1,0
Sprite,Background,Centre,"sb/glow.png",188,119 C,0,122790,122790,255,128,192 S,0,122790,122790,0.5 F,0,122790,123290,1,0
Sprite,Background,Centre,"sb/glow.png",187,127 C,0,122809,122809,255,128,192 S,0,122809,122809,0.5 F,0,122809,123309,1,0
Sprite,Background,Centre,"sb/glow.png",186,136 C,0,122827,122827,255,128,192 S,0,122827,122827,0.5 F,0,122827,123327,1,0
Sprite,Background,Centre,"sb/glow.png",185,145 C,0,122846,122846,255,128,192 S,0,122846,122846,0.5 F,0,122846,123346,1,0
Sprite,Background,Centre,"sb/glow.png",185,154 C,0,122865,122865,255,128,192 S,0,122865,122865,0.5 F,0,122865,123365,1,0
Sprite,Background,Centre,"sb/glow.png",184,162 C,0,122884,122884,255,128,192 S,0,122884,122884,0.5 F,0,122884,123384,1,0
Sprite,Background,Centre,"sb/glow.png",175,176 C,0,122902,122902,255,128,192 S,0,122902,122902,0.5 F,0,122902,123402,1,0
Sprite,Background,Centre,"sb/glow.png",165,190 C,0,122921,122921,255,128,192 S,0,122921,122921,0.5 F,0,122921,123421,1,0
Sprite,Background,Centre,"sb/glow.png",156,204 C,0,122940,122940,255,128,192 S,0,122940,122940,0.5 F,0,122940,123440,1,0
Sprite,Background,Centre,"sb/glow.png",148,215 C,0,122959,122959,255,128,192 S,0,122959,122959,0.5 F,0,122959,123459,1,0
Sprite,Background,Centre,"sb/glow.png",142,225 C,0,122977,122977,255,128,192 S,0,122977,122977,0.5 F,0,122977,123477,1,0
Sprite,Background,Centre,"sb/glow.png",137,232 C,0,122996,122996,255,128,192 S,0,122996,122996,0.5 F,0,122996,123496,1,0
Sprite,Background,Centre,"sb/glow.png",134,236 C,0,123015,123015,255,128,192 S,0,123015,123015,0.5 F,0,123015,123515,1,0
Sprite,Background,Centre,"sb/glow.png",133,238 C,0,123034,123034,255,128,192 S,0,123034,123034,0.5 F,0,123034,123534,1,0
Sprite,Background,Centre,"sb/glow.png",129,245 C,0,123052,123052,255,128,192 S,0,123052,123052,0.5 F,0,123052,123552,1,0
Sprite,Background,Centre,"sb/glow.png",124,253 C,0,123071,123071,255,128,192 S,0,123071,123071,0.5 F,0,123071,123571,1,0
Sprite,Background,Centre,"sb/glow.png",120,260 C,0,123090,123090,255,128,192 S,0,123090,123090,0.5 F,0,123090,123590,1,0
Sprite,Background,Centre,"sb/glow.png",115,268 C,0,123109,123109,255,128,192 S,0,123109,123109,0.5 F,0,123109,123609,1,0
Sprite,Background,Centre,"sb/glow.png",111,275 C,0,123127,123127,255,128,192 S,0,123127,123127,0.5 F,0,123127,123627,1,0
Sprite,Background,Centre,"sb/glow.png",110,283 C,0,123146,123146,255,128,192 S,0,123146,123146,0.5 F,0,123146,123646,1,0
Sprite,Background,Centre,"sb/glow.png",110,292 C,0,123165,123165,255,128,192 S,0,123165,123165,0.5 F,0,123165,123665,1,0
Sprite,Background,Centre,"sb/glow.png",111,301 C,0,123184,123184,255,128,192 S,0,123184,123184,0.5 F,0,123184,123684,1,0
Sprite,Background,Centre,"sb/glow.png",112,309 C,0,123202,123202,255,128,192 S,0,123202,123202,0.5 F,0,123202,123702,1,0
Sprite,Background,Centre,"sb/glow.png",113,318 C,0,123221,123221,255,128,192 S,0,123221,123221,0.5 F,0,123221,123721,1,0
Sprite,Background,Centre,"sb/glow.png",114,327 C,0,123240,123240,255,128,192 S,0,123240,123240,0.5 F,0,123240,123740,1,0
Sprite,Background,Centre,"sb/glow.png",115,336 C,0,123259,123259,255,128,192 S,0,123259,123259,0.5 F,0,123259,123759,1,0
Sprite,Background,Centre,"sb/glow.png",116,344 C,0,123277,123277,255,128,192 S,0,123277,123277,0.5 F,0,123277,123777,1,0
Sprite,Background,Centre,"sb/glow.png",117,353 C,0,123296,123296,255,128,192 S,0,123296,123296,0.5 F,0,123296,123796,1,0
Sprite,Background,Centre,"sb/glow.png",118,362 C,0,123315,123315,255,128,192 S,0,123315,123315,0.5 F,0,123315,123815,1,0
Sprite,Background,Centre,"sb/glow.png",119,370 C,0,123334,123334,255,128,192 S,0,123334,123334,0.5 F,0,123334,123834,1,0
Sprite,Background,Centre,"sb/glow.png",133,380 C,0,123352,123352,255,128,192 S,0,123352,123352,0.5 F,0,123352,123852,1,0
Sprite,Background,Centre,"sb/glow.png",148,389 C,0,123371,123371,255,128,192 S,0,123371,123371,0.5 F,0,123371,123871,1,0
Sprite,Background,Centre,"sb/glow.png",161,398 C,0,123390,123390,255,128,192 S,0,123390,123390,0.5 F,0,123390,123890,1,0
Sprite,Background,Centre,"sb/glow.png",173,405 C,0,123409,123409,255,128,192 S,0,123409,123409,0.5 F,0,123409,123909,1,0
Sprite,Background,Centre,"sb/glow.png",183,411 C,0,123427,123427,255,128,192 S,0,123427,123427,0.5 F,0,123427,123927,1,0
Sprite,Background,Centre,"sb/glow.png",190,416 C,0,123446,123446,255,128,192 S,0,123446,123446,0.5 F,0,123446,123946,1,0
Sprite,Background,Centre,"sb/glow.png",194,419 C,0,123465,123465,255,128,192 S,0,123465,123465,0.5 F,0,123465,123965,1,0
Sprite,Background,Centre,"sb/glow.png",196,420 C,0,123484,123484,255,128,192 S,0,123484,123484,0.5 F,0,123484,123984,1,0
Sprite,Background,Centre,"sb/glow.png",211,412 C,0,123502,123502,255,128,192 S,0,123502,123502,0.5 F,0,123502,124002,1,0
Sprite,Background,Centre,"sb/glow.png",227,405 C,0,123521,123521,255,128,192 S,0,123521,123521,0.5 F,0,123521,124021,1,0
Sprite,Background,Centre,"sb/glow.png",241,398 C,0,123540,123540,255,128,192 S,0,123540,123540,0.5 F,0,123540,124040,1,0
Sprite,Background,Centre,"sb/glow.png",253,391 C,0,123559,123559,255,128,192 S,0,123559,123559,0.5 F,0,123559,124059,1,0
Sprite,Background,Centre,"sb/glow.png",264,386 C,0,123577,123577,255,128,192 S,0,123577,123577,0.5 F,0,123577,124077,1,0
Sprite,Background,Centre,"sb/glow.png",271,382 C,0,123596,123596,255,128,192 S,0,123596,123596,0.5 F,0,123596,124096,1,0
Sprite,Background,Centre,"sb/glow.png",276,380 C,0,123615,123615,255,128,192 S,0,123615,123615,0.5 F,0,123615,124115,1,0
Sprite,Background,Centre,"sb/glow.png",278,379 C,0,123634,123634,255,128,192 S,0,123634,123634,0.5 F,0,123634,124134,1,0
Sprite,Background,Centre,"sb/glow.png",286,380 C,0,123652,123652,255,0,128 S,0,123652,123652,0.5 F,0,123652,124152,1,0
Sprite,Background,Centre,"sb/glow.png",295,381 C,0,123671,123671,255,0,128 S,0,123671,123671,0.5 F,0,123671,124171,1,0
Sprite,Background,Centre,"sb/glow.png",304,382 C,0,123690,123690,255,0,128 S,0,123690,123690,0.5 F,0,123690,124190,1,0
Sprite,Background,Centre,"sb/glow.png",312,383 C,0,123709,123709,255,0,128 S,0,123709,123709,0.5 F,0,123709,124209,1,0
Sprite,Background,Centre,"sb/glow.png",321,384 C,0,123727,123727,255,0,128 S,0,123727,123727,0.5 F,0,123727,124227,1,0
Sprite,Background,Centre,"sb/glow.png",330,385 C,0,123746,123746,255,0,128 S,0,123746,123746,0.5 F,0,123746,124246,1,0
Sprite,Background,Centre,"sb/glow.png",338,386 C,0,123765,123765,255,0,128 S,0,123765,123765,0.5 F,0,123765,124265,1,0
Sprite,Background,Centre,"sb/glow.png",347,387 C,0,123784,123784,255,0,128 S,0,123784,123784,0.5 F,0,123784,124284,1,0
Sprite,Background,Centre,"sb/glow.png",355,372 C,0,123802,123802,255,0,128 S,0,123802,123802,0.5 F,0,123802,124302,1,0
Sprite,Background,Centre,"sb/glow.png",362,356 C,0,123821,123821,255,0,128 S,0,123821,123821,0.5 F,0,123821,124321,1,0
Sprite,Background,Centre,"sb/glow.png",369,342 C,0,123840,123840,255,0,128 S,0,123840,123840,0.5 F,0,123840,124340,1,0
Sprite,Background,Centre,"sb/glow.png",375,329 C,0,123859,123859,255,0,128 S,0,123859,123859,0.5 F,0,123859,124359,1,0
Sprite,Background,Centre,"sb/glow.png",380,318 C,0,123877,123877,255,0,128 S,0,123877,123877,0.5 F,0,123877,124377,1,0
Sprite,Background,Centre,"sb/glow.png",384,311 C,0,123896,123896,255,0,128 S,0,123896,123896,0.5 F,0,123896,124396,1,0
Sprite,Background,Centre,"sb/glow.png",386,306 C,0,123915,123915,255,0,128 S,0,123915,123915,0.5 F,0,123915,124415,1,0
Sprite,Background,Centre,"sb/glow.png",387,304 C,0,123934,123934,255,0,128 S,0,123934,123934,0.5 F,0,123934,124434,1,0
Sprite,Background,Centre,"sb/glow.png",395,303 C,0,123952,123952,255,0,128 S,0,123952,123952,0.5 F,0,123952,124452,1,0
Sprite,Background,Centre,"sb/glow.png",404,302 C,0,123971,123971,255,0,128 S,0,123971,123971,0.5 F,0,123971,124471,1,0
Sprite,Background,Centre,"sb/glow.png",413,301 C,0,123990,123990,255,0,128 S,0,123990,123990,0.5 F,0,123990,124490,1,0
Sprite,Background,Centre,"sb/glow.png",421,300 C,0,124009,124009,255,0,128 S,0,124009,124009,0.5 F,0,124009,124509,1,0
Sprite,Background,Centre,"sb/glow.png",430,298 C,0,124027,124027,255,0,128 S,0,124027,124027,0.5 F,0,124027,124527,1,0
Sprite,Background,Centre,"sb/glow.png",439,297 C,0,124046,124046,255,0,128 S,0,124046,124046,0.5 F,0,124046,124546,1,0
Sprite,Background,Centre,"sb/glow.png",447,296 C,0,124065,124065,255,0,128 S,0,124065,124065,0.5 F,0,124065,124565,1,0
Sprite,Background,Centre,"sb/glow.png",456,295 C,0,124084,124084,255,0,128 S,0,124084,124084,0.5 F,0,124084,124584,1,0
Sprite,Background,Centre,"sb/glow.png",469,306 C,0,124102,124102,255,0,128 S,0,124102,124102,0.5 F,0,124102,124602,1,0
Sprite,Background,Centre,"sb/glow.png",483,317 C,0,124121,124121,255,0,128 S,0,124121,124121,0.5 F,0,124121,124621,1,0
Sprite,Background,Centre,"sb/glow.png",496,327 C,0,124140,124140,255,0,128 S,0,124140,124140,0.5 F,0,124140,124640,1,0
Sprite,Background,Centre,"sb/glow.png",507,336 C,0,124159,124159,255,0,128 S,0,124159,124159,0.5 F,0,124159,124659,1,0
Sprite,Background,Centre,"sb/glow.png",516,344 C,0,124177,124177,255,0,128 S,0,124177,124177,0.5 F,0,124177,124677,1,0
Sprite,Background,Centre,"sb/glow.png",523,349 C,0,124196,124196,255,0,128 S,0,124196,124196,0.5 F,0,124196,124696,1,0
Sprite,Background,Centre,"sb/glow.png",527,353 C,0,124215,124215,255,0,128 S,0,124215,124215,0.5 F,0,124215,124715,1,0
Sprite,Background,Centre,"sb/glow.png",529,354 C,0,124234,124234,255,0,128 S,0,124234,124234,0.5 F,0,124234,124734,1,0
Sprite,Background,Centre,"sb/glow.png",525,347 C,0,124252,124252,255,0,128 S,0,124252,124252,0.5 F,0,124252,124752,1,0
Sprite,Background,Centre,"sb/glow.png",521,339 C,0,124271,124271,255,0,128 S,0,124271,124271,0.5 F,0,124271,124771,1,0
Sprite,Background,Centre,"sb/glow.png",517,331 C,0,124290,124290,255,0,128 S,0,124290,124290,0.5 F,0,124290,124790,1,0
Sprite,Background,Centre,"sb/glow.png",513,323 C,0,124309,124309,255,0,128 S,0,124309,124309,0.5 F,0,124309,124809,1,0
Sprite,Background,Centre,"sb/glow.png",509,315 C,0,124327,124327,255,0,128 S,0,124327,124327,0.5 F,0,124327,124827,1,0
Sprite,Background,Centre,"sb/glow.png",505,308 C,0,124346,124346,255,0,128 S,0,124346,124346,0.5 F,0,124346,124846,1,0
Sprite,Background,Centre,"sb/glow.png",501,300 C,0,124365,124365,255,0,128 S,0,124365,124365,0.5 F,0,124365,124865,1,0
Sprite,Background,Centre,"sb/glow.png",498,292 C,0,124384,124384,255,0,128 S,0,124384,124384,0.5 F,0,124384,124884,1,0
Sprite,Background,Centre,"sb/glow.png",499,284 C,0,124402,124402,255,0,128 S,0,124402,124402,0.5 F,0,124402,124902,1,0
Sprite,Background,Centre,"sb/glow.png",501,275 C,0,124421,124421,255,0,128 S,0,124421,124421,0.5 F,0,124421,124921,1,0
Sprite,Background,Centre,"sb/glow.png",503,266 C,0,124440,124440,255,0,128 S,0,124440,124440,0.5 F,0,124440,124940,1,0
Sprite,Background,Centre,"sb/glow.png",504,258 C,0,124459,124459,255,0,128 S,0,124459,124459,0.5 F,0,124459,124959,1,0
Sprite,Background,Centre,"sb/glow.png",506,249 C,0,124477,124477,255,0,128 S,0,124477,124477,0.5 F,0,124477,124977,1,0
Sprite,Background,Centre,"sb/glow.png",508,241 C,0,124496,124496,255,0,128 S,0,124496,124496,0.5 F,0,124496,124996,1,0
Sprite,Background,Centre,"sb/glow.png",510,232 C,0,124515,124515,255,0,128 S,0,124515,124515,0.5 F,0,124515,125015,1,0
Sprite,Background,Centre,"sb/glow.png",512,224 C,0,124534,124534,255,0,128 S,0,124534,124534,0.5 F,0,124534,125034,1,0
Sprite,Background,Centre,"sb/glow.png",524,211 C,0,124552,124552,255,0,128 S,0,124552,124552,0.5 F,0,124552,125052,1,0
Sprite,Background,Centre,"sb/glow.png",536,198 C,0,124571,124571,255,0,128 S,0,124571,124571,0.5 F,0,124571,125071,1,0
Sprite,Background,Centre,"sb/glow.png",547,187 C,0,124590,124590,255,0,128 S,0,124590,124590,0.5 F,0,124590,125090,1,0
Sprite,Background,Centre,"sb/glow.png",557,176 C,0,124609,124609,255,0,128 S,0,124609,124609,0.5 F,0,124609,125109,1,0
Sprite,Background,Centre,"sb/glow.png",565,168 C,0,124627,124627,255,0,128 S,0,124627,124627,0.5 F,0,124627,125127,1,0
Sprite,Background,Centre,"sb/glow.png",571,161 C,0,124646,124646,255,0,128 S,0,124646,124646,0.5 F,0,124646,125146,1,0
Sprite,Background,Centre,"sb/glow.png",575,157 C,0,124665,124665,255,0,128 S,0,124665,124665,0.5 F,0,124665,125165,1,0
Sprite,Background,Centre,"sb/glow.png",576,156 C,0,124684,124684,255,0,128 S,0,124684,124684,0.5 F,0,124684,125184,1,0
Sprite,Background,Centre,"sb/glow.png",559,152 C,0,124702,124702,255,0,128 S,0,124702,124702,0.5 F,0,124702,125202,1,0
Sprite,Background,Centre,"sb/glow.png",542,148 C,0,124721,124721,255,0,128 S,0,124721,124721,0.5 F,0,124721,125221,1,0
Sprite,Background,Centre,"sb/glow.png",526,145 C,0,124740,124740,255,0,128 S,0,124740,124740,0.5 F,0,124740,125240,1,0
Sprite,Background,Centre,"sb/glow.png",512,141 C,0,124759,124759,255,0,128 S,0,124759,124759,0.5 F,0,124759,125259,1,0
Sprite,Background,Centre,"sb/glow.png",501,139 C,0,124777,124777,255,0,128 S,0,124777,124777,0.5 F,0,124777,125277,1,0
Sprite,Background,Centre,"sb/glow.png",492,137 C,0,124796,124796,255,0,128 S,0,124796,124796,0.5 F,0,124796,125296,1,0
Sprite,Background,Centre,"sb/glow.png",487,135 C,0,124815,124815,255,0,128 S,0,124815,124815,0.5 F,0,124815,125315,1,0
Sprite,Background,Centre,"sb/glow.png",485,135 C,0,124834,124834,255,0,128 S,0,124834,124834,0.5 F,0,124834,125334,1,0
Sprite,Background,Centre,"sb/glow.png",478,131 C,0,124852,124852,255,88,102 S,0,124852,124852,0.5 F,0,124852,125352,1,0
Sprite,Background,Centre,"sb/glow.png",470,126 C,0,124871,124871,255,88,102 S,0,124871,124871,0.5 F,0,124871,125371,1,0
Sprite,Background,Centre,"sb/glow.png",462,123 C,0,124890,124890,255,88,102 S,0,124890,124890,0.5 F,0,124890,125390,1,0
Sprite,Background,Centre,"sb/glow.png",454,121 C,0,124909,124909,255,88,102 S,0,124909,124909,0.5 F,0,124909,125409,1,0
Sprite,Background,Centre,"sb/glow.png",445,119 C,0,124927,124927,255,88,102 S,0,124927,124927,0.5 F,0,124927,125427,1,0
Sprite,Background,Centre,"sb/glow.png",437,118 C,0,124946,124946,255,88,102 S,0,124946,124946,0.5 F,0,124946,125446,1,0
Sprite,Background,Centre,"sb/glow.png",428,118 C,0,124965,124965,255,88,102 S,0,124965,124965,0.5 F,0,124965,125465,1,0
Sprite,Background,Centre,"sb/glow.png",419,119 C,0,124984,124984,255,88,102 S,0,124984,124984,0.5 F,0,124984,125484,1,0
Sprite,Background,Centre,"sb/glow.png",405,130 C,0,125002,125002,255,88,102 S,0,125002,125002,0.5 F,0,125002,125502,1,0
Sprite,Background,Centre,"sb/glow.png",392,141 C,0,125021,125021,255,88,102 S,0,125021,125021,0.5 F,0,125021,125521,1,0
Sprite,Background,Centre,"sb/glow.png",379,151 C,0,125040,125040,255,88,102 S,0,125040,125040,0.5 F,0,125040,125540,1,0
Sprite,Background,Centre,"sb/glow.png",369,160 C,0,125059,125059,255,88,102 S,0,125059,125059,0.5 F,0,125059,125559,1,0
Sprite,Background,Centre,"sb/glow.png",360,167 C,0,125077,125077,255,88,102 S,0,125077,125077,0.5 F,0,125077,125577,1,0
Sprite,Background,Centre,"sb/glow.png",353,172 C,0,125096,125096,255,88,102 S,0,125096,125096,0.5 F,0,125096,125596,1,0
Sprite,Background,Centre,"sb/glow.png",349,176 C,0,125115,125115,255,88,102 S,0,125115,125115,0.5 F,0,125115,125615,1,0
Sprite,Background,Centre,"sb/glow.png",347,177 C,0,125134,125134,255,88,102 S,0,125134,125134,0.5 F,0,125134,125634,1,0
Sprite,Background,Centre,"sb/glow.png",340,181 C,0,125152,125152,255,88,102 S,0,125152,125152,0.5 F,0,125152,125652,1,0
Sprite,Background,Centre,"sb/glow.png",332,185 C,0,125171,125171,255,88,102 S,0,125171,125171,0.5 F,0,125171,125671,1,0
Sprite,Background,Centre,"sb/glow.png",324,188 C,0,125190,125190,255,88,102 S,0,125190,125190,0.5 F,0,125190,125690,1,0
Sprite,Background,Centre,"sb/glow.png",315,191 C,0,125209,125209,255,88,102 S,0,125209,125209,0.5 F,0,125209,125709,1,0
Sprite,Background,Centre,"sb/glow.png",307,192 C,0,125227,125227,255,88,102 S,0,125227,125227,0.5 F,0,125227,125727,1,0
Sprite,Background,Centre,"sb/glow.png",298,193 C,0,125246,125246,255,88,102 S,0,125246,125246,0.5 F,0,125246,125746,1,0
Sprite,Background,Centre,"sb/glow.png",289,193 C,0,125265,125265,255,88,102 S,0,125265,125265,0.5 F,0,125265,125765,1,0
Sprite,Background,Centre,"sb/glow.png",281,192 C,0,125284,125284,255,88,102 S,0,125284,125284,0.5 F,0,125284,125784,1,0
Sprite,Background,Centre,"sb/glow.png",266,183 C,0,125302,125302,255,88,102 S,0,125302,125302,0.5 F,0,125302,125802,1,0
Sprite,Background,Centre,"sb/glow.png",251,174 C,0,125321,125321,255,88,102 S,0,125321,125321,0.5 F,0,125321,125821,1,0
Sprite,Background,Centre,"sb/glow.png",238,165 C,0,125340,125340,255,88,102 S,0,125340,125340,0.5 F,0,125340,125840,1,0
Sprite,Background,Centre,"sb/glow.png",226,158 C,0,125359,125359,255,88,102 S,0,125359,125359,0.5 F,0,125359,125859,1,0
Sprite,Background,Centre,"sb/glow.png",216,152 C,0,125377,125377,255,88,102 S,0,125377,125377,0.5 F,0,125377,125877,1,0
Sprite,Background,Centre,"sb/glow.png",209,147 C,0,125396,125396,255,88,102 S,0,125396,125396,0.5 F,0,125396,125896,1,0
Sprite,Background,Centre,"sb/glow.png",205,144 C,0,125415,125415,255,88,102 S,0,125415,125415,0.5 F,0,125415,125915,1,0
Sprite,Background,Centre,"sb/glow.png",203,143 C,0,125434,125434,255,88,102 S,0,125434,125434,0.5 F,0,125434,125934,1,0
Sprite,Background,Centre,"sb/glow.png",202,151 C,0,125452,125452,255,88,102 S,0,125452,125452,0.5 F,0,125452,125952,1,0
Sprite,Background,Centre,"sb/glow.png",200,160 C,0,125471,125471,255,88,102 S,0,125471,125471,0.5 F,0,125471,125971,1,0
Sprite,Background,Centre,"sb/glow.png",199,168 C,0,125490,125490,255,88,102 S,0,125490,125490,0.5 F,0,125490,125990,1,0
Sprite,Background,Centre,"sb/glow.png",198,177 C,0,125509,125509,255,88,102 S,0,125509,125509,0.5 F,0,125509,126009,1,0
Sprite,Background,Centre,"sb/glow.png",196,186 C,0,125527,125527,255,88,102 S,0,125527,125527,0.5 F,0,125527,126027,1,0
Sprite,Background,Centre,"sb/glow.png",195,194 C,0,125546,125546,255,88,102 S,0,125546,125546,0.5 F,0,125546,126046,1,0
Sprite,Background,Centre,"sb/glow.png",194,203 C,0,125565,125565,255,88,102 S,0,125565,125565,0.5 F,0,125565,126065,1,0
Sprite,Background,Centre,"sb/glow.png",192,212 C,0,125584,125584,255,88,102 S,0,125584,125584,0.5 F,0,125584,126084,1,0
Sprite,Background,Centre,"sb/glow.png",179,223 C,0,125602,125602,255,88,102 S,0,125602,125602,0.5 F,0,125602,126102,1,0
Sprite,Background,Centre,"sb/glow.png",166,235 C,0,125621,125621,255,88,102 S,0,125621,125621,0.5 F,0,125621,126121,1,0
Sprite,Background,Centre,"sb/glow.png",154,245 C,0,125640,125640,255,88,102 S,0,125640,125640,0.5 F,0,125640,126140,1,0
Sprite,Background,Centre,"sb/glow.png",143,255 C,0,125659,125659,255,88,102 S,0,125659,125659,0.5 F,0,125659,126159,1,0
Sprite,Background,Centre,"sb/glow.png",134,262 C,0,125677,125677,255,88,102 S,0,125677,125677,0.5 F,0,125677,126177,1,0
Sprite,Background,Centre,"sb/glow.png",128,268 C,0,125696,125696,255,88,102 S,0,125696,125696,0.5 F,0,125696,126196,1,0
Sprite,Background,Centre,"sb/glow.png",123,272 C,0,125715,125715,255,88,102 S,0,125715,125715,0.5 F,0,125715,126215,1,0
Sprite,Background,Centre,"sb/glow.png",122,273 C,0,125734,125734,255,88,102 S,0,125734,125734,0.5 F,0,125734,126234,1,0
Sprite,Background,Centre,"sb/glow.png",123,281 C,0,125752,125752,255,88,102 S,0,125752,125752,0.5 F,0,125752,126252,1,0
Sprite,Background,Centre,"sb/glow.png",125,290 C,0,125771,125771,255,88,102 S,0,125771,125771,0.5 F,0,125771,126271,1,0
Sprite,Background,Centre,"sb/glow.png",126,298 C,0,125790,125790,255,88,102 S,0,125790,125790,0.5 F,0,125790,126290,1,0
Sprite,Background,Centre,"sb/glow.png",127,307 C,0,125809,125809,255,88,102 S,0,125809,125809,0.5 F,0,125809,126309,1,0
Sprite,Background,Centre,"sb/glow.png",129,316 C,0,125827,125827,255,88,102 S,0,125827,125827,0.5 F,0,125827,126327,1,0
Sprite,Background,Centre,"sb/glow.png",130,324 C,0,125846,125846,255,88,102 S,0,125846,125846,0.5 F,0,125846,126346,1,0
Sprite,Background,Centre,"sb/glow.png",131,333 C,0,125865,125865,255,88,102 S,0,125865,125865,0.5 F,0,125865,126365,1,0
Sprite,Background,Centre,"sb/glow.png",133,342 C,0,125884,125884,255,88,102 S,0,125884,125884,0.5 F,0,125884,126384,1,0
Sprite,Background,Centre,"sb/glow.png",148,350 C,0,125902,125902,255,88,102 S,0,125902,125902,0.5 F,0,125902,126402,1,0
Sprite,Background,Centre,"sb/glow.png",163,358 C,0,125921,125921,255,88,102 S,0,125921,125921,0.5 F,0,125921,126421,1,0
Sprite,Background,Centre,"sb/glow.png",177,366 C,0,125940,125940,255,88,102 S,0,125940,125940,0.5 F,0,125940,126440,1,0
Sprite,Background,Centre,"sb/glow.png",190,372 C,0,125959,125959,255,88,102 S,0,125959,125959,0.5 F,0,125959,126459,1,0
Sprite,Background,Centre,"sb/glow.png",200,378 C,0,125977,125977,255,88,102 S,0,125977,125977,0.5 F,0,125977,126477,1,0
Sprite,Background,Centre,"sb/glow.png",207,382 C,0,125996,125996,255,88,102 S,0,125996,125996,0.5 F,0,125996,126496,1,0
Sprite,Background,Centre,"sb/glow.png",212,384 C,0,126015,126015,255,88,102 S,0,126015,126015,0.5 F,0,126015,126515,1,0
Sprite,Background,Centre,"sb/glow.png",214,385 C,0,126034,126034,255,88,102 S,0,126034,126034,0.5 F,0,126034,126534,1,0
Sprite,Background,Centre,"sb/glow.png",219,378 C,0,126052,126052,255,0,255 S,0,126052,126052,0.5 F,0,126052,126552,1,0
Sprite,Background,Centre,"sb/glow.png",224,372 C,0,126071,126071,255,0,255 S,0,126071,126071,0.5 F,0,126071,126571,1,0
Sprite,Background,Centre,"sb/glow.png",231,366 C,0,126090,126090,255,0,255 S,0,126090,126090,0.5 F,0,126090,126590,1,0
Sprite,Background,Centre,"sb/glow.png",238,360 C,0,126109,126109,255,0,255 S,0,126109,126109,0.5 F,0,126109,126609,1,0
Sprite,Background,Centre,"sb/glow.png",245,355 C,0,126127,126127,255,0,255 S,0,126127,126127,0.5 F,0,126127,126627,1,0
Sprite,Background,Centre,"sb/glow.png",253,351 C,0,126146,126146,255,0,255 S,0,126146,126146,0.5 F,0,126146,126646,1,0
Sprite,Background,Centre,"sb/glow.png",261,348 C,0,126165,126165,255,0,255 S,0,126165,126165,0.5 F,0,126165,126665,1,0
Sprite,Background,Centre,"sb/glow.png",269,346 C,0,126184,126184,255,0,255 S,0,126184,126184,0.5 F,0,126184,126684,1,0
Sprite,Background,Centre,"sb/glow.png",278,344 C,0,126202,126202,255,0,255 S,0,126202,126202,0.5 F,0,126202,126702,1,0
Sprite,Background,Centre,"sb/glow.png",286,344 C,0,126221,126221,255,0,255 S,0,126221,126221,0.5 F,0,126221,126721,1,0
Sprite,Background,Centre,"sb/glow.png",295,344 C,0,126240,126240,255,0,255 S,0,126240,126240,0.5 F,0,126240,126740,1,0
Sprite,Background,Centre,"sb/glow.png",304,345 C,0,126259,126259,255,0,255 S,0,126259,126259,0.5 F,0,126259,126759,1,0
Sprite,Background,Centre,"sb/glow.png",312,346 C,0,126277,126277,255,0,255 S,0,126277,126277,0.5 F,0,126277,126777,1,0
Sprite,Background,Centre,"sb/glow.png",321,349 C,0,126296,126296,255,0,255 S,0,126296,126296,0.5 F,0,126296,126796,1,0
Sprite,Background,Centre,"sb/glow.png",329,352 C,0,126315,126315,255,0,255 S,0,126315,126315,0.5 F,0,126315,126815,1,0
Sprite,Background,Centre,"sb/glow.png",337,356 C,0,126334,126334,255,0,255 S,0,126334,126334,0.5 F,0,126334,126834,1,0
Sprite,Background,Centre,"sb/glow.png",349,369 C,0,126352,126352,255,0,255 S,0,126352,126352,0.5 F,0,126352,126852,1,0
Sprite,Background,Centre,"sb/glow.png",360,381 C,0,126371,126371,255,0,255 S,0,126371,126371,0.5 F,0,126371,126871,1,0
Sprite,Background,Centre,"sb/glow.png",371,393 C,0,126390,126390,255,0,255 S,0,126390,126390,0.5 F,0,126390,126890,1,0
Sprite,Background,Centre,"sb/glow.png",381,403 C,0,126409,126409,255,0,255 S,0,126409,126409,0.5 F,0,126409,126909,1,0
Sprite,Background,Centre,"sb/glow.png",389,411 C,0,126427,126427,255,0,255 S,0,126427,126427,0.5 F,0,126427,126927,1,0
Sprite,Background,Centre,"sb/glow.png",395,418 C,0,126446,126446,255,0,255 S,0,126446,126446,0.5 F,0,126446,126946,1,0
Sprite,Background,Centre,"sb/glow.png",399,422 C,0,126465,126465,255,0,255 S,0,126465,126465,0.5 F,0,126465,126965,1,0
Sprite,Background,Centre,"sb/glow.png",400,423 C,0,126484,126484,255,0,255 S,0,126484,126484,0.5 F,0,126484,126984,1,0
Sprite,Background,Centre,"sb/glow.png",400,423 C,0,126502,126502,255,0,255 S,0,126502,126502,0.5 F,0,126502,127002,1,0
Sprite,Background,Centre,"sb/glow.png",400,423 C,0,126521,126521,255,0,255 S,0,126521,126521,0.5 F,0,126521,127021,1,0
Sprite,Background,Centre,"sb/glow.png",400,423 C,0,126540,126540,255,0,255 S,0,126540,126540,0.5 F,0,126540,127040,1,0
Sprite,Background,Centre,"sb/glow.png",400,423 C,0,126559,126559,255,0,255 S,0,126559,126559,0.5 F,0,126559,127059,1,0
Sprite,Background,Centre,"sb/glow.png",400,423 C,0,126577,126577,255,0,255 S,0,126577,126577,0.5 F,0,126577,127077,1,0
Sprite,Background,Centre,"sb/glow.png",400,423 C,0,126596,126596,255,0,255 S,0,126596,126596,0.5 F,0,126596,127096,1,0
Sprite,Background,Centre,"sb/glow.png",400,423 C,0,126615,126615,255,0,255 S,0,126615,126615,0.5 F,0,126615,127115,1,0
Sprite,Background,Centre,"sb/glow.png",400,423 C,0,126634,126634,255,0,255 S,0,126634,126634,0.5 F,0,126634,127134,1,0
Sprite,Background,Centre,"sb/glow.png",407,427 C,0,126652,126652,255,0,255 S,0,126652,126652,0.5 F,0,126652,127152,1,0
Sprite,Background,Centre,"sb/glow.png",415,430 C,0,126671,126671,255,0,255 S,0,126671,126671,0.5 F,0,126671,127171,1,0
Sprite,Background,Centre,"sb/glow.png",424,433 C,0,126690,126690,255,0,255 S,0,126690,126690,0.5 F,0,126690,127190,1,0
Sprite,Background,Centre,"sb/glow.png",432,434 C,0,126709,126709,255,0,255 S,0,126709,126709,0.5 F,0,126709,127209,1,0
Sprite,Background,Centre,"sb/glow.png",441,435 C,0,126727,126727,255,0,255 S,0,126727,126727,0.5 F,0,126727,127227,1,0
Sprite,Background,Centre,"sb/glow.png",450,435 C,0,126746,126746,255,0,255 S,0,126746,126746,0.5 F,0,126746,127246,1,0
Sprite,Background,Centre,"sb/glow.png",459,434 C,0,126765,126765,255,0,255 S,0,126765,126765,0.5 F,0,126765,127265,1,0
Sprite,Background,Centre,"sb/glow.png",467,433 C,0,126784,126784,255,0,255 S,0,126784,126784,0.5 F,0,126784,127284,1,0
Sprite,Background,Centre,"sb/glow.png",475,430 C,0,126802,126802,255,0,255 S,0,126802,126802,0.5 F,0,126802,127302,1,0
Sprite,Background,Centre,"sb/glow.png",484,427 C,0,126821,126821,255,0,255 S,0,126821,126821,0.5 F,0,126821,127321,1,0
Sprite,Background,Centre,"sb/glow.png",491,423 C,0,126840,126840,255,0,255 S,0,126840,126840,0.5 F,0,126840,127340,1,0
Sprite,Background,Centre,"sb/glow.png",499,418 C,0,126859,126859,255,0,255 S,0,126859,126859,0.5 F,0,126859,127359,1,0
Sprite,Background,Centre,"sb/glow.png",506,413 C,0,126877,126877,255,0,255 S,0,126877,126877,0.5 F,0,126877,127377,1,0
Sprite,Background,Centre,"sb/glow.png",512,407 C,0,126896,126896,255,0,255 S,0,126896,126896,0.5 F,0,126896,127396,1,0
Sprite,Background,Centre,"sb/glow.png",518,401 C,0,126915,126915,255,0,255 S,0,126915,126915,0.5 F,0,126915,127415,1,0
Sprite,Background,Centre,"sb/glow.png",523,394 C,0,126934,126934,255,0,255 S,0,126934,126934,0.5 F,0,126934,127434,1,0
Sprite,Background,Centre,"sb/glow.png",517,381 C,0,126952,126952,255,0,255 S,0,126952,126952,0.5 F,0,126952,127452,1,0
Sprite,Background,Centre,"sb/glow.png",510,367 C,0,126971,126971,255,0,255 S,0,126971,126971,0.5 F,0,126971,127471,1,0
Sprite,Background,Centre,"sb/glow.png",503,353 C,0,126990,126990,255,0,255 S,0,126990,126990,0.5 F,0,126990,127490,1,0
Sprite,Background,Centre,"sb/glow.png",497,340 C,0,127009,127009,255,0,255 S,0,127009,127009,0.5 F,0,127009,127509,1,0
Sprite,Background,Centre,"sb/glow.png",490,327 C,0,127027,127027,255,0,255 S,0,127027,127027,0.5 F,0,127027,127527,1,0
Sprite,Background,Centre,"sb/glow.png",484,315 C,0,127046,127046,255,0,255 S,0,127046,127046,0.5 F,0,127046,127546,1,0
Sprite,Background,Centre,"sb/glow.png",479,304 C,0,127065,127065,255,0,255 S,0,127065,127065,0.5 F,0,127065,127565,1,0
Sprite,Background,Centre,"sb/glow.png",474,293 C,0,127084,127084,255,0,255 S,0,127084,127084,0.5 F,0,127084,127584,1,0
Sprite,Background,Centre,"sb/glow.png",469,284 C,0,127102,127102,255,0,255 S,0,127102,127102,0.5 F,0,127102,127602,1,0
Sprite,Background,Centre,"sb/glow.png",465,276 C,0,127121,127121,255,0,255 S,0,127121,127121,0.5 F,0,127121,127621,1,0
Sprite,Background,Centre,"sb/glow.png",461,268 C,0,127140,127140,255,0,255 S,0,127140,127140,0.5 F,0,127140,127640,1,0
Sprite,Background,Centre,"sb/glow.png",458,262 C,0,127159,127159,255,0,255 S,0,127159,127159,0.5 F,0,127159,127659,1,0
Sprite,Background,Centre,"sb/glow.png",456,257 C,0,127177,127177,255,0,255 S,0,127177,127177,0.5 F,0,127177,127677,1,0
Sprite,Background,Centre,"sb/glow.png",454,254 C,0,127196,127196,255,0,255 S,0,127196,127196,0.5 F,0,127196,127696,1,0
Sprite,Background,Centre,"sb/glow.png",453,252 C,0,127215,127215,255,0,255 S,0,127215,127215,0.5 F,0,127215,127715,1,0
Sprite,Background,Centre,"sb/glow.png",453,251 C,0,127234,127234,255,0,255 S,0,127234,127234,0.5 F,0,127234,127734,1,0
Sprite,Background,Centre,"sb/glow.png",453,251 C,0,127252,127252,255,128,192 S,0,127252,127252,0.5 F,0,127252,127752,1,0
Sprite,Background,Centre,"sb/glow.png",453,251 C,0,127271,127271,255,128,192 S,0,127271,127271,0.5 F,0,127271,127771,1,0
Sprite,Background,Centre,"sb/glow.png",453,251 C,0,127290,127290,255,128,192 S,0,127290,127290,0.5 F,0,127290,127790,1,0
Sprite,Background,Centre,"sb/glow.png",453,251 C,0,127309,127309,255,128,192 S,0,127309,127309,0.5 F,0,127309,127809,1,0
Sprite,Background,Centre,"sb/glow.png",453,251 C,0,127327,127327,255,128,192 S,0,127327,127327,0.5 F,0,127327,127827,1,0
Sprite,Background,Centre,"sb/glow.png",453,251 C,0,127346,127346,255,128,192 S,0,127346,127346,0.5 F,0,127346,127846,1,0
Sprite,Background,Centre,"sb/glow.png",453,251 C,0,127365,127365,255,128,192 S,0,127365,127365,0.5 F,0,127365,127865,1,0
Sprite,Background,Centre,"sb/glow.png",453,251 C,0,127384,127384,255,128,192 S,0,127384,127384,0.5 F,0,127384,127884,1,0
Sprite,Background,Centre,"sb/glow.png",453,251 C,0,127402,127402,255,128,192 S,0,127402,127402,0.5 F,0,127402,127902,1,0
Sprite,Background,Centre,"sb/glow.png",453,251 C,0,127421,127421,255,128,192 S,0,127421,127421,0.5 F,0,127421,127921,1,0
Sprite,Background,Centre,"sb/glow.png",453,251 C,0,127440,127440,255,128,192 S,0,127440,127440,0.5 F,0,127440,127940,1,0
Sprite,Background,Centre,"sb/glow.png",453,251 C,0,127459,127459,255,128,192 S,0,127459,127459,0.5 F,0,127459,127959,1,0
Sprite,Background,Centre,"sb/glow.png",453,251 C,0,127477,127477,255,128,192 S,0,127477,127477,0.5 F,0,127477,127977,1,0
Sprite,Background,Centre,"sb/glow.png",453,251 C,0,127496,127496,255,128,192 S,0,127496,127496,0.5 F,0,127496,127996,1,0
Sprite,Background,Centre,"sb/glow.png",453,251 C,0,127515,127515,255,128,192 S,0,127515,127515,0.5 F,0,127515,128015,1,0
Sprite,Background,Centre,"sb/glow.png",453,251 C,0,127534,127534,255,128,192 S,0,127534,127534,0.5 F,0,127534,128034,1,0
Sprite,Background,Centre,"sb/glow.png",453,243 C,0,127552,127552,255,128,192 S,0,127552,127552,0.5 F,0,127552,128052,1,0
Sprite,Background,Centre,"sb/glow.png",454,234 C,0,127571,127571,255,128,192 S,0,127571,127571,0.5 F,0,127571,128071,1,0
Sprite,Background,Centre,"sb/glow.png",454,225 C,0,127590,127590,255,128,192 S,0,127590,127590,0.5 F,0,127590,128090,1,0
Sprite,Background,Centre,"sb/glow.png",454,216 C,0,127609,127609,255,128,192 S,0,127609,127609,0.5 F,0,127609,128109,1,0
Sprite,Background,Centre,"sb/glow.png",455,208 C,0,127627,127627,255,128,192 S,0,127627,127627,0.5 F,0,127627,128127,1,0
Sprite,Background,Centre,"sb/glow.png",455,199 C,0,127646,127646,255,128,192 S,0,127646,127646,0.5 F,0,127646,128146,1,0
Sprite,Background,Centre,"sb/glow.png",455,190 C,0,127665,127665,255,128,192 S,0,127665,127665,0.5 F,0,127665,128165,1,0
Sprite,Background,Centre,"sb/glow.png",456,182 C,0,127684,127684,255,128,192 S,0,127684,127684,0.5 F,0,127684,128184,1,0
Sprite,Background,Centre,"sb/glow.png",467,168 C,0,127702,127702,255,128,192 S,0,127702,127702,0.5 F,0,127702,128202,1,0
Sprite,Background,Centre,"sb/glow.png",479,155 C,0,127721,127721,255,128,192 S,0,127721,127721,0.5 F,0,127721,128221,1,0
Sprite,Background,Centre,"sb/glow.png",490,143 C,0,127740,127740,255,128,192 S,0,127740,127740,0.5 F,0,127740,128240,1,0
Sprite,Background,Centre,"sb/glow.png",500,133 C,0,127759,127759,255,128,192 S,0,127759,127759,0.5 F,0,127759,128259,1,0
Sprite,Background,Centre,"sb/glow.png",508,124 C,0,127777,127777,255,128,192 S,0,127777,127777,0.5 F,0,127777,128277,1,0
Sprite,Background,Centre,"sb/glow.png",514,118 C,0,127796,127796,255,128,192 S,0,127796,127796,0.5 F,0,127796,128296,1,0
Sprite,Background,Centre,"sb/glow.png",518,113 C,0,127815,127815,255,128,192 S,0,127815,127815,0.5 F,0,127815,128315,1,0
Sprite,Background,Centre,"sb/glow.png",519,112 C,0,127834,127834,255,128,192 S,0,127834,127834,0.5 F,0,127834,128334,1,0
Sprite,Background,Centre,"sb/glow.png",512,107 C,0,127852,127852,255,128,192 S,0,127852,127852,0.5 F,0,127852,128352,1,0
Sprite,Background,Centre,"sb/glow.png",505,102 C,0,127871,127871,255,128,192 S,0,127871,127871,0.5 F,0,127871,128371,1,0
Sprite,Background,Centre,"sb/glow.png",498,98 C,0,127890,127890,255,128,192 S,0,127890,127890,0.5 F,0,127890,128390,1,0
Sprite,Background,Centre,"sb/glow.png",490,93 C,0,127909,127909,255,128,192 S,0,127909,127909,0.5 F,0,127909,128409,1,0
Sprite,Background,Centre,"sb/glow.png",483,88 C,0,127927,127927,255,128,192 S,0,127927,127927,0.5 F,0,127927,128427,1,0
Sprite,Background,Centre,"sb/glow.png",475,86 C,0,127946,127946,255,128,192 S,0,127946,127946,0.5 F,0,127946,128446,1,0
Sprite,Background,Centre,"sb/glow.png",467,86 C,0,127965,127965,255,128,192 S,0,127965,127965,0.5 F,0,127965,128465,1,0
Sprite,Background,Centre,"sb/glow.png",458,87 C,0,127984,127984,255,128,192 S,0,127984,127984,0.5 F,0,127984,128484,1,0
Sprite,Background,Centre,"sb/glow.png",449,88 C,0,128002,128002,255,128,192 S,0,128002,128002,0.5 F,0,128002,128502,1,0
Sprite,Background,Centre,"sb/glow.png",440,89 C,0,128021,128021,255,128,192 S,0,128021,128021,0.5 F,0,128021,128521,1,0
Sprite,Background,Centre,"sb/glow.png",432,90 C,0,128040,128040,255,128,192 S,0,128040,128040,0.5 F,0,128040,128540,1,0
Sprite,Background,Centre,"sb/glow.png",423,91 C,0,128059,128059,255,128,192 S,0,128059,128059,0.5 F,0,128059,128559,1,0
Sprite,Background,Centre,"sb/glow.png",414,92 C,0,128077,128077,255,128,192 S,0,128077,128077,0.5 F,0,128077,128577,1,0
Sprite,Background,Centre,"sb/glow.png",406,93 C,0,128096,128096,255,128,192 S,0,128096,128096,0.5 F,0,128096,128596,1,0
Sprite,Background,Centre,"sb/glow.png",397,94 C,0,128115,128115,255,128,192 S,0,128115,128115,0.5 F,0,128115,128615,1,0
Sprite,Background,Centre,"sb/glow.png",388,95 C,0,128134,128134,255,128,192 S,0,128134,128134,0.5 F,0,128134,128634,1,0
Sprite,Background,Centre,"sb/glow.png",372,102 C,0,128152,128152,255,128,192 S,0,128152,128152,0.5 F,0,128152,128652,1,0
Sprite,Background,Centre,"sb/glow.png",356,109 C,0,128171,128171,255,128,192 S,0,128171,128171,0.5 F,0,128171,128671,1,0
Sprite,Background,Centre,"sb/glow.png",341,115 C,0,128190,128190,255,128,192 S,0,128190,128190,0.5 F,0,128190,128690,1,0
Sprite,Background,Centre,"sb/glow.png",328,120 C,0,128209,128209,255,128,192 S,0,128209,128209,0.5 F,0,128209,128709,1,0
Sprite,Background,Centre,"sb/glow.png",317,125 C,0,128227,128227,255,128,192 S,0,128227,128227,0.5 F,0,128227,128727,1,0
Sprite,Background,Centre,"sb/glow.png",309,128 C,0,128246,128246,255,128,192 S,0,128246,128246,0.5 F,0,128246,128746,1,0
Sprite,Background,Centre,"sb/glow.png",304,130 C,0,128265,128265,255,128,192 S,0,128265,128265,0.5 F,0,128265,128765,1,0
Sprite,Background,Centre,"sb/glow.png",302,131 C,0,128284,128284,255,128,192 S,0,128284,128284,0.5 F,0,128284,128784,1,0
Sprite,Background,Centre,"sb/glow.png",288,120 C,0,128302,128302,255,128,192 S,0,128302,128302,0.5 F,0,128302,128802,1,0
Sprite,Background,Centre,"sb/glow.png",274,110 C,0,128321,128321,255,128,192 S,0,128321,128321,0.5 F,0,128321,128821,1,0
Sprite,Background,Centre,"sb/glow.png",262,100 C,0,128340,128340,255,128,192 S,0,128340,128340,0.5 F,0,128340,128840,1,0
Sprite,Background,Centre,"sb/glow.png",250,91 C,0,128359,128359,255,128,192 S,0,128359,128359,0.5 F,0,128359,128859,1,0
Sprite,Background,Centre,"sb/glow.png",241,84 C,0,128377,128377,255,128,192 S,0,128377,128377,0.5 F,0,128377,128877,1,0
Sprite,Background,Centre,"sb/glow.png",234,79 C,0,128396,128396,255,128,192 S,0,128396,128396,0.5 F,0,128396,128896,1,0
Sprite,Background,Centre,"sb/glow.png",230,75 C,0,128415,128415,255,128,192 S,0,128415,128415,0.5 F,0,128415,128915,1,0
Sprite,Background,Centre,"sb/glow.png",228,74 C,0,128434,128434,255,128,192 S,0,128434,128434,0.5 F,0,128434,128934,1,0
Sprite,Background,Centre,"sb/glow.png",224,81 C,0,128452,128452,255,0,128 S,0,128452,128452,0.5 F,0,128452,128952,1,0
Sprite,Background,Centre,"sb/glow.png",220,89 C,0,128471,128471,255,0,128 S,0,128471,128471,0.5 F,0,128471,128971,1,0
Sprite,Background,Centre,"sb/glow.png",217,97 C,0,128490,128490,255,0,128 S,0,128490,128490,0.5 F,0,128490,128990,1,0
Sprite,Background,Centre,"sb/glow.png",214,105 C,0,128509,128509,255,0,128 S,0,128509,128509,0.5 F,0,128509,129009,1,0
Sprite,Background,Centre,"sb/glow.png",212,114 C,0,128527,128527,255,0,128 S,0,128527,128527,0.5 F,0,128527,129027,1,0
Sprite,Background,Centre,"sb/glow.png",211,123 C,0,128546,128546,255,0,128 S,0,128546,128546,0.5 F,0,128546,129046,1,0
Sprite,Background,Centre,"sb/glow.png",211,131 C,0,128565,128565,255,0,128 S,0,128565,128565,0.5 F,0,128565,129065,1,0
Sprite,Background,Centre,"sb/glow.png",212,140 C,0,128584,128584,255,0,128 S,0,128584,128584,0.5 F,0,128584,129084,1,0
Sprite,Background,Centre,"sb/glow.png",209,158 C,0,128602,128602,255,0,128 S,0,128602,128602,0.5 F,0,128602,129102,1,0
Sprite,Background,Centre,"sb/glow.png",207,175 C,0,128621,128621,255,0,128 S,0,128621,128621,0.5 F,0,128621,129121,1,0
Sprite,Background,Centre,"sb/glow.png",205,191 C,0,128640,128640,255,0,128 S,0,128640,128640,0.5 F,0,128640,129140,1,0
Sprite,Background,Centre,"sb/glow.png",203,205 C,0,128659,128659,255,0,128 S,0,128659,128659,0.5 F,0,128659,129159,1,0
Sprite,Background,Centre,"sb/glow.png",201,217 C,0,128677,128677,255,0,128 S,0,128677,128677,0.5 F,0,128677,129177,1,0
Sprite,Background,Centre,"sb/glow.png",200,226 C,0,128696,128696,255,0,128 S,0,128696,128696,0.5 F,0,128696,129196,1,0
Sprite,Background,Centre,"sb/glow.png",199,231 C,0,128715,128715,255,0,128 S,0,128715,128715,0.5 F,0,128715,129215,1,0
Sprite,Background,Centre,"sb/glow.png",199,233 C,0,128734,128734,255,0,128 S,0,128734,128734,0.5 F,0,128734,129234,1,0
Sprite,Background,Centre,"sb/glow.png",207,233 C,0,128752,128752,255,0,128 S,0,128752,128752,0.5 F,0,128752,129252,1,0
Sprite,Background,Centre,"sb/glow.png",216,232 C,0,128771,128771,255,0,128 S,0,128771,128771,0.5 F,0,128771,129271,1,0
Sprite,Background,Centre,"sb/glow.png",225,231 C,0,128790,128790,255,0,128 S,0,128790,128790,0.5 F,0,128790,129290,1,0
Sprite,Background,Centre,"sb/glow.png",233,228 C,0,128809,128809,255,0,128 S,0,128809,128809,0.5 F,0,128809,129309,1,0
Sprite,Background,Centre,"sb/glow.png",241,226 C,0,128827,128827,255,0,128 S,0,128827,128827,0.5 F,0,128827,129327,1,0
Sprite,Background,Centre,"sb/glow.png",249,222 C,0,128846,128846,255,0,128 S,0,128846,128846,0.5 F,0,128846,129346,1,0
Sprite,Background,Centre,"sb/glow.png",257,218 C,0,128865,128865,255,0,128 S,0,128865,128865,0.5 F,0,128865,129365,1,0
Sprite,Background,Centre,"sb/glow.png",264,213 C,0,128884,128884,255,0,128 S,0,128884,128884,0.5 F,0,128884,129384,1,0
Sprite,Background,Centre,"sb/glow.png",271,198 C,0,128902,128902,255,0,128 S,0,128902,128902,0.5 F,0,128902,129402,1,0
Sprite,Background,Centre,"sb/glow.png",278,182 C,0,128921,128921,255,0,128 S,0,128921,128921,0.5 F,0,128921,129421,1,0
Sprite,Background,Centre,"sb/glow.png",285,168 C,0,128940,128940,255,0,128 S,0,128940,128940,0.5 F,0,128940,129440,1,0
Sprite,Background,Centre,"sb/glow.png",291,156 C,0,128959,128959,255,0,128 S,0,128959,128959,0.5 F,0,128959,129459,1,0
Sprite,Background,Centre,"sb/glow.png",295,145 C,0,128977,128977,255,0,128 S,0,128977,128977,0.5 F,0,128977,129477,1,0
Sprite,Background,Centre,"sb/glow.png",299,138 C,0,128996,128996,255,0,128 S,0,128996,128996,0.5 F,0,128996,129496,1,0
Sprite,Background,Centre,"sb/glow.png",301,133 C,0,129015,129015,255,0,128 S,0,129015,129015,0.5 F,0,129015,129515,1,0
Sprite,Background,Centre,"sb/glow.png",302,131 C,0,129034,129034,255,0,128 S,0,129034,129034,0.5 F,0,129034,129534,1,0
Sprite,Background,Centre,"sb/glow.png",303,139 C,0,129052,129052,255,0,128 S,0,129052,129052,0.5 F,0,129052,129552,1,0
Sprite,Background,Centre,"sb/glow.png",303,148 C,0,129071,129071,255,0,128 S,0,129071,129071,0.5 F,0,129071,129571,1,0
Sprite,Background,Centre,"sb/glow.png",304,157 C,0,129090,129090,255,0,128 S,0,129090,129090,0.5 F,0,129090,129590,1,0
Sprite,Background,Centre,"sb/glow.png",304,165 C,0,129109,129109,255,0,128 S,0,129109,129109,0.5 F,0,129109,129609,1,0
Sprite,Background,Centre,"sb/glow.png",305,174 C,0,129127,129127,255,0,128 S,0,129127,129127,0.5 F,0,129127,129627,1,0
Sprite,Background,Centre,"sb/glow.png",306,183 C,0,129146,129146,255,0,128 S,0,129146,129146,0.5 F,0,129146,129646,1,0
Sprite,Background,Centre,"sb/glow.png",306,192 C,0,129165,129165,255,0,128 S,0,129165,129165,0.5 F,0,129165,129665,1,0
Sprite,Background,Centre,"sb/glow.png",307,200 C,0,129184,129184,255,0,128 S,0,129184,129184,0.5 F,0,129184,129684,1,0
Sprite,Background,Centre,"sb/glow.png",308,209 C,0,129202,129202,255,0,128 S,0,129202,129202,0.5 F,0,129202,129702,1,0
Sprite,Background,Centre,"sb/glow.png",308,218 C,0,129221,129221,255,0,128 S,0,129221,129221,0.5 F,0,129221,129721,1,0
Sprite,Background,Centre,"sb/glow.png",309,227 C,0,129240,129240,255,0,128 S,0,129240,129240,0.5 F,0,129240,129740,1,0
Sprite,Background,Centre,"sb/glow.png",309,235 C,0,129259,129259,255,0,128 S,0,129259,129259,0.5 F,0,129259,129759,1,0
Sprite,Background,Centre,"sb/glow.png",310,244 C,0,129277,129277,255,0,128 S,0,129277,129277,0.5 F,0,129277,129777,1,0
Sprite,Background,Centre,"sb/glow.png",311,253 C,0,129296,129296,255,0,128 S,0,129296,129296,0.5 F,0,129296,129796,1,0
Sprite,Background,Centre,"sb/glow.png",311,261 C,0,129315,129315,255,0,128 S,0,129315,129315,0.5 F,0,129315,129815,1,0
Sprite,Background,Centre,"sb/glow.png",312,270 C,0,129334,129334,255,0,128 S,0,129334,129334,0.5 F,0,129334,129834,1,0
Sprite,Background,Centre,"sb/glow.png",326,280 C,0,129352,129352,255,0,128 S,0,129352,129352,0.5 F,0,129352,129852,1,0
Sprite,Background,Centre,"sb/glow.png",340,290 C,0,129371,129371,255,0,128 S,0,129371,129371,0.5 F,0,129371,129871,1,0
Sprite,Background,Centre,"sb/glow.png",354,299 C,0,129390,129390,255,0,128 S,0,129390,129390,0.5 F,0,129390,129890,1,0
Sprite,Background,Centre,"sb/glow.png",365,307 C,0,129409,129409,255,0,128 S,0,129409,129409,0.5 F,0,129409,129909,1,0
Sprite,Background,Centre,"sb/glow.png",375,314 C,0,129427,129427,255,0,128 S,0,129427,129427,0.5 F,0,129427,129927,1,0
Sprite,Background,Centre,"sb/glow.png",382,319 C,0,129446,129446,255,0,128 S,0,129446,129446,0.5 F,0,129446,129946,1,0
Sprite,Background,Centre,"sb/glow.png",386,322 C,0,129465,129465,255,0,128 S,0,129465,129465,0.5 F,0,129465,129965,1,0
Sprite,Background,Centre,"sb/glow.png",388,323 C,0,129484,129484,255,0,128 S,0,129484,129484,0.5 F,0,129484,129984,1,0
Sprite,Background,Centre,"sb/glow.png",378,337 C,0,129502,129502,255,0,128 S,0,129502,129502,0.5 F,0,129502,130002,1,0
Sprite,Background,Centre,"sb/glow.png",369,351 C,0,129521,129521,255,0,128 S,0,129521,129521,0.5 F,0,129521,130021,1,0
Sprite,Background,Centre,"sb/glow.png",360,365 C,0,129540,129540,255,0,128 S,0,129540,129540,0.5 F,0,129540,130040,1,0
Sprite,Background,Centre,"sb/glow.png",352,376 C,0,129559,129559,255,0,128 S,0,129559,129559,0.5 F,0,129559,130059,1,0
Sprite,Background,Centre,"sb/glow.png",345,386 C,0,129577,129577,255,0,128 S,0,129577,129577,0.5 F,0,129577,130077,1,0
Sprite,Background,Centre,"sb/glow.png",340,393 C,0,129596,129596,255,0,128 S,0,129596,129596,0.5 F,0,129596,130096,1,0
Sprite,Background,Centre,"sb/glow.png",337,397 C,0,129615,129615,255,0,128 S,0,129615,129615,0.5 F,0,129615,130115,1,0
Sprite,Background,Centre,"sb/glow.png",336,399 C,0,129634,129634,255,0,128 S,0,129634,129634,0.5 F,0,129634,130134,1,0
Sprite,Background,Centre,"sb/glow.png",329,394 C,0,129652,129652,255,88,102 S,0,129652,129652,0.5 F,0,129652,130152,1,0
Sprite,Background,Centre,"sb/glow.png",321,390 C,0,129671,129671,255,88,102 S,0,129671,129671,0.5 F,0,129671,130171,1,0
Sprite,Background,Centre,"sb/glow.png",313,387 C,0,129690,129690,255,88,102 S,0,129690,129690,0.5 F,0,129690,130190,1,0
Sprite,Background,Centre,"sb/glow.png",305,384 C,0,129709,129709,255,88,102 S,0,129709,129709,0.5 F,0,129709,130209,1,0
Sprite,Background,Centre,"sb/glow.png",297,382 C,0,129727,129727,255,88,102 S,0,129727,129727,0.5 F,0,129727,130227,1,0
Sprite,Background,Centre,"sb/glow.png",288,381 C,0,129746,129746,255,88,102 S,0,129746,129746,0.5 F,0,129746,130246,1,0
Sprite,Background,Centre,"sb/glow.png",279,381 C,0,129765,129765,255,88,102 S,0,129765,129765,0.5 F,0,129765,130265,1,0
Sprite,Background,Centre,"sb/glow.png",270,381 C,0,129784,129784,255,88,102 S,0,129784,129784,0.5 F,0,129784,130284,1,0
Sprite,Background,Centre,"sb/glow.png",255,389 C,0,129802,129802,255,88,102 S,0,129802,129802,0.5 F,0,129802,130302,1,0
Sprite,Background,Centre,"sb/glow.png",239,397 C,0,129821,129821,255,88,102 S,0,129821,129821,0.5 F,0,129821,130321,1,0
Sprite,Background,Centre,"sb/glow.png",225,404 C,0,129840,129840,255,88,102 S,0,129840,129840,0.5 F,0,129840,130340,1,0
Sprite,Background,Centre,"sb/glow.png",213,411 C,0,129859,129859,255,88,102 S,0,129859,129859,0.5 F,0,129859,130359,1,0
Sprite,Background,Centre,"sb/glow.png",202,416 C,0,129877,129877,255,88,102 S,0,129877,129877,0.5 F,0,129877,130377,1,0
Sprite,Background,Centre,"sb/glow.png",195,420 C,0,129896,129896,255,88,102 S,0,129896,129896,0.5 F,0,129896,130396,1,0
Sprite,Background,Centre,"sb/glow.png",190,422 C,0,129915,129915,255,88,102 S,0,129915,129915,0.5 F,0,129915,130415,1,0
Sprite,Background,Centre,"sb/glow.png",188,423 C,0,129934,129934,255,88,102 S,0,129934,129934,0.5 F,0,129934,130434,1,0
Sprite,Background,Centre,"sb/glow.png",181,428 C,0,129952,129952,255,88,102 S,0,129952,129952,0.5 F,0,129952,130452,1,0
Sprite,Background,Centre,"sb/glow.png",173,432 C,0,129971,129971,255,88,102 S,0,129971,129971,0.5 F,0,129971,130471,1,0
Sprite,Background,Centre,"sb/glow.png",165,435 C,0,129990,129990,255,88,102 S,0,129990,129990,0.5 F,0,129990,130490,1,0
Sprite,Background,Centre,"sb/glow.png",157,438 C,0,130009,130009,255,88,102 S,0,130009,130009,0.5 F,0,130009,130509,1,0
Sprite,Background,Centre,"sb/glow.png",149,440 C,0,130027,130027,255,88,102 S,0,130027,130027,0.5 F,0,130027,130527,1,0
Sprite,Background,Centre,"sb/glow.png",140,441 C,0,130046,130046,255,88,102 S,0,130046,130046,0.5 F,0,130046,130546,1,0
Sprite,Background,Centre,"sb/glow.png",131,441 C,0,130065,130065,255,88,102 S,0,130065,130065,0.5 F,0,130065,130565,1,0
Sprite,Background,Centre,"sb/glow.png",122,441 C,0,130084,130084,255,88,102 S,0,130084,130084,0.5 F,0,130084,130584,1,0
Sprite,Background,Centre,"sb/glow.png",124,424 C,0,130102,130102,255,88,102 S,0,130102,130102,0.5 F,0,130102,130602,1,0
Sprite,Background,Centre,"sb/glow.png",126,406 C,0,130121,130121,255,88,102 S,0,130121,130121,0.5 F,0,130121,130621,1,0
Sprite,Background,Centre,"sb/glow.png",127,390 C,0,130140,130140,255,88,102 S,0,130140,130140,0.5 F,0,130140,130640,1,0
Sprite,Background,Centre,"sb/glow.png",129,376 C,0,130159,130159,255,88,102 S,0,130159,130159,0.5 F,0,130159,130659,1,0
Sprite,Background,Centre,"sb/glow.png",130,365 C,0,130177,130177,255,88,102 S,0,130177,130177,0.5 F,0,130177,130677,1,0
Sprite,Background,Centre,"sb/glow.png",131,356 C,0,130196,130196,255,88,102 S,0,130196,130196,0.5 F,0,130196,130696,1,0
Sprite,Background,Centre,"sb/glow.png",132,351 C,0,130215,130215,255,88,102 S,0,130215,130215,0.5 F,0,130215,130715,1,0
Sprite,Background,Centre,"sb/glow.png",132,349 C,0,130234,130234,255,88,102 S,0,130234,130234,0.5 F,0,130234,130734,1,0
Sprite,Background,Centre,"sb/glow.png",133,341 C,0,130252,130252,255,88,102 S,0,130252,130252,0.5 F,0,130252,130752,1,0
Sprite,Background,Centre,"sb/glow.png",133,332 C,0,130271,130271,255,88,102 S,0,130271,130271,0.5 F,0,130271,130771,1,0
Sprite,Background,Centre,"sb/glow.png",134,323 C,0,130290,130290,255,88,102 S,0,130290,130290,0.5 F,0,130290,130790,1,0
Sprite,Background,Centre,"sb/glow.png",134,315 C,0,130309,130309,255,88,102 S,0,130309,130309,0.5 F,0,130309,130809,1,0
Sprite,Background,Centre,"sb/glow.png",135,306 C,0,130327,130327,255,88,102 S,0,130327,130327,0.5 F,0,130327,130827,1,0
Sprite,Background,Centre,"sb/glow.png",136,297 C,0,130346,130346,255,88,102 S,0,130346,130346,0.5 F,0,130346,130846,1,0
Sprite,Background,Centre,"sb/glow.png",136,288 C,0,130365,130365,255,88,102 S,0,130365,130365,0.5 F,0,130365,130865,1,0
Sprite,Background,Centre,"sb/glow.png",137,280 C,0,130384,130384,255,88,102 S,0,130384,130384,0.5 F,0,130384,130884,1,0
Sprite,Background,Centre,"sb/glow.png",137,271 C,0,130402,130402,255,88,102 S,0,130402,130402,0.5 F,0,130402,130902,1,0
Sprite,Background,Centre,"sb/glow.png",138,262 C,0,130421,130421,255,88,102 S,0,130421,130421,0.5 F,0,130421,130921,1,0
Sprite,Background,Centre,"sb/glow.png",139,253 C,0,130440,130440,255,88,102 S,0,130440,130440,0.5 F,0,130440,130940,1,0
Sprite,Background,Centre,"sb/glow.png",139,245 C,0,130459,130459,255,88,102 S,0,130459,130459,0.5 F,0,130459,130959,1,0
Sprite,Background,Centre,"sb/glow.png",140,236 C,0,130477,130477,255,88,102 S,0,130477,130477,0.5 F,0,130477,130977,1,0
Sprite,Background,Centre,"sb/glow.png",141,227 C,0,130496,130496,255,88,102 S,0,130496,130496,0.5 F,0,130496,130996,1,0
Sprite,Background,Centre,"sb/glow.png",141,219 C,0,130515,130515,255,88,102 S,0,130515,130515,0.5 F,0,130515,131015,1,0
Sprite,Background,Centre,"sb/glow.png",142,210 C,0,130534,130534,255,88,102 S,0,130534,130534,0.5 F,0,130534,131034,1,0
Sprite,Background,Centre,"sb/glow.png",139,193 C,0,130552,130552,255,88,102 S,0,130552,130552,0.5 F,0,130552,131052,1,0
Sprite,Background,Centre,"sb/glow.png",135,176 C,0,130571,130571,255,88,102 S,0,130571,130571,0.5 F,0,130571,131071,1,0
Sprite,Background,Centre,"sb/glow.png",132,160 C,0,130590,130590,255,88,102 S,0,130590,130590,0.5 F,0,130590,131090,1,0
Sprite,Background,Centre,"sb/glow.png",129,146 C,0,130609,130609,255,88,102 S,0,130609,130609,0.5 F,0,130609,131109,1,0
Sprite,Background,Centre,"sb/glow.png",127,135 C,0,130627,130627,255,88,102 S,0,130627,130627,0.5 F,0,130627,131127,1,0
Sprite,Background,Centre,"sb/glow.png",125,126 C,0,130646,130646,255,88,102 S,0,130646,130646,0.5 F,0,130646,131146,1,0
Sprite,Background,Centre,"sb/glow.png",124,121 C,0,130665,130665,255,88,102 S,0,130665,130665,0.5 F,0,130665,131165,1,0
Sprite,Background,Centre,"sb/glow.png",124,119 C,0,130684,130684,255,88,102 S,0,130684,130684,0.5 F,0,130684,131184,1,0
Sprite,Background,Centre,"sb/glow.png",140,124 C,0,130702,130702,255,88,102 S,0,130702,130702,0.5 F,0,130702,131202,1,0
Sprite,Background,Centre,"sb/glow.png",156,130 C,0,130721,130721,255,88,102 S,0,130721,130721,0.5 F,0,130721,131221,1,0
Sprite,Background,Centre,"sb/glow.png",172,135 C,0,130740,130740,255,88,102 S,0,130740,130740,0.5 F,0,130740,131240,1,0
Sprite,Background,Centre,"sb/glow.png",185,139 C,0,130759,130759,255,88,102 S,0,130759,130759,0.5 F,0,130759,131259,1,0
Sprite,Background,Centre,"sb/glow.png",196,143 C,0,130777,130777,255,88,102 S,0,130777,130777,0.5 F,0,130777,131277,1,0
Sprite,Background,Centre,"sb/glow.png",204,146 C,0,130796,130796,255,88,102 S,0,130796,130796,0.5 F,0,130796,131296,1,0
Sprite,Background,Centre,"sb/glow.png",209,147 C,0,130815,130815,255,88,102 S,0,130815,130815,0.5 F,0,130815,131315,1,0
Sprite,Background,Centre,"sb/glow.png",211,148 C,0,130834,130834,255,88,102 S,0,130834,130834,0.5 F,0,130834,131334,1,0
Sprite,Background,Centre,"sb/glow.png",219,150 C,0,130852,130852,255,0,255 S,0,130852,130852,0.5 F,0,130852,131352,1,0
Sprite,Background,Centre,"sb/glow.png",228,152 C,0,130871,130871,255,0,255 S,0,130871,130871,0.5 F,0,130871,131371,1,0
Sprite,Background,Centre,"sb/glow.png",236,154 C,0,130890,130890,255,0,255 S,0,130890,130890,0.5 F,0,130890,131390,1,0
Sprite,Background,Centre,"sb/glow.png",245,156 C,0,130909,130909,255,0,255 S,0,130909,130909,0.5 F,0,130909,131409,1,0
Sprite,Background,Centre,"sb/glow.png",253,154 C,0,130927,130927,255,0,255 S,0,130927,130927,0.5 F,0,130927,131427,1,0
Sprite,Background,Centre,"sb/glow.png",262,153 C,0,130946,130946,255,0,255 S,0,130946,130946,0.5 F,0,130946,131446,1,0
Sprite,Background,Centre,"sb/glow.png",270,151 C,0,130965,130965,255,0,255 S,0,130965,130965,0.5 F,0,130965,131465,1,0
Sprite,Background,Centre,"sb/glow.png",279,149 C,0,130984,130984,255,0,255 S,0,130984,130984,0.5 F,0,130984,131484,1,0
Sprite,Background,Centre,"sb/glow.png",291,136 C,0,131002,131002,255,0,255 S,0,131002,131002,0.5 F,0,131002,131502,1,0
Sprite,Background,Centre,"sb/glow.png",303,124 C,0,131021,131021,255,0,255 S,0,131021,131021,0.5 F,0,131021,131521,1,0
Sprite,Background,Centre,"sb/glow.png",315,113 C,0,131040,131040,255,0,255 S,0,131040,131040,0.5 F,0,131040,131540,1,0
Sprite,Background,Centre,"sb/glow.png",325,103 C,0,131059,131059,255,0,255 S,0,131059,131059,0.5 F,0,131059,131559,1,0
Sprite,Background,Centre,"sb/glow.png",333,94 C,0,131077,131077,255,0,255 S,0,131077,131077,0.5 F,0,131077,131577,1,0
Sprite,Background,Centre,"sb/glow.png",339,88 C,0,131096,131096,255,0,255 S,0,131096,131096,0.5 F,0,131096,131596,1,0
Sprite,Background,Centre,"sb/glow.png",343,84 C,0,131115,131115,255,0,255 S,0,131115,131115,0.5 F,0,131115,131615,1,0
Sprite,Background,Centre,"sb/glow.png",344,83 C,0,131134,131134,255,0,255 S,0,131134,131134,0.5 F,0,131134,131634,1,0
Sprite,Background,Centre,"sb/glow.png",352,81 C,0,131152,131152,255,0,255 S,0,131152,131152,0.5 F,0,131152,131652,1,0
Sprite,Background,Centre,"sb/glow.png",361,79 C,0,131171,131171,255,0,255 S,0,131171,131171,0.5 F,0,131171,131671,1,0
Sprite,Background,Centre,"sb/glow.png",369,78 C,0,131190,131190,255,0,255 S,0,131190,131190,0.5 F,0,131190,131690,1,0
Sprite,Background,Centre,"sb/glow.png",378,76 C,0,131209,131209,255,0,255 S,0,131209,131209,0.5 F,0,131209,131709,1,0
Sprite,Background,Centre,"sb/glow.png",386,78 C,0,131227,131227,255,0,255 S,0,131227,131227,0.5 F,0,131227,131727,1,0
Sprite,Background,Centre,"sb/glow.png",395,80 C,0,131246,131246,255,0,255 S,0,131246,131246,0.5 F,0,131246,131746,1,0
Sprite,Background,Centre,"sb/glow.png",403,82 C,0,131265,131265,255,0,255 S,0,131265,131265,0.5 F,0,131265,131765,1,0
Sprite,Background,Centre,"sb/glow.png",412,84 C,0,131284,131284,255,0,255 S,0,131284,131284,0.5 F,0,131284,131784,1,0
Sprite,Background,Centre,"sb/glow.png",426,94 C,0,131302,131302,255,0,255 S,0,131302,131302,0.5 F,0,131302,131802,1,0
Sprite,Background,Centre,"sb/glow.png",440,103 C,0,131321,131321,255,0,255 S,0,131321,131321,0.5 F,0,131321,131821,1,0
Sprite,Background,Centre,"sb/glow.png",454,112 C,0,131340,131340,255,0,255 S,0,131340,131340,0.5 F,0,131340,131840,1,0
Sprite,Background,Centre,"sb/glow.png",465,120 C,0,131359,131359,255,0,255 S,0,131359,131359,0.5 F,0,131359,131859,1,0
Sprite,Background,Centre,"sb/glow.png",475,127 C,0,131377,131377,255,0,255 S,0,131377,131377,0.5 F,0,131377,131877,1,0
Sprite,Background,Centre,"sb/glow.png",482,132 C,0,131396,131396,255,0,255 S,0,131396,131396,0.5 F,0,131396,131896,1,0
Sprite,Background,Centre,"sb/glow.png",486,135 C,0,131415,131415,255,0,255 S,0,131415,131415,0.5 F,0,131415,131915,1,0
Sprite,Background,Centre,"sb/glow.png",488,136 C,0,131434,131434,255,0,255 S,0,131434,131434,0.5 F,0,131434,131934,1,0
Sprite,Background,Centre,"sb/glow.png",487,144 C,0,131452,131452,255,0,255 S,0,131452,131452,0.5 F,0,131452,131952,1,0
Sprite,Background,Centre,"sb/glow.png",486,153 C,0,131471,131471,255,0,255 S,0,131471,131471,0.5 F,0,131471,131971,1,0
Sprite,Background,Centre,"sb/glow.png",485,162 C,0,131490,131490,255,0,255 S,0,131490,131490,0.5 F,0,131490,131990,1,0
Sprite,Background,Centre,"sb/glow.png",485,170 C,0,131509,131509,255,0,255 S,0,131509,131509,0.5 F,0,131509,132009,1,0
Sprite,Background,Centre,"sb/glow.png",484,179 C,0,131527,131527,255,0,255 S,0,131527,131527,0.5 F,0,131527,132027,1,0
Sprite,Background,Centre,"sb/glow.png",483,188 C,0,131546,131546,255,0,255 S,0,131546,131546,0.5 F,0,131546,132046,1,0
Sprite,Background,Centre,"sb/glow.png",482,196 C,0,131565,131565,255,0,255 S,0,131565,131565,0.5 F,0,131565,132065,1,0
Sprite,Background,Centre,"sb/glow.png",481,205 C,0,131584,131584,255,0,255 S,0,131584,131584,0.5 F,0,131584,132084,1,0
Sprite,Background,Centre,"sb/glow.png",491,219 C,0,131602,131602,255,0,255 S,0,131602,131602,0.5 F,0,131602,132102,1,0
Sprite,Background,Centre,"sb/glow.png",502,233 C,0,131621,131621,255,0,255 S,0,131621,131621,0.5 F,0,131621,132121,1,0
Sprite,Background,Centre,"sb/glow.png",512,246 C,0,131640,131640,255,0,255 S,0,131640,131640,0.5 F,0,131640,132140,1,0
Sprite,Background,Centre,"sb/glow.png",520,257 C,0,131659,131659,255,0,255 S,0,131659,131659,0.5 F,0,131659,132159,1,0
Sprite,Background,Centre,"sb/glow.png",527,266 C,0,131677,131677,255,0,255 S,0,131677,131677,0.5 F,0,131677,132177,1,0
Sprite,Background,Centre,"sb/glow.png",533,273 C,0,131696,131696,255,0,255 S,0,131696,131696,0.5 F,0,131696,132196,1,0
Sprite,Background,Centre,"sb/glow.png",536,277 C,0,131715,131715,255,0,255 S,0,131715,131715,0.5 F,0,131715,132215,1,0
Sprite,Background,Centre,"sb/glow.png",537,279 C,0,131734,131734,255,0,255 S,0,131734,131734,0.5 F,0,131734,132234,1,0
Sprite,Background,Centre,"sb/glow.png",538,287 C,0,131752,131752,255,0,255 S,0,131752,131752,0.5 F,0,131752,132252,1,0
Sprite,Background,Centre,"sb/glow.png",539,296 C,0,131771,131771,255,0,255 S,0,131771,131771,0.5 F,0,131771,132271,1,0
Sprite,Background,Centre,"sb/glow.png",540,305 C,0,131790,131790,255,0,255 S,0,131790,131790,0.5 F,0,131790,132290,1,0
Sprite,Background,Centre,"sb/glow.png",540,313 C,0,131809,131809,255,0,255 S,0,131809,131809,0.5 F,0,131809,132309,1,0
Sprite,Background,Centre,"sb/glow.png",541,322 C,0,131827,131827,255,0,255 S,0,131827,131827,0.5 F,0,131827,132327,1,0
Sprite,Background,Centre,"sb/glow.png",542,331 C,0,131846,131846,255,0,255 S,0,131846,131846,0.5 F,0,131846,132346,1,0
Sprite,Background,Centre,"sb/glow.png",543,339 C,0,131865,131865,255,0,255 S,0,131865,131865,0.5 F,0,131865,132365,1,0
Sprite,Background,Centre,"sb/glow.png",544,348 C,0,131884,131884,255,0,255 S,0,131884,131884,0.5 F,0,131884,132384,1,0
Sprite,Background,Centre,"sb/glow.png",534,363 C,0,131902,131902,255,0,255 S,0,131902,131902,0.5 F,0,131902,132402,1,0
Sprite,Background,Centre,"sb/glow.png",524,377 C,0,131921,131921,255,0,255 S,0,131921,131921,0.5 F,0,131921,132421,1,0
Sprite,Background,Centre,"sb/glow.png",515,390 C,0,131940,131940,255,0,255 S,0,131940,131940,0.5 F,0,131940,132440,1,0
Sprite,Background,Centre,"sb/glow.png",507,402 C,0,131959,131959,255,0,255 S,0,131959,131959,0.5 F,0,131959,132459,1,0
Sprite,Background,Centre,"sb/glow.png",500,412 C,0,131977,131977,255,0,255 S,0,131977,131977,0.5 F,0,131977,132477,1,0
Sprite,Background,Centre,"sb/glow.png",495,419 C,0,131996,131996,255,0,255 S,0,131996,131996,0.5 F,0,131996,132496,1,0
Sprite,Background,Centre,"sb/glow.png",492,423 C,0,132015,132015,255,0,255 S,0,132015,132015,0.5 F,0,132015,132515,1,0
Sprite,Background,Centre,"sb/glow.png",491,425 C,0,132034,132034,255,0,255 S,0,132034,132034,0.5 F,0,132034,132534,1,0
Sprite,Background,Centre,"sb/glow.png",487,418 C,0,132052,132052,255,128,192 S,0,132052,132052,0.5 F,0,132052,132552,1,0
Sprite,Background,Centre,"sb/glow.png",481,411 C,0,132071,132071,255,128,192 S,0,132071,132071,0.5 F,0,132071,132571,1,0
Sprite,Background,Centre,"sb/glow.png",476,405 C,0,132090,132090,255,128,192 S,0,132090,132090,0.5 F,0,132090,132590,1,0
Sprite,Background,Centre,"sb/glow.png",469,399 C,0,132109,132109,255,128,192 S,0,132109,132109,0.5 F,0,132109,132609,1,0
Sprite,Background,Centre,"sb/glow.png",462,393 C,0,132127,132127,255,128,192 S,0,132127,132127,0.5 F,0,132127,132627,1,0
Sprite,Background,Centre,"sb/glow.png",455,389 C,0,132146,132146,255,128,192 S,0,132146,132146,0.5 F,0,132146,132646,1,0
Sprite,Background,Centre,"sb/glow.png",447,385 C,0,132165,132165,255,128,192 S,0,132165,132165,0.5 F,0,132165,132665,1,0
Sprite,Background,Centre,"sb/glow.png",439,382 C,0,132184,132184,255,128,192 S,0,132184,132184,0.5 F,0,132184,132684,1,0
Sprite,Background,Centre,"sb/glow.png",430,379 C,0,132202,132202,255,128,192 S,0,132202,132202,0.5 F,0,132202,132702,1,0
Sprite,Background,Centre,"sb/glow.png",422,377 C,0,132221,132221,255,128,192 S,0,132221,132221,0.5 F,0,132221,132721,1,0
Sprite,Background,Centre,"sb/glow.png",413,377 C,0,132240,132240,255,128,192 S,0,132240,132240,0.5 F,0,132240,132740,1,0
Sprite,Background,Centre,"sb/glow.png",405,376 C,0,132259,132259,255,128,192 S,0,132259,132259,0.5 F,0,132259,132759,1,0
Sprite,Background,Centre,"sb/glow.png",396,377 C,0,132277,132277,255,128,192 S,0,132277,132277,0.5 F,0,132277,132777,1,0
Sprite,Background,Centre,"sb/glow.png",387,379 C,0,132296,132296,255,128,192 S,0,132296,132296,0.5 F,0,132296,132796,1,0
Sprite,Background,Centre,"sb/glow.png",379,381 C,0,132315,132315,255,128,192 S,0,132315,132315,0.5 F,0,132315,132815,1,0
Sprite,Background,Centre,"sb/glow.png",371,384 C,0,132334,132334,255,128,192 S,0,132334,132334,0.5 F,0,132334,132834,1,0
Sprite,Background,Centre,"sb/glow.png",356,393 C,0,132352,132352,255,128,192 S,0,132352,132352,0.5 F,0,132352,132852,1,0
Sprite,Background,Centre,"sb/glow.png",341,402 C,0,132371,132371,255,128,192 S,0,132371,132371,0.5 F,0,132371,132871,1,0
Sprite,Background,Centre,"sb/glow.png",327,410 C,0,132390,132390,255,128,192 S,0,132390,132390,0.5 F,0,132390,132890,1,0
Sprite,Background,Centre,"sb/glow.png",315,418 C,0,132409,132409,255,128,192 S,0,132409,132409,0.5 F,0,132409,132909,1,0
Sprite,Background,Centre,"sb/glow.png",305,424 C,0,132427,132427,255,128,192 S,0,132427,132427,0.5 F,0,132427,132927,1,0
Sprite,Background,Centre,"sb/glow.png",297,428 C,0,132446,132446,255,128,192 S,0,132446,132446,0.5 F,0,132446,132946,1,0
Sprite,Background,Centre,"sb/glow.png",293,431 C,0,132465,132465,255,128,192 S,0,132465,132465,0.5 F,0,132465,132965,1,0
Sprite,Background,Centre,"sb/glow.png",291,432 C,0,132484,132484,255,128,192 S,0,132484,132484,0.5 F,0,132484,132984,1,0
Sprite,Background,Centre,"sb/glow.png",291,432 C,0,132502,132502,255,128,192 S,0,132502,132502,0.5 F,0,132502,133002,1,0
Sprite,Background,Centre,"sb/glow.png",291,432 C,0,132521,132521,255,128,192 S,0,132521,132521,0.5 F,0,132521,133021,1,0
Sprite,Background,Centre,"sb/glow.png",291,432 C,0,132540,132540,255,128,192 S,0,132540,132540,0.5 F,0,132540,133040,1,0
Sprite,Background,Centre,"sb/glow.png",291,432 C,0,132559,132559,255,128,192 S,0,132559,132559,0.5 F,0,132559,133059,1,0
Sprite,Background,Centre,"sb/glow.png",291,432 C,0,132577,132577,255,128,192 S,0,132577,132577,0.5 F,0,132577,133077,1,0
Sprite,Background,Centre,"sb/glow.png",291,432 C,0,132596,132596,255,128,192 S,0,132596,132596,0.5 F,0,132596,133096,1,0
Sprite,Background,Centre,"sb/glow.png",291,432 C,0,132615,132615,255,128,192 S,0,132615,132615,0.5 F,0,132615,133115,1,0
Sprite,Background,Centre,"sb/glow.png",291,432 C,0,132634,132634,255,128,192 S,0,132634,132634,0.5 F,0,132634,133134,1,0
Sprite,Background,Centre,"sb/glow.png",290,424 C,0,132652,132652,255,128,192 S,0,132652,132652,0.5 F,0,132652,133152,1,0
Sprite,Background,Centre,"sb/glow.png",289,415 C,0,132671,132671,255,128,192 S,0,132671,132671,0.5 F,0,132671,133171,1,0
Sprite,Background,Centre,"sb/glow.png",288,406 C,0,132690,132690,255,128,192 S,0,132690,132690,0.5 F,0,132690,133190,1,0
Sprite,Background,Centre,"sb/glow.png",287,398 C,0,132709,132709,255,128,192 S,0,132709,132709,0.5 F,0,132709,133209,1,0
Sprite,Background,Centre,"sb/glow.png",286,389 C,0,132727,132727,255,128,192 S,0,132727,132727,0.5 F,0,132727,133227,1,0
Sprite,Background,Centre,"sb/glow.png",286,380 C,0,132746,132746,255,128,192 S,0,132746,132746,0.5 F,0,132746,133246,1,0
Sprite,Background,Centre,"sb/glow.png",285,372 C,0,132765,132765,255,128,192 S,0,132765,132765,0.5 F,0,132765,133265,1,0
Sprite,Background,Centre,"sb/glow.png",284,363 C,0,132784,132784,255,128,192 S,0,132784,132784,0.5 F,0,132784,133284,1,0
Sprite,Background,Centre,"sb/glow.png",287,346 C,0,132802,132802,255,128,192 S,0,132802,132802,0.5 F,0,132802,133302,1,0
Sprite,Background,Centre,"sb/glow.png",290,329 C,0,132821,132821,255,128,192 S,0,132821,132821,0.5 F,0,132821,133321,1,0
Sprite,Background,Centre,"sb/glow.png",293,314 C,0,132840,132840,255,128,192 S,0,132840,132840,0.5 F,0,132840,133340,1,0
Sprite,Background,Centre,"sb/glow.png",296,300 C,0,132859,132859,255,128,192 S,0,132859,132859,0.5 F,0,132859,133359,1,0
Sprite,Background,Centre,"sb/glow.png",298,289 C,0,132877,132877,255,128,192 S,0,132877,132877,0.5 F,0,132877,133377,1,0
Sprite,Background,Centre,"sb/glow.png",300,280 C,0,132896,132896,255,128,192 S,0,132896,132896,0.5 F,0,132896,133396,1,0
Sprite,Background,Centre,"sb/glow.png",301,275 C,0,132915,132915,255,128,192 S,0,132915,132915,0.5 F,0,132915,133415,1,0
Sprite,Background,Centre,"sb/glow.png",301,273 C,0,132934,132934,255,128,192 S,0,132934,132934,0.5 F,0,132934,133434,1,0
Sprite,Background,Centre,"sb/glow.png",285,279 C,0,132952,132952,255,128,192 S,0,132952,132952,0.5 F,0,132952,133452,1,0
Sprite,Background,Centre,"sb/glow.png",268,284 C,0,132971,132971,255,128,192 S,0,132971,132971,0.5 F,0,132971,133471,1,0
Sprite,Background,Centre,"sb/glow.png",253,289 C,0,132990,132990,255,128,192 S,0,132990,132990,0.5 F,0,132990,133490,1,0
Sprite,Background,Centre,"sb/glow.png",239,294 C,0,133009,133009,255,128,192 S,0,133009,133009,0.5 F,0,133009,133509,1,0
Sprite,Background,Centre,"sb/glow.png",228,298 C,0,133027,133027,255,128,192 S,0,133027,133027,0.5 F,0,133027,133527,1,0
Sprite,Background,Centre,"sb/glow.png",220,301 C,0,133046,133046,255,128,192 S,0,133046,133046,0.5 F,0,133046,133546,1,0
Sprite,Background,Centre,"sb/glow.png",215,302 C,0,133065,133065,255,128,192 S,0,133065,133065,0.5 F,0,133065,133565,1,0
Sprite,Background,Centre,"sb/glow.png",213,303 C,0,133084,133084,255,128,192 S,0,133084,133084,0.5 F,0,133084,133584,1,0
Sprite,Background,Centre,"sb/glow.png",200,292 C,0,133102,133102,255,128,192 S,0,133102,133102,0.5 F,0,133102,133602,1,0
Sprite,Background,Centre,"sb/glow.png",187,281 C,0,133121,133121,255,128,192 S,0,133121,133121,0.5 F,0,133121,133621,1,0
Sprite,Background,Centre,"sb/glow.png",175,270 C,0,133140,133140,255,128,192 S,0,133140,133140,0.5 F,0,133140,133640,1,0
Sprite,Background,Centre,"sb/glow.png",165,261 C,0,133159,133159,255,128,192 S,0,133159,133159,0.5 F,0,133159,133659,1,0
Sprite,Background,Centre,"sb/glow.png",156,253 C,0,133177,133177,255,128,192 S,0,133177,133177,0.5 F,0,133177,133677,1,0
Sprite,Background,Centre,"sb/glow.png",150,248 C,0,133196,133196,255,128,192 S,0,133196,133196,0.5 F,0,133196,133696,1,0
Sprite,Background,Centre,"sb/glow.png",145,244 C,0,133215,133215,255,128,192 S,0,133215,133215,0.5 F,0,133215,133715,1,0
Sprite,Background,Centre,"sb/glow.png",144,243 C,0,133234,133234,255,128,192 S,0,133234,133234,0.5 F,0,133234,133734,1,0
Sprite,Background,Centre,"sb/glow.png",143,235 C,0,133252,133252,255,0,128 S,0,133252,133252,0.5 F,0,133252,133752,1,0
Sprite,Background,Centre,"sb/glow.png",142,226 C,0,133271,133271,255,0,128 S,0,133271,133271,0.5 F,0,133271,133771,1,0
Sprite,Background,Centre,"sb/glow.png",141,217 C,0,133290,133290,255,0,128 S,0,133290,133290,0.5 F,0,133290,133790,1,0
Sprite,Background,Centre,"sb/glow.png",141,209 C,0,133309,133309,255,0,128 S,0,133309,133309,0.5 F,0,133309,133809,1,0
Sprite,Background,Centre,"sb/glow.png",140,200 C,0,133327,133327,255,0,128 S,0,133327,133327,0.5 F,0,133327,133827,1,0
Sprite,Background,Centre,"sb/glow.png",139,191 C,0,133346,133346,255,0,128 S,0,133346,133346,0.5 F,0,133346,133846,1,0
Sprite,Background,Centre,"sb/glow.png",138,183 C,0,133365,133365,255,0,128 S,0,133365,133365,0.5 F,0,133365,133865,1,0
Sprite,Background,Centre,"sb/glow.png",137,174 C,0,133384,133384,255,0,128 S,0,133384,133384,0.5 F,0,133384,133884,1,0
Sprite,Background,Centre,"sb/glow.png",133,157 C,0,133402,133402,255,0,128 S,0,133402,133402,0.5 F,0,133402,133902,1,0
Sprite,Background,Centre,"sb/glow.png",128,140 C,0,133421,133421,255,0,128 S,0,133421,133421,0.5 F,0,133421,133921,1,0
Sprite,Background,Centre,"sb/glow.png",124,124 C,0,133440,133440,255,0,128 S,0,133440,133440,0.5 F,0,133440,133940,1,0
Sprite,Background,Centre,"sb/glow.png",121,110 C,0,133459,133459,255,0,128 S,0,133459,133459,0.5 F,0,133459,133959,1,0
Sprite,Background,Centre,"sb/glow.png",118,99 C,0,133477,133477,255,0,128 S,0,133477,133477,0.5 F,0,133477,133977,1,0
Sprite,Background,Centre,"sb/glow.png",116,90 C,0,133496,133496,255,0,128 S,0,133496,133496,0.5 F,0,133496,133996,1,0
Sprite,Background,Centre,"sb/glow.png",114,85 C,0,133515,133515,255,0,128 S,0,133515,133515,0.5 F,0,133515,134015,1,0
Sprite,Background,Centre,"sb/glow.png",114,83 C,0,133534,133534,255,0,128 S,0,133534,133534,0.5 F,0,133534,134034,1,0
Sprite,Background,Centre,"sb/glow.png",130,88 C,0,133552,133552,255,0,128 S,0,133552,133552,0.5 F,0,133552,134052,1,0
Sprite,Background,Centre,"sb/glow.png",147,93 C,0,133571,133571,255,0,128 S,0,133571,133571,0.5 F,0,133571,134071,1,0
Sprite,Background,Centre,"sb/glow.png",163,97 C,0,133590,133590,255,0,128 S,0,133590,133590,0.5 F,0,133590,134090,1,0
Sprite,Background,Centre,"sb/glow.png",176,101 C,0,133609,133609,255,0,128 S,0,133609,133609,0.5 F,0,133609,134109,1,0
Sprite,Background,Centre,"sb/glow.png",187,104 C,0,133627,133627,255,0,128 S,0,133627,133627,0.5 F,0,133627,134127,1,0
Sprite,Background,Centre,"sb/glow.png",196,107 C,0,133646,133646,255,0,128 S,0,133646,133646,0.5 F,0,133646,134146,1,0
Sprite,Background,Centre,"sb/glow.png",201,108 C,0,133665,133665,255,0,128 S,0,133665,133665,0.5 F,0,133665,134165,1,0
Sprite,Background,Centre,"sb/glow.png",203,109 C,0,133684,133684,255,0,128 S,0,133684,133684,0.5 F,0,133684,134184,1,0
Sprite,Background,Centre,"sb/glow.png",203,109 C,0,133702,133702,255,0,128 S,0,133702,133702,0.5 F,0,133702,134202,1,0
Sprite,Background,Centre,"sb/glow.png",203,109 C,0,133721,133721,255,0,128 S,0,133721,133721,0.5 F,0,133721,134221,1,0
Sprite,Background,Centre,"sb/glow.png",203,109 C,0,133740,133740,255,0,128 S,0,133740,133740,0.5 F,0,133740,134240,1,0
Sprite,Background,Centre,"sb/glow.png",203,109 C,0,133759,133759,255,0,128 S,0,133759,133759,0.5 F,0,133759,134259,1,0
Sprite,Background,Centre,"sb/glow.png",203,109 C,0,133777,133777,255,0,128 S,0,133777,133777,0.5 F,0,133777,134277,1,0
Sprite,Background,Centre,"sb/glow.png",203,109 C,0,133796,133796,255,0,128 S,0,133796,133796,0.5 F,0,133796,134296,1,0
Sprite,Background,Centre,"sb/glow.png",203,109 C,0,133815,133815,255,0,128 S,0,133815,133815,0.5 F,0,133815,134315,1,0
Sprite,Background,Centre,"sb/glow.png",203,109 C,0,133834,133834,255,0,128 S,0,133834,133834,0.5 F,0,133834,134334,1,0
Sprite,Background,Centre,"sb/glow.png",210,114 C,0,133852,133852,255,0,128 S,0,133852,133852,0.5 F,0,133852,134352,1,0
Sprite,Background,Centre,"sb/glow.png",218,118 C,0,133871,133871,255,0,128 S,0,133871,133871,0.5 F,0,133871,134371,1,0
Sprite,Background,Centre,"sb/glow.png",226,121 C,0,133890,133890,255,0,128 S,0,133890,133890,0.5 F,0,133890,134390,1,0
Sprite,Background,Centre,"sb/glow.png",234,124 C,0,133909,133909,255,0,128 S,0,133909,133909,0.5 F,0,133909,134409,1,0
Sprite,Background,Centre,"sb/glow.png",242,126 C,0,133927,133927,255,0,128 S,0,133927,133927,0.5 F,0,133927,134427,1,0
Sprite,Background,Centre,"sb/glow.png",251,127 C,0,133946,133946,255,0,128 S,0,133946,133946,0.5 F,0,133946,134446,1,0
Sprite,Background,Centre,"sb/glow.png",260,127 C,0,133965,133965,255,0,128 S,0,133965,133965,0.5 F,0,133965,134465,1,0
Sprite,Background,Centre,"sb/glow.png",268,126 C,0,133984,133984,255,0,128 S,0,133984,133984,0.5 F,0,133984,134484,1,0
Sprite,Background,Centre,"sb/glow.png",277,125 C,0,134002,134002,255,0,128 S,0,134002,134002,0.5 F,0,134002,134502,1,0
Sprite,Background,Centre,"sb/glow.png",285,122 C,0,134021,134021,255,0,128 S,0,134021,134021,0.5 F,0,134021,134521,1,0
Sprite,Background,Centre,"sb/glow.png",294,119 C,0,134040,134040,255,0,128 S,0,134040,134040,0.5 F,0,134040,134540,1,0
Sprite,Background,Centre,"sb/glow.png",302,115 C,0,134059,134059,255,0,128 S,0,134059,134059,0.5 F,0,134059,134559,1,0
Sprite,Background,Centre,"sb/glow.png",313,109 C,0,134077,134077,255,0,128 S,0,134077,134077,0.5 F,0,134077,134577,1,0
Sprite,Background,Centre,"sb/glow.png",323,104 C,0,134096,134096,255,0,128 S,0,134096,134096,0.5 F,0,134096,134596,1,0
Sprite,Background,Centre,"sb/glow.png",330,100 C,0,134115,134115,255,0,128 S,0,134115,134115,0.5 F,0,134115,134615,1,0
Sprite,Background,Centre,"sb/glow.png",333,99 C,0,134134,134134,255,0,128 S,0,134134,134134,0.5 F,0,134134,134634,1,0
Sprite,Background,Centre,"sb/glow.png",341,95 C,0,134152,134152,255,0,128 S,0,134152,134152,0.5 F,0,134152,134652,1,0
Sprite,Background,Centre,"sb/glow.png",349,93 C,0,134171,134171,255,0,128 S,0,134171,134171,0.5 F,0,134171,134671,1,0
Sprite,Background,Centre,"sb/glow.png",357,90 C,0,134190,134190,255,0,128 S,0,134190,134190,0.5 F,0,134190,134690,1,0
Sprite,Background,Centre,"sb/glow.png",366,89 C,0,134209,134209,255,0,128 S,0,134209,134209,0.5 F,0,134209,134709,1,0
Sprite,Background,Centre,"sb/glow.png",375,89 C,0,134227,134227,255,0,128 S,0,134227,134227,0.5 F,0,134227,134727,1,0
Sprite,Background,Centre,"sb/glow.png",383,89 C,0,134246,134246,255,0,128 S,0,134246,134246,0.5 F,0,134246,134746,1,0
Sprite,Background,Centre,"sb/glow.png",392,90 C,0,134265,134265,255,0,128 S,0,134265,134265,0.5 F,0,134265,134765,1,0
Sprite,Background,Centre,"sb/glow.png",400,92 C,0,134284,134284,255,0,128 S,0,134284,134284,0.5 F,0,134284,134784,1,0
Sprite,Background,Centre,"sb/glow.png",414,101 C,0,134302,134302,255,0,128 S,0,134302,134302,0.5 F,0,134302,134802,1,0
Sprite,Background,Centre,"sb/glow.png",429,111 C,0,134321,134321,255,0,128 S,0,134321,134321,0.5 F,0,134321,134821,1,0
Sprite,Background,Centre,"sb/glow.png",443,119 C,0,134340,134340,255,0,128 S,0,134340,134340,0.5 F,0,134340,134840,1,0
Sprite,Background,Centre,"sb/glow.png",455,127 C,0,134359,134359,255,0,128 S,0,134359,134359,0.5 F,0,134359,134859,1,0
Sprite,Background,Centre,"sb/glow.png",464,133 C,0,134377,134377,255,0,128 S,0,134377,134377,0.5 F,0,134377,134877,1,0
Sprite,Background,Centre,"sb/glow.png",472,138 C,0,134396,134396,255,0,128 S,0,134396,134396,0.5 F,0,134396,134896,1,0
Sprite,Background,Centre,"sb/glow.png",476,141 C,0,134415,134415,255,0,128 S,0,134415,134415,0.5 F,0,134415,134915,1,0
Sprite,Background,Centre,"sb/glow.png",478,142 C,0,134434,134434,255,0,128 S,0,134434,134434,0.5 F,0,134434,134934,1,0
Sprite,Background,Centre,"sb/glow.png",479,134 C,0,134452,134452,255,88,102 S,0,134452,134452,0.5 F,0,134452,134952,1,0
Sprite,Background,Centre,"sb/glow.png",480,125 C,0,134471,134471,255,88,102 S,0,134471,134471,0.5 F,0,134471,134971,1,0
Sprite,Background,Centre,"sb/glow.png",481,116 C,0,134490,134490,255,88,102 S,0,134490,134490,0.5 F,0,134490,134990,1,0
Sprite,Background,Centre,"sb/glow.png",482,108 C,0,134509,134509,255,88,102 S,0,134509,134509,0.5 F,0,134509,135009,1,0
Sprite,Background,Centre,"sb/glow.png",483,99 C,0,134527,134527,255,88,102 S,0,134527,134527,0.5 F,0,134527,135027,1,0
Sprite,Background,Centre,"sb/glow.png",483,90 C,0,134546,134546,255,88,102 S,0,134546,134546,0.5 F,0,134546,135046,1,0
Sprite,Background,Centre,"sb/glow.png",484,82 C,0,134565,134565,255,88,102 S,0,134565,134565,0.5 F,0,134565,135065,1,0
Sprite,Background,Centre,"sb/glow.png",485,73 C,0,134584,134584,255,88,102 S,0,134584,134584,0.5 F,0,134584,135084,1,0
Sprite,Background,Centre,"sb/glow.png",502,75 C,0,134602,134602,255,88,102 S,0,134602,134602,0.5 F,0,134602,135102,1,0
Sprite,Background,Centre,"sb/glow.png",519,77 C,0,134621,134621,255,88,102 S,0,134621,134621,0.5 F,0,134621,135121,1,0
Sprite,Background,Centre,"sb/glow.png",535,79 C,0,134640,134640,255,88,102 S,0,134640,134640,0.5 F,0,134640,135140,1,0
Sprite,Background,Centre,"sb/glow.png",549,81 C,0,134659,134659,255,88,102 S,0,134659,134659,0.5 F,0,134659,135159,1,0
Sprite,Background,Centre,"sb/glow.png",560,83 C,0,134677,134677,255,88,102 S,0,134677,134677,0.5 F,0,134677,135177,1,0
Sprite,Background,Centre,"sb/glow.png",569,84 C,0,134696,134696,255,88,102 S,0,134696,134696,0.5 F,0,134696,135196,1,0
Sprite,Background,Centre,"sb/glow.png",574,85 C,0,134715,134715,255,88,102 S,0,134715,134715,0.5 F,0,134715,135215,1,0
Sprite,Background,Centre,"sb/glow.png",576,85 C,0,134734,134734,255,88,102 S,0,134734,134734,0.5 F,0,134734,135234,1,0
Sprite,Background,Centre,"sb/glow.png",575,93 C,0,134752,134752,255,88,102 S,0,134752,134752,0.5 F,0,134752,135252,1,0
Sprite,Background,Centre,"sb/glow.png",574,102 C,0,134771,134771,255,88,102 S,0,134771,134771,0.5 F,0,134771,135271,1,0
Sprite,Background,Centre,"sb/glow.png",573,111 C,0,134790,134790,255,88,102 S,0,134790,134790,0.5 F,0,134790,135290,1,0
Sprite,Background,Centre,"sb/glow.png",573,119 C,0,134809,134809,255,88,102 S,0,134809,134809,0.5 F,0,134809,135309,1,0
Sprite,Background,Centre,"sb/glow.png",572,128 C,0,134827,134827,255,88,102 S,0,134827,134827,0.5 F,0,134827,135327,1,0
Sprite,Background,Centre,"sb/glow.png",571,137 C,0,134846,134846,255,88,102 S,0,134846,134846,0.5 F,0,134846,135346,1,0
Sprite,Background,Centre,"sb/glow.png",570,145 C,0,134865,134865,255,88,102 S,0,134865,134865,0.5 F,0,134865,135365,1,0
Sprite,Background,Centre,"sb/glow.png",569,154 C,0,134884,134884,255,88,102 S,0,134884,134884,0.5 F,0,134884,135384,1,0
Sprite,Background,Centre,"sb/glow.png",559,168 C,0,134902,134902,255,88,102 S,0,134902,134902,0.5 F,0,134902,135402,1,0
Sprite,Background,Centre,"sb/glow.png",548,182 C,0,134921,134921,255,88,102 S,0,134921,134921,0.5 F,0,134921,135421,1,0
Sprite,Background,Centre,"sb/glow.png",538,195 C,0,134940,134940,255,88,102 S,0,134940,134940,0.5 F,0,134940,135440,1,0
Sprite,Background,Centre,"sb/glow.png",530,206 C,0,134959,134959,255,88,102 S,0,134959,134959,0.5 F,0,134959,135459,1,0
Sprite,Background,Centre,"sb/glow.png",523,215 C,0,134977,134977,255,88,102 S,0,134977,134977,0.5 F,0,134977,135477,1,0
Sprite,Background,Centre,"sb/glow.png",517,222 C,0,134996,134996,255,88,102 S,0,134996,134996,0.5 F,0,134996,135496,1,0
Sprite,Background,Centre,"sb/glow.png",514,226 C,0,135015,135015,255,88,102 S,0,135015,135015,0.5 F,0,135015,135515,1,0
Sprite,Background,Centre,"sb/glow.png",513,228 C,0,135034,135034,255,88,102 S,0,135034,135034,0.5 F,0,135034,135534,1,0
Sprite,Background,Centre,"sb/glow.png",513,228 C,0,135052,135052,255,0,255 S,0,135052,135052,0.5 F,0,135052,135552,1,0
Sprite,Background,Centre,"sb/glow.png",513,228 C,0,135071,135071,255,0,255 S,0,135071,135071,0.5 F,0,135071,135571,1,0
Sprite,Background,Centre,"sb/glow.png",513,228 C,0,135090,135090,255,0,255 S,0,135090,135090,0.5 F,0,135090,135590,1,0
Sprite,Background,Centre,"sb/glow.png",513,228 C,0,135109,135109,255,0,255 S,0,135109,135109,0.5 F,0,135109,135609,1,0
Sprite,Background,Centre,"sb/glow.png",513,228 C,0,135127,135127,255,0,255 S,0,135127,135127,0.5 F,0,135127,135627,1,0
Sprite,Background,Centre,"sb/glow.png",513,228 C,0,135146,135146,255,0,255 S,0,135146,135146,0.5 F,0,135146,135646,1,0
Sprite,Background,Centre,"sb/glow.png",513,228 C,0,135165,135165,255,0,255 S,0,135165,135165,0.5 F,0,135165,135665,1,0
Sprite,Background,Centre,"sb/glow.png",513,228 C,0,135184,135184,255,0,255 S,0,135184,135184,0.5 F,0,135184,135684,1,0
Sprite,Background,Centre,"sb/glow.png",519,244 C,0,135202,135202,255,0,255 S,0,135202,135202,0.5 F,0,135202,135702,1,0
Sprite,Background,Centre,"sb/glow.png",526,260 C,0,135221,135221,255,0,255 S,0,135221,135221,0.5 F,0,135221,135721,1,0
Sprite,Background,Centre,"sb/glow.png",532,275 C,0,135240,135240,255,0,255 S,0,135240,135240,0.5 F,0,135240,135740,1,0
Sprite,Background,Centre,"sb/glow.png",537,288 C,0,135259,135259,255,0,255 S,0,135259,135259,0.5 F,0,135259,135759,1,0
Sprite,Background,Centre,"sb/glow.png",541,299 C,0,135277,135277,255,0,255 S,0,135277,135277,0.5 F,0,135277,135777,1,0
Sprite,Background,Centre,"sb/glow.png",544,307 C,0,135296,135296,255,0,255 S,0,135296,135296,0.5 F,0,135296,135796,1,0
Sprite,Background,Centre,"sb/glow.png",546,312 C,0,135315,135315,255,0,255 S,0,135315,135315,0.5 F,0,135315,135815,1,0
Sprite,Background,Centre,"sb/glow.png",547,314 C,0,135334,135334,255,0,255 S,0,135334,135334,0.5 F,0,135334,135834,1,0
Sprite,Background,Centre,"sb/glow.png",547,314 C,0,135352,135352,255,0,255 S,0,135352,135352,0.5 F,0,135352,135852,1,0
Sprite,Background,Centre,"sb/glow.png",547,314 C,0,135371,135371,255,0,255 S,0,135371,135371,0.5 F,0,135371,135871,1,0
Sprite,Background,Centre,"sb/glow.png",547,314 C,0,135390,135390,255,0,255 S,0,135390,135390,0.5 F,0,135390,135890,1,0
Sprite,Background,Centre,"sb/glow.png",547,314 C,0,135409,135409,255,0,255 S,0,135409,135409,0.5 F,0,135409,135909,1,0
Sprite,Background,Centre,"sb/glow.png",547,314 C,0,135427,135427,255,0,255 S,0,135427,135427,0.5 F,0,135427,135927,1,0
Sprite,Background,Centre,"sb/glow.png",547,314 C,0,135446,135446,255,0,255 S,0,135446,135446,0.5 F,0,135446,135946,1,0
Sprite,Background,Centre,"sb/glow.png",547,314 C,0,135465,135465,255,0,255 S,0,135465,135465,0.5 F,0,135465,135965,1,0
Sprite,Background,Centre,"sb/glow.png",547,314 C,0,135484,135484,255,0,255 S,0,135484,135484,0.5 F,0,135484,135984,1,0
Sprite,Background,Centre,"sb/glow.png",536,327 C,0,135502,135502,255,0,255 S,0,135502,135502,0.5 F,0,135502,136002,1,0
Sprite,Background,Centre,"sb/glow.png",526,341 C,0,135521,135521,255,0,255 S,0,135521,135521,0.5 F,0,135521,136021,1,0
Sprite,Background,Centre,"sb/glow.png",516,354 C,0,135540,135540,255,0,255 S,0,135540,135540,0.5 F,0,135540,136040,1,0
Sprite,Background,Centre,"sb/glow.png",507,365 C,0,135559,135559,255,0,255 S,0,135559,135559,0.5 F,0,135559,136059,1,0
Sprite,Background,Centre,"sb/glow.png",500,374 C,0,135577,135577,255,0,255 S,0,135577,135577,0.5 F,0,135577,136077,1,0
Sprite,Background,Centre,"sb/glow.png",495,381 C,0,135596,135596,255,0,255 S,0,135596,135596,0.5 F,0,135596,136096,1,0
Sprite,Background,Centre,"sb/glow.png",491,385 C,0,135615,135615,255,0,255 S,0,135615,135615,0.5 F,0,135615,136115,1,0
Sprite,Background,Centre,"sb/glow.png",490,387 C,0,135634,135634,255,0,255 S,0,135634,135634,0.5 F,0,135634,136134,1,0
Sprite,Background,Centre,"sb/glow.png",497,392 C,0,135652,135652,255,128,192 S,0,135652,135652,0.5 F,0,135652,136152,1,0
Sprite,Background,Centre,"sb/glow.png",504,396 C,0,135671,135671,255,128,192 S,0,135671,135671,0.5 F,0,135671,136171,1,0
Sprite,Background,Centre,"sb/glow.png",512,400 C,0,135690,135690,255,128,192 S,0,135690,135690,0.5 F,0,135690,136190,1,0
Sprite,Background,Centre,"sb/glow.png",520,403 C,0,135709,135709,255,128,192 S,0,135709,135709,0.5 F,0,135709,136209,1,0
Sprite,Background,Centre,"sb/glow.png",529,405 C,0,135727,135727,255,128,192 S,0,135727,135727,0.5 F,0,135727,136227,1,0
Sprite,Background,Centre,"sb/glow.png",538,406 C,0,135746,135746,255,128,192 S,0,135746,135746,0.5 F,0,135746,136246,1,0
Sprite,Background,Centre,"sb/glow.png",546,407 C,0,135765,135765,255,128,192 S,0,135765,135765,0.5 F,0,135765,136265,1,0
Sprite,Background,Centre,"sb/glow.png",555,407 C,0,135784,135784,255,128,192 S,0,135784,135784,0.5 F,0,135784,136284,1,0
Sprite,Background,Centre,"sb/glow.png",564,405 C,0,135802,135802,255,128,192 S,0,135802,135802,0.5 F,0,135802,136302,1,0
Sprite,Background,Centre,"sb/glow.png",572,404 C,0,135821,135821,255,128,192 S,0,135821,135821,0.5 F,0,135821,136321,1,0
Sprite,Background,Centre,"sb/glow.png",580,401 C,0,135840,135840,255,128,192 S,0,135840,135840,0.5 F,0,135840,136340,1,0
Sprite,Background,Centre,"sb/glow.png",588,397 C,0,135859,135859,255,128,192 S,0,135859,135859,0.5 F,0,135859,136359,1,0
Sprite,Background,Centre,"sb/glow.png",581,400 C,0,135877,135877,255,128,192 S,0,135877,135877,0.5 F,0,135877,136377,1,0
Sprite,Background,Centre,"sb/glow.png",573,403 C,0,135896,135896,255,128,192 S,0,135896,135896,0.5 F,0,135896,136396,1,0
Sprite,Background,Centre,"sb/glow.png",564,405 C,0,135915,135915,255,128,192 S,0,135915,135915,0.5 F,0,135915,136415,1,0
Sprite,Background,Centre,"sb/glow.png",556,406 C,0,135934,135934,255,128,192 S,0,135934,135934,0.5 F,0,135934,136434,1,0
Sprite,Background,Centre,"sb/glow.png",547,407 C,0,135952,135952,255,128,192 S,0,135952,135952,0.5 F,0,135952,136452,1,0
Sprite,Background,Centre,"sb/glow.png",538,406 C,0,135971,135971,255,128,192 S,0,135971,135971,0.5 F,0,135971,136471,1,0
Sprite,Background,Centre,"sb/glow.png",530,405 C,0,135990,135990,255,128,192 S,0,135990,135990,0.5 F,0,135990,136490,1,0
Sprite,Background,Centre,"sb/glow.png",521,403 C,0,136009,136009,255,128,192 S,0,136009,136009,0.5 F,0,136009,136509,1,0
Sprite,Background,Centre,"sb/glow.png",513,400 C,0,136027,136027,255,128,192 S,0,136027,136027,0.5 F,0,136027,136527,1,0
Sprite,Background,Centre,"sb/glow.png",505,397 C,0,136046,136046,255,128,192 S,0,136046,136046,0.5 F,0,136046,136546,1,0
Sprite,Background,Centre,"sb/glow.png",498,392 C,0,136065,136065,255,128,192 S,0,136065,136065,0.5 F,0,136065,136565,1,0
Sprite,Background,Centre,"sb/glow.png",490,387 C,0,136084,136084,255,128,192 S,0,136084,136084,0.5 F,0,136084,136584,1,0
Sprite,Background,Centre,"sb/glow.png",484,371 C,0,136102,136102,255,128,192 S,0,136102,136102,0.5 F,0,136102,136602,1,0
Sprite,Background,Centre,"sb/glow.png",477,355 C,0,136121,136121,255,128,192 S,0,136121,136121,0.5 F,0,136121,136621,1,0
Sprite,Background,Centre,"sb/glow.png",471,340 C,0,136140,136140,255,128,192 S,0,136140,136140,0.5 F,0,136140,136640,1,0
Sprite,Background,Centre,"sb/glow.png",466,327 C,0,136159,136159,255,128,192 S,0,136159,136159,0.5 F,0,136159,136659,1,0
Sprite,Background,Centre,"sb/glow.png",461,316 C,0,136177,136177,255,128,192 S,0,136177,136177,0.5 F,0,136177,136677,1,0
Sprite,Background,Centre,"sb/glow.png",458,308 C,0,136196,136196,255,128,192 S,0,136196,136196,0.5 F,0,136196,136696,1,0
Sprite,Background,Centre,"sb/glow.png",456,303 C,0,136215,136215,255,128,192 S,0,136215,136215,0.5 F,0,136215,136715,1,0
Sprite,Background,Centre,"sb/glow.png",455,301 C,0,136234,136234,255,128,192 S,0,136234,136234,0.5 F,0,136234,136734,1,0
Sprite,Background,Centre,"sb/glow.png",444,314 C,0,136252,136252,255,128,192 S,0,136252,136252,0.5 F,0,136252,136752,1,0
Sprite,Background,Centre,"sb/glow.png",434,328 C,0,136271,136271,255,128,192 S,0,136271,136271,0.5 F,0,136271,136771,1,0
Sprite,Background,Centre,"sb/glow.png",424,341 C,0,136290,136290,255,128,192 S,0,136290,136290,0.5 F,0,136290,136790,1,0
Sprite,Background,Centre,"sb/glow.png",415,352 C,0,136309,136309,255,128,192 S,0,136309,136309,0.5 F,0,136309,136809,1,0
Sprite,Background,Centre,"sb/glow.png",408,361 C,0,136327,136327,255,128,192 S,0,136327,136327,0.5 F,0,136327,136827,1,0
Sprite,Background,Centre,"sb/glow.png",403,368 C,0,136346,136346,255,128,192 S,0,136346,136346,0.5 F,0,136346,136846,1,0 C,0,136835,136835,0,0,0
Sprite,Background,Centre,"sb/glow.png",399,372 C,0,136365,136365,255,128,192 S,0,136365,136365,0.5 F,0,136365,136865,1,0 C,0,136835,136835,0,0,0
Sprite,Background,Centre,"sb/glow.png",398,374 C,0,136384,136384,255,128,192 S,0,136384,136384,0.5 F,0,136384,136884,1,0 C,0,136835,136835,0,0,0
Sprite,Background,Centre,"sb/glow.png",398,374 C,0,136402,136402,255,128,192 S,0,136402,136402,0.5 F,0,136402,136902,1,0 C,0,136835,136835,0,0,0
Sprite,Background,Centre,"sb/glow.png",398,374 C,0,136421,136421,255,128,192 S,0,136421,136421,0.5 F,0,136421,136921,1,0 C,0,136835,136835,0,0,0
Sprite,Background,Centre,"sb/glow.png",398,374 C,0,136440,136440,255,128,192 S,0,136440,136440,0.5 F,0,136440,136940,1,0 C,0,136835,136835,0,0,0
Sprite,Background,Centre,"sb/glow.png",398,374 C,0,136459,136459,255,128,192 S,0,136459,136459,0.5 F,0,136459,136959,1,0 C,0,136835,136835,0,0,0
Sprite,Background,Centre,"sb/glow.png",398,374 C,0,136477,136477,255,128,192 S,0,136477,136477,0.5 F,0,136477,136977,1,0 C,0,136835,136835,0,0,0
Sprite,Background,Centre,"sb/glow.png",398,374 C,0,136496,136496,255,128,192 S,0,136496,136496,0.5 F,0,136496,136996,1,0 C,0,136835,136835,0,0,0
Sprite,Background,Centre,"sb/glow.png",398,374 C,0,136515,136515,255,128,192 S,0,136515,136515,0.5 F,0,136515,137015,1,0 C,0,136835,136835,0,0,0
Sprite,Background,Centre,"sb/glow.png",398,374 C,0,136534,136534,255,128,192 S,0,136534,136534,0.5 F,0,136534,137034,1,0 C,0,136835,136835,0,0,0
Sprite,Background,Centre,"sb/glow.png",390,375 C,0,136552,136552,255,128,192 S,0,136552,136552,0.5 F,0,136552,137052,1,0 C,0,136835,136835,0,0,0
Sprite,Background,Centre,"sb/glow.png",381,376 C,0,136571,136571,255,128,192 S,0,136571,136571,0.5 F,0,136571,137071,1,0 C,0,136835,136835,0,0,0
Sprite,Background,Centre,"sb/glow.png",372,377 C,0,136590,136590,255,128,192 S,0,136590,136590,0.5 F,0,136590,137090,1,0 C,0,136835,136835,0,0,0
Sprite,Background,Centre,"sb/glow.png",364,377 C,0,136609,136609,255,128,192 S,0,136609,136609,0.5 F,0,136609,137109,1,0 C,0,136835,136835,0,0,0
Sprite,Background,Centre,"sb/glow.png",355,378 C,0,136627,136627,255,128,192 S,0,136627,136627,0.5 F,0,136627,137127,1,0 C,0,136835,136835,0,0,0
Sprite,Background,Centre,"sb/glow.png",346,379 C,0,136646,136646,255,128,192 S,0,136646,136646,0.5 F,0,136646,137146,1,0 C,0,136835,136835,0,0,0
Sprite,Background,Centre,"sb/glow.png",338,380 C,0,136665,136665,255,128,192 S,0,136665,136665,0.5 F,0,136665,137165,1,0 C,0,136835,136835,0,0,0
Sprite,Background,Centre,"sb/glow.png",329,381 C,0,136684,136684,255,128,192 S,0,136684,136684,0.5 F,0,136684,137184,1,0 C,0,136835,136835,0,0,0
Sprite,Background,Centre,"sb/glow.png",294,384 C,0,136702,136702,255,128,192 S,0,136702,136702,0.5 F,0,136702,137202,1,0 C,0,136835,136835,0,0,0
Sprite,Background,Centre,"sb/glow.png",260,388 C,0,136721,136721,255,128,192 S,0,136721,136721,0.5 F,0,136721,137221,1,0 C,0,136835,136835,0,0,0
Sprite,Background,Centre,"sb/glow.png",228,391 C,0,136740,136740,255,128,192 S,0,136740,136740,0.5 F,0,136740,137240,1,0 C,0,136835,136835,0,0,0
Sprite,Background,Centre,"sb/glow.png",200,394 C,0,136759,136759,255,128,192 S,0,136759,136759,0.5 F,0,136759,137259,1,0 C,0,136835,136835,0,0,0
Sprite,Background,Centre,"sb/glow.png",177,396 C,0,136777,136777,255,128,192 S,0,136777,136777,0.5 F,0,136777,137277,1,0 C,0,136835,136835,0,0,0
Sprite,Background,Centre,"sb/glow.png",160,398 C,0,136796,136796,255,128,192 S,0,136796,136796,0.5 F,0,136796,137296,1,0 C,0,136835,136835,0,0,0
Sprite,Background,Centre,"sb/glow.png",149,399 C,0,136815,136815,255,128,192 S,0,136815,136815,0.5 F,0,136815,137315,1,0 C,0,136835,136835,0,0,0
Sprite,Background,Centre,"sb/glow.png",145,399 C,0,136834,136834,255,128,192 S,0,136834,136834,0.5 F,0,136834,137334,1,0 C,0,136835,136835,0,0,0
//Storyboard Layer 1 (Fail)
//Storyboard Layer 2 (Pass)
//Storyboard Layer 3 (Foreground)
Sprite,Foreground,Centre,"SB/Pixel.jpg",0,0 F,0,15635,15635,0.3674484 S,0,15635,15635,12 M,19,15635,16334,293,161,356,214 M,18,16334,16834,356,214,448,408
Sprite,Foreground,Centre,"SB/Pixel.jpg",0,0 F,0,15635,15635,0.4932649 S,0,15635,15635,12 M,19,15635,16334,293,161,374,149 M,18,16334,16834,374,149,448,408
Sprite,Foreground,Centre,"SB/Pixel.jpg",0,0 F,0,15635,15635,0.3408536 S,0,15635,15635,19 M,19,15635,16334,293,161,286,187 M,18,16334,16834,286,187,448,408
Sprite,Foreground,Centre,"SB/Pixel.jpg",0,0 F,0,15635,15635,0.4031543 S,0,15635,15635,13 M,19,15635,16334,293,161,365,260 M,18,16334,16834,365,260,448,408
Sprite,Foreground,Centre,"SB/Pixel.jpg",0,0 F,0,15635,15635,0.2097876 S,0,15635,15635,16 M,19,15635,16334,293,161,362,259 M,18,16334,16834,362,259,448,408
Sprite,Foreground,Centre,"SB/Pixel.jpg",0,0 F,0,15635,15635,0.3640446 S,0,15635,15635,10 M,19,15635,16334,293,161,379,198 M,18,16334,16834,379,198,448,408
Sprite,Foreground,Centre,"SB/Pixel.jpg",0,0 F,0,15635,15635,0.4965631 S,0,15635,15635,16 M,19,15635,16334,293,161,283,120 M,18,16334,16834,283,120,448,408
Sprite,Foreground,Centre,"SB/Pixel.jpg",0,0 F,0,15635,15635,0.3029425 S,0,15635,15635,19 M,19,15635,16334,293,161,199,137 M,18,16334,16834,199,137,448,408
Sprite,Foreground,Centre,"SB/Pixel.jpg",0,0 F,0,15635,15635,0.2820354 S,0,15635,15635,19 M,19,15635,16334,293,161,336,84 M,18,16334,16834,336,84,448,408
Sprite,Foreground,Centre,"SB/Pixel.jpg",0,0 F,0,15635,15635,0.2440475 S,0,15635,15635,12 M,19,15635,16334,293,161,260,152 M,18,16334,16834,260,152,448,408
Sprite,Foreground,Centre,"SB/Pixel.jpg",0,0 F,0,15635,15635,0.3463904 S,0,15635,15635,11 M,19,15635,16334,293,161,336,184 M,18,16334,16834,336,184,448,408
Sprite,Foreground,Centre,"SB/Pixel.jpg",0,0 F,0,15635,15635,0.4574658 S,0,15635,15635,16 M,19,15635,16334,293,161,358,208 M,18,16334,16834,358,208,448,408
Sprite,Foreground,Centre,"SB/Pixel.jpg",0,0 F,0,15635,15635,0.4689319 S,0,15635,15635,10 M,19,15635,16334,293,161,236,240 M,18,16334,16834,236,240,448,408
Sprite,Foreground,Centre,"SB/Pixel.jpg",0,0 F,0,15635,15635,0.4480443 S,0,15635,15635,12 M,19,15635,16334,293,161,227,189 M,18,16334,16834,227,189,448,408
Sprite,Foreground,Centre,"SB/Pixel.jpg",0,0 F,0,15635,15635,0.4159178 S,0,15635,15635,18 M,19,15635,16334,293,161,289,191 M,18,16334,16834,289,191,448,408
Sprite,Foreground,Centre,"SB/Pixel.jpg",0,0 F,0,15635,15635,0.2376582 S,0,15635,15635,19 M,19,15635,16334,293,161,338,204 M,18,16334,16834,338,204,448,408
Sprite,Foreground,Centre,"SB/Pixel.jpg",0,0 F,0,15635,15635,0.2976502 S,0,15635,15635,16 M,19,15635,16334,293,161,288,169 M,18,16334,16834,288,169,448,408
Sprite,Foreground,Centre,"SB/Pixel.jpg",0,0 F,0,15635,15635,0.4380891 S,0,15635,15635,17 M,19,15635,16334,293,161,359,222 M,18,16334,16834,359,222,448,408
Sprite,Foreground,Centre,"SB/Pixel.jpg",0,0 F,0,15635,15635,0.3990178 S,0,15635,15635,13 M,19,15635,16334,293,161,251,165 M,18,16334,16834,251,165,448,408
Sprite,Foreground,Centre,"SB/Pixel.jpg",0,0 F,0,15635,15635,0.2560615 S,0,15635,15635,10 M,19,15635,16334,293,161,357,105 M,18,16334,16834,357,105,448,408
Sprite,Foreground,Centre,"SB/Pixel.jpg",0,0 F,0,15635,15635,0.4782912 S,0,15635,15635,12 M,19,15635,16334,293,161,331,187 M,18,16334,16834,331,187,448,408
Sprite,Foreground,Centre,"SB/Pixel.jpg",0,0 F,0,15635,15635,0.4035516 S,0,15635,15635,10 M,19,15635,16334,293,161,206,241 M,18,16334,16834,206,241,448,408
Sprite,Foreground,Centre,"SB/Pixel.jpg",0,0 F,0,15635,15635,0.4859129 S,0,15635,15635,14 M,19,15635,16334,293,161,214,182 M,18,16334,16834,214,182,448,408
Sprite,Foreground,Centre,"SB/Pixel.jpg",0,0 F,0,15635,15635,0.267621 S,0,15635,15635,16 M,19,15635,16334,293,161,328,174 M,18,16334,16834,328,174,448,408
Sprite,Foreground,Centre,"SB/Pixel.jpg",0,0 F,0,15635,15635,0.2186925 S,0,15635,15635,12 M,19,15635,16334,293,161,265,231 M,18,16334,16834,265,231,448,408
Sprite,Foreground,Centre,"SB/Pixel.jpg",0,0 F,0,15635,15635,0.3161411 S,0,15635,15635,15 M,19,15635,16334,293,161,384,258 M,18,16334,16834,384,258,448,408
Sprite,Foreground,Centre,"SB/Pixel.jpg",0,0 F,0,15635,15635,0.2171025 S,0,15635,15635,12 M,19,15635,16334,293,161,294,167 M,18,16334,16834,294,167,448,408
Sprite,Foreground,Centre,"SB/Pixel.jpg",0,0 F,0,15635,15635,0.2312476 S,0,15635,15635,17 M,19,15635,16334,293,161,362,183 M,18,16334,16834,362,183,448,408
Sprite,Foreground,Centre,"SB/Pixel.jpg",0,0 F,0,15635,15635,0.4098957 S,0,15635,15635,16 M,19,15635,16334,293,161,379,87 M,18,16334,16834,379,87,448,408
Sprite,Foreground,Centre,"SB/Pixel.jpg",0,0 F,0,15635,15635,0.2518303 S,0,15635,15635,11 M,19,15635,16334,293,161,330,174 M,18,16334,16834,330,174,448,408
Sprite,Foreground,Centre,"SB/Pixel.jpg",0,0 F,0,15635,15635,0.3706068 S,0,15635,15635,10 M,19,15635,16334,293,161,243,260 M,18,16334,16834,243,260,448,408
Sprite,Foreground,Centre,"SB/Pixel.jpg",0,0 F,0,15635,15635,0.393797 S,0,15635,15635,15 M,19,15635,16334,293,161,361,174 M,18,16334,16834,361,174,448,408
Sprite,Foreground,Centre,"SB/Pixel.jpg",0,0 F,0,15635,15635,0.2467296 S,0,15635,15635,18 M,19,15635,16334,293,161,208,163 M,18,16334,16834,208,163,448,408
Sprite,Foreground,Centre,"SB/Pixel.jpg",0,0 F,0,15635,15635,0.4017467 S,0,15635,15635,19 M,19,15635,16334,293,161,308,171 M,18,16334,16834,308,171,448,408
Sprite,Foreground,Centre,"SB/Pixel.jpg",0,0 F,0,15635,15635,0.3449222 S,0,15635,15635,12 M,19,15635,16334,293,161,205,154 M,18,16334,16834,205,154,448,408
Sprite,Foreground,Centre,"SB/Pixel.jpg",0,0 F,0,20434,20434,0.3166514 S,0,20434,20434,18 M,19,20434,21135,144,111,134,14 M,18,21135,21635,134,14,428,167
Sprite,Foreground,Centre,"SB/Pixel.jpg",0,0 F,0,20434,20434,0.3528384 S,0,20434,20434,19 M,19,20434,21135,144,111,226,16 M,18,21135,21635,226,16,428,167
Sprite,Foreground,Centre,"SB/Pixel.jpg",0,0 F,0,20434,20434,0.2834989 S,0,20434,20434,19 M,19,20434,21135,144,111,47,141 M,18,21135,21635,47,141,428,167
Sprite,Foreground,Centre,"SB/Pixel.jpg",0,0 F,0,20434,20434,0.3261276 S,0,20434,20434,19 M,19,20434,21135,144,111,198,75 M,18,21135,21635,198,75,428,167
Sprite,Foreground,Centre,"SB/Pixel.jpg",0,0 F,0,20434,20434,0.2396794 S,0,20434,20434,18 M,19,20434,21135,144,111,238,62 M,18,21135,21635,238,62,428,167
Sprite,Foreground,Centre,"SB/Pixel.jpg",0,0 F,0,20434,20434,0.4355136 S,0,20434,20434,15 M,19,20434,21135,144,111,220,119 M,18,21135,21635,220,119,428,167
Sprite,Foreground,Centre,"SB/Pixel.jpg",0,0 F,0,20434,20434,0.4075182 S,0,20434,20434,11 M,19,20434,21135,144,111,242,17 M,18,21135,21635,242,17,428,167
Sprite,Foreground,Centre,"SB/Pixel.jpg",0,0 F,0,20434,20434,0.2784993 S,0,20434,20434,13 M,19,20434,21135,144,111,143,127 M,18,21135,21635,143,127,428,167
Sprite,Foreground,Centre,"SB/Pixel.jpg",0,0 F,0,20434,20434,0.3837511 S,0,20434,20434,15 M,19,20434,21135,144,111,200,37 M,18,21135,21635,200,37,428,167
Sprite,Foreground,Centre,"SB/Pixel.jpg",0,0 F,0,20434,20434,0.2291858 S,0,20434,20434,18 M,19,20434,21135,144,111,112,15 M,18,21135,21635,112,15,428,167
Sprite,Foreground,Centre,"SB/Pixel.jpg",0,0 F,0,20434,20434,0.2765923 S,0,20434,20434,12 M,19,20434,21135,144,111,222,141 M,18,21135,21635,222,141,428,167
Sprite,Foreground,Centre,"SB/Pixel.jpg",0,0 F,0,20434,20434,0.3474754 S,0,20434,20434,16 M,19,20434,21135,144,111,83,188 M,18,21135,21635,83,188,428,167
Sprite,Foreground,Centre,"SB/Pixel.jpg",0,0 F,0,20434,20434,0.4986262 S,0,20434,20434,16 M,19,20434,21135,144,111,117,59 M,18,21135,21635,117,59,428,167
Sprite,Foreground,Centre,"SB/Pixel.jpg",0,0 F,0,20434,20434,0.247143 S,0,20434,20434,17 M,19,20434,21135,144,111,240,203 M,18,21135,21635,240,203,428,167
Sprite,Foreground,Centre,"SB/Pixel.jpg",0,0 F,0,20434,20434,0.2330186 S,0,20434,20434,17 M,19,20434,21135,144,111,82,23 M,18,21135,21635,82,23,428,167
Sprite,Foreground,Centre,"SB/Pixel.jpg",0,0 F,0,20434,20434,0.3718924 S,0,20434,20434,12 M,19,20434,21135,144,111,211,139 M,18,21135,21635,211,139,428,167
Sprite,Foreground,Centre,"SB/Pixel.jpg",0,0 F,0,20434,20434,0.4721404 S,0,20434,20434,18 M,19,20434,21135,144,111,215,100 M,18,21135,21635,215,100,428,167
Sprite,Foreground,Centre,"SB/Pixel.jpg",0,0 F,0,20434,20434,0.3280683 S,0,20434,20434,16 M,19,20434,21135,144,111,112,166 M,18,21135,21635,112,166,428,167
Sprite,Foreground,Centre,"SB/Pixel.jpg",0,0 F,0,20434,20434,0.3871523 S,0,20434,20434,19 M,19,20434,21135,144,111,165,28 M,18,21135,21635,165,28,428,167
Sprite,Foreground,Centre,"SB/Pixel.jpg",0,0 F,0,20434,20434,0.2005993 S,0,20434,20434,15 M,19,20434,21135,144,111,151,38 M,18,21135,21635,151,38,428,167
Sprite,Foreground,Centre,"SB/Pixel.jpg",0,0 F,0,20434,20434,0.2975087 S,0,20434,20434,17 M,19,20434,21135,144,111,119,184 M,18,21135,21635,119,184,428,167
Sprite,Foreground,Centre,"SB/Pixel.jpg",0,0 F,0,20434,20434,0.3567532 S,0,20434,20434,11 M,19,20434,21135,144,111,209,119 M,18,21135,21635,209,119,428,167
Sprite,Foreground,Centre,"SB/Pixel.jpg",0,0 F,0,20434,20434,0.2749852 S,0,20434,20434,18 M,19,20434,21135,144,111,154,73 M,18,21135,21635,154,73,428,167
Sprite,Foreground,Centre,"SB/Pixel.jpg",0,0 F,0,20434,20434,0.2576757 S,0,20434,20434,11 M,19,20434,21135,144,111,228,78 M,18,21135,21635,228,78,428,167
Sprite,Foreground,Centre,"SB/Pixel.jpg",0,0 F,0,20434,20434,0.352991 S,0,20434,20434,17 M,19,20434,21135,144,111,85,117 M,18,21135,21635,85,117,428,167
Sprite,Foreground,Centre,"SB/Pixel.jpg",0,0 F,0,20434,20434,0.2358233 S,0,20434,20434,18 M,19,20434,21135,144,111,64,98 M,18,21135,21635,64,98,428,167
Sprite,Foreground,Centre,"SB/Pixel.jpg",0,0 F,0,20434,20434,0.2046528 S,0,20434,20434,15 M,19,20434,21135,144,111,184,139 M,18,21135,21635,184,139,428,167
Sprite,Foreground,Centre,"SB/Pixel.jpg",0,0 F,0,20434,20434,0.2361499 S,0,20434,20434,12 M,19,20434,21135,144,111,242,35 M,18,21135,21635,242,35,428,167
Sprite,Foreground,Centre,"SB/Pixel.jpg",0,0 F,0,20434,20434,0.2791955 S,0,20434,20434,10 M,19,20434,21135,144,111,203,62 M,18,21135,21635,203,62,428,167
Sprite,Foreground,Centre,"SB/Pixel.jpg",0,0 F,0,20434,20434,0.4469632 S,0,20434,20434,15 M,19,20434,21135,144,111,102,178 M,18,21135,21635,102,178,428,167
Sprite,Foreground,Centre,"SB/Pixel.jpg",0,0 F,0,20434,20434,0.4555207 S,0,20434,20434,18 M,19,20434,21135,144,111,84,200 M,18,21135,21635,84,200,428,167
Sprite,Foreground,Centre,"SB/Pixel.jpg",0,0 F,0,20434,20434,0.3655334 S,0,20434,20434,13 M,19,20434,21135,144,111,212,82 M,18,21135,21635,212,82,428,167
Sprite,Foreground,Centre,"SB/Pixel.jpg",0,0 F,0,20434,20434,0.3988633 S,0,20434,20434,16 M,19,20434,21135,144,111,122,95 M,18,21135,21635,122,95,428,167
Sprite,Foreground,Centre,"SB/Pixel.jpg",0,0 F,0,20434,20434,0.4041527 S,0,20434,20434,13 M,19,20434,21135,144,111,226,70 M,18,21135,21635,226,70,428,167
Sprite,Foreground,Centre,"SB/Pixel.jpg",0,0 F,0,20434,20434,0.4727132 S,0,20434,20434,15 M,19,20434,21135,144,111,203,54 M,18,21135,21635,203,54,428,167
Sprite,Foreground,Centre,"SB/Pixel.jpg",0,0 F,0,20434,20434,0.3490945 S,0,20434,20434,13 M,19,20434,21135,144,111,233,65 M,18,21135,21635,233,65,428,167
Sprite,Foreground,Centre,"SB/Pixel.jpg",0,0 F,0,30034,30034,0.2358157 S,0,30034,30034,11 M,19,30034,30735,340,118,391,175 M,18,30735,31235,391,175,400,374
Sprite,Foreground,Centre,"SB/Pixel.jpg",0,0 F,0,30034,30034,0.4448625 S,0,30034,30034,18 M,19,30034,30735,340,118,367,132 M,18,30735,31235,367,132,400,374
Sprite,Foreground,Centre,"SB/Pixel.jpg",0,0 F,0,30034,30034,0.3990368 S,0,30034,30034,10 M,19,30034,30735,340,118,315,136 M,18,30735,31235,315,136,400,374
Sprite,Foreground,Centre,"SB/Pixel.jpg",0,0 F,0,30034,30034,0.3441612 S,0,30034,30034,10 M,19,30034,30735,340,118,439,49 M,18,30735,31235,439,49,400,374
Sprite,Foreground,Centre,"SB/Pixel.jpg",0,0 F,0,30034,30034,0.2996246 S,0,30034,30034,10 M,19,30034,30735,340,118,437,25 M,18,30735,31235,437,25,400,374
Sprite,Foreground,Centre,"SB/Pixel.jpg",0,0 F,0,30034,30034,0.2672896 S,0,30034,30034,11 M,19,30034,30735,340,118,354,189 M,18,30735,31235,354,189,400,374
Sprite,Foreground,Centre,"SB/Pixel.jpg",0,0 F,0,30034,30034,0.4264424 S,0,30034,30034,12 M,19,30034,30735,340,118,395,184 M,18,30735,31235,395,184,400,374
Sprite,Foreground,Centre,"SB/Pixel.jpg",0,0 F,0,30034,30034,0.3733906 S,0,30034,30034,17 M,19,30034,30735,340,118,264,53 M,18,30735,31235,264,53,400,374
Sprite,Foreground,Centre,"SB/Pixel.jpg",0,0 F,0,30034,30034,0.2133764 S,0,30034,30034,12 M,19,30034,30735,340,118,285,98 M,18,30735,31235,285,98,400,374
Sprite,Foreground,Centre,"SB/Pixel.jpg",0,0 F,0,30034,30034,0.3247973 S,0,30034,30034,17 M,19,30034,30735,340,118,311,139 M,18,30735,31235,311,139,400,374
Sprite,Foreground,Centre,"SB/Pixel.jpg",0,0 F,0,30034,30034,0.3575272 S,0,30034,30034,17 M,19,30034,30735,340,118,260,44 M,18,30735,31235,260,44,400,374
Sprite,Foreground,Centre,"SB/Pixel.jpg",0,0 F,0,30034,30034,0.2255972 S,0,30034,30034,15 M,19,30034,30735,340,118,384,109 M,18,30735,31235,384,109,400,374
Sprite,Foreground,Centre,"SB/Pixel.jpg",0,0 F,0,30034,30034,0.4099815 S,0,30034,30034,17 M,19,30034,30735,340,118,395,87 M,18,30735,31235,395,87,400,374
Sprite,Foreground,Centre,"SB/Pixel.jpg",0,0 F,0,30034,30034,0.3269479 S,0,30034,30034,19 M,19,30034,30735,340,118,348,185 M,18,30735,31235,348,185,400,374
Sprite,Foreground,Centre,"SB/Pixel.jpg",0,0 F,0,30034,30034,0.4254443 S,0,30034,30034,12 M,19,30034,30735,340,118,403,134 M,18,30735,31235,403,134,400,374
Sprite,Foreground,Centre,"SB/Pixel.jpg",0,0 F,0,30034,30034,0.2156184 S,0,30034,30034,15 M,19,30034,30735,340,118,356,216 M,18,30735,31235,356,216,400,374
Sprite,Foreground,Centre,"SB/Pixel.jpg",0,0 F,0,30034,30034,0.3290091 S,0,30034,30034,19 M,19,30034,30735,340,118,433,106 M,18,30735,31235,433,106,400,374
Sprite,Foreground,Centre,"SB/Pixel.jpg",0,0 F,0,30034,30034,0.4997129 S,0,30034,30034,18 M,19,30034,30735,340,118,368,79 M,18,30735,31235,368,79,400,374
Sprite,Foreground,Centre,"SB/Pixel.jpg",0,0 F,0,30034,30034,0.4977987 S,0,30034,30034,16 M,19,30034,30735,340,118,373,36 M,18,30735,31235,373,36,400,374
Sprite,Foreground,Centre,"SB/Pixel.jpg",0,0 F,0,30034,30034,0.3012295 S,0,30034,30034,18 M,19,30034,30735,340,118,416,158 M,18,30735,31235,416,158,400,374
Sprite,Foreground,Centre,"SB/Pixel.jpg",0,0 F,0,30034,30034,0.3530591 S,0,30034,30034,13 M,19,30034,30735,340,118,343,54 M,18,30735,31235,343,54,400,374
Sprite,Foreground,Centre,"SB/Pixel.jpg",0,0 F,0,30034,30034,0.287238 S,0,30034,30034,18 M,19,30034,30735,340,118,344,94 M,18,30735,31235,344,94,400,374
Sprite,Foreground,Centre,"SB/Pixel.jpg",0,0 F,0,30034,30034,0.3607502 S,0,30034,30034,14 M,19,30034,30735,340,118,385,98 M,18,30735,31235,385,98,400,374
Sprite,Foreground,Centre,"SB/Pixel.jpg",0,0 F,0,30034,30034,0.4329405 S,0,30034,30034,16 M,19,30034,30735,340,118,306,201 M,18,30735,31235,306,201,400,374
Sprite,Foreground,Centre,"SB/Pixel.jpg",0,0 F,0,30034,30034,0.367354 S,0,30034,30034,14 M,19,30034,30735,340,118,287,185 M,18,30735,31235,287,185,400,374
Sprite,Foreground,Centre,"SB/Pixel.jpg",0,0 F,0,30034,30034,0.2187841 S,0,30034,30034,11 M,19,30034,30735,340,118,384,135 M,18,30735,31235,384,135,400,374
Sprite,Foreground,Centre,"SB/Pixel.jpg",0,0 F,0,30034,30034,0.270845 S,0,30034,30034,16 M,19,30034,30735,340,118,416,148 M,18,30735,31235,416,148,400,374
Sprite,Foreground,Centre,"SB/Pixel.jpg",0,0 F,0,30034,30034,0.2136048 S,0,30034,30034,15 M,19,30034,30735,340,118,396,204 M,18,30735,31235,396,204,400,374
Sprite,Foreground,Centre,"SB/Pixel.jpg",0,0 F,0,30034,30034,0.2500668 S,0,30034,30034,10 M,19,30034,30735,340,118,291,21 M,18,30735,31235,291,21,400,374
Sprite,Foreground,Centre,"SB/Pixel.jpg",0,0 F,0,30034,30034,0.3703012 S,0,30034,30034,16 M,19,30034,30735,340,118,292,129 M,18,30735,31235,292,129,400,374
Sprite,Foreground,Centre,"SB/Pixel.jpg",0,0 F,0,30034,30034,0.4056099 S,0,30034,30034,19 M,19,30034,30735,340,118,433,202 M,18,30735,31235,433,202,400,374
Sprite,Foreground,Centre,"SB/Pixel.jpg",0,0 F,0,30034,30034,0.2177424 S,0,30034,30034,16 M,19,30034,30735,340,118,376,143 M,18,30735,31235,376,143,400,374
Sprite,Foreground,Centre,"SB/Pixel.jpg",0,0 F,0,30034,30034,0.2324001 S,0,30034,30034,17 M,19,30034,30735,340,118,426,82 M,18,30735,31235,426,82,400,374
Sprite,Foreground,Centre,"SB/Pixel.jpg",0,0 F,0,30034,30034,0.4778979 S,0,30034,30034,17 M,19,30034,30735,340,118,254,51 M,18,30735,31235,254,51,400,374
Sprite,Foreground,Centre,"SB/Pixel.jpg",0,0 F,0,30034,30034,0.2690876 S,0,30034,30034,11 M,19,30034,30735,340,118,320,192 M,18,30735,31235,320,192,400,374
Sprite,Foreground,Centre,"SB/Pixel.jpg",0,0 F,0,30034,30034,0.3448871 S,0,30034,30034,17 M,19,30034,30735,340,118,283,152 M,18,30735,31235,283,152,400,374
Sprite,Foreground,Centre,"SB/Pixel.jpg",0,0 F,0,30034,30034,0.3343889 S,0,30034,30034,14 M,19,30034,30735,340,118,272,22 M,18,30735,31235,272,22,400,374
Sprite,Foreground,Centre,"SB/Pixel.jpg",0,0 F,0,39634,39634,0.3210461 S,0,39634,39634,18 M,19,39634,40334,220,93,151,167 M,18,40334,40834,151,167,110,384
Sprite,Foreground,Centre,"SB/Pixel.jpg",0,0 F,0,39634,39634,0.3127754 S,0,39634,39634,11 M,19,39634,40334,220,93,307,174 M,18,40334,40834,307,174,110,384
Sprite,Foreground,Centre,"SB/Pixel.jpg",0,0 F,0,39634,39634,0.4352037 S,0,39634,39634,13 M,19,39634,40334,220,93,138,119 M,18,40334,40834,138,119,110,384
Sprite,Foreground,Centre,"SB/Pixel.jpg",0,0 F,0,39634,39634,0.3702384 S,0,39634,39634,14 M,19,39634,40334,220,93,139,131 M,18,40334,40834,139,131,110,384
Sprite,Foreground,Centre,"SB/Pixel.jpg",0,0 F,0,39634,39634,0.3002365 S,0,39634,39634,11 M,19,39634,40334,220,93,121,21 M,18,40334,40834,121,21,110,384
Sprite,Foreground,Centre,"SB/Pixel.jpg",0,0 F,0,39634,39634,0.3925813 S,0,39634,39634,17 M,19,39634,40334,220,93,302,167 M,18,40334,40834,302,167,110,384
Sprite,Foreground,Centre,"SB/Pixel.jpg",0,0 F,0,39634,39634,0.206006 S,0,39634,39634,18 M,19,39634,40334,220,93,141,177 M,18,40334,40834,141,177,110,384
Sprite,Foreground,Centre,"SB/Pixel.jpg",0,0 F,0,39634,39634,0.3020881 S,0,39634,39634,15 M,19,39634,40334,220,93,225,86 M,18,40334,40834,225,86,110,384
Sprite,Foreground,Centre,"SB/Pixel.jpg",0,0 F,0,39634,39634,0.294404 S,0,39634,39634,10 M,19,39634,40334,220,93,182,52 M,18,40334,40834,182,52,110,384
Sprite,Foreground,Centre,"SB/Pixel.jpg",0,0 F,0,39634,39634,0.237756 S,0,39634,39634,11 M,19,39634,40334,220,93,226,40 M,18,40334,40834,226,40,110,384
Sprite,Foreground,Centre,"SB/Pixel.jpg",0,0 F,0,39634,39634,0.445295 S,0,39634,39634,14 M,19,39634,40334,220,93,173,73 M,18,40334,40834,173,73,110,384
Sprite,Foreground,Centre,"SB/Pixel.jpg",0,0 F,0,39634,39634,0.2727409 S,0,39634,39634,13 M,19,39634,40334,220,93,122,100 M,18,40334,40834,122,100,110,384
Sprite,Foreground,Centre,"SB/Pixel.jpg",0,0 F,0,39634,39634,0.3979812 S,0,39634,39634,12 M,19,39634,40334,220,93,132,46 M,18,40334,40834,132,46,110,384
Sprite,Foreground,Centre,"SB/Pixel.jpg",0,0 F,0,39634,39634,0.4884808 S,0,39634,39634,11 M,19,39634,40334,220,93,153,115 M,18,40334,40834,153,115,110,384
Sprite,Foreground,Centre,"SB/Pixel.jpg",0,0 F,0,39634,39634,0.2154199 S,0,39634,39634,17 M,19,39634,40334,220,93,245,63 M,18,40334,40834,245,63,110,384
Sprite,Foreground,Centre,"SB/Pixel.jpg",0,0 F,0,39634,39634,0.2782276 S,0,39634,39634,17 M,19,39634,40334,220,93,262,158 M,18,40334,40834,262,158,110,384
Sprite,Foreground,Centre,"SB/Pixel.jpg",0,0 F,0,39634,39634,0.3472579 S,0,39634,39634,17 M,19,39634,40334,220,93,254,142 M,18,40334,40834,254,142,110,384
Sprite,Foreground,Centre,"SB/Pixel.jpg",0,0 F,0,39634,39634,0.3791448 S,0,39634,39634,18 M,19,39634,40334,220,93,260,14 M,18,40334,40834,260,14,110,384
Sprite,Foreground,Centre,"SB/Pixel.jpg",0,0 F,0,39634,39634,0.4831749 S,0,39634,39634,18 M,19,39634,40334,220,93,317,37 M,18,40334,40834,317,37,110,384
Sprite,Foreground,Centre,"SB/Pixel.jpg",0,0 F,0,39634,39634,0.2280465 S,0,39634,39634,15 M,19,39634,40334,220,93,128,120 M,18,40334,40834,128,120,110,384
Sprite,Foreground,Centre,"SB/Pixel.jpg",0,0 F,0,39634,39634,0.4823172 S,0,39634,39634,13 M,19,39634,40334,220,93,303,48 M,18,40334,40834,303,48,110,384
Sprite,Foreground,Centre,"SB/Pixel.jpg",0,0 F,0,39634,39634,0.2064582 S,0,39634,39634,12 M,19,39634,40334,220,93,302,63 M,18,40334,40834,302,63,110,384
Sprite,Foreground,Centre,"SB/Pixel.jpg",0,0 F,0,39634,39634,0.3406901 S,0,39634,39634,14 M,19,39634,40334,220,93,156,48 M,18,40334,40834,156,48,110,384
Sprite,Foreground,Centre,"SB/Pixel.jpg",0,0 F,0,39634,39634,0.4770921 S,0,39634,39634,15 M,19,39634,40334,220,93,183,148 M,18,40334,40834,183,148,110,384
Sprite,Foreground,Centre,"SB/Pixel.jpg",0,0 F,0,39634,39634,0.2277088 S,0,39634,39634,10 M,19,39634,40334,220,93,132,-4 M,18,40334,40834,132,-4,110,384
Sprite,Foreground,Centre,"SB/Pixel.jpg",0,0 F,0,39634,39634,0.2677425 S,0,39634,39634,12 M,19,39634,40334,220,93,200,74 M,18,40334,40834,200,74,110,384
Sprite,Foreground,Centre,"SB/Pixel.jpg",0,0 F,0,39634,39634,0.4200889 S,0,39634,39634,15 M,19,39634,40334,220,93,135,140 M,18,40334,40834,135,140,110,384
Sprite,Foreground,Centre,"SB/Pixel.jpg",0,0 F,0,39634,39634,0.2380723 S,0,39634,39634,13 M,19,39634,40334,220,93,199,154 M,18,40334,40834,199,154,110,384
Sprite,Foreground,Centre,"SB/Pixel.jpg",0,0 F,0,39634,39634,0.3040893 S,0,39634,39634,16 M,19,39634,40334,220,93,190,10 M,18,40334,40834,190,10,110,384
Sprite,Foreground,Centre,"SB/Pixel.jpg",0,0 F,0,39634,39634,0.3532496 S,0,39634,39634,18 M,19,39634,40334,220,93,261,144 M,18,40334,40834,261,144,110,384
Sprite,Foreground,Centre,"SB/Pixel.jpg",0,0 F,0,39634,39634,0.3661534 S,0,39634,39634,16 M,19,39634,40334,220,93,173,135 M,18,40334,40834,173,135,110,384
Sprite,Foreground,Centre,"SB/Pixel.jpg",0,0 F,0,39634,39634,0.4645524 S,0,39634,39634,15 M,19,39634,40334,220,93,300,29 M,18,40334,40834,300,29,110,384
Sprite,Foreground,Centre,"SB/Pixel.jpg",0,0 F,0,39634,39634,0.4375608 S,0,39634,39634,11 M,19,39634,40334,220,93,220,17 M,18,40334,40834,220,17,110,384
Sprite,Foreground,Centre,"SB/Pixel.jpg",0,0 F,0,49235,49235,0.3617361 S,0,49235,49235,17 M,19,49235,49935,287,186,289,215 M,18,49935,50435,289,215,294,370
Sprite,Foreground,Centre,"SB/Pixel.jpg",0,0 F,0,49235,49235,0.3392907 S,0,49235,49235,11 M,19,49235,49935,287,186,382,219 M,18,49935,50435,382,219,294,370
Sprite,Foreground,Centre,"SB/Pixel.jpg",0,0 F,0,49235,49235,0.324874 S,0,49235,49235,19 M,19,49235,49935,287,186,316,265 M,18,49935,50435,316,265,294,370
Sprite,Foreground,Centre,"SB/Pixel.jpg",0,0 F,0,49235,49235,0.2146424 S,0,49235,49235,13 M,19,49235,49935,287,186,259,122 M,18,49935,50435,259,122,294,370
Sprite,Foreground,Centre,"SB/Pixel.jpg",0,0 F,0,49235,49235,0.3685962 S,0,49235,49235,14 M,19,49235,49935,287,186,230,270 M,18,49935,50435,230,270,294,370
Sprite,Foreground,Centre,"SB/Pixel.jpg",0,0 F,0,49235,49235,0.2677377 S,0,49235,49235,14 M,19,49235,49935,287,186,232,144 M,18,49935,50435,232,144,294,370
Sprite,Foreground,Centre,"SB/Pixel.jpg",0,0 F,0,49235,49235,0.2368772 S,0,49235,49235,11 M,19,49235,49935,287,186,219,254 M,18,49935,50435,219,254,294,370
Sprite,Foreground,Centre,"SB/Pixel.jpg",0,0 F,0,49235,49235,0.4351726 S,0,49235,49235,11 M,19,49235,49935,287,186,310,120 M,18,49935,50435,310,120,294,370
Sprite,Foreground,Centre,"SB/Pixel.jpg",0,0 F,0,49235,49235,0.4295851 S,0,49235,49235,14 M,19,49235,49935,287,186,233,229 M,18,49935,50435,233,229,294,370
Sprite,Foreground,Centre,"SB/Pixel.jpg",0,0 F,0,49235,49235,0.4436534 S,0,49235,49235,12 M,19,49235,49935,287,186,307,227 M,18,49935,50435,307,227,294,370
Sprite,Foreground,Centre,"SB/Pixel.jpg",0,0 F,0,49235,49235,0.3554184 S,0,49235,49235,12 M,19,49235,49935,287,186,240,185 M,18,49935,50435,240,185,294,370
Sprite,Foreground,Centre,"SB/Pixel.jpg",0,0 F,0,49235,49235,0.2310197 S,0,49235,49235,15 M,19,49235,49935,287,186,304,103 M,18,49935,50435,304,103,294,370
Sprite,Foreground,Centre,"SB/Pixel.jpg",0,0 F,0,49235,49235,0.2004746 S,0,49235,49235,16 M,19,49235,49935,287,186,323,174 M,18,49935,50435,323,174,294,370
Sprite,Foreground,Centre,"SB/Pixel.jpg",0,0 F,0,49235,49235,0.2670805 S,0,49235,49235,12 M,19,49235,49935,287,186,348,241 M,18,49935,50435,348,241,294,370
Sprite,Foreground,Centre,"SB/Pixel.jpg",0,0 F,0,49235,49235,0.4557389 S,0,49235,49235,12 M,19,49235,49935,287,186,224,165 M,18,49935,50435,224,165,294,370
Sprite,Foreground,Centre,"SB/Pixel.jpg",0,0 F,0,49235,49235,0.2261035 S,0,49235,49235,11 M,19,49235,49935,287,186,286,117 M,18,49935,50435,286,117,294,370
Sprite,Foreground,Centre,"SB/Pixel.jpg",0,0 F,0,49235,49235,0.4898539 S,0,49235,49235,16 M,19,49235,49935,287,186,291,182 M,18,49935,50435,291,182,294,370
Sprite,Foreground,Centre,"SB/Pixel.jpg",0,0 F,0,49235,49235,0.463141 S,0,49235,49235,17 M,19,49235,49935,287,186,320,150 M,18,49935,50435,320,150,294,370
Sprite,Foreground,Centre,"SB/Pixel.jpg",0,0 F,0,49235,49235,0.2844862 S,0,49235,49235,19 M,19,49235,49935,287,186,293,99 M,18,49935,50435,293,99,294,370
Sprite,Foreground,Centre,"SB/Pixel.jpg",0,0 F,0,49235,49235,0.2431358 S,0,49235,49235,15 M,19,49235,49935,287,186,345,229 M,18,49935,50435,345,229,294,370
Sprite,Foreground,Centre,"SB/Pixel.jpg",0,0 F,0,49235,49235,0.3715704 S,0,49235,49235,10 M,19,49235,49935,287,186,352,182 M,18,49935,50435,352,182,294,370
Sprite,Foreground,Centre,"SB/Pixel.jpg",0,0 F,0,49235,49235,0.2912144 S,0,49235,49235,13 M,19,49235,49935,287,186,360,214 M,18,49935,50435,360,214,294,370
Sprite,Foreground,Centre,"SB/Pixel.jpg",0,0 F,0,49235,49235,0.4908385 S,0,49235,49235,18 M,19,49235,49935,287,186,272,86 M,18,49935,50435,272,86,294,370
Sprite,Foreground,Centre,"SB/Pixel.jpg",0,0 F,0,49235,49235,0.3022618 S,0,49235,49235,13 M,19,49235,49935,287,186,226,181 M,18,49935,50435,226,181,294,370
Sprite,Foreground,Centre,"SB/Pixel.jpg",0,0 F,0,49235,49235,0.3295181 S,0,49235,49235,10 M,19,49235,49935,287,186,283,265 M,18,49935,50435,283,265,294,370
Sprite,Foreground,Centre,"SB/Pixel.jpg",0,0 F,0,49235,49235,0.4745153 S,0,49235,49235,17 M,19,49235,49935,287,186,210,109 M,18,49935,50435,210,109,294,370
Sprite,Foreground,Centre,"SB/Pixel.jpg",0,0 F,0,49235,49235,0.3614812 S,0,49235,49235,16 M,19,49235,49935,287,186,343,89 M,18,49935,50435,343,89,294,370
Sprite,Foreground,Centre,"SB/Pixel.jpg",0,0 F,0,49235,49235,0.4849945 S,0,49235,49235,10 M,19,49235,49935,287,186,194,267 M,18,49935,50435,194,267,294,370
Sprite,Foreground,Centre,"SB/Pixel.jpg",0,0 F,0,49235,49235,0.3615533 S,0,49235,49235,18 M,19,49235,49935,287,186,191,89 M,18,49935,50435,191,89,294,370
Sprite,Foreground,Centre,"SB/Pixel.jpg",0,0 F,0,49235,49235,0.3331605 S,0,49235,49235,11 M,19,49235,49935,287,186,293,106 M,18,49935,50435,293,106,294,370
Sprite,Foreground,Centre,"SB/Pixel.jpg",0,0 F,0,49235,49235,0.4253693 S,0,49235,49235,12 M,19,49235,49935,287,186,250,161 M,18,49935,50435,250,161,294,370
Sprite,Foreground,Centre,"SB/Pixel.jpg",0,0 F,0,58834,58834,0.3772795 S,0,58834,58834,12 M,19,58834,59534,571,362,621,407 M,18,59534,60034,621,407,551,130
Sprite,Foreground,Centre,"SB/Pixel.jpg",0,0 F,0,58834,58834,0.2995103 S,0,58834,58834,10 M,19,58834,59534,571,362,553,354 M,18,59534,60034,553,354,551,130
Sprite,Foreground,Centre,"SB/Pixel.jpg",0,0 F,0,58834,58834,0.2876709 S,0,58834,58834,10 M,19,58834,59534,571,362,529,367 M,18,59534,60034,529,367,551,130
Sprite,Foreground,Centre,"SB/Pixel.jpg",0,0 F,0,58834,58834,0.362942 S,0,58834,58834,13 M,19,58834,59534,571,362,563,334 M,18,59534,60034,563,334,551,130
Sprite,Foreground,Centre,"SB/Pixel.jpg",0,0 F,0,58834,58834,0.4145207 S,0,58834,58834,14 M,19,58834,59534,571,362,474,396 M,18,59534,60034,474,396,551,130
Sprite,Foreground,Centre,"SB/Pixel.jpg",0,0 F,0,58834,58834,0.2745867 S,0,58834,58834,16 M,19,58834,59534,571,362,551,314 M,18,59534,60034,551,314,551,130
Sprite,Foreground,Centre,"SB/Pixel.jpg",0,0 F,0,58834,58834,0.3939133 S,0,58834,58834,15 M,19,58834,59534,571,362,667,347 M,18,59534,60034,667,347,551,130
Sprite,Foreground,Centre,"SB/Pixel.jpg",0,0 F,0,58834,58834,0.2943176 S,0,58834,58834,17 M,19,58834,59534,571,362,529,347 M,18,59534,60034,529,347,551,130
Sprite,Foreground,Centre,"SB/Pixel.jpg",0,0 F,0,58834,58834,0.3330694 S,0,58834,58834,14 M,19,58834,59534,571,362,484,415 M,18,59534,60034,484,415,551,130
Sprite,Foreground,Centre,"SB/Pixel.jpg",0,0 F,0,58834,58834,0.4157211 S,0,58834,58834,10 M,19,58834,59534,571,362,629,278 M,18,59534,60034,629,278,551,130
Sprite,Foreground,Centre,"SB/Pixel.jpg",0,0 F,0,58834,58834,0.2367855 S,0,58834,58834,11 M,19,58834,59534,571,362,584,363 M,18,59534,60034,584,363,551,130
Sprite,Foreground,Centre,"SB/Pixel.jpg",0,0 F,0,58834,58834,0.2536432 S,0,58834,58834,14 M,19,58834,59534,571,362,487,264 M,18,59534,60034,487,264,551,130
Sprite,Foreground,Centre,"SB/Pixel.jpg",0,0 F,0,58834,58834,0.4123574 S,0,58834,58834,10 M,19,58834,59534,571,362,500,304 M,18,59534,60034,500,304,551,130
Sprite,Foreground,Centre,"SB/Pixel.jpg",0,0 F,0,58834,58834,0.4207174 S,0,58834,58834,14 M,19,58834,59534,571,362,643,437 M,18,59534,60034,643,437,551,130
Sprite,Foreground,Centre,"SB/Pixel.jpg",0,0 F,0,58834,58834,0.4332319 S,0,58834,58834,10 M,19,58834,59534,571,362,477,271 M,18,59534,60034,477,271,551,130
Sprite,Foreground,Centre,"SB/Pixel.jpg",0,0 F,0,58834,58834,0.2646362 S,0,58834,58834,14 M,19,58834,59534,571,362,521,307 M,18,59534,60034,521,307,551,130
Sprite,Foreground,Centre,"SB/Pixel.jpg",0,0 F,0,58834,58834,0.2585095 S,0,58834,58834,10 M,19,58834,59534,571,362,535,370 M,18,59534,60034,535,370,551,130
Sprite,Foreground,Centre,"SB/Pixel.jpg",0,0 F,0,58834,58834,0.3574575 S,0,58834,58834,10 M,19,58834,59534,571,362,565,322 M,18,59534,60034,565,322,551,130
Sprite,Foreground,Centre,"SB/Pixel.jpg",0,0 F,0,58834,58834,0.466475 S,0,58834,58834,10 M,19,58834,59534,571,362,526,311 M,18,59534,60034,526,311,551,130
Sprite,Foreground,Centre,"SB/Pixel.jpg",0,0 F,0,58834,58834,0.3057531 S,0,58834,58834,17 M,19,58834,59534,571,362,642,274 M,18,59534,60034,642,274,551,130
Sprite,Foreground,Centre,"SB/Pixel.jpg",0,0 F,0,58834,58834,0.2884119 S,0,58834,58834,11 M,19,58834,59534,571,362,653,331 M,18,59534,60034,653,331,551,130
Sprite,Foreground,Centre,"SB/Pixel.jpg",0,0 F,0,58834,58834,0.2220172 S,0,58834,58834,10 M,19,58834,59534,571,362,575,408 M,18,59534,60034,575,408,551,130
Sprite,Foreground,Centre,"SB/Pixel.jpg",0,0 F,0,58834,58834,0.4332686 S,0,58834,58834,14 M,19,58834,59534,571,362,641,421 M,18,59534,60034,641,421,551,130
Sprite,Foreground,Centre,"SB/Pixel.jpg",0,0 F,0,58834,58834,0.390492 S,0,58834,58834,17 M,19,58834,59534,571,362,591,265 M,18,59534,60034,591,265,551,130
Sprite,Foreground,Centre,"SB/Pixel.jpg",0,0 F,0,58834,58834,0.3955762 S,0,58834,58834,18 M,19,58834,59534,571,362,583,332 M,18,59534,60034,583,332,551,130
Sprite,Foreground,Centre,"SB/Pixel.jpg",0,0 F,0,58834,58834,0.4191301 S,0,58834,58834,18 M,19,58834,59534,571,362,628,293 M,18,59534,60034,628,293,551,130
Sprite,Foreground,Centre,"SB/Pixel.jpg",0,0 F,0,58834,58834,0.3295564 S,0,58834,58834,12 M,19,58834,59534,571,362,508,437 M,18,59534,60034,508,437,551,130
Sprite,Foreground,Centre,"SB/Pixel.jpg",0,0 F,0,58834,58834,0.2250552 S,0,58834,58834,15 M,19,58834,59534,571,362,665,312 M,18,59534,60034,665,312,551,130
Sprite,Foreground,Centre,"SB/Pixel.jpg",0,0 F,0,58834,58834,0.3550864 S,0,58834,58834,18 M,19,58834,59534,571,362,619,307 M,18,59534,60034,619,307,551,130
Sprite,Foreground,Centre,"SB/Pixel.jpg",0,0 F,0,58834,58834,0.3409091 S,0,58834,58834,16 M,19,58834,59534,571,362,567,356 M,18,59534,60034,567,356,551,130
Sprite,Foreground,Centre,"SB/Pixel.jpg",0,0 F,0,58834,58834,0.3808647 S,0,58834,58834,15 M,19,58834,59534,571,362,638,347 M,18,59534,60034,638,347,551,130
Sprite,Foreground,Centre,"SB/Pixel.jpg",0,0 F,0,58834,58834,0.319287 S,0,58834,58834,14 M,19,58834,59534,571,362,582,401 M,18,59534,60034,582,401,551,130
Sprite,Foreground,Centre,"SB/Pixel.jpg",0,0 F,0,58834,58834,0.2564355 S,0,58834,58834,17 M,19,58834,59534,571,362,543,262 M,18,59534,60034,543,262,551,130
Sprite,Foreground,Centre,"SB/Pixel.jpg",0,0 F,0,82834,82834,0.3062088 S,0,82834,82834,19 M,19,82834,83535,285,375,249,360 M,18,83535,84035,249,360,282,75
Sprite,Foreground,Centre,"SB/Pixel.jpg",0,0 F,0,82834,82834,0.2999552 S,0,82834,82834,18 M,19,82834,83535,285,375,371,374 M,18,83535,84035,371,374,282,75
Sprite,Foreground,Centre,"SB/Pixel.jpg",0,0 F,0,82834,82834,0.2939119 S,0,82834,82834,16 M,19,82834,83535,285,375,229,311 M,18,83535,84035,229,311,282,75
Sprite,Foreground,Centre,"SB/Pixel.jpg",0,0 F,0,82834,82834,0.4290864 S,0,82834,82834,12 M,19,82834,83535,285,375,250,359 M,18,83535,84035,250,359,282,75
Sprite,Foreground,Centre,"SB/Pixel.jpg",0,0 F,0,82834,82834,0.2826934 S,0,82834,82834,18 M,19,82834,83535,285,375,319,383 M,18,83535,84035,319,383,282,75
Sprite,Foreground,Centre,"SB/Pixel.jpg",0,0 F,0,82834,82834,0.4222845 S,0,82834,82834,10 M,19,82834,83535,285,375,350,366 M,18,83535,84035,350,366,282,75
Sprite,Foreground,Centre,"SB/Pixel.jpg",0,0 F,0,82834,82834,0.2344358 S,0,82834,82834,19 M,19,82834,83535,285,375,350,414 M,18,83535,84035,350,414,282,75
Sprite,Foreground,Centre,"SB/Pixel.jpg",0,0 F,0,82834,82834,0.4705382 S,0,82834,82834,13 M,19,82834,83535,285,375,229,316 M,18,83535,84035,229,316,282,75
Sprite,Foreground,Centre,"SB/Pixel.jpg",0,0 F,0,82834,82834,0.4153286 S,0,82834,82834,19 M,19,82834,83535,285,375,193,325 M,18,83535,84035,193,325,282,75
Sprite,Foreground,Centre,"SB/Pixel.jpg",0,0 F,0,82834,82834,0.4028195 S,0,82834,82834,19 M,19,82834,83535,285,375,238,358 M,18,83535,84035,238,358,282,75
Sprite,Foreground,Centre,"SB/Pixel.jpg",0,0 F,0,82834,82834,0.4108606 S,0,82834,82834,14 M,19,82834,83535,285,375,250,328 M,18,83535,84035,250,328,282,75
Sprite,Foreground,Centre,"SB/Pixel.jpg",0,0 F,0,82834,82834,0.3504877 S,0,82834,82834,13 M,19,82834,83535,285,375,341,305 M,18,83535,84035,341,305,282,75
Sprite,Foreground,Centre,"SB/Pixel.jpg",0,0 F,0,82834,82834,0.2876368 S,0,82834,82834,10 M,19,82834,83535,285,375,279,426 M,18,83535,84035,279,426,282,75
Sprite,Foreground,Centre,"SB/Pixel.jpg",0,0 F,0,82834,82834,0.3089889 S,0,82834,82834,15 M,19,82834,83535,285,375,289,288 M,18,83535,84035,289,288,282,75
Sprite,Foreground,Centre,"SB/Pixel.jpg",0,0 F,0,82834,82834,0.3248236 S,0,82834,82834,16 M,19,82834,83535,285,375,208,379 M,18,83535,84035,208,379,282,75
Sprite,Foreground,Centre,"SB/Pixel.jpg",0,0 F,0,82834,82834,0.3108656 S,0,82834,82834,16 M,19,82834,83535,285,375,269,439 M,18,83535,84035,269,439,282,75
Sprite,Foreground,Centre,"SB/Pixel.jpg",0,0 F,0,82834,82834,0.4463456 S,0,82834,82834,11 M,19,82834,83535,285,375,266,430 M,18,83535,84035,266,430,282,75
Sprite,Foreground,Centre,"SB/Pixel.jpg",0,0 F,0,82834,82834,0.3912801 S,0,82834,82834,10 M,19,82834,83535,285,375,297,474 M,18,83535,84035,297,474,282,75
Sprite,Foreground,Centre,"SB/Pixel.jpg",0,0 F,0,82834,82834,0.3803026 S,0,82834,82834,10 M,19,82834,83535,285,375,199,415 M,18,83535,84035,199,415,282,75
Sprite,Foreground,Centre,"SB/Pixel.jpg",0,0 F,0,82834,82834,0.3942281 S,0,82834,82834,19 M,19,82834,83535,285,375,242,466 M,18,83535,84035,242,466,282,75
Sprite,Foreground,Centre,"SB/Pixel.jpg",0,0 F,0,82834,82834,0.2408418 S,0,82834,82834,10 M,19,82834,83535,285,375,225,285 M,18,83535,84035,225,285,282,75
Sprite,Foreground,Centre,"SB/Pixel.jpg",0,0 F,0,82834,82834,0.2307763 S,0,82834,82834,16 M,19,82834,83535,285,375,346,445 M,18,83535,84035,346,445,282,75
Sprite,Foreground,Centre,"SB/Pixel.jpg",0,0 F,0,82834,82834,0.4475131 S,0,82834,82834,19 M,19,82834,83535,285,375,376,431 M,18,83535,84035,376,431,282,75
Sprite,Foreground,Centre,"SB/Pixel.jpg",0,0 F,0,82834,82834,0.2341419 S,0,82834,82834,16 M,19,82834,83535,285,375,324,462 M,18,83535,84035,324,462,282,75
Sprite,Foreground,Centre,"SB/Pixel.jpg",0,0 F,0,82834,82834,0.2792209 S,0,82834,82834,11 M,19,82834,83535,285,375,290,360 M,18,83535,84035,290,360,282,75
Sprite,Foreground,Centre,"SB/Pixel.jpg",0,0 F,0,82834,82834,0.2965411 S,0,82834,82834,14 M,19,82834,83535,285,375,268,458 M,18,83535,84035,268,458,282,75
Sprite,Foreground,Centre,"SB/Pixel.jpg",0,0 F,0,82834,82834,0.3273524 S,0,82834,82834,10 M,19,82834,83535,285,375,277,310 M,18,83535,84035,277,310,282,75
Sprite,Foreground,Centre,"SB/Pixel.jpg",0,0 F,0,82834,82834,0.4283687 S,0,82834,82834,14 M,19,82834,83535,285,375,255,403 M,18,83535,84035,255,403,282,75
Sprite,Foreground,Centre,"SB/Pixel.jpg",0,0 F,0,82834,82834,0.2018397 S,0,82834,82834,16 M,19,82834,83535,285,375,326,453 M,18,83535,84035,326,453,282,75
Sprite,Foreground,Centre,"SB/Pixel.jpg",0,0 F,0,82834,82834,0.3996482 S,0,82834,82834,12 M,19,82834,83535,285,375,242,450 M,18,83535,84035,242,450,282,75
Sprite,Foreground,Centre,"SB/Pixel.jpg",0,0 F,0,82834,82834,0.2051823 S,0,82834,82834,15 M,19,82834,83535,285,375,254,443 M,18,83535,84035,254,443,282,75
Sprite,Foreground,Centre,"SB/Pixel.jpg",0,0 F,0,82834,82834,0.4891983 S,0,82834,82834,12 M,19,82834,83535,285,375,339,433 M,18,83535,84035,339,433,282,75
Sprite,Foreground,Centre,"SB/Pixel.jpg",0,0 F,0,82834,82834,0.4101789 S,0,82834,82834,10 M,19,82834,83535,285,375,362,381 M,18,83535,84035,362,381,282,75
Sprite,Foreground,Centre,"SB/Pixel.jpg",0,0 F,0,82834,82834,0.4405315 S,0,82834,82834,17 M,19,82834,83535,285,375,341,346 M,18,83535,84035,341,346,282,75
Sprite,Foreground,Centre,"SB/Pixel.jpg",0,0 F,0,82834,82834,0.4036192 S,0,82834,82834,19 M,19,82834,83535,285,375,195,310 M,18,83535,84035,195,310,282,75
Sprite,Foreground,Centre,"SB/Pixel.jpg",0,0 F,0,82834,82834,0.3782049 S,0,82834,82834,17 M,19,82834,83535,285,375,311,359 M,18,83535,84035,311,359,282,75
Sprite,Foreground,Centre,"SB/Pixel.jpg",0,0 F,0,82834,82834,0.2221703 S,0,82834,82834,18 M,19,82834,83535,285,375,292,325 M,18,83535,84035,292,325,282,75
Sprite,Foreground,Centre,"SB/Pixel.jpg",0,0 F,0,87635,87635,0.3682922 S,0,87635,87635,16 M,19,87635,88334,241,318,320,295 M,18,88334,88834,320,295,370,157
Sprite,Foreground,Centre,"SB/Pixel.jpg",0,0 F,0,87635,87635,0.2529537 S,0,87635,87635,11 M,19,87635,88334,241,318,162,366 M,18,88334,88834,162,366,370,157
Sprite,Foreground,Centre,"SB/Pixel.jpg",0,0 F,0,87635,87635,0.4799196 S,0,87635,87635,10 M,19,87635,88334,241,318,281,344 M,18,88334,88834,281,344,370,157
Sprite,Foreground,Centre,"SB/Pixel.jpg",0,0 F,0,87635,87635,0.2523157 S,0,87635,87635,11 M,19,87635,88334,241,318,291,308 M,18,88334,88834,291,308,370,157
Sprite,Foreground,Centre,"SB/Pixel.jpg",0,0 F,0,87635,87635,0.3057951 S,0,87635,87635,11 M,19,87635,88334,241,318,311,316 M,18,88334,88834,311,316,370,157
Sprite,Foreground,Centre,"SB/Pixel.jpg",0,0 F,0,87635,87635,0.3903862 S,0,87635,87635,14 M,19,87635,88334,241,318,295,376 M,18,88334,88834,295,376,370,157
Sprite,Foreground,Centre,"SB/Pixel.jpg",0,0 F,0,87635,87635,0.3865956 S,0,87635,87635,14 M,19,87635,88334,241,318,313,287 M,18,88334,88834,313,287,370,157
Sprite,Foreground,Centre,"SB/Pixel.jpg",0,0 F,0,87635,87635,0.3117694 S,0,87635,87635,16 M,19,87635,88334,241,318,218,404 M,18,88334,88834,218,404,370,157
Sprite,Foreground,Centre,"SB/Pixel.jpg",0,0 F,0,87635,87635,0.3317067 S,0,87635,87635,14 M,19,87635,88334,241,318,191,321 M,18,88334,88834,191,321,370,157
Sprite,Foreground,Centre,"SB/Pixel.jpg",0,0 F,0,87635,87635,0.3375897 S,0,87635,87635,13 M,19,87635,88334,241,318,167,331 M,18,88334,88834,167,331,370,157
Sprite,Foreground,Centre,"SB/Pixel.jpg",0,0 F,0,87635,87635,0.3358648 S,0,87635,87635,11 M,19,87635,88334,241,318,230,225 M,18,88334,88834,230,225,370,157
Sprite,Foreground,Centre,"SB/Pixel.jpg",0,0 F,0,87635,87635,0.3092194 S,0,87635,87635,14 M,19,87635,88334,241,318,221,224 M,18,88334,88834,221,224,370,157
Sprite,Foreground,Centre,"SB/Pixel.jpg",0,0 F,0,87635,87635,0.4158252 S,0,87635,87635,13 M,19,87635,88334,241,318,204,240 M,18,88334,88834,204,240,370,157
Sprite,Foreground,Centre,"SB/Pixel.jpg",0,0 F,0,87635,87635,0.3369413 S,0,87635,87635,11 M,19,87635,88334,241,318,212,219 M,18,88334,88834,212,219,370,157
Sprite,Foreground,Centre,"SB/Pixel.jpg",0,0 F,0,87635,87635,0.3467408 S,0,87635,87635,15 M,19,87635,88334,241,318,304,233 M,18,88334,88834,304,233,370,157
Sprite,Foreground,Centre,"SB/Pixel.jpg",0,0 F,0,87635,87635,0.4594398 S,0,87635,87635,13 M,19,87635,88334,241,318,207,229 M,18,88334,88834,207,229,370,157
Sprite,Foreground,Centre,"SB/Pixel.jpg",0,0 F,0,87635,87635,0.2819847 S,0,87635,87635,11 M,19,87635,88334,241,318,182,284 M,18,88334,88834,182,284,370,157
Sprite,Foreground,Centre,"SB/Pixel.jpg",0,0 F,0,87635,87635,0.3449519 S,0,87635,87635,14 M,19,87635,88334,241,318,306,396 M,18,88334,88834,306,396,370,157
Sprite,Foreground,Centre,"SB/Pixel.jpg",0,0 F,0,87635,87635,0.4688202 S,0,87635,87635,19 M,19,87635,88334,241,318,211,331 M,18,88334,88834,211,331,370,157
Sprite,Foreground,Centre,"SB/Pixel.jpg",0,0 F,0,87635,87635,0.2142641 S,0,87635,87635,14 M,19,87635,88334,241,318,169,377 M,18,88334,88834,169,377,370,157
Sprite,Foreground,Centre,"SB/Pixel.jpg",0,0 F,0,87635,87635,0.2860763 S,0,87635,87635,18 M,19,87635,88334,241,318,165,239 M,18,88334,88834,165,239,370,157
Sprite,Foreground,Centre,"SB/Pixel.jpg",0,0 F,0,87635,87635,0.4576358 S,0,87635,87635,13 M,19,87635,88334,241,318,214,327 M,18,88334,88834,214,327,370,157
Sprite,Foreground,Centre,"SB/Pixel.jpg",0,0 F,0,87635,87635,0.2171646 S,0,87635,87635,14 M,19,87635,88334,241,318,210,252 M,18,88334,88834,210,252,370,157
Sprite,Foreground,Centre,"SB/Pixel.jpg",0,0 F,0,87635,87635,0.3748379 S,0,87635,87635,10 M,19,87635,88334,241,318,337,385 M,18,88334,88834,337,385,370,157
Sprite,Foreground,Centre,"SB/Pixel.jpg",0,0 F,0,87635,87635,0.2027025 S,0,87635,87635,16 M,19,87635,88334,241,318,233,323 M,18,88334,88834,233,323,370,157
Sprite,Foreground,Centre,"SB/Pixel.jpg",0,0 F,0,87635,87635,0.3564549 S,0,87635,87635,13 M,19,87635,88334,241,318,191,254 M,18,88334,88834,191,254,370,157
Sprite,Foreground,Centre,"SB/Pixel.jpg",0,0 F,0,87635,87635,0.3347754 S,0,87635,87635,17 M,19,87635,88334,241,318,248,219 M,18,88334,88834,248,219,370,157
Sprite,Foreground,Centre,"SB/Pixel.jpg",0,0 F,0,87635,87635,0.3255571 S,0,87635,87635,16 M,19,87635,88334,241,318,160,227 M,18,88334,88834,160,227,370,157
Sprite,Foreground,Centre,"SB/Pixel.jpg",0,0 F,0,87635,87635,0.2335014 S,0,87635,87635,17 M,19,87635,88334,241,318,196,225 M,18,88334,88834,196,225,370,157
Sprite,Foreground,Centre,"SB/Pixel.jpg",0,0 F,0,87635,87635,0.347396 S,0,87635,87635,14 M,19,87635,88334,241,318,177,320 M,18,88334,88834,177,320,370,157
Sprite,Foreground,Centre,"SB/Pixel.jpg",0,0 F,0,87635,87635,0.2030909 S,0,87635,87635,11 M,19,87635,88334,241,318,202,260 M,18,88334,88834,202,260,370,157
Sprite,Foreground,Centre,"SB/Pixel.jpg",0,0 F,0,97235,97235,0.2558353 S,0,97235,97235,10 M,19,97235,97934,270,151,309,101 M,18,97934,98434,309,101,423,106
Sprite,Foreground,Centre,"SB/Pixel.jpg",0,0 F,0,97235,97235,0.3010307 S,0,97235,97235,17 M,19,97235,97934,270,151,319,82 M,18,97934,98434,319,82,423,106
Sprite,Foreground,Centre,"SB/Pixel.jpg",0,0 F,0,97235,97235,0.4806574 S,0,97235,97235,14 M,19,97235,97934,270,151,261,133 M,18,97934,98434,261,133,423,106
Sprite,Foreground,Centre,"SB/Pixel.jpg",0,0 F,0,97235,97235,0.327817 S,0,97235,97235,14 M,19,97235,97934,270,151,180,244 M,18,97934,98434,180,244,423,106
Sprite,Foreground,Centre,"SB/Pixel.jpg",0,0 F,0,97235,97235,0.421484 S,0,97235,97235,16 M,19,97235,97934,270,151,271,246 M,18,97934,98434,271,246,423,106
Sprite,Foreground,Centre,"SB/Pixel.jpg",0,0 F,0,97235,97235,0.2967624 S,0,97235,97235,19 M,19,97235,97934,270,151,182,114 M,18,97934,98434,182,114,423,106
Sprite,Foreground,Centre,"SB/Pixel.jpg",0,0 F,0,97235,97235,0.4991021 S,0,97235,97235,14 M,19,97235,97934,270,151,310,121 M,18,97934,98434,310,121,423,106
Sprite,Foreground,Centre,"SB/Pixel.jpg",0,0 F,0,97235,97235,0.2765221 S,0,97235,97235,15 M,19,97235,97934,270,151,247,210 M,18,97934,98434,247,210,423,106
Sprite,Foreground,Centre,"SB/Pixel.jpg",0,0 F,0,97235,97235,0.3379616 S,0,97235,97235,12 M,19,97235,97934,270,151,288,215 M,18,97934,98434,288,215,423,106
Sprite,Foreground,Centre,"SB/Pixel.jpg",0,0 F,0,97235,97235,0.4663184 S,0,97235,97235,12 M,19,97235,97934,270,151,178,118 M,18,97934,98434,178,118,423,106
Sprite,Foreground,Centre,"SB/Pixel.jpg",0,0 F,0,97235,97235,0.2553555 S,0,97235,97235,18 M,19,97235,97934,270,151,210,180 M,18,97934,98434,210,180,423,106
Sprite,Foreground,Centre,"SB/Pixel.jpg",0,0 F,0,97235,97235,0.3484295 S,0,97235,97235,19 M,19,97235,97934,270,151,314,153 M,18,97934,98434,314,153,423,106
Sprite,Foreground,Centre,"SB/Pixel.jpg",0,0 F,0,97235,97235,0.3016047 S,0,97235,97235,14 M,19,97235,97934,270,151,255,218 M,18,97934,98434,255,218,423,106
Sprite,Foreground,Centre,"SB/Pixel.jpg",0,0 F,0,97235,97235,0.3526971 S,0,97235,97235,16 M,19,97235,97934,270,151,190,134 M,18,97934,98434,190,134,423,106
Sprite,Foreground,Centre,"SB/Pixel.jpg",0,0 F,0,97235,97235,0.4734167 S,0,97235,97235,10 M,19,97235,97934,270,151,220,193 M,18,97934,98434,220,193,423,106
Sprite,Foreground,Centre,"SB/Pixel.jpg",0,0 F,0,97235,97235,0.3530047 S,0,97235,97235,16 M,19,97235,97934,270,151,306,154 M,18,97934,98434,306,154,423,106
Sprite,Foreground,Centre,"SB/Pixel.jpg",0,0 F,0,97235,97235,0.2164218 S,0,97235,97235,10 M,19,97235,97934,270,151,314,137 M,18,97934,98434,314,137,423,106
Sprite,Foreground,Centre,"SB/Pixel.jpg",0,0 F,0,97235,97235,0.2459109 S,0,97235,97235,13 M,19,97235,97934,270,151,181,84 M,18,97934,98434,181,84,423,106
Sprite,Foreground,Centre,"SB/Pixel.jpg",0,0 F,0,97235,97235,0.2885283 S,0,97235,97235,10 M,19,97235,97934,270,151,344,111 M,18,97934,98434,344,111,423,106
Sprite,Foreground,Centre,"SB/Pixel.jpg",0,0 F,0,97235,97235,0.2055946 S,0,97235,97235,16 M,19,97235,97934,270,151,321,147 M,18,97934,98434,321,147,423,106
Sprite,Foreground,Centre,"SB/Pixel.jpg",0,0 F,0,97235,97235,0.256721 S,0,97235,97235,17 M,19,97235,97934,270,151,295,217 M,18,97934,98434,295,217,423,106
Sprite,Foreground,Centre,"SB/Pixel.jpg",0,0 F,0,97235,97235,0.2408016 S,0,97235,97235,11 M,19,97235,97934,270,151,268,197 M,18,97934,98434,268,197,423,106
Sprite,Foreground,Centre,"SB/Pixel.jpg",0,0 F,0,97235,97235,0.4516623 S,0,97235,97235,19 M,19,97235,97934,270,151,211,51 M,18,97934,98434,211,51,423,106
Sprite,Foreground,Centre,"SB/Pixel.jpg",0,0 F,0,97235,97235,0.2897288 S,0,97235,97235,13 M,19,97235,97934,270,151,369,207 M,18,97934,98434,369,207,423,106
Sprite,Foreground,Centre,"SB/Pixel.jpg",0,0 F,0,97235,97235,0.2583987 S,0,97235,97235,17 M,19,97235,97934,270,151,357,103 M,18,97934,98434,357,103,423,106
Sprite,Foreground,Centre,"SB/Pixel.jpg",0,0 F,0,97235,97235,0.4564389 S,0,97235,97235,11 M,19,97235,97934,270,151,359,134 M,18,97934,98434,359,134,423,106
Sprite,Foreground,Centre,"SB/Pixel.jpg",0,0 F,0,97235,97235,0.4592479 S,0,97235,97235,17 M,19,97235,97934,270,151,210,150 M,18,97934,98434,210,150,423,106
Sprite,Foreground,Centre,"SB/Pixel.jpg",0,0 F,0,97235,97235,0.3042797 S,0,97235,97235,13 M,19,97235,97934,270,151,348,99 M,18,97934,98434,348,99,423,106
Sprite,Foreground,Centre,"SB/Pixel.jpg",0,0 F,0,97235,97235,0.4911308 S,0,97235,97235,18 M,19,97235,97934,270,151,234,57 M,18,97934,98434,234,57,423,106
Sprite,Foreground,Centre,"SB/Pixel.jpg",0,0 F,0,97235,97235,0.307149 S,0,97235,97235,13 M,19,97235,97934,270,151,344,144 M,18,97934,98434,344,144,423,106
Sprite,Foreground,Centre,"SB/Pixel.jpg",0,0 F,0,97235,97235,0.396002 S,0,97235,97235,11 M,19,97235,97934,270,151,365,87 M,18,97934,98434,365,87,423,106
Sprite,Foreground,Centre,"SB/Pixel.jpg",0,0 F,0,97235,97235,0.3458152 S,0,97235,97235,10 M,19,97235,97934,270,151,242,178 M,18,97934,98434,242,178,423,106
Sprite,Foreground,Centre,"SB/Pixel.jpg",0,0 F,0,97235,97235,0.2072563 S,0,97235,97235,12 M,19,97235,97934,270,151,185,226 M,18,97934,98434,185,226,423,106
Sprite,Foreground,Centre,"SB/Pixel.jpg",0,0 F,0,97235,97235,0.2340872 S,0,97235,97235,15 M,19,97235,97934,270,151,312,78 M,18,97934,98434,312,78,423,106
Sprite,Foreground,Centre,"SB/Pixel.jpg",0,0 F,0,97235,97235,0.4896588 S,0,97235,97235,17 M,19,97235,97934,270,151,321,137 M,18,97934,98434,321,137,423,106
Sprite,Foreground,Centre,"SB/Text/002d.png",260,260 C,0,60534,60534,255,255,255 F,0,60534,60634,0,1 S,0,60534,60534,0.25 F,0,62335,62435,1,0
Sprite,Foreground,Centre,"SB/Text/0061.png",284,260 C,0,60584,60584,255,255,255 F,0,60584,60684,0,1 S,0,60534,60534,0.25 F,0,62335,62435,1,0
Sprite,Foreground,Centre,"SB/Text/007a.png",298,260 C,0,60634,60634,255,255,255 F,0,60634,60734,0,1 S,0,60534,60534,0.25 F,0,62335,62435,1,0
Sprite,Foreground,Centre,"SB/Text/0072.png",313,260 C,0,60684,60684,255,255,255 F,0,60684,60784,0,1 S,0,60534,60534,0.25 F,0,62335,62435,1,0
Sprite,Foreground,Centre,"SB/Text/0061.png",328,260 C,0,60734,60734,255,255,255 F,0,60734,60834,0,1 S,0,60534,60534,0.25 F,0,62335,62435,1,0
Sprite,Foreground,Centre,"SB/Text/0065.png",342,260 C,0,60784,60784,255,255,255 F,0,60784,60884,0,1 S,0,60534,60534,0.25 F,0,62335,62435,1,0
Sprite,Foreground,Centre,"SB/Text/006c.png",357,260 C,0,60834,60834,255,255,255 F,0,60834,60934,0,1 S,0,60534,60534,0.25 F,0,62335,62435,1,0
Sprite,Foreground,Centre,"SB/Text/002d.png",380,260 C,0,60884,60884,255,255,255 F,0,60884,60984,0,1 S,0,60534,60534,0.25 F,0,62335,62435,1,0
//Storyboard Layer 4 (Overlay)
//Storyboard Sound Samples

[TimingPoints]
2435,300,4,2,1,70,1,0
7235,-100,4,2,2,80,0,0
10835,-100,4,2,3,80,0,0
11135,-100,4,2,1,80,0,0
12035,-100,4,2,2,65,0,0
12335,-100,4,2,1,65,0,0
13235,-100,4,2,1,75,0,0
14435,-100,4,2,1,85,0,0
15635,-166.666666666667,4,2,1,85,0,0
16235,-100,4,2,1,85,0,0
16835,-100,4,2,3,90,0,0
16985,-100,4,2,2,90,0,0
19235,-100,4,2,3,90,0,0
19385,-100,4,2,2,90,0,0
19835,-100,4,2,3,90,0,0
19910,-100,4,2,9,90,0,0
19985,-100,4,2,9,90,0,0
20435,-100,4,2,4,90,0,0
21185,-100,4,2,1,90,0,0
21635,-83.3333333333333,4,2,2,90,0,1
21934,-83.3333333333333,4,2,1,90,0,1
22234,-83.3333333333333,4,2,4,90,0,1
22535,-83.3333333333333,4,2,2,90,0,1
22685,-100,4,2,2,90,0,1
23435,-100,4,2,5,90,0,1
23735,-100,4,2,1,90,0,1
23885,-100,4,2,2,90,0,1
24185,-100,4,2,1,90,0,1
24335,-100,4,2,2,90,0,1
24635,-100,4,2,6,90,0,1
24785,-100,4,2,2,90,0,1
25385,-100,4,2,1,90,0,1
25535,-100,4,2,4,90,0,1
25985,-100,4,2,2,90,0,1
26435,-83.3333333333333,4,2,2,90,0,1
26734,-83.3333333333333,4,2,2,90,0,1
27034,-83.3333333333333,4,2,6,90,0,1
27185,-83.3333333333333,4,2,2,90,0,1
27335,-100,4,2,2,90,0,1
28235,-100,4,2,5,90,0,1
28385,-100,4,2,1,90,0,1
28535,-100,4,2,2,90,0,1
28835,-100,4,2,1,90,0,1
29435,-100,4,2,5,90,0,1
29735,-100,4,2,2,90,0,1
30035,-100,4,2,4,90,0,0
31235,-83.3333333333333,4,2,2,90,0,1
31534,-83.3333333333333,4,2,1,90,0,1
31834,-83.3333333333333,4,2,5,90,0,1
32135,-100,4,2,2,90,0,1
32735,-100,4,2,1,90,0,1
33035,-100,4,2,5,90,0,1
33335,-100,4,2,2,90,0,1
33785,-100,4,2,1,90,0,1
34235,-100,4,2,5,90,0,1
34535,-100,4,2,2,90,0,1
34835,-100,4,2,1,90,0,1
35435,-100,4,2,6,90,0,1
35735,-100,4,2,1,90,0,1
36035,-83.3333333333333,4,2,6,90,0,1
36334,-83.3333333333333,4,2,1,90,0,1
36634,-83.3333333333333,4,2,5,90,0,1
36935,-100,4,2,2,90,0,1
37235,-100,4,2,1,90,0,1
37835,-100,4,2,5,90,0,1
38135,-100,4,2,2,90,0,1
38360,-100,4,2,2,90,0,1
38435,-100,4,2,1,90,0,1
39035,-100,4,2,6,90,0,1
39335,-100,4,2,2,90,0,1
39635,-100,4,2,2,80,0,0
39935,-100,4,2,4,80,0,0
40085,-100,4,2,1,80,0,0
40385,-100,4,2,2,80,0,0
40835,-83.3333333333333,4,2,2,90,0,1
41134,-83.3333333333333,4,2,1,90,0,1
41435,-83.3333333333333,4,2,4,90,0,1
41735,-100,4,2,4,90,0,1
42635,-100,4,2,5,90,0,1
42935,-100,4,2,2,90,0,1
43385,-100,4,2,1,90,0,1
43835,-100,4,2,4,90,0,1
45035,-100,4,2,5,90,0,1
45335,-100,4,2,2,90,0,1
45635,-83.3333333333333,4,2,2,90,0,1
46235,-100,4,2,5,90,0,1
46535,-100,4,2,4,90,0,1
46685,-100,4,2,1,90,0,1
47135,-100,4,2,2,90,0,1
47435,-100,4,2,5,90,0,1
47735,-100,4,2,4,90,0,1
47885,-100,4,2,1,90,0,1
48635,-100,4,2,5,90,0,1
48935,-100,4,2,4,90,0,1
49235,-125,4,2,5,90,0,0
49535,-125,4,2,2,90,0,0
50435,-83.3333333333333,4,2,2,90,0,1
50734,-83.3333333333333,4,2,1,90,0,1
51035,-83.3333333333333,4,2,4,90,0,1
51335,-100,4,2,4,90,0,1
52235,-100,4,2,5,90,0,1
52535,-100,4,2,2,90,0,1
52685,-100,4,2,4,90,0,1
52985,-100,4,2,1,90,0,1
53435,-100,4,2,4,90,0,1
54635,-100,4,2,5,90,0,1
54935,-100,4,2,2,90,0,1
55085,-100,4,2,1,90,0,1
55235,-83.3333333333333,4,2,2,90,0,1
55835,-83.3333333333333,4,2,5,90,0,1
56135,-83.3333333333333,4,2,2,90,0,1
56435,-100,4,2,2,90,0,1
56735,-100,4,2,4,90,0,1
57785,-100,4,2,2,90,0,1
58235,-100,4,2,4,90,0,1
58385,-100,4,2,1,90,0,1
58835,-100,4,2,5,90,0,0
59585,-100,4,2,1,90,0,0
60035,-100,4,2,7,80,0,0
69635,-111.111111111111,4,2,8,80,0,0
70235,-111.111111111111,4,2,4,80,0,0
74435,-111.111111111111,4,2,8,80,0,0
75035,-111.111111111111,4,2,4,80,0,0
78035,-125,4,2,4,80,0,0
78635,-142.857142857143,4,2,4,80,0,0
79235,-142.857142857143,4,2,4,70,0,0
82835,-142.857142857143,4,2,3,70,0,0
83135,-100,4,2,2,70,0,0
83585,-100,4,2,1,70,0,0
84035,-100,4,2,9,75,0,0
84785,-100,4,2,1,75,0,0
85535,-100,4,2,2,75,0,0
85985,-100,4,2,1,75,0,0
86735,-100,4,2,2,75,0,0
87185,-100,4,2,1,75,0,0
87935,-100,4,2,2,75,0,0
88235,-100,4,2,7,75,0,0
88535,-100,4,2,2,75,0,0
88835,-100,4,2,2,80,0,0
90035,-100,4,2,9,80,0,0
93635,-100,4,2,3,85,0,0
93785,-100,4,2,2,85,0,0
94835,-100,4,2,9,85,0,0
97235,-100,4,2,3,85,0,0
97535,-100,4,2,4,85,0,0
98135,-100,4,2,10,85,0,0
98435,-83.3333333333333,4,2,2,90,0,1
98735,-83.3333333333333,4,2,4,90,0,1
99335,-83.3333333333333,4,2,6,90,0,1
99484,-83.3333333333333,4,2,1,90,0,1
99935,-83.3333333333333,4,2,6,90,0,1
100085,-83.3333333333333,4,2,1,90,0,1
100534,-83.3333333333333,4,2,6,90,0,1
100685,-83.3333333333333,4,2,2,90,0,1
101135,-83.3333333333333,4,2,4,90,0,1
101284,-83.3333333333333,4,2,2,90,0,1
101735,-83.3333333333333,4,2,5,90,0,1
101885,-83.3333333333333,4,2,2,90,0,1
102035,-83.3333333333333,4,2,1,90,0,1
102335,-83.3333333333333,4,2,4,90,0,1
102635,-83.3333333333333,4,2,1,90,0,1
102934,-83.3333333333333,4,2,6,90,0,1
103085,-83.3333333333333,4,2,3,90,0,1
103235,-83.3333333333333,4,2,3,90,0,1
103535,-83.3333333333333,4,2,6,90,0,1
103684,-83.3333333333333,4,2,1,90,0,1
104135,-83.3333333333333,4,2,6,90,0,1
104284,-83.3333333333333,4,2,1,90,0,1
104735,-83.3333333333333,4,2,6,90,0,1
104884,-83.3333333333333,4,2,1,90,0,1
105334,-83.3333333333333,4,2,4,90,0,1
106984,-83.3333333333333,4,2,2,90,0,1
107135,-90.9090909090909,4,2,4,90,0,1
107285,-90.9090909090909,4,2,2,90,0,1
107435,-100,4,2,4,90,0,1
107735,-111.111111111111,4,2,4,90,0,1
108035,-111.111111111111,4,2,4,90,0,0
108335,-83.3333333333333,4,2,6,90,0,1
108484,-83.3333333333333,4,2,4,90,0,1
109835,-83.3333333333333,4,2,1,90,0,1
110135,-83.3333333333333,4,2,6,90,0,1
110284,-83.3333333333333,4,2,1,90,0,1
110734,-83.3333333333333,4,2,6,90,0,1
110885,-83.3333333333333,4,2,4,90,0,1
111035,-83.3333333333333,4,2,4,90,0,1
112235,-83.3333333333333,4,2,1,90,0,1
112535,-83.3333333333333,4,2,4,90,0,1
112684,-83.3333333333333,4,2,1,90,0,1
112835,-100,4,2,2,90,0,1
113435,-100,4,2,11,90,0,1
113735,-100,4,2,2,90,0,1
114335,-100,4,2,1,90,0,1
114635,-100,4,2,12,90,0,1
114935,-100,4,2,13,90,0,1
115235,-83.3333333333333,4,2,4,90,0,1
116435,-83.3333333333333,4,2,14,90,0,1
117334,-83.3333333333333,4,2,10,90,0,1
117635,-100,4,2,15,95,0,0
117785,-100,4,2,1,95,0,0
117935,-100,4,2,8,95,0,0
122435,-100,4,2,4,95,0,0
122735,-100,4,2,8,95,0,0
127535,-100,4,2,16,95,0,0
127685,-100,4,2,4,95,0,0
128135,-100,4,2,8,95,0,0
131435,-100,4,2,10,95,0,0
131585,-100,4,2,1,95,0,0
131735,-100,4,2,8,95,0,0
132035,-100,4,2,17,95,0,0
132185,-100,4,2,5,95,0,0
132335,-100,4,2,8,95,0,0
132485,-100,4,2,5,95,0,0
132635,-100,4,2,4,95,0,0
132785,-100,4,2,5,95,0,0
132935,-100,4,2,8,95,0,0
133085,-100,4,2,5,95,0,0
133235,-100,4,2,4,95,0,0
133385,-100,4,2,5,95,0,0
133535,-100,4,2,8,95,0,0
133685,-100,4,2,5,95,0,0
133835,-100,4,2,4,95,0,0
133985,-100,4,2,5,95,0,0
134135,-100,4,2,8,95,0,0
134285,-100,4,2,5,95,0,0
134435,-100,4,2,14,95,0,0
134735,-100,4,2,8,95,0,0
134885,-100,4,2,14,95,0,0
135335,-100,4,2,8,95,0,0
135485,-100,4,2,14,95,0,0
136235,-100,4,2,18,95,0,0
136385,-100,4,2,1,95,0,0
136535,-100,4,2,15,95,0,0
136835,-100,4,2,11,95,0,0

[Colours]
Combo1 : 255,128,192
Combo2 : 255,0,128
Combo3 : 255,88,102
Combo4 : 255,0,255

[HitObjects]
256,192,2435,5,4,2:0:0:0:
256,192,2510,12,0,6935,0:0:0:0:
416,192,7235,6,0,L|424:112,2,70,4|0|0,3:2|0:0|0:0,0:0:0:0:
416,192,7835,1,8,2:0:0:0:
256,192,9035,5,8,2:0:0:0:
96,192,10235,5,8,2:0:0:0:
260,57,10835,6,0,L|273:161,1,105,4|0,3:2|0:0,0:0:0:0:
256,192,11135,2,0,L|247:265,2,70,2|2|2,2:0|2:0|2:0,0:0:0:0:
172,156,11585,1,0,1:0:0:0:
172,156,11660,1,0,1:0:0:0:
172,156,11735,2,0,L|163:229,1,70,0|0,3:0|3:0,0:0:0:0:
44,282,12035,6,0,B|79:276|109:299|109:299|141:324|179:317,1,140,4|8,3:2|1:2,0:0:0:0:
247,261,12485,1,0,1:0:0:0:
333,295,12635,1,8,3:2:0:0:
333,295,12710,1,0,3:0:0:0:
333,295,12785,2,0,L|344:376,1,70,0|8,1:0|1:2,0:0:0:0:
432,384,13085,1,0,1:0:0:0:
432,384,13160,1,0,1:0:0:0:
432,384,13235,6,0,L|410:225,1,140,8|8,3:2|1:2,0:0:0:0:
357,172,13685,1,0,1:0:0:0:
392,85,13835,2,0,L|400:21,2,35,8|0|0,3:2|3:0|1:0,0:0:0:0:
450,160,14135,1,8,1:2:0:0:
450,160,14285,1,0,1:0:0:0:
299,97,14435,6,0,L|229:106,1,70,8|0,3:2|0:0,0:0:0:0:
159,48,14735,2,0,L|89:38,1,70,8|0,1:2|1:0,0:0:0:0:
34,113,15035,2,0,L|-8:118,2,35,8|0|0,3:2|3:0|1:0,0:0:0:0:
89,187,15335,1,8,1:2:0:0:
89,187,15485,1,0,1:0:0:0:
229,105,15635,6,0,L|207:265,1,146.999995513916,8|0,3:2|0:0,0:0:0:0:
205,286,16235,6,0,L|274:276,2,70,10|0|10,2:0|0:0|2:0,0:0:0:0:
384,352,16835,6,0,L|396:264,1,70,4|2,2:0|2:0,0:0:0:0:
460,220,17135,2,0,L|450:150,1,70,0|2,1:0|2:0,0:0:0:0:
497,71,17435,2,0,P|462:59|414:67,1,70,0|2,1:0|2:0,0:0:0:0:
362,124,17735,2,0,P|327:125|294:114,1,70,0|2,1:0|2:0,0:0:0:0:
218,71,18035,6,0,L|208:141,1,70,0|2,1:0|2:0,0:0:0:0:
274,203,18336,2,0,L|283:272,1,70,0|2,1:0|2:0,0:0:0:0:
230,349,18635,2,0,B|198:361|198:361|150:353,1,70,0|2,1:0|2:0,0:0:0:0:
122,272,18935,2,0,B|154:260|154:260|189:265,1,70,0|2,1:0|2:0,0:0:0:0:
71,350,19235,5,2,1:2:0:0:
71,350,19385,1,2,1:2:0:0:
29,267,19535,1,2,1:2:0:0:
29,267,19685,1,2,1:2:0:0:
80,189,19835,6,0,L|72:144,3,35,2|2|2|2,1:2|1:2|1:2|1:2,0:0:0:0:
87,122,20135,2,0,L|95:77,3,35,2|2|2|2,1:2|1:2|1:2|1:2,0:0:0:0:
80,55,20435,5,4,2:0:0:0:
80,55,21185,2,0,L|128:51,1,35,0|0,1:0|1:0,0:0:0:0:
150,49,21335,2,0,L|240:41,1,70,0|0,3:0|3:0,0:0:0:0:
364,111,21635,6,0,L|350:278,2,167.999994873047,4|10|0,3:2|2:0|1:0,0:0:0:0:
495,20,22535,5,10,2:0:0:0:
495,20,22685,2,0,L|488:103,1,70,2|0,2:0|3:0,0:0:0:0:
451,174,22985,1,2,2:0:0:0:
451,174,23135,1,10,2:0:0:0:
451,174,23285,2,0,L|458:257,1,70,2|2,2:0|1:2,0:0:0:0:
423,330,23585,2,0,P|475:335|516:315,2,70,0|10|2,0:0|2:0|2:0,0:0:0:0:
365,257,24035,6,0,P|313:252|272:272,1,70,0|2,3:0|2:0,0:0:0:0:
239,328,24335,1,10,2:0:0:0:
148,313,24485,1,2,2:0:0:0:
71,363,24635,2,0,P|58:331|57:297,1,70,2|2,1:2|2:0,0:0:0:0:
116,227,24935,1,10,2:0:0:0:
116,227,25085,1,2,2:0:0:0:
85,140,25235,6,0,L|93:63,1,70,2|2,3:2|2:0,0:0:0:0:
178,37,25535,2,0,L|188:140,1,105,10|0,2:0|0:0,0:0:0:0:
193,177,25835,2,0,P|243:179|275:164,1,70,0|2,1:0|2:0,0:0:0:0:
344,134,26135,2,0,P|386:119|450:139,1,105,10|0,2:0|0:0,0:0:0:0:
479,176,26435,6,0,L|464:1,2,167.999994873047,4|10|2,3:2|2:0|1:2,0:0:0:0:
473,366,27335,6,0,P|439:374|404:370,1,70,10|2,2:0|2:0,0:0:0:0:
313,384,27635,1,2,3:2:0:0:
348,297,27785,2,0,P|355:263|349:228,2,70,0|10|2,0:0|2:0|2:0,0:0:0:0:
255,310,28235,2,0,L|167:302,1,70,2|2,1:2|2:0,0:0:0:0:
126,375,28535,2,0,L|56:381,1,70,10|2,2:0|2:0,0:0:0:0:
0,308,28835,5,0,3:2:0:0:
35,222,28985,2,0,P|47:170|2:97,1,140,2|0,2:0|0:0,0:0:0:0:
0,7,29435,6,0,L|72:15,1,70,0|2,1:0|2:0,0:0:0:0:
137,77,29735,2,0,L|271:62,1,105,10|0,2:0|0:0,0:0:0:0:
276,62,30035,6,0,L|268:134,1,70,2|0,3:2|0:0,0:0:0:0:
366,74,30335,2,0,L|359:144,1,70,10|2,2:0|2:0,0:0:0:0:
272,175,30635,2,0,L|280:247,1,70,2|2,1:2|2:0,0:0:0:0:
181,187,30935,2,0,L|188:256,1,70,10|10,2:0|2:0,0:0:0:0:
336,318,31235,6,0,P|408:303|476:365,2,167.999994873047,4|10|2,3:2|2:0|1:2,0:0:0:0:
265,377,31985,1,2,2:0:0:0:
179,346,32135,2,0,L|172:236,1,105,10|0,2:0|0:0,0:0:0:0:
170,206,32435,5,0,3:0:0:0:
148,116,32585,2,0,P|192:116|236:140,2,70,0|10|2,0:0|2:0|2:0,0:0:0:0:
81,180,33035,2,0,P|47:190|13:189,1,70,2|2,1:2|2:0,0:0:0:0:
35,100,33335,1,10,2:0:0:0:
35,100,33485,1,2,2:0:0:0:
15,9,33635,6,0,L|84:2,1,70,0|2,3:0|2:0,0:0:0:0:
171,33,33935,2,0,L|279:22,1,105,10|0,2:0|0:0,0:0:0:0:
306,39,34235,2,0,L|375:46,1,70,2|2,1:2|2:0,0:0:0:0:
467,60,34535,1,10,2:0:0:0:
467,60,34685,1,2,2:0:0:0:
410,132,34835,6,0,P|408:188|424:220,1,70,2|0,3:2|0:0,0:0:0:0:
476,267,35135,1,10,2:0:0:0:
300,311,35435,2,0,L|220:303,1,70,2|0,1:2|0:0,0:0:0:0:
187,222,35735,2,0,L|60:234,1,105,10|0,2:0|0:0,0:0:0:0:
28,237,36035,6,0,P|71:278|54:386,2,167.999994873047,4|10|2,3:2|2:0|1:2,0:0:0:0:
0,148,36785,1,2,2:0:0:0:
50,70,36935,2,0,L|138:78,1,70,10|2,2:0|2:0,0:0:0:0:
197,126,37235,5,2,3:2:0:0:
280,86,37385,2,0,L|287:2,2,70,0|10|2,0:0|2:0|2:0,0:0:0:0:
273,177,37835,2,0,P|323:167|355:139,1,70,2|2,1:2|2:0,0:0:0:0:
371,70,38135,2,0,P|400:88|421:116,1,70,10|2,2:0|2:0,0:0:0:0:
414,208,38435,5,0,3:0:0:0:
450,292,38585,2,0,P|382:294|332:249,1,140,2|0,0:0|0:0,0:0:0:0:
273,177,39035,1,2,1:2:0:0:
241,263,39185,1,2,2:0:0:0:
182,192,39335,2,0,L|192:106,1,70,10|2,2:0|2:0,0:0:0:0:
156,37,39635,5,0,3:0:0:0:
8,97,39935,2,0,L|-1:27,2,70,2|2|2,2:0|2:0|2:0,0:0:0:0:
66,169,40385,1,0,1:0:0:0:
66,169,40460,1,0,1:0:0:0:
66,169,40535,2,0,L|50:298,1,105,0|0,1:0|0:0,0:0:0:0:
46,328,40835,6,0,B|88:339|130:322|122:299|167:283|205:294,1,167.999994873047,4|10,3:2|2:0,0:0:0:0:
420,362,41435,5,2,1:2:0:0:
420,362,41585,1,2,2:0:0:0:
420,362,41735,2,0,L|413:281,1,70,10|0,2:0|0:0,0:0:0:0:
489,239,42035,2,0,L|496:158,1,70,2|0,3:2|0:0,0:0:0:0:
444,92,42335,1,10,2:0:0:0:
444,92,42485,1,2,2:0:0:0:
367,143,42635,5,2,1:2:0:0:
285,102,42785,2,0,P|298:69|296:23,2,70,2|10|2,2:0|2:0|2:0,0:0:0:0:
202,143,43235,5,0,3:0:0:0:
126,92,43385,2,0,P|111:135|156:223,1,140,2|0,2:0|0:0,0:0:0:0:
187,302,43835,5,2,1:2:0:0:
187,302,43985,1,2,2:0:0:0:
240,227,44135,1,10,2:0:0:0:
240,227,44285,1,2,2:0:0:0:
278,310,44435,2,0,L|364:300,1,70,2|0,3:2|0:0,0:0:0:0:
435,329,44735,1,10,2:0:0:0:
435,329,44885,1,2,2:0:0:0:
503,267,45035,6,0,P|507:230|493:189,1,70,2|2,1:2|2:0,0:0:0:0:
427,141,45335,2,0,P|409:93|421:39,1,105,10|0,2:0|0:0,0:0:0:0:
458,3,45635,6,0,P|403:37|301:-11,1,167.999994873047,4|8,3:2|2:0,0:0:0:0:
128,0,46235,2,0,L|136:80,1,70,2|2,1:2|2:0,0:0:0:0:
66,131,46535,2,0,L|58:211,1,70,10|2,2:0|2:0,0:0:0:0:
10,279,46835,5,0,3:0:0:0:
65,354,46985,2,0,P|26:371|-13:368,2,70,0|10|2,0:0|2:0|2:0,0:0:0:0:
140,299,47435,2,0,L|240:308,1,70,2|2,1:2|2:0,0:0:0:0:
289,352,47735,2,0,L|358:345,1,70,10|2,2:0|2:0,0:0:0:0:
448,367,48035,5,0,3:0:0:0:
421,279,48185,2,0,P|414:203|470:147,1,140,2|0,2:0|0:0,0:0:0:0:
487,70,48635,2,0,L|399:58,1,70,2|2,1:2|2:0,0:0:0:0:
336,18,48935,2,0,L|266:27,1,70,10|0,2:0|0:0,0:0:0:0:
223,130,49235,6,0,B|199:90|199:90|120:79,1,112,4|8,3:2|2:0,0:0:0:0:
55,127,49685,1,8,2:0:0:0:
55,127,49835,2,0,B|79:167|79:167|158:178,1,112,8|8,2:0|2:0,0:0:0:0:
230,314,50435,6,0,L|402:294,1,167.999994873047,4|10,3:2|2:0,0:0:0:0:
486,133,51035,5,2,1:2:0:0:
486,133,51185,1,2,2:0:0:0:
486,133,51335,2,0,P|440:120|393:131,1,70,10|0,2:0|0:0,0:0:0:0:
333,157,51635,2,0,P|287:170|240:159,1,70,2|0,3:2|0:0,0:0:0:0:
184,125,51935,1,10,2:0:0:0:
184,125,52085,1,2,2:0:0:0:
105,174,52235,5,2,1:2:0:0:
102,81,52385,2,0,L|112:0,2,70,2|10|2,2:0|2:0|2:0,0:0:0:0:
23,130,52835,5,0,3:0:0:0:
26,223,52985,2,0,L|43:368,1,140,2|0,2:0|0:0,0:0:0:0:
132,384,53435,5,2,1:2:0:0:
132,384,53585,1,2,2:0:0:0:
195,317,53735,1,10,2:0:0:0:
195,317,53885,1,2,2:0:0:0:
169,229,54035,2,0,L|158:145,1,70,2|0,3:2|0:0,0:0:0:0:
211,83,54335,1,10,2:0:0:0:
211,83,54485,1,2,2:0:0:0:
287,135,54635,6,0,B|322:141|322:141|371:123,1,70,2|2,1:2|2:0,0:0:0:0:
390,43,54935,2,0,B|434:70|434:70|447:125,1,105,10|0,2:0|0:0,0:0:0:0:
434,175,55235,6,0,L|424:346,1,167.999994873047,4|8,3:2|2:0,0:0:0:0:
208,384,55835,5,2,1:2:0:0:
208,384,55985,1,2,2:0:0:0:
178,297,56135,1,10,2:0:0:0:
178,297,56285,1,2,2:0:0:0:
239,228,56435,6,0,L|248:144,1,70,2|2,3:2|2:0,0:0:0:0:
306,88,56735,2,0,P|257:67|190:85,1,105,10|0,2:0|0:0,0:0:0:0:
180,96,57035,2,0,L|171:12,1,70,0|0,1:0|0:0,0:0:0:0:
80,19,57335,2,0,L|92:137,1,105,10|0,2:0|0:0,0:0:0:0:
69,151,57635,6,0,L|61:220,1,70,0|2,3:0|2:0,0:0:0:0:
48,315,57935,2,0,B|113:308|113:308|151:255,1,105,10|0,2:0|0:0,0:0:0:0:
157,248,58235,2,0,L|226:255,1,70,0|2,1:0|2:0,0:0:0:0:
283,329,58535,2,0,L|352:321,1,70,10|2,2:0|2:0,0:0:0:0:
507,306,58835,5,4,3:2:0:0:
507,306,59585,2,0,L|503:258,1,35,0|0,1:0|1:0,0:0:0:0:
501,236,59735,2,0,L|493:146,1,70,0|0,3:0|3:0,0:0:0:0:
487,74,60035,5,4,2:0:0:0:
465,240,69635,6,0,L|457:316,1,62.9999980773926,6|0,3:2|0:0,0:0:0:0:
368,291,69935,2,0,L|374:228,1,62.9999980773926,10|0,2:0|0:0,0:0:0:0:
287,184,70235,2,0,L|273:309,1,125.999996154785,2|10,1:2|2:0,0:0:0:0:
94,284,70835,6,0,B|126:276|126:276|158:284,1,62.9999980773926,2|0,3:2|0:0,0:0:0:0:
126,372,71135,2,0,B|94:380|94:380|62:372,1,62.9999980773926,10|0,2:0|0:0,0:0:0:0:
4,303,71435,2,0,L|18:178,1,125.999996154785,2|10,1:2|2:0,0:0:0:0:
160,60,72035,6,0,L|70:69,1,62.9999980773926,2|0,3:2|0:0,0:0:0:0:
108,159,72335,2,0,L|170:151,1,62.9999980773926,10|0,2:0|0:0,0:0:0:0:
246,97,72635,2,0,L|383:112,1,125.999996154785,2|10,1:2|2:0,0:0:0:0:
512,234,73235,6,0,P|471:199|378:213,1,125.999996154785,2|10,3:2|2:0,0:0:0:0:
349,363,73835,2,0,P|406:339|435:285,1,125.999996154785,2|10,1:2|2:0,0:0:0:0:
282,188,74435,6,0,L|275:251,1,62.9999980773926,6|0,3:2|0:0,0:0:0:0:
254,341,74735,2,0,L|191:348,1,62.9999980773926,10|0,2:0|0:0,0:0:0:0:
150,265,75035,2,0,L|275:251,1,125.999996154785,2|10,1:2|2:0,0:0:0:0:
429,168,75635,6,0,P|383:165|348:140,1,62.9999980773926,2|0,3:2|0:0,0:0:0:0:
300,97,75935,2,0,P|254:100|219:125,1,62.9999980773926,10|0,2:0|0:0,0:0:0:0:
160,155,76235,2,0,L|146:30,1,125.999996154785,2|10,1:2|2:0,0:0:0:0:
40,169,76835,6,0,B|98:143|98:143|175:157,1,125.999996154785,2|10,3:2|2:0,0:0:0:0:
49,261,77435,2,0,B|109:272|109:272|168:247,1,125.999996154785,2|10,1:2|2:0,0:0:0:0:
245,192,77885,1,8,2:0:0:0:
245,192,78035,6,0,L|258:63,1,112,2|10,3:2|2:0,0:0:0:0:
361,0,78635,2,0,L|372:111,1,97.9999970092774,2|10,1:2|2:0,0:0:0:0:
441,214,79235,6,0,B|445:153|445:153|461:133|461:133|467:53,2,146.999995513916,4|0|0,3:2|3:0|3:0,0:0:0:0:
349,226,80285,1,0,3:0:0:0:
349,226,80360,1,0,3:0:0:0:
349,226,80435,6,0,B|353:128|353:128|324:81,2,146.999995513916,4|0|0,3:2|3:0|3:0,0:0:0:0:
313,311,81485,1,0,3:0:0:0:
313,311,81560,1,0,3:0:0:0:
313,311,81635,6,0,B|336:308|336:308|357:315|357:315|376:305|376:305|460:298,2,146.999995513916,4|0|0,3:2|3:0|3:0,0:0:0:0:
221,319,82685,5,0,3:0:0:0:
221,319,82760,1,0,3:0:0:0:
221,319,82835,5,4,3:2:0:0:
39,233,83135,2,0,L|41:198,3,35,2|0|2|2,2:0|0:0|2:0|2:0,0:0:0:0:
43,163,83435,1,2,2:0:0:0:
1,80,83585,2,0,L|35:77,1,35,0|0,1:0|1:0,0:0:0:0:
71,76,83735,2,0,L|167:69,1,70,0|0,3:0|3:0,0:0:0:0:
218,19,84035,6,0,P|232:58|228:104,1,70,4|0,3:2|3:0,0:0:0:0:
174,158,84335,2,0,P|160:197|164:243,1,70,0|0,1:0|3:0,0:0:0:0:
218,297,84635,1,0,3:0:0:0:
218,297,84710,1,0,3:0:0:0:
218,297,84785,1,0,1:0:0:0:
250,210,84935,2,0,L|330:202,1,70,0|0,3:0|3:0,0:0:0:0:
410,228,85235,6,0,B|415:192|415:192|397:147,1,70,0|0,3:0|3:0,0:0:0:0:
326,111,85535,1,0,1:0:0:0:
326,111,85685,1,0,3:0:0:0:
409,69,85835,2,0,L|457:73,2,35,0|0|0,3:0|3:0|1:0,0:0:0:0:
332,19,86135,2,0,L|259:25,1,70,0|0,3:0|3:0,0:0:0:0:
174,0,86435,6,0,L|171:34,3,35,0|0|0|0,3:0|3:0|3:0|3:0,0:0:0:0:
168,70,86735,2,0,L|165:104,3,35,0|0|0|0,1:0|3:0|3:0|3:0,0:0:0:0:
190,129,87035,2,0,L|192:163,3,35,0|0|0|0,3:0|3:0|1:0|3:0,0:0:0:0:
196,199,87335,2,0,L|198:233,3,35,0|0|0|0,3:0|3:0|3:0|3:0,0:0:0:0:
177,262,87635,5,4,3:2:0:0:
368,216,87935,1,0,1:0:0:0:
368,216,88085,1,0,1:0:0:0:
406,301,88235,2,0,P|322:296|292:265,1,105,2|0,2:0|0:0,0:0:0:0:
286,258,88535,2,0,P|277:222|284:178,1,70,0|0,3:0|3:0,0:0:0:0:
306,101,88835,6,0,L|206:109,2,70,12|8|8,1:2|2:0|2:0,0:0:0:0:
323,10,89285,2,0,L|223:18,2,70,8|8|8,1:2|3:2|3:2,0:0:0:0:
394,71,89735,2,0,L|494:79,1,70,8|8,1:2|3:2,0:0:0:0:
499,79,89960,1,0,3:0:0:0:
499,79,90035,6,0,P|511:43|509:6,2,70,12|8|8,1:2|2:0|2:0,0:0:0:0:
441,152,90485,2,0,P|429:188|431:225,2,70,8|8|8,1:2|3:2|3:2,0:0:0:0:
394,71,90935,2,0,L|294:79,1,70,8|8,1:2|3:2,0:0:0:0:
299,101,91160,1,0,3:0:0:0:
299,101,91235,6,0,L|229:95,2,70,12|8|8,1:2|2:0|2:0,0:0:0:0:
371,158,91685,2,0,L|440:152,2,70,8|8|8,1:2|3:2|3:2,0:0:0:0:
285,191,92135,2,0,L|279:260,1,70,8|8,1:2|3:2,0:0:0:0:
275,296,92360,1,0,3:0:0:0:
275,296,92435,6,0,P|315:291|343:275,2,70,12|8|8,1:2|2:0|2:0,0:0:0:0:
184,286,92885,2,0,P|188:326|204:354,2,70,8|8|8,1:2|3:2|3:2,0:0:0:0:
194,195,93335,2,0,P|154:199|126:215,1,70,8|8,1:2|3:2,0:0:0:0:
105,240,93560,1,0,3:0:0:0:
105,240,93635,6,0,L|96:168,1,70,12|10,1:2|2:0,0:0:0:0:
16,125,93935,2,0,L|25:53,1,70,8|10,1:2|2:0,0:0:0:0:
104,10,94235,2,0,P|145:22|195:11,1,70,8|10,1:2|3:2,0:0:0:0:
261,1,94535,2,0,P|295:0|328:11,1,70,8|10,1:2|2:0,0:0:0:0:
281,91,94835,6,0,L|273:163,1,70,12|10,1:2|2:0,0:0:0:0:
343,220,95135,2,0,L|351:292,1,70,8|10,1:2|2:0,0:0:0:0:
311,374,95435,2,0,B|345:385|345:385|391:376,1,70,8|10,1:2|3:2,0:0:0:0:
418,293,95735,2,0,B|384:282|384:282|338:291,1,70,8|10,1:2|3:2,0:0:0:0:
220,382,96035,5,14,1:2:0:0:
220,382,96185,1,10,1:2:0:0:
259,298,96335,1,10,1:2:0:0:
259,298,96485,1,10,1:2:0:0:
206,223,96635,6,0,L|210:175,3,35,14|2|10|2,1:2|1:2|1:2|1:2,0:0:0:0:
228,159,96935,2,0,L|224:111,3,35,10|2|10|2,1:2|1:2|1:2|1:2,0:0:0:0:
206,95,97235,5,4,3:2:0:0:
206,95,98135,1,4,3:2:0:0:
206,95,98285,1,0,3:0:0:0:
359,50,98435,6,0,L|445:57,1,83.9999974365235,4|8,3:2|2:0,0:0:0:0:
482,140,98735,2,0,L|396:147,1,83.9999974365235,0|8,1:0|2:0,0:0:0:0:
322,199,99035,1,0,3:0:0:0:
322,199,99185,1,8,2:0:0:0:
410,227,99335,2,0,P|413:183|397:145,1,83.9999974365235,2|10,1:2|2:0,0:0:0:0:
239,160,99635,6,0,L|228:256,1,83.9999974365235,2|8,3:2|2:0,0:0:0:0:
264,329,99935,1,2,1:2:0:0:
173,316,100085,1,10,2:0:0:0:
99,370,100235,2,0,P|85:291|141:229,1,167.999994873047,2|2,3:2|1:2,0:0:0:0:
264,329,100685,1,8,3:2:0:0:
264,329,100760,1,0,3:0:0:0:
264,329,100835,6,0,L|356:317,1,83.9999974365235,0|10,3:0|2:0,0:0:0:0:
425,368,101135,2,0,P|440:326|425:271,1,83.9999974365235,0|10,1:0|2:0,0:0:0:0:
365,228,101435,1,2,3:2:0:0:
365,228,101585,1,10,2:0:0:0:
383,139,101735,1,2,1:2:0:0:
383,139,101885,1,10,2:0:0:0:
303,84,102035,6,0,L|297:168,1,83.9999974365235,2|10,3:2|2:0,0:0:0:0:
210,201,102335,2,0,L|204:117,1,83.9999974365235,2|8,1:2|2:0,0:0:0:0:
229,28,102635,2,0,B|190:15|139:32|157:55|110:75|61:55,1,167.999994873047,2|2,3:2|1:2,0:0:0:0:
8,232,103235,5,4,3:2:0:0:
23,323,103385,1,8,3:2:0:0:
95,265,103535,2,0,P|148:272|180:296,1,83.9999974365235,2|8,1:2|2:0,0:0:0:0:
199,377,103835,2,0,P|235:356|259:322,1,83.9999974365235,0|8,3:0|2:0,0:0:0:0:
246,231,104135,2,0,L|340:220,1,83.9999974365235,2|10,1:2|2:0,0:0:0:0:
398,379,104435,6,0,P|374:344|368:303,1,83.9999974365235,2|8,3:2|2:0,0:0:0:0:
421,228,104735,2,0,P|415:186|386:148,1,83.9999974365235,2|10,1:2|2:0,0:0:0:0:
346,72,105035,2,0,L|516:56,1,167.999994873047,2|0,3:2|1:0,0:0:0:0:
281,6,105635,6,0,P|255:84|299:153,1,167.999994873047,2|2,3:2|1:2,0:0:0:0:
386,174,106085,1,8,2:0:0:0:
332,248,106235,2,0,B|260:241|260:241|238:222|238:222|139:214,1,167.999994873047,2|2,3:2|1:2,0:0:0:0:
92,271,106685,1,10,3:2:0:0:
92,271,106760,1,0,3:0:0:0:
92,271,106835,6,0,L|84:183,1,83.9999974365235,2|10,3:2|2:0,0:0:0:0:
36,107,107135,2,0,L|124:99,1,77.0000023498536,2|10,1:2|2:0,0:0:0:0:
194,59,107435,2,0,L|202:147,1,70,2|0,3:2|0:0,0:0:0:0:
234,210,107735,2,0,L|146:218,1,62.9999980773926,10|8,2:0|2:0,0:0:0:0:
84,187,108035,5,0,3:0:0:0:
313,162,108335,2,0,B|329:202|329:202|313:282,1,83.9999974365235,6|8,1:2|2:0,0:0:0:0:
302,333,108635,5,2,3:2:0:0:
302,333,108785,1,10,2:0:0:0:
302,333,108935,2,0,L|392:328,1,83.9999974365235,2|8,1:2|2:0,0:0:0:0:
404,238,109235,2,0,L|320:242,1,83.9999974365235,2|8,3:2|2:0,0:0:0:0:
232,271,109535,1,2,1:2:0:0:
232,271,109685,1,10,2:0:0:0:
156,323,109835,6,0,P|141:274|156:219,1,83.9999974365235,2|8,3:2|2:0,0:0:0:0:
81,176,110135,2,0,P|96:127|81:72,1,83.9999974365235,2|8,1:2|2:0,0:0:0:0:
130,12,110435,6,0,L|40:4,2,83.9999974365235,0|8|2,3:0|2:0|1:2,0:0:0:0:
307,59,111035,5,2,3:2:0:0:
307,59,111185,1,10,2:0:0:0:
390,20,111335,1,2,1:2:0:0:
390,20,111485,1,10,2:0:0:0:
466,73,111635,2,0,L|456:172,1,83.9999974365235,2|8,3:2|2:0,0:0:0:0:
474,248,111935,1,2,1:2:0:0:
474,248,112085,1,10,2:0:0:0:
388,215,112235,6,0,P|350:203|291:220,1,83.9999974365235,2|10,3:2|2:0,0:0:0:0:
262,291,112535,2,0,P|300:303|359:286,1,83.9999974365235,2|10,1:2|2:0,0:0:0:0:
215,212,112835,6,0,L|208:352,1,140,4|8,3:2|2:0,0:0:0:0:
62,242,113435,2,0,L|66:142,1,70,2|2,3:2|2:0,0:0:0:0:
3,104,113735,2,0,P|53:80|119:97,1,105,10|0,2:0|0:0,0:0:0:0:
130,106,114035,6,0,P|211:123|255:96,1,140,2|10,3:2|2:0,0:0:0:0:
306,18,114485,1,2,3:2:0:0:
348,99,114635,2,0,L|355:183,1,70,6|0,3:2|0:0,0:0:0:0:
439,103,114935,2,0,L|446:187,1,70,6|0,3:2|0:0,0:0:0:0:
396,252,115235,6,0,P|454:265|502:249,1,83.9999974365235,2|0,3:2|3:0,0:0:0:0:
354,169,115535,2,0,P|319:164|269:180,1,83.9999974365235,2|0,1:2|3:0,0:0:0:0:
229,258,115835,5,2,3:2:0:0:
229,258,115985,1,0,3:0:0:0:
180,179,116135,1,2,1:2:0:0:
180,179,116285,1,0,3:0:0:0:
103,267,116435,6,0,L|256:256,2,125.999996154785,6|0|0,3:2|3:0|3:0,0:0:0:0:
33,327,117035,2,0,P|11:261|62:185,1,167.999994873047,6|4,3:2|1:2,0:0:0:0:
278,337,117635,6,0,P|313:337|347:323,1,70,6|8,3:2|2:0,0:0:0:0:
326,234,117935,2,0,P|361:233|395:247,1,70,2|8,1:2|2:0,0:0:0:0:
439,328,118235,2,0,L|444:171,1,140,2|2,3:2|1:2,0:0:0:0:
398,108,118685,1,8,2:0:0:0:
426,19,118835,6,0,L|342:27,1,70,2|8,3:2|2:0,0:0:0:0:
278,75,119135,2,0,L|208:68,1,70,2|8,1:2|2:0,0:0:0:0:
145,2,119435,2,0,P|117:56|142:131,1,140,2|2,3:2|1:2,0:0:0:0:
200,197,119885,1,8,2:0:0:0:
109,215,120035,6,0,L|17:207,1,70,2|8,3:2|2:0,0:0:0:0:
30,301,120335,2,0,L|99:307,1,70,2|8,1:2|2:0,0:0:0:0:
176,360,120635,2,0,L|316:347,1,140,2|2,3:2|1:2,0:0:0:0:
405,366,121085,1,8,2:0:0:0:
376,279,121235,6,0,P|376:227|388:202,1,70,2|8,3:2|2:0,0:0:0:0:
425,129,121535,2,0,P|434:95|431:61,1,70,10|8,1:2|2:0,0:0:0:0:
343,87,121835,2,0,L|248:80,1,70,2|8,3:2|2:0,0:0:0:0:
196,32,122135,2,0,L|126:37,1,70,2|8,1:2|2:0,0:0:0:0:
30,100,122435,6,0,L|35:30,1,70,6|8,3:2|2:0,0:0:0:0:
126,37,122735,2,0,L|120:106,1,70,2|8,1:2|2:0,0:0:0:0:
69,182,123035,2,0,B|45:222|45:222|55:317,1,140,2|2,3:2|1:2,0:0:0:0:
132,364,123485,1,8,2:0:0:0:
214,323,123635,6,0,L|292:332,1,70,2|8,3:2|2:0,0:0:0:0:
323,248,123935,2,0,L|392:239,1,70,2|8,1:2|2:0,0:0:0:0:
465,298,124235,2,0,B|433:235|433:235|450:160,1,140,2|2,3:2|1:2,0:0:0:0:
512,100,124685,1,8,2:0:0:0:
421,79,124835,6,0,P|373:62|324:73,1,70,2|8,3:2|2:0,0:0:0:0:
283,121,125135,2,0,P|235:137|186:126,1,70,2|8,1:2|2:0,0:0:0:0:
139,87,125435,2,0,L|127:163,1,70,2|8,3:2|2:0,0:0:0:0:
58,217,125735,2,0,L|70:293,1,70,2|8,1:2|2:0,0:0:0:0:
150,329,126035,6,0,P|194:293|274:301,1,140,2|2,3:2|1:2,0:0:0:0:
336,367,126485,1,8,2:0:0:0:
336,367,126635,2,0,P|403:377|459:338,1,140,2|2,3:2|1:2,0:0:0:0:
389,195,127235,5,0,3:0:0:0:
389,195,127535,2,0,L|392:116,1,70,6|8,1:2|2:0,0:0:0:0:
455,56,127835,2,0,B|415:29|415:29|311:41,1,140,2|2,3:2|1:2,0:0:0:0:
238,75,128285,1,8,2:0:0:0:
164,18,128435,6,0,P|148:60|156:116,1,70,2|8,3:2|2:0,0:0:0:0:
135,177,128735,2,0,P|179:169|223:134,1,70,2|8,1:2|2:0,0:0:0:0:
238,75,129035,2,0,L|248:216,1,140,2|2,3:2|1:2,0:0:0:0:
324,267,129485,1,8,2:0:0:0:
272,343,129635,6,0,P|237:327|192:328,1,70,2|8,3:2|2:0,0:0:0:0:
124,367,129935,2,0,P|89:383|44:382,1,70,2|8,1:2|2:0,0:0:0:0:
68,293,130235,2,0,L|78:151,1,140,2|2,3:2|1:2,0:0:0:0:
60,63,130685,1,8,2:0:0:0:
147,92,130835,6,0,B|182:100|182:100|236:88,1,70,2|8,3:2|2:0,0:0:0:0:
280,27,131135,2,0,B|313:20|313:20|348:28,1,70,10|8,1:2|2:0,0:0:0:0:
424,80,131435,2,0,L|416:160,1,70,2|8,3:2|2:0,0:0:0:0:
473,223,131735,2,0,L|481:303,1,70,2|8,1:2|3:2,0:0:0:0:
427,369,132035,6,0,P|377:326|302:330,1,140,6|2,3:2|1:2,0:0:0:0:
227,376,132485,1,8,3:2:0:0:
227,376,132560,1,0,3:0:0:0:
227,376,132635,2,0,L|219:300,1,70,2|8,3:2|2:0,0:0:0:0:
237,217,132935,1,2,1:2:0:0:
149,247,133085,1,8,3:2:0:0:
80,187,133235,6,0,L|72:108,1,70,2|8,3:2|3:2,0:0:0:0:
50,27,133535,1,2,1:2:0:0:
139,53,133685,1,8,3:2:0:0:
139,53,133760,1,0,3:0:0:0:
139,53,133835,2,0,P|179:70|251:50,1,105,2|0,3:2|3:0,0:0:0:0:
269,43,134135,2,0,P|302:33|336:36,1,70,2|8,1:2|3:2,0:0:0:0:
414,86,134435,6,0,L|422:10,1,70,2|8,3:2|3:2,0:0:0:0:
512,29,134735,2,0,L|505:99,1,70,2|8,1:2|3:2,0:0:0:0:
449,172,135035,5,2,3:2:0:0:
449,172,135185,1,8,3:2:0:0:
483,258,135335,1,2,1:2:0:0:
483,258,135485,1,8,3:2:0:0:
426,331,135635,6,0,P|464:349|533:337,2,105,6|0|0,3:2|3:0|3:0,0:0:0:0:
391,245,136235,1,6,3:2:0:0:
334,318,136385,1,0,1:0:0:0:
334,318,136460,1,0,1:0:0:0:
334,318,136535,2,0,L|234:328,1,70,10|0,1:2|3:0,0:0:0:0:
81,343,136835,5,4,2:0:0:0:
