osu file format v14

[General]
AudioFilename: USAO - Cyaegha.mp3
AudioLeadIn: 0
PreviewTime:117485
Countdown: 0
SampleSet: Soft
StackLeniency: 0
Mode: 0
LetterboxInBreaks: 0
WidescreenStoryboard: 1
EpilepsyWarning: 1

[Editor]
Bookmarks: 2435,21635,31235,40835,50435,60035,69635,79235,84335,84635,88835,98435,100328,102185,103385,108035,108635,110285,110735,113885,117635,127235,136835
DistanceSpacing: 2.7
BeatDivisor: 4
GridSize: 4
TimelineZoom: 3.800001

[Metadata]
Title:Cyaegha
TitleUnicode:Cyaegha
Artist:USAO
ArtistUnicode:USAO
Creator:- AzRaeL -
Version:Drop's Extra
Source:Arcaea
Tags:Electronic Instrumental Dubstep Hardcore Tribecore Cyäegha Absolute Reason 夜浪、旧支配者 Cthulhu Mythos TANO*C Lowiro Sound Collection Memories of Conflict IROCD-002 XTREME UOM Records USAO-017 CHUNITHM PARADISE SUPER STAR maimai でらっくす Splash Dora- doraemonelf [_Drop_] 0922_
BeatmapID:2966498
BeatmapSetID:1314759

[Difficulty]
HPDrainRate:5.4
CircleSize:4
OverallDifficulty:8.8
ApproachRate:9.6
SliderMultiplier:2.5
SliderTickRate:1

[Events]
//Background and Video events
0,0,"BG.jpg",0,0
//Break Periods
2,2635,6726
2,60235,66726
//Storyboard Layer 0 (Background)
Sprite,Background,Centre,"SB\Pixel.jpg",553,336 F,18,16834,17834,1,0 S,19,16834,17834,0,100 R,19,16834,17834,1.446645,-4.83654
Sprite,Background,Centre,"SB\Pixel.jpg",553,336 C,0,16834,16834,0,0,0 S,19,16834,17834,0,90 R,19,16834,17834,1.446645,-4.83654
Sprite,Background,Centre,"SB\Pixel.jpg",70,358 F,18,21635,22635,1,0 S,19,21635,22635,0,100 R,19,21635,22635,1.642759,-4.640426
Sprite,Background,Centre,"SB\Pixel.jpg",70,358 C,0,21635,21635,0,0,0 S,19,21635,22635,0,90 R,19,21635,22635,1.642759,-4.640426
Sprite,Background,Centre,"SB\Pixel.jpg",510,286 F,18,26434,27434,1,0 S,19,26434,27434,0,100 R,19,26434,27434,3.700115,9.9833
Sprite,Background,Centre,"SB\Pixel.jpg",510,286 C,0,26434,26434,0,0,0 S,19,26434,27434,0,90 R,19,26434,27434,3.700115,9.9833
Sprite,Background,Centre,"SB\Pixel.jpg",130,422 F,18,31235,32235,1,0 S,19,31235,32235,0,100 R,19,31235,32235,6.02889,12.31208
Sprite,Background,Centre,"SB\Pixel.jpg",130,422 C,0,31235,31235,0,0,0 S,19,31235,32235,0,90 R,19,31235,32235,6.02889,12.31208
Sprite,Background,Centre,"SB\Pixel.jpg",562,369 F,18,36034,37034,1,0 S,19,36034,37034,0,100 R,19,36034,37034,1.531454,7.81464
Sprite,Background,Centre,"SB\Pixel.jpg",562,369 C,0,36034,36034,0,0,0 S,19,36034,37034,0,90 R,19,36034,37034,1.531454,7.81464
Sprite,Background,Centre,"SB\Pixel.jpg",411,80 F,18,40834,41834,1,0 S,19,40834,41834,0,100 R,19,40834,41834,2.812339,9.095524
Sprite,Background,Centre,"SB\Pixel.jpg",411,80 C,0,40834,40834,0,0,0 S,19,40834,41834,0,90 R,19,40834,41834,2.812339,9.095524
Sprite,Background,Centre,"SB\Pixel.jpg",420,381 F,18,45634,46634,1,0 S,19,45634,46634,0,100 R,19,45634,46634,5.746311,12.0295
Sprite,Background,Centre,"SB\Pixel.jpg",420,381 C,0,45634,45634,0,0,0 S,19,45634,46634,0,90 R,19,45634,46634,5.746311,12.0295
Sprite,Background,Centre,"SB\Pixel.jpg",252,255 F,18,50435,51435,1,0 S,19,50435,51435,0,100 R,19,50435,51435,5.83205,-0.4511356
Sprite,Background,Centre,"SB\Pixel.jpg",252,255 C,0,50435,50435,0,0,0 S,19,50435,51435,0,90 R,19,50435,51435,5.83205,-0.4511356
Sprite,Background,Centre,"SB\Pixel.jpg",384,309 F,18,55235,56235,1,0 S,19,55235,56235,0,100 R,19,55235,56235,3.044773,9.327958
Sprite,Background,Centre,"SB\Pixel.jpg",384,309 C,0,55235,55235,0,0,0 S,19,55235,56235,0,90 R,19,55235,56235,3.044773,9.327958
Sprite,Background,Centre,"SB\Pixel.jpg",320,248 F,18,60034,61034,1,0 S,19,60034,61034,0,100 R,19,60034,61034,6.132342,12.41553
Sprite,Background,Centre,"SB\Pixel.jpg",320,248 C,0,60034,60034,0,0,0 S,19,60034,61034,0,90 R,19,60034,61034,6.132342,12.41553
Sprite,Background,Centre,"SB\Pixel.jpg",87,304 F,18,84035,85035,1,0 S,19,84035,85035,0,100 R,19,84035,85035,3.886865,-2.39632
Sprite,Background,Centre,"SB\Pixel.jpg",87,304 C,0,84035,84035,0,0,0 S,19,84035,85035,0,90 R,19,84035,85035,3.886865,-2.39632
Sprite,Background,Centre,"SB\Pixel.jpg",444,133 F,18,88834,89834,1,0 S,19,88834,89834,0,100 R,19,88834,89834,3.756426,10.03961
Sprite,Background,Centre,"SB\Pixel.jpg",444,133 C,0,88834,88834,0,0,0 S,19,88834,89834,0,90 R,19,88834,89834,3.756426,10.03961
Sprite,Background,Centre,"SB\Pixel.jpg",565,345 F,18,98434,99434,1,0 S,19,98434,99434,0,100 R,19,98434,99434,5.703828,-0.5793571
Sprite,Background,Centre,"SB\Pixel.jpg",565,345 C,0,98434,98434,0,0,0 S,19,98434,99434,0,90 R,19,98434,99434,5.703828,-0.5793571
Sprite,Background,Centre,"SB\Pixel.jpg",494,56 F,18,108334,109334,1,0 S,19,108334,109334,0,100 R,19,108334,109334,1.932762,-4.350423
Sprite,Background,Centre,"SB\Pixel.jpg",494,56 C,0,108334,108334,0,0,0 S,19,108334,109334,0,90 R,19,108334,109334,1.932762,-4.350423
Sprite,Background,Centre,"SB\Pixel.jpg",108,239 F,18,117635,118635,1,0 S,19,117635,118635,0,100 R,19,117635,118635,5.113471,11.39666
Sprite,Background,Centre,"SB\Pixel.jpg",108,239 C,0,117635,117635,0,0,0 S,19,117635,118635,0,90 R,19,117635,118635,5.113471,11.39666
Sprite,Background,Centre,"SB\Pixel.jpg",203,405 F,18,127535,128535,1,0 S,19,127535,128535,0,100 R,19,127535,128535,0.368227,-5.914958
Sprite,Background,Centre,"SB\Pixel.jpg",203,405 C,0,127535,127535,0,0,0 S,19,127535,128535,0,90 R,19,127535,128535,0.368227,-5.914958
Sprite,Background,Centre,"sb\glow.png",211,58 S,0,26135,26135,0.5 C,0,26135,26135,255,128,192 F,0,26135,26635,1,0
Sprite,Background,Centre,"sb\glow.png",226,74 S,0,26153,26153,0.5 C,0,26153,26153,255,128,192 F,0,26153,26653,1,0
Sprite,Background,Centre,"sb\glow.png",249,76 S,0,26172,26172,0.5 C,0,26172,26172,255,128,192 F,0,26172,26672,1,0
Sprite,Background,Centre,"sb\glow.png",279,111 S,0,26191,26191,0.5 C,0,26191,26191,255,128,192 F,0,26191,26691,1,0
Sprite,Background,Centre,"sb\glow.png",307,144 S,0,26210,26210,0.5 C,0,26210,26210,255,128,192 F,0,26210,26710,1,0
Sprite,Background,Centre,"sb\glow.png",332,172 S,0,26228,26228,0.5 C,0,26228,26228,255,128,192 F,0,26228,26728,1,0
Sprite,Background,Centre,"sb\glow.png",350,194 S,0,26247,26247,0.5 C,0,26247,26247,255,128,192 F,0,26247,26747,1,0
Sprite,Background,Centre,"sb\glow.png",362,207 S,0,26266,26266,0.5 C,0,26266,26266,255,128,192 F,0,26266,26766,1,0
Sprite,Background,Centre,"sb\glow.png",366,212 S,0,26285,26285,0.5 C,0,26285,26285,255,0,128 F,0,26285,26785,1,0
Sprite,Background,Centre,"sb\glow.png",388,210 S,0,26303,26303,0.5 C,0,26303,26303,255,0,128 F,0,26303,26803,1,0
Sprite,Background,Centre,"sb\glow.png",404,194 S,0,26322,26322,0.5 C,0,26322,26322,255,0,128 F,0,26322,26822,1,0
Sprite,Background,Centre,"sb\glow.png",431,218 S,0,26341,26341,0.5 C,0,26341,26341,255,0,128 F,0,26341,26841,1,0
Sprite,Background,Centre,"sb\glow.png",457,240 S,0,26360,26360,0.5 C,0,26360,26360,255,0,128 F,0,26360,26860,1,0
Sprite,Background,Centre,"sb\glow.png",479,259 S,0,26378,26378,0.5 C,0,26378,26378,255,0,128 F,0,26378,26878,1,0
Sprite,Background,Centre,"sb\glow.png",496,274 S,0,26397,26397,0.5 C,0,26397,26397,255,0,128 F,0,26397,26897,1,0
Sprite,Background,Centre,"sb\glow.png",506,283 S,0,26416,26416,0.5 C,0,26416,26416,255,0,128 F,0,26416,26916,1,0
Sprite,Background,Centre,"sb\glow.png",510,286 S,0,26435,26435,0.5 C,0,26435,26435,255,88,102 F,0,26435,26935,1,0
Sprite,Background,Centre,"sb\glow.png",530,303 S,0,26453,26453,0.5 C,0,26453,26453,255,88,102 F,0,26453,26953,1,0
Sprite,Background,Centre,"sb\glow.png",555,313 S,0,26472,26472,0.5 C,0,26472,26472,255,88,102 F,0,26472,26972,1,0
Sprite,Background,Centre,"sb\glow.png",563,318 S,0,26491,26491,0.5 C,0,26491,26491,255,88,102 F,0,26491,26991,1,0
Sprite,Background,Centre,"sb\glow.png",537,324 S,0,26510,26510,0.5 C,0,26510,26510,255,88,102 F,0,26510,27010,1,0
Sprite,Background,Centre,"sb\glow.png",511,329 S,0,26528,26528,0.5 C,0,26528,26528,255,88,102 F,0,26528,27028,1,0
Sprite,Background,Centre,"sb\glow.png",488,339 S,0,26547,26547,0.5 C,0,26547,26547,255,88,102 F,0,26547,27047,1,0
Sprite,Background,Centre,"sb\glow.png",462,345 S,0,26566,26566,0.5 C,0,26566,26566,255,88,102 F,0,26566,27066,1,0
Sprite,Background,Centre,"sb\glow.png",436,351 S,0,26585,26585,0.5 C,0,26585,26585,255,88,102 F,0,26585,27085,1,0
Sprite,Background,Centre,"sb\glow.png",410,357 S,0,26603,26603,0.5 C,0,26603,26603,255,88,102 F,0,26603,27103,1,0
Sprite,Background,Centre,"sb\glow.png",386,368 S,0,26622,26622,0.5 C,0,26622,26622,255,88,102 F,0,26622,27122,1,0
Sprite,Background,Centre,"sb\glow.png",370,388 S,0,26641,26641,0.5 C,0,26641,26641,255,88,102 F,0,26641,27141,1,0
Sprite,Background,Centre,"sb\glow.png",365,414 S,0,26660,26660,0.5 C,0,26660,26660,255,88,102 F,0,26660,27160,1,0
Sprite,Background,Centre,"sb\glow.png",326,400 S,0,26678,26678,0.5 C,0,26678,26678,255,88,102 F,0,26678,27178,1,0
Sprite,Background,Centre,"sb\glow.png",293,388 S,0,26697,26697,0.5 C,0,26697,26697,255,88,102 F,0,26697,27197,1,0
Sprite,Background,Centre,"sb\glow.png",271,380 S,0,26716,26716,0.5 C,0,26716,26716,255,88,102 F,0,26716,27216,1,0
Sprite,Background,Centre,"sb\glow.png",263,377 S,0,26735,26735,0.5 C,0,26735,26735,255,0,255 F,0,26735,27235,1,0
Sprite,Background,Centre,"sb\glow.png",243,379 S,0,26753,26753,0.5 C,0,26753,26753,255,0,255 F,0,26753,27253,1,0
Sprite,Background,Centre,"sb\glow.png",223,381 S,0,26772,26772,0.5 C,0,26772,26772,255,0,255 F,0,26772,27272,1,0
Sprite,Background,Centre,"sb\glow.png",203,381 S,0,26791,26791,0.5 C,0,26791,26791,255,0,255 F,0,26791,27291,1,0
Sprite,Background,Centre,"sb\glow.png",183,384 S,0,26810,26810,0.5 C,0,26810,26810,255,0,255 F,0,26810,27310,1,0
Sprite,Background,Centre,"sb\glow.png",163,386 S,0,26828,26828,0.5 C,0,26828,26828,255,0,255 F,0,26828,27328,1,0
Sprite,Background,Centre,"sb\glow.png",164,198 S,0,35735,35735,0.5 C,0,35735,35735,255,128,192 F,0,35735,36235,1,0
Sprite,Background,Centre,"sb\glow.png",182,201 S,0,35753,35753,0.5 C,0,35753,35753,255,128,192 F,0,35753,36253,1,0
Sprite,Background,Centre,"sb\glow.png",201,205 S,0,35772,35772,0.5 C,0,35772,35772,255,128,192 F,0,35772,36272,1,0
Sprite,Background,Centre,"sb\glow.png",219,208 S,0,35791,35791,0.5 C,0,35791,35791,255,128,192 F,0,35791,36291,1,0
Sprite,Background,Centre,"sb\glow.png",238,211 S,0,35810,35810,0.5 C,0,35810,35810,255,128,192 F,0,35810,36310,1,0
Sprite,Background,Centre,"sb\glow.png",256,214 S,0,35828,35828,0.5 C,0,35828,35828,255,128,192 F,0,35828,36328,1,0
Sprite,Background,Centre,"sb\glow.png",273,222 S,0,35847,35847,0.5 C,0,35847,35847,255,128,192 F,0,35847,36347,1,0
Sprite,Background,Centre,"sb\glow.png",290,227 S,0,35866,35866,0.5 C,0,35866,35866,255,128,192 F,0,35866,36366,1,0
Sprite,Background,Centre,"sb\glow.png",309,230 S,0,35885,35885,0.5 C,0,35885,35885,255,128,192 F,0,35885,36385,1,0
Sprite,Background,Centre,"sb\glow.png",327,234 S,0,35903,35903,0.5 C,0,35903,35903,255,128,192 F,0,35903,36403,1,0
Sprite,Background,Centre,"sb\glow.png",346,237 S,0,35922,35922,0.5 C,0,35922,35922,255,128,192 F,0,35922,36422,1,0
Sprite,Background,Centre,"sb\glow.png",364,241 S,0,35941,35941,0.5 C,0,35941,35941,255,128,192 F,0,35941,36441,1,0
Sprite,Background,Centre,"sb\glow.png",383,244 S,0,35960,35960,0.5 C,0,35960,35960,255,128,192 F,0,35960,36460,1,0
Sprite,Background,Centre,"sb\glow.png",451,292 S,0,35978,35978,0.5 C,0,35978,35978,255,128,192 F,0,35978,36478,1,0
Sprite,Background,Centre,"sb\glow.png",509,332 S,0,35997,35997,0.5 C,0,35997,35997,255,128,192 F,0,35997,36497,1,0
Sprite,Background,Centre,"sb\glow.png",548,359 S,0,36016,36016,0.5 C,0,36016,36016,255,128,192 F,0,36016,36516,1,0
Sprite,Background,Centre,"sb\glow.png",562,369 S,0,36035,36035,0.5 C,0,36035,36035,255,0,128 F,0,36035,36535,1,0
Sprite,Background,Centre,"sb\glow.png",555,395 S,0,36053,36053,0.5 C,0,36053,36053,255,0,128 F,0,36053,36553,1,0
Sprite,Background,Centre,"sb\glow.png",540,416 S,0,36072,36072,0.5 C,0,36072,36072,255,0,128 F,0,36072,36572,1,0
Sprite,Background,Centre,"sb\glow.png",519,431 S,0,36091,36091,0.5 C,0,36091,36091,255,0,128 F,0,36091,36591,1,0
Sprite,Background,Centre,"sb\glow.png",493,438 S,0,36110,36110,0.5 C,0,36110,36110,255,0,128 F,0,36110,36610,1,0
Sprite,Background,Centre,"sb\glow.png",467,435 S,0,36128,36128,0.5 C,0,36128,36128,255,0,128 F,0,36128,36628,1,0
Sprite,Background,Centre,"sb\glow.png",443,423 S,0,36147,36147,0.5 C,0,36147,36147,255,0,128 F,0,36147,36647,1,0
Sprite,Background,Centre,"sb\glow.png",426,404 S,0,36166,36166,0.5 C,0,36166,36166,255,0,128 F,0,36166,36666,1,0
Sprite,Background,Centre,"sb\glow.png",415,379 S,0,36185,36185,0.5 C,0,36185,36185,255,0,128 F,0,36185,36685,1,0
Sprite,Background,Centre,"sb\glow.png",414,353 S,0,36203,36203,0.5 C,0,36203,36203,255,0,128 F,0,36203,36703,1,0
Sprite,Background,Centre,"sb\glow.png",423,328 S,0,36222,36222,0.5 C,0,36222,36222,255,0,128 F,0,36222,36722,1,0
Sprite,Background,Centre,"sb\glow.png",440,308 S,0,36241,36241,0.5 C,0,36241,36241,255,0,128 F,0,36241,36741,1,0
Sprite,Background,Centre,"sb\glow.png",462,294 S,0,36260,36260,0.5 C,0,36260,36260,255,0,128 F,0,36260,36760,1,0
Sprite,Background,Centre,"sb\glow.png",484,235 S,0,36278,36278,0.5 C,0,36278,36278,255,0,128 F,0,36278,36778,1,0
Sprite,Background,Centre,"sb\glow.png",502,184 S,0,36297,36297,0.5 C,0,36297,36297,255,0,128 F,0,36297,36797,1,0
Sprite,Background,Centre,"sb\glow.png",515,151 S,0,36316,36316,0.5 C,0,36316,36316,255,0,128 F,0,36316,36816,1,0
Sprite,Background,Centre,"sb\glow.png",519,139 S,0,36335,36335,0.5 C,0,36335,36335,255,88,102 F,0,36335,36835,1,0
Sprite,Background,Centre,"sb\glow.png",526,158 S,0,36353,36353,0.5 C,0,36353,36353,255,88,102 F,0,36353,36853,1,0
Sprite,Background,Centre,"sb\glow.png",533,177 S,0,36372,36372,0.5 C,0,36372,36372,255,88,102 F,0,36372,36872,1,0
Sprite,Background,Centre,"sb\glow.png",538,197 S,0,36391,36391,0.5 C,0,36391,36391,255,88,102 F,0,36391,36891,1,0
Sprite,Background,Centre,"sb\glow.png",543,217 S,0,36410,36410,0.5 C,0,36410,36410,255,88,102 F,0,36410,36910,1,0
Sprite,Background,Centre,"sb\glow.png",546,237 S,0,36428,36428,0.5 C,0,36428,36428,255,88,102 F,0,36428,36928,1,0
Sprite,Background,Centre,"sb\glow.png",64,341 S,0,45334,45334,0.5 C,0,45334,45334,255,0,255 F,0,45334,45834,1,0
Sprite,Background,Centre,"sb\glow.png",81,344 S,0,45352,45352,0.5 C,0,45352,45352,255,0,255 F,0,45352,45852,1,0
Sprite,Background,Centre,"sb\glow.png",100,347 S,0,45371,45371,0.5 C,0,45371,45371,255,0,255 F,0,45371,45871,1,0
Sprite,Background,Centre,"sb\glow.png",118,350 S,0,45390,45390,0.5 C,0,45390,45390,255,0,255 F,0,45390,45890,1,0
Sprite,Background,Centre,"sb\glow.png",136,357 S,0,45409,45409,0.5 C,0,45409,45409,255,0,255 F,0,45409,45909,1,0
Sprite,Background,Centre,"sb\glow.png",152,365 S,0,45427,45427,0.5 C,0,45427,45427,255,0,255 F,0,45427,45927,1,0
Sprite,Background,Centre,"sb\glow.png",170,360 S,0,45446,45446,0.5 C,0,45446,45446,255,0,255 F,0,45446,45946,1,0
Sprite,Background,Centre,"sb\glow.png",188,354 S,0,45465,45465,0.5 C,0,45465,45465,255,0,255 F,0,45465,45965,1,0
Sprite,Background,Centre,"sb\glow.png",204,360 S,0,45484,45484,0.5 C,0,45484,45484,255,0,255 F,0,45484,45984,1,0
Sprite,Background,Centre,"sb\glow.png",220,369 S,0,45502,45502,0.5 C,0,45502,45502,255,0,255 F,0,45502,46002,1,0
Sprite,Background,Centre,"sb\glow.png",238,373 S,0,45521,45521,0.5 C,0,45521,45521,255,0,255 F,0,45521,46021,1,0
Sprite,Background,Centre,"sb\glow.png",256,376 S,0,45540,45540,0.5 C,0,45540,45540,255,0,255 F,0,45540,46040,1,0
Sprite,Background,Centre,"sb\glow.png",275,380 S,0,45559,45559,0.5 C,0,45559,45559,255,0,255 F,0,45559,46059,1,0
Sprite,Background,Centre,"sb\glow.png",328,381 S,0,45577,45577,0.5 C,0,45577,45577,255,0,255 F,0,45577,46077,1,0
Sprite,Background,Centre,"sb\glow.png",376,381 S,0,45596,45596,0.5 C,0,45596,45596,255,0,255 F,0,45596,46096,1,0
Sprite,Background,Centre,"sb\glow.png",408,381 S,0,45615,45615,0.5 C,0,45615,45615,255,0,255 F,0,45615,46115,1,0
Sprite,Background,Centre,"sb\glow.png",420,381 S,0,45634,45634,0.5 C,0,45634,45634,255,0,255 F,0,45634,46134,1,0
Sprite,Background,Centre,"sb\glow.png",426,405 S,0,45652,45652,0.5 C,0,45652,45652,255,128,192 F,0,45652,46152,1,0
Sprite,Background,Centre,"sb\glow.png",411,425 S,0,45671,45671,0.5 C,0,45671,45671,255,128,192 F,0,45671,46171,1,0
Sprite,Background,Centre,"sb\glow.png",426,408 S,0,45690,45690,0.5 C,0,45690,45690,255,128,192 F,0,45690,46190,1,0
Sprite,Background,Centre,"sb\glow.png",420,382 S,0,45709,45709,0.5 C,0,45709,45709,255,128,192 F,0,45709,46209,1,0
Sprite,Background,Centre,"sb\glow.png",426,405 S,0,45727,45727,0.5 C,0,45727,45727,255,128,192 F,0,45727,46227,1,0
Sprite,Background,Centre,"sb\glow.png",411,425 S,0,45746,45746,0.5 C,0,45746,45746,255,128,192 F,0,45746,46246,1,0
Sprite,Background,Centre,"sb\glow.png",426,408 S,0,45765,45765,0.5 C,0,45765,45765,255,128,192 F,0,45765,46265,1,0
Sprite,Background,Centre,"sb\glow.png",420,382 S,0,45784,45784,0.5 C,0,45784,45784,255,128,192 F,0,45784,46284,1,0
Sprite,Background,Centre,"sb\glow.png",426,405 S,0,45802,45802,0.5 C,0,45802,45802,255,128,192 F,0,45802,46302,1,0
Sprite,Background,Centre,"sb\glow.png",411,425 S,0,45821,45821,0.5 C,0,45821,45821,255,128,192 F,0,45821,46321,1,0
Sprite,Background,Centre,"sb\glow.png",426,408 S,0,45840,45840,0.5 C,0,45840,45840,255,128,192 F,0,45840,46340,1,0
Sprite,Background,Centre,"sb\glow.png",420,382 S,0,45859,45859,0.5 C,0,45859,45859,255,128,192 F,0,45859,46359,1,0
Sprite,Background,Centre,"sb\glow.png",441,353 S,0,45877,45877,0.5 C,0,45877,45877,255,128,192 F,0,45877,46377,1,0
Sprite,Background,Centre,"sb\glow.png",461,328 S,0,45896,45896,0.5 C,0,45896,45896,255,128,192 F,0,45896,46396,1,0
Sprite,Background,Centre,"sb\glow.png",474,310 S,0,45915,45915,0.5 C,0,45915,45915,255,128,192 F,0,45915,46415,1,0
Sprite,Background,Centre,"sb\glow.png",479,304 S,0,45934,45934,0.5 C,0,45934,45934,255,128,192 F,0,45934,46434,1,0
Sprite,Background,Centre,"sb\glow.png",477,285 S,0,45952,45952,0.5 C,0,45952,45952,255,0,128 F,0,45952,46452,1,0
Sprite,Background,Centre,"sb\glow.png",474,265 S,0,45971,45971,0.5 C,0,45971,45971,255,0,128 F,0,45971,46471,1,0
Sprite,Background,Centre,"sb\glow.png",474,245 S,0,45990,45990,0.5 C,0,45990,45990,255,0,128 F,0,45990,46490,1,0
Sprite,Background,Centre,"sb\glow.png",471,224 S,0,46009,46009,0.5 C,0,46009,46009,255,0,128 F,0,46009,46509,1,0
Sprite,Background,Centre,"sb\glow.png",469,204 S,0,46027,46027,0.5 C,0,46027,46027,255,0,128 F,0,46027,46527,1,0
Sprite,Background,Centre,"sb\glow.png",467,184 S,0,46046,46046,0.5 C,0,46046,46046,255,0,128 F,0,46046,46546,1,0
Sprite,Background,Centre,"sb\glow.png",474,265 S,0,54935,54935,0.5 C,0,54935,54935,255,88,102 F,0,54935,55435,1,0
Sprite,Background,Centre,"sb\glow.png",460,252 S,0,54953,54953,0.5 C,0,54953,54953,255,88,102 F,0,54953,55453,1,0
Sprite,Background,Centre,"sb\glow.png",448,238 S,0,54972,54972,0.5 C,0,54972,54972,255,88,102 F,0,54972,55472,1,0
Sprite,Background,Centre,"sb\glow.png",439,221 S,0,54991,54991,0.5 C,0,54991,54991,255,88,102 F,0,54991,55491,1,0
Sprite,Background,Centre,"sb\glow.png",434,204 S,0,55010,55010,0.5 C,0,55010,55010,255,88,102 F,0,55010,55510,1,0
Sprite,Background,Centre,"sb\glow.png",432,185 S,0,55028,55028,0.5 C,0,55028,55028,255,88,102 F,0,55028,55528,1,0
Sprite,Background,Centre,"sb\glow.png",434,166 S,0,55047,55047,0.5 C,0,55047,55047,255,88,102 F,0,55047,55547,1,0
Sprite,Background,Centre,"sb\glow.png",429,175 S,0,55066,55066,0.5 C,0,55066,55066,255,88,102 F,0,55066,55566,1,0
Sprite,Background,Centre,"sb\glow.png",419,191 S,0,55085,55085,0.5 C,0,55085,55085,255,88,102 F,0,55085,55585,1,0
Sprite,Background,Centre,"sb\glow.png",405,204 S,0,55103,55103,0.5 C,0,55103,55103,255,88,102 F,0,55103,55603,1,0
Sprite,Background,Centre,"sb\glow.png",389,214 S,0,55122,55122,0.5 C,0,55122,55122,255,88,102 F,0,55122,55622,1,0
Sprite,Background,Centre,"sb\glow.png",372,220 S,0,55141,55141,0.5 C,0,55141,55141,255,88,102 F,0,55141,55641,1,0
Sprite,Background,Centre,"sb\glow.png",354,225 S,0,55160,55160,0.5 C,0,55160,55160,255,88,102 F,0,55160,55660,1,0
Sprite,Background,Centre,"sb\glow.png",365,257 S,0,55178,55178,0.5 C,0,55178,55178,255,88,102 F,0,55178,55678,1,0
Sprite,Background,Centre,"sb\glow.png",375,284 S,0,55197,55197,0.5 C,0,55197,55197,255,88,102 F,0,55197,55697,1,0
Sprite,Background,Centre,"sb\glow.png",382,303 S,0,55216,55216,0.5 C,0,55216,55216,255,88,102 F,0,55216,55716,1,0
Sprite,Background,Centre,"sb\glow.png",384,309 S,0,55235,55235,0.5 C,0,55235,55235,255,0,255 F,0,55235,55735,1,0
Sprite,Background,Centre,"sb\glow.png",402,328 S,0,55253,55253,0.5 C,0,55253,55253,255,0,255 F,0,55253,55753,1,0
Sprite,Background,Centre,"sb\glow.png",409,353 S,0,55272,55272,0.5 C,0,55272,55272,255,0,255 F,0,55272,55772,1,0
Sprite,Background,Centre,"sb\glow.png",402,328 S,0,55291,55291,0.5 C,0,55291,55291,255,0,255 F,0,55291,55791,1,0
Sprite,Background,Centre,"sb\glow.png",384,309 S,0,55310,55310,0.5 C,0,55310,55310,255,0,255 F,0,55310,55810,1,0
Sprite,Background,Centre,"sb\glow.png",402,328 S,0,55328,55328,0.5 C,0,55328,55328,255,0,255 F,0,55328,55828,1,0
Sprite,Background,Centre,"sb\glow.png",409,353 S,0,55347,55347,0.5 C,0,55347,55347,255,0,255 F,0,55347,55847,1,0
Sprite,Background,Centre,"sb\glow.png",402,328 S,0,55366,55366,0.5 C,0,55366,55366,255,0,255 F,0,55366,55866,1,0
Sprite,Background,Centre,"sb\glow.png",384,309 S,0,55385,55385,0.5 C,0,55385,55385,255,0,255 F,0,55385,55885,1,0
Sprite,Background,Centre,"sb\glow.png",402,328 S,0,55403,55403,0.5 C,0,55403,55403,255,0,255 F,0,55403,55903,1,0
Sprite,Background,Centre,"sb\glow.png",409,353 S,0,55422,55422,0.5 C,0,55422,55422,255,0,255 F,0,55422,55922,1,0
Sprite,Background,Centre,"sb\glow.png",402,328 S,0,55441,55441,0.5 C,0,55441,55441,255,0,255 F,0,55441,55941,1,0
Sprite,Background,Centre,"sb\glow.png",384,309 S,0,55460,55460,0.5 C,0,55460,55460,255,0,255 F,0,55460,55960,1,0
Sprite,Background,Centre,"sb\glow.png",441,351 S,0,55478,55478,0.5 C,0,55478,55478,255,0,255 F,0,55478,55978,1,0
Sprite,Background,Centre,"sb\glow.png",489,387 S,0,55497,55497,0.5 C,0,55497,55497,255,0,255 F,0,55497,55997,1,0
Sprite,Background,Centre,"sb\glow.png",521,411 S,0,55516,55516,0.5 C,0,55516,55516,255,0,255 F,0,55516,56016,1,0
Sprite,Background,Centre,"sb\glow.png",532,419 S,0,55535,55535,0.5 C,0,55535,55535,255,128,192 F,0,55535,56035,1,0
Sprite,Background,Centre,"sb\glow.png",528,429 S,0,55553,55553,0.5 C,0,55553,55553,255,128,192 F,0,55553,56053,1,0
Sprite,Background,Centre,"sb\glow.png",522,437 S,0,55572,55572,0.5 C,0,55572,55572,255,128,192 F,0,55572,56072,1,0
Sprite,Background,Centre,"sb\glow.png",528,429 S,0,55591,55591,0.5 C,0,55591,55591,255,128,192 F,0,55591,56091,1,0
Sprite,Background,Centre,"sb\glow.png",532,419 S,0,55610,55610,0.5 C,0,55610,55610,255,128,192 F,0,55610,56110,1,0
Sprite,Background,Centre,"sb\glow.png",528,429 S,0,55628,55628,0.5 C,0,55628,55628,255,128,192 F,0,55628,56128,1,0
Sprite,Background,Centre,"sb\glow.png",522,437 S,0,55647,55647,0.5 C,0,55647,55647,255,128,192 F,0,55647,56147,1,0
Sprite,Background,Centre,"sb\glow.png",528,429 S,0,55666,55666,0.5 C,0,55666,55666,255,128,192 F,0,55666,56166,1,0
Sprite,Background,Centre,"sb\glow.png",532,419 S,0,55685,55685,0.5 C,0,55685,55685,255,128,192 F,0,55685,56185,1,0
Sprite,Background,Centre,"sb\glow.png",528,429 S,0,55703,55703,0.5 C,0,55703,55703,255,128,192 F,0,55703,56203,1,0
Sprite,Background,Centre,"sb\glow.png",522,437 S,0,55722,55722,0.5 C,0,55722,55722,255,128,192 F,0,55722,56222,1,0
Sprite,Background,Centre,"sb\glow.png",528,429 S,0,55741,55741,0.5 C,0,55741,55741,255,128,192 F,0,55741,56241,1,0
Sprite,Background,Centre,"sb\glow.png",565,345 S,0,98434,98434,0.5 C,0,98434,98434,255,88,102 F,0,98434,98934,1,0
Sprite,Background,Centre,"sb\glow.png",544,331 S,0,98452,98452,0.5 C,0,98452,98452,255,88,102 F,0,98452,98952,1,0
Sprite,Background,Centre,"sb\glow.png",519,329 S,0,98471,98471,0.5 C,0,98471,98471,255,88,102 F,0,98471,98971,1,0
Sprite,Background,Centre,"sb\glow.png",493,332 S,0,98490,98490,0.5 C,0,98490,98490,255,88,102 F,0,98490,98990,1,0
Sprite,Background,Centre,"sb\glow.png",467,336 S,0,98509,98509,0.5 C,0,98509,98509,255,88,102 F,0,98509,99009,1,0
Sprite,Background,Centre,"sb\glow.png",440,339 S,0,98527,98527,0.5 C,0,98527,98527,255,88,102 F,0,98527,99027,1,0
Sprite,Background,Centre,"sb\glow.png",414,343 S,0,98546,98546,0.5 C,0,98546,98546,255,88,102 F,0,98546,99046,1,0
Sprite,Background,Centre,"sb\glow.png",388,346 S,0,98565,98565,0.5 C,0,98565,98565,255,88,102 F,0,98565,99065,1,0
Sprite,Background,Centre,"sb\glow.png",362,350 S,0,98584,98584,0.5 C,0,98584,98584,255,88,102 F,0,98584,99084,1,0
Sprite,Background,Centre,"sb\glow.png",335,353 S,0,98602,98602,0.5 C,0,98602,98602,255,88,102 F,0,98602,99102,1,0
Sprite,Background,Centre,"sb\glow.png",309,357 S,0,98621,98621,0.5 C,0,98621,98621,255,88,102 F,0,98621,99121,1,0
Sprite,Background,Centre,"sb\glow.png",284,362 S,0,98640,98640,0.5 C,0,98640,98640,255,88,102 F,0,98640,99140,1,0
Sprite,Background,Centre,"sb\glow.png",270,384 S,0,98659,98659,0.5 C,0,98659,98659,255,88,102 F,0,98659,99159,1,0
Sprite,Background,Centre,"sb\glow.png",221,405 S,0,98677,98677,0.5 C,0,98677,98677,255,88,102 F,0,98677,99177,1,0
Sprite,Background,Centre,"sb\glow.png",178,423 S,0,98696,98696,0.5 C,0,98696,98696,255,88,102 F,0,98696,99196,1,0
Sprite,Background,Centre,"sb\glow.png",149,435 S,0,98715,98715,0.5 C,0,98715,98715,255,88,102 F,0,98715,99215,1,0
Sprite,Background,Centre,"sb\glow.png",138,440 S,0,98734,98734,0.5 C,0,98734,98734,255,88,102 F,0,98734,99234,1,0
Sprite,Background,Centre,"sb\glow.png",154,425 S,0,98752,98752,0.5 C,0,98752,98752,255,0,255 F,0,98752,99252,1,0
Sprite,Background,Centre,"sb\glow.png",162,403 S,0,98771,98771,0.5 C,0,98771,98771,255,0,255 F,0,98771,99271,1,0
Sprite,Background,Centre,"sb\glow.png",163,380 S,0,98790,98790,0.5 C,0,98790,98790,255,0,255 F,0,98790,99290,1,0
Sprite,Background,Centre,"sb\glow.png",160,357 S,0,98809,98809,0.5 C,0,98809,98809,255,0,255 F,0,98809,99309,1,0
Sprite,Background,Centre,"sb\glow.png",156,334 S,0,98827,98827,0.5 C,0,98827,98827,255,0,255 F,0,98827,99327,1,0
Sprite,Background,Centre,"sb\glow.png",153,310 S,0,98846,98846,0.5 C,0,98846,98846,255,0,255 F,0,98846,99346,1,0
Sprite,Background,Centre,"sb\glow.png",148,288 S,0,98865,98865,0.5 C,0,98865,98865,255,0,255 F,0,98865,99365,1,0
Sprite,Background,Centre,"sb\glow.png",143,265 S,0,98884,98884,0.5 C,0,98884,98884,255,0,255 F,0,98884,99384,1,0
Sprite,Background,Centre,"sb\glow.png",140,242 S,0,98902,98902,0.5 C,0,98902,98902,255,0,255 F,0,98902,99402,1,0
Sprite,Background,Centre,"sb\glow.png",137,219 S,0,98921,98921,0.5 C,0,98921,98921,255,0,255 F,0,98921,99421,1,0
Sprite,Background,Centre,"sb\glow.png",134,195 S,0,98940,98940,0.5 C,0,98940,98940,255,0,255 F,0,98940,99440,1,0
Sprite,Background,Centre,"sb\glow.png",131,172 S,0,98959,98959,0.5 C,0,98959,98959,255,0,255 F,0,98959,99459,1,0
Sprite,Background,Centre,"sb\glow.png",123,143 S,0,98977,98977,0.5 C,0,98977,98977,255,0,255 F,0,98977,99477,1,0
Sprite,Background,Centre,"sb\glow.png",116,117 S,0,98996,98996,0.5 C,0,98996,98996,255,0,255 F,0,98996,99496,1,0
Sprite,Background,Centre,"sb\glow.png",112,100 S,0,99015,99015,0.5 C,0,99015,99015,255,0,255 F,0,99015,99515,1,0
Sprite,Background,Centre,"sb\glow.png",110,93 S,0,99034,99034,0.5 C,0,99034,99034,255,0,255 F,0,99034,99534,1,0
Sprite,Background,Centre,"sb\glow.png",127,88 S,0,99052,99052,0.5 C,0,99052,99052,255,128,192 F,0,99052,99552,1,0
Sprite,Background,Centre,"sb\glow.png",145,82 S,0,99071,99071,0.5 C,0,99071,99071,255,128,192 F,0,99071,99571,1,0
Sprite,Background,Centre,"sb\glow.png",159,92 S,0,99090,99090,0.5 C,0,99090,99090,255,128,192 F,0,99090,99590,1,0
Sprite,Background,Centre,"sb\glow.png",172,103 S,0,99109,99109,0.5 C,0,99109,99109,255,128,192 F,0,99109,99609,1,0
Sprite,Background,Centre,"sb\glow.png",204,141 S,0,99127,99127,0.5 C,0,99127,99127,255,128,192 F,0,99127,99627,1,0
Sprite,Background,Centre,"sb\glow.png",233,175 S,0,99146,99146,0.5 C,0,99146,99146,255,128,192 F,0,99146,99646,1,0
Sprite,Background,Centre,"sb\glow.png",252,198 S,0,99165,99165,0.5 C,0,99165,99165,255,128,192 F,0,99165,99665,1,0
Sprite,Background,Centre,"sb\glow.png",259,207 S,0,99184,99184,0.5 C,0,99184,99184,255,128,192 F,0,99184,99684,1,0
Sprite,Background,Centre,"sb\glow.png",276,212 S,0,99202,99202,0.5 C,0,99202,99202,255,128,192 F,0,99202,99702,1,0
Sprite,Background,Centre,"sb\glow.png",294,218 S,0,99221,99221,0.5 C,0,99221,99221,255,128,192 F,0,99221,99721,1,0
Sprite,Background,Centre,"sb\glow.png",308,208 S,0,99240,99240,0.5 C,0,99240,99240,255,128,192 F,0,99240,99740,1,0
Sprite,Background,Centre,"sb\glow.png",321,196 S,0,99259,99259,0.5 C,0,99259,99259,255,128,192 F,0,99259,99759,1,0
Sprite,Background,Centre,"sb\glow.png",379,171 S,0,99277,99277,0.5 C,0,99277,99277,255,128,192 F,0,99277,99777,1,0
Sprite,Background,Centre,"sb\glow.png",431,149 S,0,99296,99296,0.5 C,0,99296,99296,255,128,192 F,0,99296,99796,1,0
Sprite,Background,Centre,"sb\glow.png",467,135 S,0,99315,99315,0.5 C,0,99315,99315,255,128,192 F,0,99315,99815,1,0
Sprite,Background,Centre,"sb\glow.png",480,129 S,0,99334,99334,0.5 C,0,99334,99334,255,128,192 F,0,99334,99834,1,0
Sprite,Background,Centre,"sb\glow.png",477,112 S,0,99352,99352,0.5 C,0,99352,99352,255,0,128 F,0,99352,99852,1,0
Sprite,Background,Centre,"sb\glow.png",473,93 S,0,99371,99371,0.5 C,0,99371,99371,255,0,128 F,0,99371,99871,1,0
Sprite,Background,Centre,"sb\glow.png",469,75 S,0,99390,99390,0.5 C,0,99390,99390,255,0,128 F,0,99390,99890,1,0
Sprite,Background,Centre,"sb\glow.png",466,56 S,0,99409,99409,0.5 C,0,99409,99409,255,0,128 F,0,99409,99909,1,0
Sprite,Background,Centre,"sb\glow.png",437,61 S,0,99427,99427,0.5 C,0,99427,99427,255,0,128 F,0,99427,99927,1,0
Sprite,Background,Centre,"sb\glow.png",412,66 S,0,99446,99446,0.5 C,0,99446,99446,255,0,128 F,0,99446,99946,1,0
Sprite,Background,Centre,"sb\glow.png",395,69 S,0,99465,99465,0.5 C,0,99465,99465,255,0,128 F,0,99465,99965,1,0
Sprite,Background,Centre,"sb\glow.png",388,70 S,0,99484,99484,0.5 C,0,99484,99484,255,0,128 F,0,99484,99984,1,0
Sprite,Background,Centre,"sb\glow.png",391,87 S,0,99502,99502,0.5 C,0,99502,99502,255,0,128 F,0,99502,100002,1,0
Sprite,Background,Centre,"sb\glow.png",395,106 S,0,99521,99521,0.5 C,0,99521,99521,255,0,128 F,0,99521,100021,1,0
Sprite,Background,Centre,"sb\glow.png",399,124 S,0,99540,99540,0.5 C,0,99540,99540,255,0,128 F,0,99540,100040,1,0
Sprite,Background,Centre,"sb\glow.png",402,143 S,0,99559,99559,0.5 C,0,99559,99559,255,0,128 F,0,99559,100059,1,0
Sprite,Background,Centre,"sb\glow.png",459,188 S,0,99577,99577,0.5 C,0,99577,99577,255,0,128 F,0,99577,100077,1,0
Sprite,Background,Centre,"sb\glow.png",511,228 S,0,99596,99596,0.5 C,0,99596,99596,255,0,128 F,0,99596,100096,1,0
Sprite,Background,Centre,"sb\glow.png",546,256 S,0,99615,99615,0.5 C,0,99615,99615,255,0,128 F,0,99615,100115,1,0
Sprite,Background,Centre,"sb\glow.png",559,266 S,0,99634,99634,0.5 C,0,99634,99634,255,0,128 F,0,99634,100134,1,0
Sprite,Background,Centre,"sb\glow.png",539,261 S,0,99652,99652,0.5 C,0,99652,99652,255,88,102 F,0,99652,100152,1,0
Sprite,Background,Centre,"sb\glow.png",518,255 S,0,99671,99671,0.5 C,0,99671,99671,255,88,102 F,0,99671,100171,1,0
Sprite,Background,Centre,"sb\glow.png",497,250 S,0,99690,99690,0.5 C,0,99690,99690,255,88,102 F,0,99690,100190,1,0
Sprite,Background,Centre,"sb\glow.png",475,245 S,0,99709,99709,0.5 C,0,99709,99709,255,88,102 F,0,99709,100209,1,0
Sprite,Background,Centre,"sb\glow.png",454,239 S,0,99727,99727,0.5 C,0,99727,99727,255,88,102 F,0,99727,100227,1,0
Sprite,Background,Centre,"sb\glow.png",444,237 S,0,99746,99746,0.5 C,0,99746,99746,255,88,102 F,0,99746,100246,1,0
Sprite,Background,Centre,"sb\glow.png",461,249 S,0,99765,99765,0.5 C,0,99765,99765,255,88,102 F,0,99765,100265,1,0
Sprite,Background,Centre,"sb\glow.png",475,266 S,0,99784,99784,0.5 C,0,99784,99784,255,88,102 F,0,99784,100284,1,0
Sprite,Background,Centre,"sb\glow.png",462,274 S,0,99802,99802,0.5 C,0,99802,99802,255,88,102 F,0,99802,100302,1,0
Sprite,Background,Centre,"sb\glow.png",449,281 S,0,99821,99821,0.5 C,0,99821,99821,255,88,102 F,0,99821,100321,1,0
Sprite,Background,Centre,"sb\glow.png",437,288 S,0,99840,99840,0.5 C,0,99840,99840,255,88,102 F,0,99840,100340,1,0
Sprite,Background,Centre,"sb\glow.png",426,294 S,0,99859,99859,0.5 C,0,99859,99859,255,88,102 F,0,99859,100359,1,0
Sprite,Background,Centre,"sb\glow.png",417,299 S,0,99877,99877,0.5 C,0,99877,99877,255,88,102 F,0,99877,100377,1,0
Sprite,Background,Centre,"sb\glow.png",411,303 S,0,99896,99896,0.5 C,0,99896,99896,255,88,102 F,0,99896,100396,1,0
Sprite,Background,Centre,"sb\glow.png",407,305 S,0,99915,99915,0.5 C,0,99915,99915,255,88,102 F,0,99915,100415,1,0
Sprite,Background,Centre,"sb\glow.png",405,306 S,0,99934,99934,0.5 C,0,99934,99934,255,88,102 F,0,99934,100434,1,0
Sprite,Background,Centre,"sb\glow.png",418,318 S,0,99952,99952,0.5 C,0,99952,99952,255,0,255 F,0,99952,100452,1,0
Sprite,Background,Centre,"sb\glow.png",428,334 S,0,99971,99971,0.5 C,0,99971,99971,255,0,255 F,0,99971,100471,1,0
Sprite,Background,Centre,"sb\glow.png",432,352 S,0,99990,99990,0.5 C,0,99990,99990,255,0,255 F,0,99990,100490,1,0
Sprite,Background,Centre,"sb\glow.png",431,370 S,0,100009,100009,0.5 C,0,100009,100009,255,0,255 F,0,100009,100509,1,0
Sprite,Background,Centre,"sb\glow.png",468,367 S,0,100027,100027,0.5 C,0,100027,100027,255,0,255 F,0,100027,100527,1,0
Sprite,Background,Centre,"sb\glow.png",502,363 S,0,100046,100046,0.5 C,0,100046,100046,255,0,255 F,0,100046,100546,1,0
Sprite,Background,Centre,"sb\glow.png",524,360 S,0,100065,100065,0.5 C,0,100065,100065,255,0,255 F,0,100065,100565,1,0
Sprite,Background,Centre,"sb\glow.png",533,359 S,0,100084,100084,0.5 C,0,100084,100084,255,0,255 F,0,100084,100584,1,0
Sprite,Background,Centre,"sb\glow.png",534,377 S,0,100102,100102,0.5 C,0,100102,100102,255,0,255 F,0,100102,100602,1,0
Sprite,Background,Centre,"sb\glow.png",530,395 S,0,100121,100121,0.5 C,0,100121,100121,255,0,255 F,0,100121,100621,1,0
Sprite,Background,Centre,"sb\glow.png",520,411 S,0,100140,100140,0.5 C,0,100140,100140,255,0,255 F,0,100140,100640,1,0
Sprite,Background,Centre,"sb\glow.png",508,423 S,0,100159,100159,0.5 C,0,100159,100159,255,0,255 F,0,100159,100659,1,0
Sprite,Background,Centre,"sb\glow.png",431,394 S,0,100177,100177,0.5 C,0,100177,100177,255,0,255 F,0,100177,100677,1,0
Sprite,Background,Centre,"sb\glow.png",362,367 S,0,100196,100196,0.5 C,0,100196,100196,255,0,255 F,0,100196,100696,1,0
Sprite,Background,Centre,"sb\glow.png",315,348 S,0,100215,100215,0.5 C,0,100215,100215,255,0,255 F,0,100215,100715,1,0
Sprite,Background,Centre,"sb\glow.png",297,341 S,0,100234,100234,0.5 C,0,100234,100234,255,0,255 F,0,100234,100734,1,0
Sprite,Background,Centre,"sb\glow.png",279,340 S,0,100252,100252,0.5 C,0,100252,100252,255,128,192 F,0,100252,100752,1,0
Sprite,Background,Centre,"sb\glow.png",261,340 S,0,100271,100271,0.5 C,0,100271,100271,255,128,192 F,0,100271,100771,1,0
Sprite,Background,Centre,"sb\glow.png",242,343 S,0,100290,100290,0.5 C,0,100290,100290,255,128,192 F,0,100290,100790,1,0
Sprite,Background,Centre,"sb\glow.png",225,351 S,0,100309,100309,0.5 C,0,100309,100309,255,128,192 F,0,100309,100809,1,0
Sprite,Background,Centre,"sb\glow.png",211,363 S,0,100327,100327,0.5 C,0,100327,100327,255,128,192 F,0,100327,100827,1,0
Sprite,Background,Centre,"sb\glow.png",199,377 S,0,100346,100346,0.5 C,0,100346,100346,255,128,192 F,0,100346,100846,1,0
Sprite,Background,Centre,"sb\glow.png",186,391 S,0,100365,100365,0.5 C,0,100365,100365,255,128,192 F,0,100365,100865,1,0
Sprite,Background,Centre,"sb\glow.png",171,402 S,0,100384,100384,0.5 C,0,100384,100384,255,128,192 F,0,100384,100884,1,0
Sprite,Background,Centre,"sb\glow.png",154,410 S,0,100402,100402,0.5 C,0,100402,100402,255,128,192 F,0,100402,100902,1,0
Sprite,Background,Centre,"sb\glow.png",136,414 S,0,100421,100421,0.5 C,0,100421,100421,255,128,192 F,0,100421,100921,1,0
Sprite,Background,Centre,"sb\glow.png",117,415 S,0,100440,100440,0.5 C,0,100440,100440,255,128,192 F,0,100440,100940,1,0
Sprite,Background,Centre,"sb\glow.png",98,415 S,0,100459,100459,0.5 C,0,100459,100459,255,128,192 F,0,100459,100959,1,0
Sprite,Background,Centre,"sb\glow.png",107,382 S,0,100477,100477,0.5 C,0,100477,100477,255,128,192 F,0,100477,100977,1,0
Sprite,Background,Centre,"sb\glow.png",116,353 S,0,100496,100496,0.5 C,0,100496,100496,255,128,192 F,0,100496,100996,1,0
Sprite,Background,Centre,"sb\glow.png",123,333 S,0,100515,100515,0.5 C,0,100515,100515,255,128,192 F,0,100515,101015,1,0
Sprite,Background,Centre,"sb\glow.png",125,325 S,0,100534,100534,0.5 C,0,100534,100534,255,128,192 F,0,100534,101034,1,0
Sprite,Background,Centre,"sb\glow.png",123,307 S,0,100552,100552,0.5 C,0,100552,100552,255,0,128 F,0,100552,101052,1,0
Sprite,Background,Centre,"sb\glow.png",121,289 S,0,100571,100571,0.5 C,0,100571,100571,255,0,128 F,0,100571,101071,1,0
Sprite,Background,Centre,"sb\glow.png",119,270 S,0,100590,100590,0.5 C,0,100590,100590,255,0,128 F,0,100590,101090,1,0
Sprite,Background,Centre,"sb\glow.png",118,252 S,0,100609,100609,0.5 C,0,100609,100609,255,0,128 F,0,100609,101109,1,0
Sprite,Background,Centre,"sb\glow.png",119,233 S,0,100627,100627,0.5 C,0,100627,100627,255,0,128 F,0,100627,101127,1,0
Sprite,Background,Centre,"sb\glow.png",117,215 S,0,100646,100646,0.5 C,0,100646,100646,255,0,128 F,0,100646,101146,1,0
Sprite,Background,Centre,"sb\glow.png",115,196 S,0,100665,100665,0.5 C,0,100665,100665,255,0,128 F,0,100665,101165,1,0
Sprite,Background,Centre,"sb\glow.png",113,177 S,0,100684,100684,0.5 C,0,100684,100684,255,0,128 F,0,100684,101184,1,0
Sprite,Background,Centre,"sb\glow.png",150,184 S,0,100702,100702,0.5 C,0,100702,100702,255,0,128 F,0,100702,101202,1,0
Sprite,Background,Centre,"sb\glow.png",184,191 S,0,100721,100721,0.5 C,0,100721,100721,255,0,128 F,0,100721,101221,1,0
Sprite,Background,Centre,"sb\glow.png",207,195 S,0,100740,100740,0.5 C,0,100740,100740,255,0,128 F,0,100740,101240,1,0
Sprite,Background,Centre,"sb\glow.png",216,197 S,0,100759,100759,0.5 C,0,100759,100759,255,0,128 F,0,100759,101259,1,0
Sprite,Background,Centre,"sb\glow.png",214,202 S,0,100777,100777,0.5 C,0,100777,100777,255,88,102 F,0,100777,101277,1,0
Sprite,Background,Centre,"sb\glow.png",213,207 S,0,100796,100796,0.5 C,0,100796,100796,255,88,102 F,0,100796,101296,1,0
Sprite,Background,Centre,"sb\glow.png",211,210 S,0,100815,100815,0.5 C,0,100815,100815,255,88,102 F,0,100815,101315,1,0
Sprite,Background,Centre,"sb\glow.png",211,211 S,0,100834,100834,0.5 C,0,100834,100834,255,88,102 F,0,100834,101334,1,0
Sprite,Background,Centre,"sb\glow.png",209,220 S,0,100852,100852,0.5 C,0,100852,100852,255,88,102 F,0,100852,101352,1,0
Sprite,Background,Centre,"sb\glow.png",207,229 S,0,100871,100871,0.5 C,0,100871,100871,255,88,102 F,0,100871,101371,1,0
Sprite,Background,Centre,"sb\glow.png",205,238 S,0,100890,100890,0.5 C,0,100890,100890,255,88,102 F,0,100890,101390,1,0
Sprite,Background,Centre,"sb\glow.png",204,247 S,0,100909,100909,0.5 C,0,100909,100909,255,88,102 F,0,100909,101409,1,0
Sprite,Background,Centre,"sb\glow.png",153,192 S,0,100927,100927,0.5 C,0,100927,100927,255,88,102 F,0,100927,101427,1,0
Sprite,Background,Centre,"sb\glow.png",107,142 S,0,100946,100946,0.5 C,0,100946,100946,255,88,102 F,0,100946,101446,1,0
Sprite,Background,Centre,"sb\glow.png",76,108 S,0,100965,100965,0.5 C,0,100965,100965,255,88,102 F,0,100965,101465,1,0
Sprite,Background,Centre,"sb\glow.png",64,95 S,0,100984,100984,0.5 C,0,100984,100984,255,88,102 F,0,100984,101484,1,0
Sprite,Background,Centre,"sb\glow.png",85,92 S,0,101002,101002,0.5 C,0,101002,101002,255,0,255 F,0,101002,101502,1,0
Sprite,Background,Centre,"sb\glow.png",106,89 S,0,101021,101021,0.5 C,0,101021,101021,255,0,255 F,0,101021,101521,1,0
Sprite,Background,Centre,"sb\glow.png",127,87 S,0,101040,101040,0.5 C,0,101040,101040,255,0,255 F,0,101040,101540,1,0
Sprite,Background,Centre,"sb\glow.png",148,82 S,0,101059,101059,0.5 C,0,101059,101059,255,0,255 F,0,101059,101559,1,0
Sprite,Background,Centre,"sb\glow.png",169,79 S,0,101077,101077,0.5 C,0,101077,101077,255,0,255 F,0,101077,101577,1,0
Sprite,Background,Centre,"sb\glow.png",191,76 S,0,101096,101096,0.5 C,0,101096,101096,255,0,255 F,0,101096,101596,1,0
Sprite,Background,Centre,"sb\glow.png",199,81 S,0,101115,101115,0.5 C,0,101115,101115,255,0,255 F,0,101115,101615,1,0
Sprite,Background,Centre,"sb\glow.png",202,83 S,0,101134,101134,0.5 C,0,101134,101134,255,0,255 F,0,101134,101634,1,0
Sprite,Background,Centre,"sb\glow.png",207,90 S,0,101152,101152,0.5 C,0,101152,101152,255,128,192 F,0,101152,101652,1,0
Sprite,Background,Centre,"sb\glow.png",214,96 S,0,101171,101171,0.5 C,0,101171,101171,255,128,192 F,0,101171,101671,1,0
Sprite,Background,Centre,"sb\glow.png",223,100 S,0,101190,101190,0.5 C,0,101190,101190,255,128,192 F,0,101190,101690,1,0
Sprite,Background,Centre,"sb\glow.png",231,102 S,0,101209,101209,0.5 C,0,101209,101209,255,128,192 F,0,101209,101709,1,0
Sprite,Background,Centre,"sb\glow.png",295,97 S,0,101227,101227,0.5 C,0,101227,101227,255,128,192 F,0,101227,101727,1,0
Sprite,Background,Centre,"sb\glow.png",352,92 S,0,101246,101246,0.5 C,0,101246,101246,255,128,192 F,0,101246,101746,1,0
Sprite,Background,Centre,"sb\glow.png",391,89 S,0,101265,101265,0.5 C,0,101265,101265,255,128,192 F,0,101265,101765,1,0
Sprite,Background,Centre,"sb\glow.png",406,88 S,0,101284,101284,0.5 C,0,101284,101284,255,128,192 F,0,101284,101784,1,0
Sprite,Background,Centre,"sb\glow.png",418,71 S,0,101302,101302,0.5 C,0,101302,101302,255,0,128 F,0,101302,101802,1,0
Sprite,Background,Centre,"sb\glow.png",432,60 S,0,101321,101321,0.5 C,0,101321,101321,255,0,128 F,0,101321,101821,1,0
Sprite,Background,Centre,"sb\glow.png",413,64 S,0,101340,101340,0.5 C,0,101340,101340,255,0,128 F,0,101340,101840,1,0
Sprite,Background,Centre,"sb\glow.png",392,69 S,0,101359,101359,0.5 C,0,101359,101359,255,0,128 F,0,101359,101859,1,0
Sprite,Background,Centre,"sb\glow.png",370,73 S,0,101377,101377,0.5 C,0,101377,101377,255,0,128 F,0,101377,101877,1,0
Sprite,Background,Centre,"sb\glow.png",349,78 S,0,101396,101396,0.5 C,0,101396,101396,255,0,128 F,0,101396,101896,1,0
Sprite,Background,Centre,"sb\glow.png",322,130 S,0,101415,101415,0.5 C,0,101415,101415,255,0,128 F,0,101415,101915,1,0
Sprite,Background,Centre,"sb\glow.png",309,154 S,0,101434,101434,0.5 C,0,101434,101434,255,0,128 F,0,101434,101934,1,0
Sprite,Background,Centre,"sb\glow.png",312,168 S,0,101452,101452,0.5 C,0,101452,101452,255,88,102 F,0,101452,101952,1,0
Sprite,Background,Centre,"sb\glow.png",316,184 S,0,101471,101471,0.5 C,0,101471,101471,255,88,102 F,0,101471,101971,1,0
Sprite,Background,Centre,"sb\glow.png",316,206 S,0,101490,101490,0.5 C,0,101490,101490,255,88,102 F,0,101490,101990,1,0
Sprite,Background,Centre,"sb\glow.png",317,227 S,0,101509,101509,0.5 C,0,101509,101509,255,88,102 F,0,101509,102009,1,0
Sprite,Background,Centre,"sb\glow.png",317,246 S,0,101527,101527,0.5 C,0,101527,101527,255,88,102 F,0,101527,102027,1,0
Sprite,Background,Centre,"sb\glow.png",318,260 S,0,101546,101546,0.5 C,0,101546,101546,255,88,102 F,0,101546,102046,1,0
Sprite,Background,Centre,"sb\glow.png",318,269 S,0,101565,101565,0.5 C,0,101565,101565,255,88,102 F,0,101565,102065,1,0
Sprite,Background,Centre,"sb\glow.png",318,272 S,0,101584,101584,0.5 C,0,101584,101584,255,88,102 F,0,101584,102084,1,0
Sprite,Background,Centre,"sb\glow.png",315,286 S,0,101602,101602,0.5 C,0,101602,101602,255,88,102 F,0,101602,102102,1,0
Sprite,Background,Centre,"sb\glow.png",311,301 S,0,101621,101621,0.5 C,0,101621,101621,255,88,102 F,0,101621,102121,1,0
Sprite,Background,Centre,"sb\glow.png",308,334 S,0,101640,101640,0.5 C,0,101640,101640,255,88,102 F,0,101640,102140,1,0
Sprite,Background,Centre,"sb\glow.png",305,366 S,0,101659,101659,0.5 C,0,101659,101659,255,88,102 F,0,101659,102159,1,0
Sprite,Background,Centre,"sb\glow.png",302,393 S,0,101677,101677,0.5 C,0,101677,101677,255,88,102 F,0,101677,102177,1,0
Sprite,Background,Centre,"sb\glow.png",300,415 S,0,101696,101696,0.5 C,0,101696,101696,255,88,102 F,0,101696,102196,1,0
Sprite,Background,Centre,"sb\glow.png",298,428 S,0,101715,101715,0.5 C,0,101715,101715,255,88,102 F,0,101715,102215,1,0
Sprite,Background,Centre,"sb\glow.png",298,433 S,0,101734,101734,0.5 C,0,101734,101734,255,88,102 F,0,101734,102234,1,0
Sprite,Background,Centre,"sb\glow.png",290,421 S,0,101752,101752,0.5 C,0,101752,101752,255,0,255 F,0,101752,102252,1,0
Sprite,Background,Centre,"sb\glow.png",282,407 S,0,101771,101771,0.5 C,0,101771,101771,255,0,255 F,0,101771,102271,1,0
Sprite,Background,Centre,"sb\glow.png",282,392 S,0,101790,101790,0.5 C,0,101790,101790,255,0,255 F,0,101790,102290,1,0
Sprite,Background,Centre,"sb\glow.png",285,377 S,0,101809,101809,0.5 C,0,101809,101809,255,0,255 F,0,101809,102309,1,0
Sprite,Background,Centre,"sb\glow.png",312,369 S,0,101827,101827,0.5 C,0,101827,101827,255,0,255 F,0,101827,102327,1,0
Sprite,Background,Centre,"sb\glow.png",338,362 S,0,101846,101846,0.5 C,0,101846,101846,255,0,255 F,0,101846,102346,1,0
Sprite,Background,Centre,"sb\glow.png",355,358 S,0,101865,101865,0.5 C,0,101865,101865,255,0,255 F,0,101865,102365,1,0
Sprite,Background,Centre,"sb\glow.png",361,356 S,0,101884,101884,0.5 C,0,101884,101884,255,0,255 F,0,101884,102384,1,0
Sprite,Background,Centre,"sb\glow.png",369,369 S,0,101902,101902,0.5 C,0,101902,101902,255,0,255 F,0,101902,102402,1,0
Sprite,Background,Centre,"sb\glow.png",377,382 S,0,101921,101921,0.5 C,0,101921,101921,255,0,255 F,0,101921,102421,1,0
Sprite,Background,Centre,"sb\glow.png",376,397 S,0,101940,101940,0.5 C,0,101940,101940,255,0,255 F,0,101940,102440,1,0
Sprite,Background,Centre,"sb\glow.png",373,412 S,0,101959,101959,0.5 C,0,101959,101959,255,0,255 F,0,101959,102459,1,0
Sprite,Background,Centre,"sb\glow.png",378,417 S,0,101977,101977,0.5 C,0,101977,101977,255,0,255 F,0,101977,102477,1,0
Sprite,Background,Centre,"sb\glow.png",382,421 S,0,101996,101996,0.5 C,0,101996,101996,255,0,255 F,0,101996,102496,1,0
Sprite,Background,Centre,"sb\glow.png",385,424 S,0,102015,102015,0.5 C,0,102015,102015,255,0,255 F,0,102015,102515,1,0
Sprite,Background,Centre,"sb\glow.png",386,425 S,0,102034,102034,0.5 C,0,102034,102034,255,0,255 F,0,102034,102534,1,0
Sprite,Background,Centre,"sb\glow.png",398,427 S,0,102052,102052,0.5 C,0,102052,102052,255,128,192 F,0,102052,102552,1,0
Sprite,Background,Centre,"sb\glow.png",410,430 S,0,102071,102071,0.5 C,0,102071,102071,255,128,192 F,0,102071,102571,1,0
Sprite,Background,Centre,"sb\glow.png",422,433 S,0,102090,102090,0.5 C,0,102090,102090,255,128,192 F,0,102090,102590,1,0
Sprite,Background,Centre,"sb\glow.png",433,435 S,0,102109,102109,0.5 C,0,102109,102109,255,128,192 F,0,102109,102609,1,0
Sprite,Background,Centre,"sb\glow.png",471,358 S,0,102127,102127,0.5 C,0,102127,102127,255,128,192 F,0,102127,102627,1,0
Sprite,Background,Centre,"sb\glow.png",505,288 S,0,102146,102146,0.5 C,0,102146,102146,255,128,192 F,0,102146,102646,1,0
Sprite,Background,Centre,"sb\glow.png",527,240 S,0,102165,102165,0.5 C,0,102165,102165,255,128,192 F,0,102165,102665,1,0
Sprite,Background,Centre,"sb\glow.png",536,222 S,0,102184,102184,0.5 C,0,102184,102184,255,128,192 F,0,102184,102684,1,0
Sprite,Background,Centre,"sb\glow.png",533,210 S,0,102202,102202,0.5 C,0,102202,102202,255,128,192 F,0,102202,102702,1,0
Sprite,Background,Centre,"sb\glow.png",531,198 S,0,102221,102221,0.5 C,0,102221,102221,255,128,192 F,0,102221,102721,1,0
Sprite,Background,Centre,"sb\glow.png",528,186 S,0,102240,102240,0.5 C,0,102240,102240,255,128,192 F,0,102240,102740,1,0
Sprite,Background,Centre,"sb\glow.png",525,174 S,0,102259,102259,0.5 C,0,102259,102259,255,128,192 F,0,102259,102759,1,0
Sprite,Background,Centre,"sb\glow.png",468,199 S,0,102277,102277,0.5 C,0,102277,102277,255,128,192 F,0,102277,102777,1,0
Sprite,Background,Centre,"sb\glow.png",416,223 S,0,102296,102296,0.5 C,0,102296,102296,255,128,192 F,0,102296,102796,1,0
Sprite,Background,Centre,"sb\glow.png",380,239 S,0,102315,102315,0.5 C,0,102315,102315,255,128,192 F,0,102315,102815,1,0
Sprite,Background,Centre,"sb\glow.png",367,245 S,0,102334,102334,0.5 C,0,102334,102334,255,128,192 F,0,102334,102834,1,0
Sprite,Background,Centre,"sb\glow.png",384,242 S,0,102352,102352,0.5 C,0,102352,102352,255,0,128 F,0,102352,102852,1,0
Sprite,Background,Centre,"sb\glow.png",403,240 S,0,102371,102371,0.5 C,0,102371,102371,255,0,128 F,0,102371,102871,1,0
Sprite,Background,Centre,"sb\glow.png",422,242 S,0,102390,102390,0.5 C,0,102390,102390,255,0,128 F,0,102390,102890,1,0
Sprite,Background,Centre,"sb\glow.png",439,248 S,0,102409,102409,0.5 C,0,102409,102409,255,0,128 F,0,102409,102909,1,0
Sprite,Background,Centre,"sb\glow.png",455,259 S,0,102427,102427,0.5 C,0,102427,102427,255,0,128 F,0,102427,102927,1,0
Sprite,Background,Centre,"sb\glow.png",468,272 S,0,102446,102446,0.5 C,0,102446,102446,255,0,128 F,0,102446,102946,1,0
Sprite,Background,Centre,"sb\glow.png",482,285 S,0,102465,102465,0.5 C,0,102465,102465,255,0,128 F,0,102465,102965,1,0
Sprite,Background,Centre,"sb\glow.png",497,295 S,0,102484,102484,0.5 C,0,102484,102484,255,0,128 F,0,102484,102984,1,0
Sprite,Background,Centre,"sb\glow.png",515,302 S,0,102502,102502,0.5 C,0,102502,102502,255,0,128 F,0,102502,103002,1,0
Sprite,Background,Centre,"sb\glow.png",534,303 S,0,102521,102521,0.5 C,0,102521,102521,255,0,128 F,0,102521,103021,1,0
Sprite,Background,Centre,"sb\glow.png",552,302 S,0,102540,102540,0.5 C,0,102540,102540,255,0,128 F,0,102540,103040,1,0
Sprite,Background,Centre,"sb\glow.png",571,298 S,0,102559,102559,0.5 C,0,102559,102559,255,0,128 F,0,102559,103059,1,0
Sprite,Background,Centre,"sb\glow.png",515,232 S,0,102577,102577,0.5 C,0,102577,102577,255,0,128 F,0,102577,103077,1,0
Sprite,Background,Centre,"sb\glow.png",464,173 S,0,102596,102596,0.5 C,0,102596,102596,255,0,128 F,0,102596,103096,1,0
Sprite,Background,Centre,"sb\glow.png",429,132 S,0,102615,102615,0.5 C,0,102615,102615,255,0,128 F,0,102615,103115,1,0
Sprite,Background,Centre,"sb\glow.png",416,117 S,0,102634,102634,0.5 C,0,102634,102634,255,0,128 F,0,102634,103134,1,0
Sprite,Background,Centre,"sb\glow.png",402,128 S,0,102652,102652,0.5 C,0,102652,102652,255,88,102 F,0,102652,103152,1,0
Sprite,Background,Centre,"sb\glow.png",384,128 S,0,102671,102671,0.5 C,0,102671,102671,255,88,102 F,0,102671,103171,1,0
Sprite,Background,Centre,"sb\glow.png",366,125 S,0,102690,102690,0.5 C,0,102690,102690,255,88,102 F,0,102690,103190,1,0
Sprite,Background,Centre,"sb\glow.png",347,122 S,0,102709,102709,0.5 C,0,102709,102709,255,88,102 F,0,102709,103209,1,0
Sprite,Background,Centre,"sb\glow.png",329,118 S,0,102727,102727,0.5 C,0,102727,102727,255,88,102 F,0,102727,103227,1,0
Sprite,Background,Centre,"sb\glow.png",311,115 S,0,102746,102746,0.5 C,0,102746,102746,255,88,102 F,0,102746,103246,1,0
Sprite,Background,Centre,"sb\glow.png",292,111 S,0,102765,102765,0.5 C,0,102765,102765,255,88,102 F,0,102765,103265,1,0
Sprite,Background,Centre,"sb\glow.png",274,107 S,0,102784,102784,0.5 C,0,102784,102784,255,88,102 F,0,102784,103284,1,0
Sprite,Background,Centre,"sb\glow.png",255,104 S,0,102802,102802,0.5 C,0,102802,102802,255,88,102 F,0,102802,103302,1,0
Sprite,Background,Centre,"sb\glow.png",237,100 S,0,102821,102821,0.5 C,0,102821,102821,255,88,102 F,0,102821,103321,1,0
Sprite,Background,Centre,"sb\glow.png",219,96 S,0,102840,102840,0.5 C,0,102840,102840,255,88,102 F,0,102840,103340,1,0
Sprite,Background,Centre,"sb\glow.png",211,80 S,0,102859,102859,0.5 C,0,102859,102859,255,88,102 F,0,102859,103359,1,0
Sprite,Background,Centre,"sb\glow.png",162,119 S,0,102877,102877,0.5 C,0,102877,102877,255,88,102 F,0,102877,103377,1,0
Sprite,Background,Centre,"sb\glow.png",119,156 S,0,102896,102896,0.5 C,0,102896,102896,255,88,102 F,0,102896,103396,1,0
Sprite,Background,Centre,"sb\glow.png",89,182 S,0,102915,102915,0.5 C,0,102915,102915,255,88,102 F,0,102915,103415,1,0
Sprite,Background,Centre,"sb\glow.png",78,191 S,0,102934,102934,0.5 C,0,102934,102934,255,88,102 F,0,102934,103434,1,0
Sprite,Background,Centre,"sb\glow.png",98,188 S,0,102952,102952,0.5 C,0,102952,102952,255,0,255 F,0,102952,103452,1,0
Sprite,Background,Centre,"sb\glow.png",120,184 S,0,102971,102971,0.5 C,0,102971,102971,255,0,255 F,0,102971,103471,1,0
Sprite,Background,Centre,"sb\glow.png",142,180 S,0,102990,102990,0.5 C,0,102990,102990,255,0,255 F,0,102990,103490,1,0
Sprite,Background,Centre,"sb\glow.png",161,180 S,0,103009,103009,0.5 C,0,103009,103009,255,0,255 F,0,103009,103509,1,0
Sprite,Background,Centre,"sb\glow.png",166,201 S,0,103027,103027,0.5 C,0,103027,103027,255,0,255 F,0,103027,103527,1,0
Sprite,Background,Centre,"sb\glow.png",170,222 S,0,103046,103046,0.5 C,0,103046,103046,255,0,255 F,0,103046,103546,1,0
Sprite,Background,Centre,"sb\glow.png",174,244 S,0,103065,103065,0.5 C,0,103065,103065,255,0,255 F,0,103065,103565,1,0
Sprite,Background,Centre,"sb\glow.png",178,265 S,0,103084,103084,0.5 C,0,103084,103084,255,0,255 F,0,103084,103584,1,0
Sprite,Background,Centre,"sb\glow.png",182,287 S,0,103102,103102,0.5 C,0,103102,103102,255,0,255 F,0,103102,103602,1,0
Sprite,Background,Centre,"sb\glow.png",186,308 S,0,103121,103121,0.5 C,0,103121,103121,255,0,255 F,0,103121,103621,1,0
Sprite,Background,Centre,"sb\glow.png",190,330 S,0,103140,103140,0.5 C,0,103140,103140,255,0,255 F,0,103140,103640,1,0
Sprite,Background,Centre,"sb\glow.png",194,351 S,0,103159,103159,0.5 C,0,103159,103159,255,0,255 F,0,103159,103659,1,0
Sprite,Background,Centre,"sb\glow.png",182,376 S,0,103177,103177,0.5 C,0,103177,103177,255,0,255 F,0,103177,103677,1,0
Sprite,Background,Centre,"sb\glow.png",170,398 S,0,103196,103196,0.5 C,0,103196,103196,255,0,255 F,0,103196,103696,1,0
Sprite,Background,Centre,"sb\glow.png",162,413 S,0,103215,103215,0.5 C,0,103215,103215,255,0,255 F,0,103215,103715,1,0
Sprite,Background,Centre,"sb\glow.png",159,419 S,0,103234,103234,0.5 C,0,103234,103234,255,0,255 F,0,103234,103734,1,0
Sprite,Background,Centre,"sb\glow.png",138,426 S,0,103252,103252,0.5 C,0,103252,103252,255,128,192 F,0,103252,103752,1,0
Sprite,Background,Centre,"sb\glow.png",116,434 S,0,103271,103271,0.5 C,0,103271,103271,255,128,192 F,0,103271,103771,1,0
Sprite,Background,Centre,"sb\glow.png",121,428 S,0,103290,103290,0.5 C,0,103290,103290,255,128,192 F,0,103290,103790,1,0
Sprite,Background,Centre,"sb\glow.png",140,416 S,0,103309,103309,0.5 C,0,103309,103309,255,128,192 F,0,103309,103809,1,0
Sprite,Background,Centre,"sb\glow.png",187,354 S,0,103327,103327,0.5 C,0,103327,103327,255,128,192 F,0,103327,103827,1,0
Sprite,Background,Centre,"sb\glow.png",228,299 S,0,103346,103346,0.5 C,0,103346,103346,255,128,192 F,0,103346,103846,1,0
Sprite,Background,Centre,"sb\glow.png",256,262 S,0,103365,103365,0.5 C,0,103365,103365,255,128,192 F,0,103365,103865,1,0
Sprite,Background,Centre,"sb\glow.png",267,248 S,0,103384,103384,0.5 C,0,103384,103384,255,128,192 F,0,103384,103884,1,0
Sprite,Background,Centre,"sb\glow.png",288,255 S,0,103402,103402,0.5 C,0,103402,103402,255,128,192 F,0,103402,103902,1,0
Sprite,Background,Centre,"sb\glow.png",310,263 S,0,103421,103421,0.5 C,0,103421,103421,255,128,192 F,0,103421,103921,1,0
Sprite,Background,Centre,"sb\glow.png",305,257 S,0,103440,103440,0.5 C,0,103440,103440,255,128,192 F,0,103440,103940,1,0
Sprite,Background,Centre,"sb\glow.png",286,244 S,0,103459,103459,0.5 C,0,103459,103459,255,128,192 F,0,103459,103959,1,0
Sprite,Background,Centre,"sb\glow.png",207,281 S,0,103477,103477,0.5 C,0,103477,103477,255,128,192 F,0,103477,103977,1,0
Sprite,Background,Centre,"sb\glow.png",136,314 S,0,103496,103496,0.5 C,0,103496,103496,255,128,192 F,0,103496,103996,1,0
Sprite,Background,Centre,"sb\glow.png",88,337 S,0,103515,103515,0.5 C,0,103515,103515,255,128,192 F,0,103515,104015,1,0
Sprite,Background,Centre,"sb\glow.png",70,346 S,0,103534,103534,0.5 C,0,103534,103534,255,128,192 F,0,103534,104034,1,0
Sprite,Background,Centre,"sb\glow.png",88,333 S,0,103552,103552,0.5 C,0,103552,103552,255,0,128 F,0,103552,104052,1,0
Sprite,Background,Centre,"sb\glow.png",109,325 S,0,103571,103571,0.5 C,0,103571,103571,255,0,128 F,0,103571,104071,1,0
Sprite,Background,Centre,"sb\glow.png",133,325 S,0,103590,103590,0.5 C,0,103590,103590,255,0,128 F,0,103590,104090,1,0
Sprite,Background,Centre,"sb\glow.png",156,329 S,0,103609,103609,0.5 C,0,103609,103609,255,0,128 F,0,103609,104109,1,0
Sprite,Background,Centre,"sb\glow.png",179,332 S,0,103627,103627,0.5 C,0,103627,103627,255,0,128 F,0,103627,104127,1,0
Sprite,Background,Centre,"sb\glow.png",201,338 S,0,103646,103646,0.5 C,0,103646,103646,255,0,128 F,0,103646,104146,1,0
Sprite,Background,Centre,"sb\glow.png",223,344 S,0,103665,103665,0.5 C,0,103665,103665,255,0,128 F,0,103665,104165,1,0
Sprite,Background,Centre,"sb\glow.png",246,348 S,0,103684,103684,0.5 C,0,103684,103684,255,0,128 F,0,103684,104184,1,0
Sprite,Background,Centre,"sb\glow.png",269,352 S,0,103702,103702,0.5 C,0,103702,103702,255,0,128 F,0,103702,104202,1,0
Sprite,Background,Centre,"sb\glow.png",292,355 S,0,103721,103721,0.5 C,0,103721,103721,255,0,128 F,0,103721,104221,1,0
Sprite,Background,Centre,"sb\glow.png",315,359 S,0,103740,103740,0.5 C,0,103740,103740,255,0,128 F,0,103740,104240,1,0
Sprite,Background,Centre,"sb\glow.png",338,363 S,0,103759,103759,0.5 C,0,103759,103759,255,0,128 F,0,103759,104259,1,0
Sprite,Background,Centre,"sb\glow.png",378,368 S,0,103777,103777,0.5 C,0,103777,103777,255,0,128 F,0,103777,104277,1,0
Sprite,Background,Centre,"sb\glow.png",412,373 S,0,103796,103796,0.5 C,0,103796,103796,255,0,128 F,0,103796,104296,1,0
Sprite,Background,Centre,"sb\glow.png",435,377 S,0,103815,103815,0.5 C,0,103815,103815,255,0,128 F,0,103815,104315,1,0
Sprite,Background,Centre,"sb\glow.png",444,378 S,0,103834,103834,0.5 C,0,103834,103834,255,0,128 F,0,103834,104334,1,0
Sprite,Background,Centre,"sb\glow.png",440,395 S,0,103852,103852,0.5 C,0,103852,103852,255,88,102 F,0,103852,104352,1,0
Sprite,Background,Centre,"sb\glow.png",437,413 S,0,103871,103871,0.5 C,0,103871,103871,255,88,102 F,0,103871,104371,1,0
Sprite,Background,Centre,"sb\glow.png",450,426 S,0,103890,103890,0.5 C,0,103890,103890,255,88,102 F,0,103890,104390,1,0
Sprite,Background,Centre,"sb\glow.png",463,439 S,0,103909,103909,0.5 C,0,103909,103909,255,88,102 F,0,103909,104409,1,0
Sprite,Background,Centre,"sb\glow.png",485,408 S,0,103927,103927,0.5 C,0,103927,103927,255,88,102 F,0,103927,104427,1,0
Sprite,Background,Centre,"sb\glow.png",503,378 S,0,103946,103946,0.5 C,0,103946,103946,255,88,102 F,0,103946,104446,1,0
Sprite,Background,Centre,"sb\glow.png",516,359 S,0,103965,103965,0.5 C,0,103965,103965,255,88,102 F,0,103965,104465,1,0
Sprite,Background,Centre,"sb\glow.png",521,351 S,0,103984,103984,0.5 C,0,103984,103984,255,88,102 F,0,103984,104484,1,0
Sprite,Background,Centre,"sb\glow.png",534,363 S,0,104002,104002,0.5 C,0,104002,104002,255,88,102 F,0,104002,104502,1,0
Sprite,Background,Centre,"sb\glow.png",547,376 S,0,104021,104021,0.5 C,0,104021,104021,255,88,102 F,0,104021,104521,1,0
Sprite,Background,Centre,"sb\glow.png",545,394 S,0,104040,104040,0.5 C,0,104040,104040,255,88,102 F,0,104040,104540,1,0
Sprite,Background,Centre,"sb\glow.png",541,412 S,0,104059,104059,0.5 C,0,104059,104059,255,88,102 F,0,104059,104559,1,0
Sprite,Background,Centre,"sb\glow.png",459,362 S,0,104077,104077,0.5 C,0,104077,104077,255,88,102 F,0,104077,104577,1,0
Sprite,Background,Centre,"sb\glow.png",385,315 S,0,104096,104096,0.5 C,0,104096,104096,255,88,102 F,0,104096,104596,1,0
Sprite,Background,Centre,"sb\glow.png",335,284 S,0,104115,104115,0.5 C,0,104115,104115,255,88,102 F,0,104115,104615,1,0
Sprite,Background,Centre,"sb\glow.png",316,272 S,0,104134,104134,0.5 C,0,104134,104134,255,88,102 F,0,104134,104634,1,0
Sprite,Background,Centre,"sb\glow.png",320,255 S,0,104152,104152,0.5 C,0,104152,104152,255,0,255 F,0,104152,104652,1,0
Sprite,Background,Centre,"sb\glow.png",323,236 S,0,104171,104171,0.5 C,0,104171,104171,255,0,255 F,0,104171,104671,1,0
Sprite,Background,Centre,"sb\glow.png",327,218 S,0,104190,104190,0.5 C,0,104190,104190,255,0,255 F,0,104190,104690,1,0
Sprite,Background,Centre,"sb\glow.png",331,199 S,0,104209,104209,0.5 C,0,104209,104209,255,0,255 F,0,104209,104709,1,0
Sprite,Background,Centre,"sb\glow.png",355,232 S,0,104227,104227,0.5 C,0,104227,104227,255,0,255 F,0,104227,104727,1,0
Sprite,Background,Centre,"sb\glow.png",377,263 S,0,104246,104246,0.5 C,0,104246,104246,255,0,255 F,0,104246,104746,1,0
Sprite,Background,Centre,"sb\glow.png",392,283 S,0,104265,104265,0.5 C,0,104265,104265,255,0,255 F,0,104265,104765,1,0
Sprite,Background,Centre,"sb\glow.png",398,291 S,0,104284,104284,0.5 C,0,104284,104284,255,0,255 F,0,104284,104784,1,0
Sprite,Background,Centre,"sb\glow.png",402,274 S,0,104302,104302,0.5 C,0,104302,104302,255,0,255 F,0,104302,104802,1,0
Sprite,Background,Centre,"sb\glow.png",405,255 S,0,104321,104321,0.5 C,0,104321,104321,255,0,255 F,0,104321,104821,1,0
Sprite,Background,Centre,"sb\glow.png",409,237 S,0,104340,104340,0.5 C,0,104340,104340,255,0,255 F,0,104340,104840,1,0
Sprite,Background,Centre,"sb\glow.png",413,218 S,0,104359,104359,0.5 C,0,104359,104359,255,0,255 F,0,104359,104859,1,0
Sprite,Background,Centre,"sb\glow.png",439,182 S,0,104377,104377,0.5 C,0,104377,104377,255,0,255 F,0,104377,104877,1,0
Sprite,Background,Centre,"sb\glow.png",463,151 S,0,104396,104396,0.5 C,0,104396,104396,255,0,255 F,0,104396,104896,1,0
Sprite,Background,Centre,"sb\glow.png",480,129 S,0,104415,104415,0.5 C,0,104415,104415,255,0,255 F,0,104415,104915,1,0
Sprite,Background,Centre,"sb\glow.png",486,121 S,0,104434,104434,0.5 C,0,104434,104434,255,0,255 F,0,104434,104934,1,0
Sprite,Background,Centre,"sb\glow.png",501,136 S,0,104452,104452,0.5 C,0,104452,104452,255,128,192 F,0,104452,104952,1,0
Sprite,Background,Centre,"sb\glow.png",518,148 S,0,104471,104471,0.5 C,0,104471,104471,255,128,192 F,0,104471,104971,1,0
Sprite,Background,Centre,"sb\glow.png",526,155 S,0,104490,104490,0.5 C,0,104490,104490,255,128,192 F,0,104490,104990,1,0
Sprite,Background,Centre,"sb\glow.png",506,151 S,0,104509,104509,0.5 C,0,104509,104509,255,128,192 F,0,104509,105009,1,0
Sprite,Background,Centre,"sb\glow.png",485,147 S,0,104527,104527,0.5 C,0,104527,104527,255,128,192 F,0,104527,105027,1,0
Sprite,Background,Centre,"sb\glow.png",463,143 S,0,104546,104546,0.5 C,0,104546,104546,255,128,192 F,0,104546,105046,1,0
Sprite,Background,Centre,"sb\glow.png",442,140 S,0,104565,104565,0.5 C,0,104565,104565,255,128,192 F,0,104565,105065,1,0
Sprite,Background,Centre,"sb\glow.png",420,136 S,0,104584,104584,0.5 C,0,104584,104584,255,128,192 F,0,104584,105084,1,0
Sprite,Background,Centre,"sb\glow.png",408,126 S,0,104602,104602,0.5 C,0,104602,104602,255,128,192 F,0,104602,105102,1,0
Sprite,Background,Centre,"sb\glow.png",397,116 S,0,104621,104621,0.5 C,0,104621,104621,255,128,192 F,0,104621,105121,1,0
Sprite,Background,Centre,"sb\glow.png",387,106 S,0,104640,104640,0.5 C,0,104640,104640,255,128,192 F,0,104640,105140,1,0
Sprite,Background,Centre,"sb\glow.png",378,98 S,0,104659,104659,0.5 C,0,104659,104659,255,128,192 F,0,104659,105159,1,0
Sprite,Background,Centre,"sb\glow.png",370,91 S,0,104677,104677,0.5 C,0,104677,104677,255,128,192 F,0,104677,105177,1,0
Sprite,Background,Centre,"sb\glow.png",365,86 S,0,104696,104696,0.5 C,0,104696,104696,255,128,192 F,0,104696,105196,1,0
Sprite,Background,Centre,"sb\glow.png",361,83 S,0,104715,104715,0.5 C,0,104715,104715,255,128,192 F,0,104715,105215,1,0
Sprite,Background,Centre,"sb\glow.png",360,82 S,0,104734,104734,0.5 C,0,104734,104734,255,128,192 F,0,104734,105234,1,0
Sprite,Background,Centre,"sb\glow.png",370,67 S,0,104752,104752,0.5 C,0,104752,104752,255,0,128 F,0,104752,105252,1,0
Sprite,Background,Centre,"sb\glow.png",385,57 S,0,104771,104771,0.5 C,0,104771,104771,255,0,128 F,0,104771,105271,1,0
Sprite,Background,Centre,"sb\glow.png",403,54 S,0,104790,104790,0.5 C,0,104790,104790,255,0,128 F,0,104790,105290,1,0
Sprite,Background,Centre,"sb\glow.png",421,58 S,0,104809,104809,0.5 C,0,104809,104809,255,0,128 F,0,104809,105309,1,0
Sprite,Background,Centre,"sb\glow.png",478,129 S,0,104827,104827,0.5 C,0,104827,104827,255,0,128 F,0,104827,105327,1,0
Sprite,Background,Centre,"sb\glow.png",529,194 S,0,104846,104846,0.5 C,0,104846,104846,255,0,128 F,0,104846,105346,1,0
Sprite,Background,Centre,"sb\glow.png",563,237 S,0,104865,104865,0.5 C,0,104865,104865,255,0,128 F,0,104865,105365,1,0
Sprite,Background,Centre,"sb\glow.png",576,254 S,0,104884,104884,0.5 C,0,104884,104884,255,0,128 F,0,104884,105384,1,0
Sprite,Background,Centre,"sb\glow.png",559,258 S,0,104902,104902,0.5 C,0,104902,104902,255,0,128 F,0,104902,105402,1,0
Sprite,Background,Centre,"sb\glow.png",541,256 S,0,104921,104921,0.5 C,0,104921,104921,255,0,128 F,0,104921,105421,1,0
Sprite,Background,Centre,"sb\glow.png",525,246 S,0,104940,104940,0.5 C,0,104940,104940,255,0,128 F,0,104940,105440,1,0
Sprite,Background,Centre,"sb\glow.png",514,232 S,0,104959,104959,0.5 C,0,104959,104959,255,0,128 F,0,104959,105459,1,0
Sprite,Background,Centre,"sb\glow.png",423,201 S,0,104977,104977,0.5 C,0,104977,104977,255,0,128 F,0,104977,105477,1,0
Sprite,Background,Centre,"sb\glow.png",341,174 S,0,104996,104996,0.5 C,0,104996,104996,255,0,128 F,0,104996,105496,1,0
Sprite,Background,Centre,"sb\glow.png",285,156 S,0,105015,105015,0.5 C,0,105015,105015,255,0,128 F,0,105015,105515,1,0
Sprite,Background,Centre,"sb\glow.png",264,149 S,0,105034,105034,0.5 C,0,105034,105034,255,0,128 F,0,105034,105534,1,0
Sprite,Background,Centre,"sb\glow.png",267,170 S,0,105052,105052,0.5 C,0,105052,105052,255,88,102 F,0,105052,105552,1,0
Sprite,Background,Centre,"sb\glow.png",270,191 S,0,105071,105071,0.5 C,0,105071,105071,255,88,102 F,0,105071,105571,1,0
Sprite,Background,Centre,"sb\glow.png",273,213 S,0,105090,105090,0.5 C,0,105090,105090,255,88,102 F,0,105090,105590,1,0
Sprite,Background,Centre,"sb\glow.png",276,234 S,0,105109,105109,0.5 C,0,105109,105109,255,88,102 F,0,105109,105609,1,0
Sprite,Background,Centre,"sb\glow.png",279,256 S,0,105127,105127,0.5 C,0,105127,105127,255,88,102 F,0,105127,105627,1,0
Sprite,Background,Centre,"sb\glow.png",279,278 S,0,105146,105146,0.5 C,0,105146,105146,255,88,102 F,0,105146,105646,1,0
Sprite,Background,Centre,"sb\glow.png",283,299 S,0,105165,105165,0.5 C,0,105165,105165,255,88,102 F,0,105165,105665,1,0
Sprite,Background,Centre,"sb\glow.png",286,321 S,0,105184,105184,0.5 C,0,105184,105184,255,88,102 F,0,105184,105684,1,0
Sprite,Background,Centre,"sb\glow.png",289,342 S,0,105202,105202,0.5 C,0,105202,105202,255,88,102 F,0,105202,105702,1,0
Sprite,Background,Centre,"sb\glow.png",293,364 S,0,105221,105221,0.5 C,0,105221,105221,255,88,102 F,0,105221,105721,1,0
Sprite,Background,Centre,"sb\glow.png",296,386 S,0,105240,105240,0.5 C,0,105240,105240,255,88,102 F,0,105240,105740,1,0
Sprite,Background,Centre,"sb\glow.png",300,407 S,0,105259,105259,0.5 C,0,105259,105259,255,88,102 F,0,105259,105759,1,0
Sprite,Background,Centre,"sb\glow.png",258,354 S,0,105277,105277,0.5 C,0,105277,105277,255,88,102 F,0,105277,105777,1,0
Sprite,Background,Centre,"sb\glow.png",220,304 S,0,105296,105296,0.5 C,0,105296,105296,255,88,102 F,0,105296,105796,1,0
Sprite,Background,Centre,"sb\glow.png",195,271 S,0,105315,105315,0.5 C,0,105315,105315,255,88,102 F,0,105315,105815,1,0
Sprite,Background,Centre,"sb\glow.png",185,258 S,0,105334,105334,0.5 C,0,105334,105334,255,88,102 F,0,105334,105834,1,0
Sprite,Background,Centre,"sb\glow.png",195,273 S,0,105352,105352,0.5 C,0,105352,105352,255,0,255 F,0,105352,105852,1,0
Sprite,Background,Centre,"sb\glow.png",207,285 S,0,105371,105371,0.5 C,0,105371,105371,255,0,255 F,0,105371,105871,1,0
Sprite,Background,Centre,"sb\glow.png",225,289 S,0,105390,105390,0.5 C,0,105390,105390,255,0,255 F,0,105390,105890,1,0
Sprite,Background,Centre,"sb\glow.png",244,292 S,0,105409,105409,0.5 C,0,105409,105409,255,0,255 F,0,105409,105909,1,0
Sprite,Background,Centre,"sb\glow.png",262,295 S,0,105427,105427,0.5 C,0,105427,105427,255,0,255 F,0,105427,105927,1,0
Sprite,Background,Centre,"sb\glow.png",281,298 S,0,105446,105446,0.5 C,0,105446,105446,255,0,255 F,0,105446,105946,1,0
Sprite,Background,Centre,"sb\glow.png",299,301 S,0,105465,105465,0.5 C,0,105465,105465,255,0,255 F,0,105465,105965,1,0
Sprite,Background,Centre,"sb\glow.png",318,304 S,0,105484,105484,0.5 C,0,105484,105484,255,0,255 F,0,105484,105984,1,0
Sprite,Background,Centre,"sb\glow.png",336,307 S,0,105502,105502,0.5 C,0,105502,105502,255,0,255 F,0,105502,106002,1,0
Sprite,Background,Centre,"sb\glow.png",355,310 S,0,105521,105521,0.5 C,0,105521,105521,255,0,255 F,0,105521,106021,1,0
Sprite,Background,Centre,"sb\glow.png",370,320 S,0,105540,105540,0.5 C,0,105540,105540,255,0,255 F,0,105540,106040,1,0
Sprite,Background,Centre,"sb\glow.png",381,335 S,0,105559,105559,0.5 C,0,105559,105559,255,0,255 F,0,105559,106059,1,0
Sprite,Background,Centre,"sb\glow.png",352,362 S,0,105577,105577,0.5 C,0,105577,105577,255,0,255 F,0,105577,106077,1,0
Sprite,Background,Centre,"sb\glow.png",325,386 S,0,105596,105596,0.5 C,0,105596,105596,255,0,255 F,0,105596,106096,1,0
Sprite,Background,Centre,"sb\glow.png",307,403 S,0,105615,105615,0.5 C,0,105615,105615,255,0,255 F,0,105615,106115,1,0
Sprite,Background,Centre,"sb\glow.png",300,409 S,0,105634,105634,0.5 C,0,105634,105634,255,0,255 F,0,105634,106134,1,0
Sprite,Background,Centre,"sb\glow.png",300,409 S,0,105652,105652,0.5 C,0,105652,105652,255,128,192 F,0,105652,106152,1,0
Sprite,Background,Centre,"sb\glow.png",300,409 S,0,105671,105671,0.5 C,0,105671,105671,255,128,192 F,0,105671,106171,1,0
Sprite,Background,Centre,"sb\glow.png",300,409 S,0,105690,105690,0.5 C,0,105690,105690,255,128,192 F,0,105690,106190,1,0
Sprite,Background,Centre,"sb\glow.png",300,409 S,0,105709,105709,0.5 C,0,105709,105709,255,128,192 F,0,105709,106209,1,0
Sprite,Background,Centre,"sb\glow.png",300,409 S,0,105727,105727,0.5 C,0,105727,105727,255,128,192 F,0,105727,106227,1,0
Sprite,Background,Centre,"sb\glow.png",300,409 S,0,105746,105746,0.5 C,0,105746,105746,255,128,192 F,0,105746,106246,1,0
Sprite,Background,Centre,"sb\glow.png",300,409 S,0,105765,105765,0.5 C,0,105765,105765,255,128,192 F,0,105765,106265,1,0
Sprite,Background,Centre,"sb\glow.png",300,409 S,0,105784,105784,0.5 C,0,105784,105784,255,128,192 F,0,105784,106284,1,0
Sprite,Background,Centre,"sb\glow.png",294,410 S,0,105802,105802,0.5 C,0,105802,105802,255,128,192 F,0,105802,106302,1,0
Sprite,Background,Centre,"sb\glow.png",288,411 S,0,105821,105821,0.5 C,0,105821,105821,255,128,192 F,0,105821,106321,1,0
Sprite,Background,Centre,"sb\glow.png",282,412 S,0,105840,105840,0.5 C,0,105840,105840,255,128,192 F,0,105840,106340,1,0
Sprite,Background,Centre,"sb\glow.png",276,413 S,0,105859,105859,0.5 C,0,105859,105859,255,128,192 F,0,105859,106359,1,0
Sprite,Background,Centre,"sb\glow.png",271,414 S,0,105877,105877,0.5 C,0,105877,105877,255,128,192 F,0,105877,106377,1,0
Sprite,Background,Centre,"sb\glow.png",266,415 S,0,105896,105896,0.5 C,0,105896,105896,255,128,192 F,0,105896,106396,1,0
Sprite,Background,Centre,"sb\glow.png",263,415 S,0,105915,105915,0.5 C,0,105915,105915,255,128,192 F,0,105915,106415,1,0
Sprite,Background,Centre,"sb\glow.png",262,415 S,0,105934,105934,0.5 C,0,105934,105934,255,128,192 F,0,105934,106434,1,0
Sprite,Background,Centre,"sb\glow.png",264,409 S,0,105952,105952,0.5 C,0,105952,105952,255,128,192 F,0,105952,106452,1,0
Sprite,Background,Centre,"sb\glow.png",266,403 S,0,105971,105971,0.5 C,0,105971,105971,255,128,192 F,0,105971,106471,1,0
Sprite,Background,Centre,"sb\glow.png",268,397 S,0,105990,105990,0.5 C,0,105990,105990,255,128,192 F,0,105990,106490,1,0
Sprite,Background,Centre,"sb\glow.png",270,392 S,0,106009,106009,0.5 C,0,106009,106009,255,128,192 F,0,106009,106509,1,0
Sprite,Background,Centre,"sb\glow.png",272,387 S,0,106027,106027,0.5 C,0,106027,106027,255,128,192 F,0,106027,106527,1,0
Sprite,Background,Centre,"sb\glow.png",273,383 S,0,106046,106046,0.5 C,0,106046,106046,255,128,192 F,0,106046,106546,1,0
Sprite,Background,Centre,"sb\glow.png",275,380 S,0,106065,106065,0.5 C,0,106065,106065,255,128,192 F,0,106065,106565,1,0
Sprite,Background,Centre,"sb\glow.png",275,379 S,0,106084,106084,0.5 C,0,106084,106084,255,128,192 F,0,106084,106584,1,0
Sprite,Background,Centre,"sb\glow.png",279,383 S,0,106102,106102,0.5 C,0,106102,106102,255,128,192 F,0,106102,106602,1,0
Sprite,Background,Centre,"sb\glow.png",283,388 S,0,106121,106121,0.5 C,0,106121,106121,255,128,192 F,0,106121,106621,1,0
Sprite,Background,Centre,"sb\glow.png",287,393 S,0,106140,106140,0.5 C,0,106140,106140,255,128,192 F,0,106140,106640,1,0
Sprite,Background,Centre,"sb\glow.png",291,398 S,0,106159,106159,0.5 C,0,106159,106159,255,128,192 F,0,106159,106659,1,0
Sprite,Background,Centre,"sb\glow.png",256,383 S,0,106177,106177,0.5 C,0,106177,106177,255,128,192 F,0,106177,106677,1,0
Sprite,Background,Centre,"sb\glow.png",223,369 S,0,106196,106196,0.5 C,0,106196,106196,255,128,192 F,0,106196,106696,1,0
Sprite,Background,Centre,"sb\glow.png",201,360 S,0,106215,106215,0.5 C,0,106215,106215,255,128,192 F,0,106215,106715,1,0
Sprite,Background,Centre,"sb\glow.png",193,356 S,0,106234,106234,0.5 C,0,106234,106234,255,128,192 F,0,106234,106734,1,0
Sprite,Background,Centre,"sb\glow.png",192,350 S,0,106252,106252,0.5 C,0,106252,106252,255,0,128 F,0,106252,106752,1,0
Sprite,Background,Centre,"sb\glow.png",191,344 S,0,106271,106271,0.5 C,0,106271,106271,255,0,128 F,0,106271,106771,1,0
Sprite,Background,Centre,"sb\glow.png",189,338 S,0,106290,106290,0.5 C,0,106290,106290,255,0,128 F,0,106290,106790,1,0
Sprite,Background,Centre,"sb\glow.png",188,332 S,0,106309,106309,0.5 C,0,106309,106309,255,0,128 F,0,106309,106809,1,0
Sprite,Background,Centre,"sb\glow.png",186,341 S,0,106327,106327,0.5 C,0,106327,106327,255,0,128 F,0,106327,106827,1,0
Sprite,Background,Centre,"sb\glow.png",184,350 S,0,106346,106346,0.5 C,0,106346,106346,255,0,128 F,0,106346,106846,1,0
Sprite,Background,Centre,"sb\glow.png",183,356 S,0,106365,106365,0.5 C,0,106365,106365,255,0,128 F,0,106365,106865,1,0
Sprite,Background,Centre,"sb\glow.png",182,358 S,0,106384,106384,0.5 C,0,106384,106384,255,0,128 F,0,106384,106884,1,0
Sprite,Background,Centre,"sb\glow.png",181,352 S,0,106402,106402,0.5 C,0,106402,106402,255,0,128 F,0,106402,106902,1,0
Sprite,Background,Centre,"sb\glow.png",180,346 S,0,106421,106421,0.5 C,0,106421,106421,255,0,128 F,0,106421,106921,1,0
Sprite,Background,Centre,"sb\glow.png",178,340 S,0,106440,106440,0.5 C,0,106440,106440,255,0,128 F,0,106440,106940,1,0
Sprite,Background,Centre,"sb\glow.png",177,334 S,0,106459,106459,0.5 C,0,106459,106459,255,0,128 F,0,106459,106959,1,0
Sprite,Background,Centre,"sb\glow.png",152,317 S,0,106477,106477,0.5 C,0,106477,106477,255,0,128 F,0,106477,106977,1,0
Sprite,Background,Centre,"sb\glow.png",129,302 S,0,106496,106496,0.5 C,0,106496,106496,255,0,128 F,0,106496,106996,1,0
Sprite,Background,Centre,"sb\glow.png",114,292 S,0,106515,106515,0.5 C,0,106515,106515,255,0,128 F,0,106515,107015,1,0
Sprite,Background,Centre,"sb\glow.png",108,288 S,0,106534,106534,0.5 C,0,106534,106534,255,0,128 F,0,106534,107034,1,0
Sprite,Background,Centre,"sb\glow.png",107,294 S,0,106552,106552,0.5 C,0,106552,106552,255,88,102 F,0,106552,107052,1,0
Sprite,Background,Centre,"sb\glow.png",105,300 S,0,106571,106571,0.5 C,0,106571,106571,255,88,102 F,0,106571,107071,1,0
Sprite,Background,Centre,"sb\glow.png",104,306 S,0,106590,106590,0.5 C,0,106590,106590,255,88,102 F,0,106590,107090,1,0
Sprite,Background,Centre,"sb\glow.png",103,312 S,0,106609,106609,0.5 C,0,106609,106609,255,88,102 F,0,106609,107109,1,0
Sprite,Background,Centre,"sb\glow.png",101,303 S,0,106627,106627,0.5 C,0,106627,106627,255,88,102 F,0,106627,107127,1,0
Sprite,Background,Centre,"sb\glow.png",99,294 S,0,106646,106646,0.5 C,0,106646,106646,255,88,102 F,0,106646,107146,1,0
Sprite,Background,Centre,"sb\glow.png",97,288 S,0,106665,106665,0.5 C,0,106665,106665,255,88,102 F,0,106665,107165,1,0
Sprite,Background,Centre,"sb\glow.png",97,286 S,0,106684,106684,0.5 C,0,106684,106684,255,88,102 F,0,106684,107184,1,0
Sprite,Background,Centre,"sb\glow.png",96,292 S,0,106702,106702,0.5 C,0,106702,106702,255,88,102 F,0,106702,107202,1,0
Sprite,Background,Centre,"sb\glow.png",94,298 S,0,106721,106721,0.5 C,0,106721,106721,255,88,102 F,0,106721,107221,1,0
Sprite,Background,Centre,"sb\glow.png",93,304 S,0,106740,106740,0.5 C,0,106740,106740,255,88,102 F,0,106740,107240,1,0
Sprite,Background,Centre,"sb\glow.png",92,310 S,0,106759,106759,0.5 C,0,106759,106759,255,88,102 F,0,106759,107259,1,0
Sprite,Background,Centre,"sb\glow.png",143,255 S,0,106777,106777,0.5 C,0,106777,106777,255,88,102 F,0,106777,107277,1,0
Sprite,Background,Centre,"sb\glow.png",187,209 S,0,106796,106796,0.5 C,0,106796,106796,255,88,102 F,0,106796,107296,1,0
Sprite,Background,Centre,"sb\glow.png",217,177 S,0,106815,106815,0.5 C,0,106815,106815,255,88,102 F,0,106815,107315,1,0
Sprite,Background,Centre,"sb\glow.png",228,165 S,0,106834,106834,0.5 C,0,106834,106834,255,88,102 F,0,106834,107334,1,0
Sprite,Background,Centre,"sb\glow.png",230,144 S,0,106852,106852,0.5 C,0,106852,106852,255,0,255 F,0,106852,107352,1,0
Sprite,Background,Centre,"sb\glow.png",232,123 S,0,106871,106871,0.5 C,0,106871,106871,255,0,255 F,0,106871,107371,1,0
Sprite,Background,Centre,"sb\glow.png",227,105 S,0,106890,106890,0.5 C,0,106890,106890,255,0,255 F,0,106890,107390,1,0
Sprite,Background,Centre,"sb\glow.png",208,95 S,0,106909,106909,0.5 C,0,106909,106909,255,0,255 F,0,106909,107409,1,0
Sprite,Background,Centre,"sb\glow.png",188,86 S,0,106927,106927,0.5 C,0,106927,106927,255,0,255 F,0,106927,107427,1,0
Sprite,Background,Centre,"sb\glow.png",169,76 S,0,106946,106946,0.5 C,0,106946,106946,255,0,255 F,0,106946,107446,1,0
Sprite,Background,Centre,"sb\glow.png",155,91 S,0,106965,106965,0.5 C,0,106965,106965,255,0,255 F,0,106965,107465,1,0
Sprite,Background,Centre,"sb\glow.png",142,108 S,0,106984,106984,0.5 C,0,106984,106984,255,0,255 F,0,106984,107484,1,0
Sprite,Background,Centre,"sb\glow.png",128,126 S,0,107002,107002,0.5 C,0,107002,107002,255,0,255 F,0,107002,107502,1,0
Sprite,Background,Centre,"sb\glow.png",131,144 S,0,107021,107021,0.5 C,0,107021,107021,255,0,255 F,0,107021,107521,1,0
Sprite,Background,Centre,"sb\glow.png",141,164 S,0,107040,107040,0.5 C,0,107040,107040,255,0,255 F,0,107040,107540,1,0
Sprite,Background,Centre,"sb\glow.png",151,183 S,0,107059,107059,0.5 C,0,107059,107059,255,0,255 F,0,107059,107559,1,0
Sprite,Background,Centre,"sb\glow.png",182,178 S,0,107077,107077,0.5 C,0,107077,107077,255,0,255 F,0,107077,107577,1,0
Sprite,Background,Centre,"sb\glow.png",209,173 S,0,107096,107096,0.5 C,0,107096,107096,255,0,255 F,0,107096,107596,1,0
Sprite,Background,Centre,"sb\glow.png",227,169 S,0,107115,107115,0.5 C,0,107115,107115,255,0,255 F,0,107115,107615,1,0
Sprite,Background,Centre,"sb\glow.png",234,168 S,0,107134,107134,0.5 C,0,107134,107134,255,0,255 F,0,107134,107634,1,0
Sprite,Background,Centre,"sb\glow.png",236,144 S,0,107152,107152,0.5 C,0,107152,107152,255,128,192 F,0,107152,107652,1,0
Sprite,Background,Centre,"sb\glow.png",238,120 S,0,107171,107171,0.5 C,0,107171,107171,255,128,192 F,0,107171,107671,1,0
Sprite,Background,Centre,"sb\glow.png",232,99 S,0,107190,107190,0.5 C,0,107190,107190,255,128,192 F,0,107190,107690,1,0
Sprite,Background,Centre,"sb\glow.png",211,88 S,0,107209,107209,0.5 C,0,107209,107209,255,128,192 F,0,107209,107709,1,0
Sprite,Background,Centre,"sb\glow.png",188,77 S,0,107227,107227,0.5 C,0,107227,107227,255,128,192 F,0,107227,107727,1,0
Sprite,Background,Centre,"sb\glow.png",166,66 S,0,107246,107246,0.5 C,0,107246,107246,255,128,192 F,0,107246,107746,1,0
Sprite,Background,Centre,"sb\glow.png",150,83 S,0,107265,107265,0.5 C,0,107265,107265,255,128,192 F,0,107265,107765,1,0
Sprite,Background,Centre,"sb\glow.png",135,103 S,0,107284,107284,0.5 C,0,107284,107284,255,128,192 F,0,107284,107784,1,0
Sprite,Background,Centre,"sb\glow.png",120,123 S,0,107302,107302,0.5 C,0,107302,107302,255,128,192 F,0,107302,107802,1,0
Sprite,Background,Centre,"sb\glow.png",123,144 S,0,107321,107321,0.5 C,0,107321,107321,255,128,192 F,0,107321,107821,1,0
Sprite,Background,Centre,"sb\glow.png",135,166 S,0,107340,107340,0.5 C,0,107340,107340,255,128,192 F,0,107340,107840,1,0
Sprite,Background,Centre,"sb\glow.png",146,189 S,0,107359,107359,0.5 C,0,107359,107359,255,128,192 F,0,107359,107859,1,0
Sprite,Background,Centre,"sb\glow.png",171,214 S,0,107377,107377,0.5 C,0,107377,107377,255,128,192 F,0,107377,107877,1,0
Sprite,Background,Centre,"sb\glow.png",192,236 S,0,107396,107396,0.5 C,0,107396,107396,255,128,192 F,0,107396,107896,1,0
Sprite,Background,Centre,"sb\glow.png",207,251 S,0,107415,107415,0.5 C,0,107415,107415,255,128,192 F,0,107415,107915,1,0
Sprite,Background,Centre,"sb\glow.png",212,257 S,0,107434,107434,0.5 C,0,107434,107434,255,128,192 F,0,107434,107934,1,0
Sprite,Background,Centre,"sb\glow.png",226,253 S,0,107452,107452,0.5 C,0,107452,107452,255,0,128 F,0,107452,107952,1,0
Sprite,Background,Centre,"sb\glow.png",242,250 S,0,107471,107471,0.5 C,0,107471,107471,255,0,128 F,0,107471,107971,1,0
Sprite,Background,Centre,"sb\glow.png",269,231 S,0,107490,107490,0.5 C,0,107490,107490,255,0,128 F,0,107490,107990,1,0
Sprite,Background,Centre,"sb\glow.png",295,214 S,0,107509,107509,0.5 C,0,107509,107509,255,0,128 F,0,107509,108009,1,0
Sprite,Background,Centre,"sb\glow.png",318,198 S,0,107527,107527,0.5 C,0,107527,107527,255,0,128 F,0,107527,108027,1,0
Sprite,Background,Centre,"sb\glow.png",336,186 S,0,107546,107546,0.5 C,0,107546,107546,255,0,128 F,0,107546,108046,1,0
Sprite,Background,Centre,"sb\glow.png",347,179 S,0,107565,107565,0.5 C,0,107565,107565,255,0,128 F,0,107565,108065,1,0
Sprite,Background,Centre,"sb\glow.png",351,176 S,0,107584,107584,0.5 C,0,107584,107584,255,0,128 F,0,107584,108084,1,0
Sprite,Background,Centre,"sb\glow.png",365,180 S,0,107602,107602,0.5 C,0,107602,107602,255,88,102 F,0,107602,108102,1,0
Sprite,Background,Centre,"sb\glow.png",381,183 S,0,107621,107621,0.5 C,0,107621,107621,255,88,102 F,0,107621,108121,1,0
Sprite,Background,Centre,"sb\glow.png",403,213 S,0,107640,107640,0.5 C,0,107640,107640,255,88,102 F,0,107640,108140,1,0
Sprite,Background,Centre,"sb\glow.png",424,242 S,0,107659,107659,0.5 C,0,107659,107659,255,88,102 F,0,107659,108159,1,0
Sprite,Background,Centre,"sb\glow.png",442,268 S,0,107677,107677,0.5 C,0,107677,107677,255,88,102 F,0,107677,108177,1,0
Sprite,Background,Centre,"sb\glow.png",456,287 S,0,107696,107696,0.5 C,0,107696,107696,255,88,102 F,0,107696,108196,1,0
Sprite,Background,Centre,"sb\glow.png",465,299 S,0,107715,107715,0.5 C,0,107715,107715,255,88,102 F,0,107715,108215,1,0
Sprite,Background,Centre,"sb\glow.png",468,304 S,0,107734,107734,0.5 C,0,107734,107734,255,88,102 F,0,107734,108234,1,0
Sprite,Background,Centre,"sb\glow.png",482,300 S,0,107752,107752,0.5 C,0,107752,107752,255,0,255 F,0,107752,108252,1,0
Sprite,Background,Centre,"sb\glow.png",498,297 S,0,107771,107771,0.5 C,0,107771,107771,255,0,255 F,0,107771,108271,1,0
Sprite,Background,Centre,"sb\glow.png",484,300 S,0,107790,107790,0.5 C,0,107790,107790,255,0,255 F,0,107790,108290,1,0
Sprite,Background,Centre,"sb\glow.png",469,304 S,0,107809,107809,0.5 C,0,107809,107809,255,0,255 F,0,107809,108309,1,0
Sprite,Background,Centre,"sb\glow.png",482,300 S,0,107827,107827,0.5 C,0,107827,107827,255,0,255 F,0,107827,108327,1,0
Sprite,Background,Centre,"sb\glow.png",498,297 S,0,107846,107846,0.5 C,0,107846,107846,255,0,255 F,0,107846,108346,1,0
Sprite,Background,Centre,"sb\glow.png",484,300 S,0,107865,107865,0.5 C,0,107865,107865,255,0,255 F,0,107865,108365,1,0
Sprite,Background,Centre,"sb\glow.png",469,304 S,0,107884,107884,0.5 C,0,107884,107884,255,0,255 F,0,107884,108384,1,0
Sprite,Background,Centre,"sb\glow.png",482,300 S,0,107902,107902,0.5 C,0,107902,107902,255,0,255 F,0,107902,108402,1,0
Sprite,Background,Centre,"sb\glow.png",498,297 S,0,107921,107921,0.5 C,0,107921,107921,255,0,255 F,0,107921,108421,1,0
Sprite,Background,Centre,"sb\glow.png",484,300 S,0,107940,107940,0.5 C,0,107940,107940,255,0,255 F,0,107940,108440,1,0
Sprite,Background,Centre,"sb\glow.png",469,304 S,0,107959,107959,0.5 C,0,107959,107959,255,0,255 F,0,107959,108459,1,0
Sprite,Background,Centre,"sb\glow.png",485,272 S,0,107977,107977,0.5 C,0,107977,107977,255,0,255 F,0,107977,108477,1,0
Sprite,Background,Centre,"sb\glow.png",501,244 S,0,107996,107996,0.5 C,0,107996,107996,255,0,255 F,0,107996,108496,1,0
Sprite,Background,Centre,"sb\glow.png",512,224 S,0,108015,108015,0.5 C,0,108015,108015,255,0,255 F,0,108015,108515,1,0
Sprite,Background,Centre,"sb\glow.png",516,217 S,0,108034,108034,0.5 C,0,108034,108034,255,0,255 F,0,108034,108534,1,0
Sprite,Background,Centre,"sb\glow.png",516,216 S,0,108052,108052,0.5 C,0,108052,108052,255,128,192 F,0,108052,108552,1,0
Sprite,Background,Centre,"sb\glow.png",516,214 S,0,108071,108071,0.5 C,0,108071,108071,255,128,192 F,0,108071,108571,1,0
Sprite,Background,Centre,"sb\glow.png",517,212 S,0,108090,108090,0.5 C,0,108090,108090,255,128,192 F,0,108090,108590,1,0
Sprite,Background,Centre,"sb\glow.png",517,211 S,0,108109,108109,0.5 C,0,108109,108109,255,128,192 F,0,108109,108609,1,0
Sprite,Background,Centre,"sb\glow.png",517,209 S,0,108127,108127,0.5 C,0,108127,108127,255,128,192 F,0,108127,108627,1,0
Sprite,Background,Centre,"sb\glow.png",517,208 S,0,108146,108146,0.5 C,0,108146,108146,255,128,192 F,0,108146,108646,1,0
Sprite,Background,Centre,"sb\glow.png",517,206 S,0,108165,108165,0.5 C,0,108165,108165,255,128,192 F,0,108165,108665,1,0
Sprite,Background,Centre,"sb\glow.png",518,205 S,0,108184,108184,0.5 C,0,108184,108184,255,128,192 F,0,108184,108684,1,0
Sprite,Background,Centre,"sb\glow.png",518,203 S,0,108202,108202,0.5 C,0,108202,108202,255,128,192 F,0,108202,108702,1,0
Sprite,Background,Centre,"sb\glow.png",518,202 S,0,108221,108221,0.5 C,0,108221,108221,255,128,192 F,0,108221,108721,1,0
Sprite,Background,Centre,"sb\glow.png",518,200 S,0,108240,108240,0.5 C,0,108240,108240,255,128,192 F,0,108240,108740,1,0
Sprite,Background,Centre,"sb\glow.png",519,199 S,0,108259,108259,0.5 C,0,108259,108259,255,128,192 F,0,108259,108759,1,0
Sprite,Background,Centre,"sb\glow.png",519,197 S,0,108277,108277,0.5 C,0,108277,108277,255,128,192 F,0,108277,108777,1,0
Sprite,Background,Centre,"sb\glow.png",519,195 S,0,108296,108296,0.5 C,0,108296,108296,255,128,192 F,0,108296,108796,1,0
Sprite,Background,Centre,"sb\glow.png",502,101 S,0,108315,108315,0.5 C,0,108315,108315,255,128,192 F,0,108315,108815,1,0
Sprite,Background,Centre,"sb\glow.png",494,56 S,0,108334,108334,0.5 C,0,108334,108334,255,128,192 F,0,108334,108834,1,0
Sprite,Background,Centre,"sb\glow.png",482,78 S,0,108352,108352,0.5 C,0,108352,108352,255,0,128 F,0,108352,108852,1,0
Sprite,Background,Centre,"sb\glow.png",482,104 S,0,108371,108371,0.5 C,0,108371,108371,255,0,128 F,0,108371,108871,1,0
Sprite,Background,Centre,"sb\glow.png",485,130 S,0,108390,108390,0.5 C,0,108390,108390,255,0,128 F,0,108390,108890,1,0
Sprite,Background,Centre,"sb\glow.png",488,157 S,0,108409,108409,0.5 C,0,108409,108409,255,0,128 F,0,108409,108909,1,0
Sprite,Background,Centre,"sb\glow.png",491,183 S,0,108427,108427,0.5 C,0,108427,108427,255,0,128 F,0,108427,108927,1,0
Sprite,Background,Centre,"sb\glow.png",495,209 S,0,108446,108446,0.5 C,0,108446,108446,255,0,128 F,0,108446,108946,1,0
Sprite,Background,Centre,"sb\glow.png",501,235 S,0,108465,108465,0.5 C,0,108465,108465,255,0,128 F,0,108465,108965,1,0
Sprite,Background,Centre,"sb\glow.png",504,261 S,0,108484,108484,0.5 C,0,108484,108484,255,0,128 F,0,108484,108984,1,0
Sprite,Background,Centre,"sb\glow.png",508,287 S,0,108502,108502,0.5 C,0,108502,108502,255,0,128 F,0,108502,109002,1,0
Sprite,Background,Centre,"sb\glow.png",511,314 S,0,108521,108521,0.5 C,0,108521,108521,255,0,128 F,0,108521,109021,1,0
Sprite,Background,Centre,"sb\glow.png",515,340 S,0,108540,108540,0.5 C,0,108540,108540,255,0,128 F,0,108540,109040,1,0
Sprite,Background,Centre,"sb\glow.png",518,366 S,0,108559,108559,0.5 C,0,108559,108559,255,0,128 F,0,108559,109059,1,0
Sprite,Background,Centre,"sb\glow.png",539,390 S,0,108577,108577,0.5 C,0,108577,108577,255,0,128 F,0,108577,109077,1,0
Sprite,Background,Centre,"sb\glow.png",558,410 S,0,108596,108596,0.5 C,0,108596,108596,255,0,128 F,0,108596,109096,1,0
Sprite,Background,Centre,"sb\glow.png",571,424 S,0,108615,108615,0.5 C,0,108615,108615,255,0,128 F,0,108615,109115,1,0
Sprite,Background,Centre,"sb\glow.png",576,429 S,0,108634,108634,0.5 C,0,108634,108634,255,0,128 F,0,108634,109134,1,0
Sprite,Background,Centre,"sb\glow.png",572,412 S,0,108652,108652,0.5 C,0,108652,108652,255,88,102 F,0,108652,109152,1,0
Sprite,Background,Centre,"sb\glow.png",561,397 S,0,108671,108671,0.5 C,0,108671,108671,255,88,102 F,0,108671,109171,1,0
Sprite,Background,Centre,"sb\glow.png",546,387 S,0,108690,108690,0.5 C,0,108690,108690,255,88,102 F,0,108690,109190,1,0
Sprite,Background,Centre,"sb\glow.png",528,382 S,0,108709,108709,0.5 C,0,108709,108709,255,88,102 F,0,108709,109209,1,0
Sprite,Background,Centre,"sb\glow.png",510,385 S,0,108727,108727,0.5 C,0,108727,108727,255,88,102 F,0,108727,109227,1,0
Sprite,Background,Centre,"sb\glow.png",494,395 S,0,108746,108746,0.5 C,0,108746,108746,255,88,102 F,0,108746,109246,1,0
Sprite,Background,Centre,"sb\glow.png",482,393 S,0,108765,108765,0.5 C,0,108765,108765,255,88,102 F,0,108765,109265,1,0
Sprite,Background,Centre,"sb\glow.png",476,392 S,0,108784,108784,0.5 C,0,108784,108784,255,88,102 F,0,108784,109284,1,0
Sprite,Background,Centre,"sb\glow.png",472,409 S,0,108802,108802,0.5 C,0,108802,108802,255,88,102 F,0,108802,109302,1,0
Sprite,Background,Centre,"sb\glow.png",461,424 S,0,108821,108821,0.5 C,0,108821,108821,255,88,102 F,0,108821,109321,1,0
Sprite,Background,Centre,"sb\glow.png",446,434 S,0,108840,108840,0.5 C,0,108840,108840,255,88,102 F,0,108840,109340,1,0
Sprite,Background,Centre,"sb\glow.png",428,439 S,0,108859,108859,0.5 C,0,108859,108859,255,88,102 F,0,108859,109359,1,0
Sprite,Background,Centre,"sb\glow.png",410,436 S,0,108877,108877,0.5 C,0,108877,108877,255,88,102 F,0,108877,109377,1,0
Sprite,Background,Centre,"sb\glow.png",394,426 S,0,108896,108896,0.5 C,0,108896,108896,255,88,102 F,0,108896,109396,1,0
Sprite,Background,Centre,"sb\glow.png",359,384 S,0,108915,108915,0.5 C,0,108915,108915,255,88,102 F,0,108915,109415,1,0
Sprite,Background,Centre,"sb\glow.png",342,364 S,0,108934,108934,0.5 C,0,108934,108934,255,88,102 F,0,108934,109434,1,0
Sprite,Background,Centre,"sb\glow.png",343,346 S,0,108952,108952,0.5 C,0,108952,108952,255,0,255 F,0,108952,109452,1,0
Sprite,Background,Centre,"sb\glow.png",346,328 S,0,108971,108971,0.5 C,0,108971,108971,255,0,255 F,0,108971,109471,1,0
Sprite,Background,Centre,"sb\glow.png",350,309 S,0,108990,108990,0.5 C,0,108990,108990,255,0,255 F,0,108990,109490,1,0
Sprite,Background,Centre,"sb\glow.png",355,291 S,0,109009,109009,0.5 C,0,109009,109009,255,0,255 F,0,109009,109509,1,0
Sprite,Background,Centre,"sb\glow.png",283,247 S,0,109027,109027,0.5 C,0,109027,109027,255,0,255 F,0,109027,109527,1,0
Sprite,Background,Centre,"sb\glow.png",219,208 S,0,109046,109046,0.5 C,0,109046,109046,255,0,255 F,0,109046,109546,1,0
Sprite,Background,Centre,"sb\glow.png",175,182 S,0,109065,109065,0.5 C,0,109065,109065,255,0,255 F,0,109065,109565,1,0
Sprite,Background,Centre,"sb\glow.png",158,172 S,0,109084,109084,0.5 C,0,109084,109084,255,0,255 F,0,109084,109584,1,0
Sprite,Background,Centre,"sb\glow.png",163,189 S,0,109102,109102,0.5 C,0,109102,109102,255,0,255 F,0,109102,109602,1,0
Sprite,Background,Centre,"sb\glow.png",167,207 S,0,109121,109121,0.5 C,0,109121,109121,255,0,255 F,0,109121,109621,1,0
Sprite,Background,Centre,"sb\glow.png",169,226 S,0,109140,109140,0.5 C,0,109140,109140,255,0,255 F,0,109140,109640,1,0
Sprite,Background,Centre,"sb\glow.png",171,244 S,0,109159,109159,0.5 C,0,109159,109159,255,0,255 F,0,109159,109659,1,0
Sprite,Background,Centre,"sb\glow.png",147,285 S,0,109177,109177,0.5 C,0,109177,109177,255,0,255 F,0,109177,109677,1,0
Sprite,Background,Centre,"sb\glow.png",125,321 S,0,109196,109196,0.5 C,0,109196,109196,255,0,255 F,0,109196,109696,1,0
Sprite,Background,Centre,"sb\glow.png",111,346 S,0,109215,109215,0.5 C,0,109215,109215,255,0,255 F,0,109215,109715,1,0
Sprite,Background,Centre,"sb\glow.png",105,355 S,0,109234,109234,0.5 C,0,109234,109234,255,0,255 F,0,109234,109734,1,0
Sprite,Background,Centre,"sb\glow.png",122,350 S,0,109252,109252,0.5 C,0,109252,109252,255,128,192 F,0,109252,109752,1,0
Sprite,Background,Centre,"sb\glow.png",140,344 S,0,109271,109271,0.5 C,0,109271,109271,255,128,192 F,0,109271,109771,1,0
Sprite,Background,Centre,"sb\glow.png",158,339 S,0,109290,109290,0.5 C,0,109290,109290,255,128,192 F,0,109290,109790,1,0
Sprite,Background,Centre,"sb\glow.png",176,333 S,0,109309,109309,0.5 C,0,109309,109309,255,128,192 F,0,109309,109809,1,0
Sprite,Background,Centre,"sb\glow.png",194,328 S,0,109327,109327,0.5 C,0,109327,109327,255,128,192 F,0,109327,109827,1,0
Sprite,Background,Centre,"sb\glow.png",212,323 S,0,109346,109346,0.5 C,0,109346,109346,255,128,192 F,0,109346,109846,1,0
Sprite,Background,Centre,"sb\glow.png",230,317 S,0,109365,109365,0.5 C,0,109365,109365,255,128,192 F,0,109365,109865,1,0
Sprite,Background,Centre,"sb\glow.png",248,312 S,0,109384,109384,0.5 C,0,109384,109384,255,128,192 F,0,109384,109884,1,0
Sprite,Background,Centre,"sb\glow.png",250,318 S,0,109402,109402,0.5 C,0,109402,109402,255,128,192 F,0,109402,109902,1,0
Sprite,Background,Centre,"sb\glow.png",241,334 S,0,109421,109421,0.5 C,0,109421,109421,255,128,192 F,0,109421,109921,1,0
Sprite,Background,Centre,"sb\glow.png",232,350 S,0,109440,109440,0.5 C,0,109440,109440,255,128,192 F,0,109440,109940,1,0
Sprite,Background,Centre,"sb\glow.png",222,366 S,0,109459,109459,0.5 C,0,109459,109459,255,128,192 F,0,109459,109959,1,0
Sprite,Background,Centre,"sb\glow.png",258,300 S,0,109477,109477,0.5 C,0,109477,109477,255,128,192 F,0,109477,109977,1,0
Sprite,Background,Centre,"sb\glow.png",292,240 S,0,109496,109496,0.5 C,0,109496,109496,255,128,192 F,0,109496,109996,1,0
Sprite,Background,Centre,"sb\glow.png",314,198 S,0,109515,109515,0.5 C,0,109515,109515,255,128,192 F,0,109515,110015,1,0
Sprite,Background,Centre,"sb\glow.png",323,183 S,0,109534,109534,0.5 C,0,109534,109534,255,128,192 F,0,109534,110034,1,0
Sprite,Background,Centre,"sb\glow.png",316,167 S,0,109552,109552,0.5 C,0,109552,109552,255,0,128 F,0,109552,110052,1,0
Sprite,Background,Centre,"sb\glow.png",317,149 S,0,109571,109571,0.5 C,0,109571,109571,255,0,128 F,0,109571,110071,1,0
Sprite,Background,Centre,"sb\glow.png",321,130 S,0,109590,109590,0.5 C,0,109590,109590,255,0,128 F,0,109590,110090,1,0
Sprite,Background,Centre,"sb\glow.png",324,112 S,0,109609,109609,0.5 C,0,109609,109609,255,0,128 F,0,109609,110109,1,0
Sprite,Background,Centre,"sb\glow.png",330,94 S,0,109627,109627,0.5 C,0,109627,109627,255,0,128 F,0,109627,110127,1,0
Sprite,Background,Centre,"sb\glow.png",343,81 S,0,109646,109646,0.5 C,0,109646,109646,255,0,128 F,0,109646,110146,1,0
Sprite,Background,Centre,"sb\glow.png",337,79 S,0,109665,109665,0.5 C,0,109665,109665,255,0,128 F,0,109665,110165,1,0
Sprite,Background,Centre,"sb\glow.png",334,78 S,0,109684,109684,0.5 C,0,109684,109684,255,0,128 F,0,109684,110184,1,0
Sprite,Background,Centre,"sb\glow.png",321,90 S,0,109702,109702,0.5 C,0,109702,109702,255,0,128 F,0,109702,110202,1,0
Sprite,Background,Centre,"sb\glow.png",315,107 S,0,109721,109721,0.5 C,0,109721,109721,255,0,128 F,0,109721,110221,1,0
Sprite,Background,Centre,"sb\glow.png",311,125 S,0,109740,109740,0.5 C,0,109740,109740,255,0,128 F,0,109740,110240,1,0
Sprite,Background,Centre,"sb\glow.png",307,144 S,0,109759,109759,0.5 C,0,109759,109759,255,0,128 F,0,109759,110259,1,0
Sprite,Background,Centre,"sb\glow.png",306,162 S,0,109777,109777,0.5 C,0,109777,109777,255,0,128 F,0,109777,110277,1,0
Sprite,Background,Centre,"sb\glow.png",313,179 S,0,109796,109796,0.5 C,0,109796,109796,255,0,128 F,0,109796,110296,1,0
Sprite,Background,Centre,"sb\glow.png",396,160 S,0,109815,109815,0.5 C,0,109815,109815,255,0,128 F,0,109815,110315,1,0
Sprite,Background,Centre,"sb\glow.png",435,150 S,0,109834,109834,0.5 C,0,109834,109834,255,0,128 F,0,109834,110334,1,0
Sprite,Background,Centre,"sb\glow.png",415,146 S,0,109852,109852,0.5 C,0,109852,109852,255,88,102 F,0,109852,110352,1,0
Sprite,Background,Centre,"sb\glow.png",393,142 S,0,109871,109871,0.5 C,0,109871,109871,255,88,102 F,0,109871,110371,1,0
Sprite,Background,Centre,"sb\glow.png",372,139 S,0,109890,109890,0.5 C,0,109890,109890,255,88,102 F,0,109890,110390,1,0
Sprite,Background,Centre,"sb\glow.png",352,130 S,0,109909,109909,0.5 C,0,109909,109909,255,88,102 F,0,109909,110409,1,0
Sprite,Background,Centre,"sb\glow.png",332,123 S,0,109927,109927,0.5 C,0,109927,109927,255,88,102 F,0,109927,110427,1,0
Sprite,Background,Centre,"sb\glow.png",312,129 S,0,109946,109946,0.5 C,0,109946,109946,255,88,102 F,0,109946,110446,1,0
Sprite,Background,Centre,"sb\glow.png",291,135 S,0,109965,109965,0.5 C,0,109965,109965,255,88,102 F,0,109965,110465,1,0
Sprite,Background,Centre,"sb\glow.png",272,127 S,0,109984,109984,0.5 C,0,109984,109984,255,88,102 F,0,109984,110484,1,0
Sprite,Background,Centre,"sb\glow.png",253,117 S,0,110002,110002,0.5 C,0,110002,110002,255,88,102 F,0,110002,110502,1,0
Sprite,Background,Centre,"sb\glow.png",232,112 S,0,110021,110021,0.5 C,0,110021,110021,255,88,102 F,0,110021,110521,1,0
Sprite,Background,Centre,"sb\glow.png",210,108 S,0,110040,110040,0.5 C,0,110040,110040,255,88,102 F,0,110040,110540,1,0
Sprite,Background,Centre,"sb\glow.png",189,104 S,0,110059,110059,0.5 C,0,110059,110059,255,88,102 F,0,110059,110559,1,0
Sprite,Background,Centre,"sb\glow.png",157,170 S,0,110077,110077,0.5 C,0,110077,110077,255,88,102 F,0,110077,110577,1,0
Sprite,Background,Centre,"sb\glow.png",128,229 S,0,110096,110096,0.5 C,0,110096,110096,255,88,102 F,0,110096,110596,1,0
Sprite,Background,Centre,"sb\glow.png",109,270 S,0,110115,110115,0.5 C,0,110115,110115,255,88,102 F,0,110115,110615,1,0
Sprite,Background,Centre,"sb\glow.png",102,285 S,0,110134,110134,0.5 C,0,110134,110134,255,88,102 F,0,110134,110634,1,0
Sprite,Background,Centre,"sb\glow.png",87,271 S,0,110152,110152,0.5 C,0,110152,110152,255,0,255 F,0,110152,110652,1,0
Sprite,Background,Centre,"sb\glow.png",77,252 S,0,110171,110171,0.5 C,0,110171,110171,255,0,255 F,0,110171,110671,1,0
Sprite,Background,Centre,"sb\glow.png",74,231 S,0,110190,110190,0.5 C,0,110190,110190,255,0,255 F,0,110190,110690,1,0
Sprite,Background,Centre,"sb\glow.png",79,210 S,0,110209,110209,0.5 C,0,110209,110209,255,0,255 F,0,110209,110709,1,0
Sprite,Background,Centre,"sb\glow.png",92,193 S,0,110227,110227,0.5 C,0,110227,110227,255,0,255 F,0,110227,110727,1,0
Sprite,Background,Centre,"sb\glow.png",110,181 S,0,110246,110246,0.5 C,0,110246,110246,255,0,255 F,0,110246,110746,1,0
Sprite,Background,Centre,"sb\glow.png",131,176 S,0,110265,110265,0.5 C,0,110265,110265,255,0,255 F,0,110265,110765,1,0
Sprite,Background,Centre,"sb\glow.png",152,180 S,0,110284,110284,0.5 C,0,110284,110284,255,0,255 F,0,110284,110784,1,0
Sprite,Background,Centre,"sb\glow.png",170,191 S,0,110302,110302,0.5 C,0,110302,110302,255,0,255 F,0,110302,110802,1,0
Sprite,Background,Centre,"sb\glow.png",184,208 S,0,110321,110321,0.5 C,0,110321,110321,255,0,255 F,0,110321,110821,1,0
Sprite,Background,Centre,"sb\glow.png",190,228 S,0,110340,110340,0.5 C,0,110340,110340,255,0,255 F,0,110340,110840,1,0
Sprite,Background,Centre,"sb\glow.png",188,250 S,0,110359,110359,0.5 C,0,110359,110359,255,0,255 F,0,110359,110859,1,0
Sprite,Background,Centre,"sb\glow.png",186,299 S,0,110377,110377,0.5 C,0,110377,110377,255,0,255 F,0,110377,110877,1,0
Sprite,Background,Centre,"sb\glow.png",185,343 S,0,110396,110396,0.5 C,0,110396,110396,255,0,255 F,0,110396,110896,1,0
Sprite,Background,Centre,"sb\glow.png",183,373 S,0,110415,110415,0.5 C,0,110415,110415,255,0,255 F,0,110415,110915,1,0
Sprite,Background,Centre,"sb\glow.png",183,384 S,0,110434,110434,0.5 C,0,110434,110434,255,0,255 F,0,110434,110934,1,0
Sprite,Background,Centre,"sb\glow.png",204,378 S,0,110452,110452,0.5 C,0,110452,110452,255,128,192 F,0,110452,110952,1,0
Sprite,Background,Centre,"sb\glow.png",226,371 S,0,110471,110471,0.5 C,0,110471,110471,255,128,192 F,0,110471,110971,1,0
Sprite,Background,Centre,"sb\glow.png",245,365 S,0,110490,110490,0.5 C,0,110490,110490,255,128,192 F,0,110490,110990,1,0
Sprite,Background,Centre,"sb\glow.png",263,360 S,0,110509,110509,0.5 C,0,110509,110509,255,128,192 F,0,110509,111009,1,0
Sprite,Background,Centre,"sb\glow.png",277,355 S,0,110527,110527,0.5 C,0,110527,110527,255,128,192 F,0,110527,111027,1,0
Sprite,Background,Centre,"sb\glow.png",288,352 S,0,110546,110546,0.5 C,0,110546,110546,255,128,192 F,0,110546,111046,1,0
Sprite,Background,Centre,"sb\glow.png",295,350 S,0,110565,110565,0.5 C,0,110565,110565,255,128,192 F,0,110565,111065,1,0
Sprite,Background,Centre,"sb\glow.png",297,349 S,0,110584,110584,0.5 C,0,110584,110584,255,128,192 F,0,110584,111084,1,0
Sprite,Background,Centre,"sb\glow.png",317,363 S,0,110602,110602,0.5 C,0,110602,110602,255,128,192 F,0,110602,111102,1,0
Sprite,Background,Centre,"sb\glow.png",343,359 S,0,110621,110621,0.5 C,0,110621,110621,255,128,192 F,0,110621,111121,1,0
Sprite,Background,Centre,"sb\glow.png",320,363 S,0,110640,110640,0.5 C,0,110640,110640,255,128,192 F,0,110640,111140,1,0
Sprite,Background,Centre,"sb\glow.png",298,350 S,0,110659,110659,0.5 C,0,110659,110659,255,128,192 F,0,110659,111159,1,0
Sprite,Background,Centre,"sb\glow.png",252,368 S,0,110677,110677,0.5 C,0,110677,110677,255,128,192 F,0,110677,111177,1,0
Sprite,Background,Centre,"sb\glow.png",211,384 S,0,110696,110696,0.5 C,0,110696,110696,255,128,192 F,0,110696,111196,1,0
Sprite,Background,Centre,"sb\glow.png",183,396 S,0,110715,110715,0.5 C,0,110715,110715,255,128,192 F,0,110715,111215,1,0
Sprite,Background,Centre,"sb\glow.png",173,400 S,0,110734,110734,0.5 C,0,110734,110734,255,128,192 F,0,110734,111234,1,0
Sprite,Background,Centre,"sb\glow.png",164,402 S,0,110752,110752,0.5 C,0,110752,110752,255,0,128 F,0,110752,111252,1,0
Sprite,Background,Centre,"sb\glow.png",155,405 S,0,110771,110771,0.5 C,0,110771,110771,255,0,128 F,0,110771,111271,1,0
Sprite,Background,Centre,"sb\glow.png",146,407 S,0,110790,110790,0.5 C,0,110790,110790,255,0,128 F,0,110790,111290,1,0
Sprite,Background,Centre,"sb\glow.png",137,409 S,0,110809,110809,0.5 C,0,110809,110809,255,0,128 F,0,110809,111309,1,0
Sprite,Background,Centre,"sb\glow.png",238,410 S,0,110827,110827,0.5 C,0,110827,110827,255,0,128 F,0,110827,111327,1,0
Sprite,Background,Centre,"sb\glow.png",330,410 S,0,110846,110846,0.5 C,0,110846,110846,255,0,128 F,0,110846,111346,1,0
Sprite,Background,Centre,"sb\glow.png",392,410 S,0,110865,110865,0.5 C,0,110865,110865,255,0,128 F,0,110865,111365,1,0
Sprite,Background,Centre,"sb\glow.png",416,410 S,0,110884,110884,0.5 C,0,110884,110884,255,0,128 F,0,110884,111384,1,0
Sprite,Background,Centre,"sb\glow.png",430,390 S,0,110902,110902,0.5 C,0,110902,110902,255,0,128 F,0,110902,111402,1,0
Sprite,Background,Centre,"sb\glow.png",425,364 S,0,110921,110921,0.5 C,0,110921,110921,255,0,128 F,0,110921,111421,1,0
Sprite,Background,Centre,"sb\glow.png",430,387 S,0,110940,110940,0.5 C,0,110940,110940,255,0,128 F,0,110940,111440,1,0
Sprite,Background,Centre,"sb\glow.png",417,409 S,0,110959,110959,0.5 C,0,110959,110959,255,0,128 F,0,110959,111459,1,0
Sprite,Background,Centre,"sb\glow.png",457,375 S,0,110977,110977,0.5 C,0,110977,110977,255,0,128 F,0,110977,111477,1,0
Sprite,Background,Centre,"sb\glow.png",495,343 S,0,110996,110996,0.5 C,0,110996,110996,255,0,128 F,0,110996,111496,1,0
Sprite,Background,Centre,"sb\glow.png",520,321 S,0,111015,111015,0.5 C,0,111015,111015,255,0,128 F,0,111015,111515,1,0
Sprite,Background,Centre,"sb\glow.png",530,313 S,0,111034,111034,0.5 C,0,111034,111034,255,0,128 F,0,111034,111534,1,0
Sprite,Background,Centre,"sb\glow.png",532,295 S,0,111052,111052,0.5 C,0,111052,111052,255,88,102 F,0,111052,111552,1,0
Sprite,Background,Centre,"sb\glow.png",534,277 S,0,111071,111071,0.5 C,0,111071,111071,255,88,102 F,0,111071,111571,1,0
Sprite,Background,Centre,"sb\glow.png",495,240 S,0,111090,111090,0.5 C,0,111090,111090,255,88,102 F,0,111090,111590,1,0
Sprite,Background,Centre,"sb\glow.png",456,205 S,0,111109,111109,0.5 C,0,111109,111109,255,88,102 F,0,111109,111609,1,0
Sprite,Background,Centre,"sb\glow.png",422,175 S,0,111127,111127,0.5 C,0,111127,111127,255,88,102 F,0,111127,111627,1,0
Sprite,Background,Centre,"sb\glow.png",396,151 S,0,111146,111146,0.5 C,0,111146,111146,255,88,102 F,0,111146,111646,1,0
Sprite,Background,Centre,"sb\glow.png",379,136 S,0,111165,111165,0.5 C,0,111165,111165,255,88,102 F,0,111165,111665,1,0
Sprite,Background,Centre,"sb\glow.png",373,131 S,0,111184,111184,0.5 C,0,111184,111184,255,88,102 F,0,111184,111684,1,0
Sprite,Background,Centre,"sb\glow.png",371,113 S,0,111202,111202,0.5 C,0,111202,111202,255,88,102 F,0,111202,111702,1,0
Sprite,Background,Centre,"sb\glow.png",369,95 S,0,111221,111221,0.5 C,0,111221,111221,255,88,102 F,0,111221,111721,1,0
Sprite,Background,Centre,"sb\glow.png",415,120 S,0,111240,111240,0.5 C,0,111240,111240,255,88,102 F,0,111240,111740,1,0
Sprite,Background,Centre,"sb\glow.png",461,145 S,0,111259,111259,0.5 C,0,111259,111259,255,88,102 F,0,111259,111759,1,0
Sprite,Background,Centre,"sb\glow.png",501,167 S,0,111277,111277,0.5 C,0,111277,111277,255,88,102 F,0,111277,111777,1,0
Sprite,Background,Centre,"sb\glow.png",532,184 S,0,111296,111296,0.5 C,0,111296,111296,255,88,102 F,0,111296,111796,1,0
Sprite,Background,Centre,"sb\glow.png",552,195 S,0,111315,111315,0.5 C,0,111315,111315,255,88,102 F,0,111315,111815,1,0
Sprite,Background,Centre,"sb\glow.png",559,199 S,0,111334,111334,0.5 C,0,111334,111334,255,88,102 F,0,111334,111834,1,0
Sprite,Background,Centre,"sb\glow.png",539,194 S,0,111352,111352,0.5 C,0,111352,111352,255,0,255 F,0,111352,111852,1,0
Sprite,Background,Centre,"sb\glow.png",518,189 S,0,111371,111371,0.5 C,0,111371,111371,255,0,255 F,0,111371,111871,1,0
Sprite,Background,Centre,"sb\glow.png",500,200 S,0,111390,111390,0.5 C,0,111390,111390,255,0,255 F,0,111390,111890,1,0
Sprite,Background,Centre,"sb\glow.png",482,213 S,0,111409,111409,0.5 C,0,111409,111409,255,0,255 F,0,111409,111909,1,0
Sprite,Background,Centre,"sb\glow.png",452,212 S,0,111427,111427,0.5 C,0,111427,111427,255,0,255 F,0,111427,111927,1,0
Sprite,Background,Centre,"sb\glow.png",425,211 S,0,111446,111446,0.5 C,0,111446,111446,255,0,255 F,0,111446,111946,1,0
Sprite,Background,Centre,"sb\glow.png",407,210 S,0,111465,111465,0.5 C,0,111465,111465,255,0,255 F,0,111465,111965,1,0
Sprite,Background,Centre,"sb\glow.png",400,210 S,0,111484,111484,0.5 C,0,111484,111484,255,0,255 F,0,111484,111984,1,0
Sprite,Background,Centre,"sb\glow.png",380,215 S,0,111502,111502,0.5 C,0,111502,111502,255,0,255 F,0,111502,112002,1,0
Sprite,Background,Centre,"sb\glow.png",359,220 S,0,111521,111521,0.5 C,0,111521,111521,255,0,255 F,0,111521,112021,1,0
Sprite,Background,Centre,"sb\glow.png",341,209 S,0,111540,111540,0.5 C,0,111540,111540,255,0,255 F,0,111540,112040,1,0
Sprite,Background,Centre,"sb\glow.png",323,196 S,0,111559,111559,0.5 C,0,111559,111559,255,0,255 F,0,111559,112059,1,0
Sprite,Background,Centre,"sb\glow.png",260,164 S,0,111577,111577,0.5 C,0,111577,111577,255,0,255 F,0,111577,112077,1,0
Sprite,Background,Centre,"sb\glow.png",204,135 S,0,111596,111596,0.5 C,0,111596,111596,255,0,255 F,0,111596,112096,1,0
Sprite,Background,Centre,"sb\glow.png",166,115 S,0,111615,111615,0.5 C,0,111615,111615,255,0,255 F,0,111615,112115,1,0
Sprite,Background,Centre,"sb\glow.png",152,108 S,0,111634,111634,0.5 C,0,111634,111634,255,0,255 F,0,111634,112134,1,0
Sprite,Background,Centre,"sb\glow.png",150,96 S,0,111652,111652,0.5 C,0,111652,111652,255,128,192 F,0,111652,112152,1,0
Sprite,Background,Centre,"sb\glow.png",149,84 S,0,111671,111671,0.5 C,0,111671,111671,255,128,192 F,0,111671,112171,1,0
Sprite,Background,Centre,"sb\glow.png",155,73 S,0,111690,111690,0.5 C,0,111690,111690,255,128,192 F,0,111690,112190,1,0
Sprite,Background,Centre,"sb\glow.png",162,63 S,0,111709,111709,0.5 C,0,111709,111709,255,128,192 F,0,111709,112209,1,0
Sprite,Background,Centre,"sb\glow.png",190,68 S,0,111727,111727,0.5 C,0,111727,111727,255,128,192 F,0,111727,112227,1,0
Sprite,Background,Centre,"sb\glow.png",215,72 S,0,111746,111746,0.5 C,0,111746,111746,255,128,192 F,0,111746,112246,1,0
Sprite,Background,Centre,"sb\glow.png",232,76 S,0,111765,111765,0.5 C,0,111765,111765,255,128,192 F,0,111765,112265,1,0
Sprite,Background,Centre,"sb\glow.png",239,77 S,0,111784,111784,0.5 C,0,111784,111784,255,128,192 F,0,111784,112284,1,0
Sprite,Background,Centre,"sb\glow.png",241,89 S,0,111802,111802,0.5 C,0,111802,111802,255,128,192 F,0,111802,112302,1,0
Sprite,Background,Centre,"sb\glow.png",242,101 S,0,111821,111821,0.5 C,0,111821,111821,255,128,192 F,0,111821,112321,1,0
Sprite,Background,Centre,"sb\glow.png",236,112 S,0,111840,111840,0.5 C,0,111840,111840,255,128,192 F,0,111840,112340,1,0
Sprite,Background,Centre,"sb\glow.png",229,122 S,0,111859,111859,0.5 C,0,111859,111859,255,128,192 F,0,111859,112359,1,0
Sprite,Background,Centre,"sb\glow.png",213,186 S,0,111877,111877,0.5 C,0,111877,111877,255,128,192 F,0,111877,112377,1,0
Sprite,Background,Centre,"sb\glow.png",199,244 S,0,111896,111896,0.5 C,0,111896,111896,255,128,192 F,0,111896,112396,1,0
Sprite,Background,Centre,"sb\glow.png",190,283 S,0,111915,111915,0.5 C,0,111915,111915,255,128,192 F,0,111915,112415,1,0
Sprite,Background,Centre,"sb\glow.png",186,298 S,0,111934,111934,0.5 C,0,111934,111934,255,128,192 F,0,111934,112434,1,0
Sprite,Background,Centre,"sb\glow.png",184,280 S,0,111952,111952,0.5 C,0,111952,111952,255,0,128 F,0,111952,112452,1,0
Sprite,Background,Centre,"sb\glow.png",181,262 S,0,111971,111971,0.5 C,0,111971,111971,255,0,128 F,0,111971,112471,1,0
Sprite,Background,Centre,"sb\glow.png",176,244 S,0,111990,111990,0.5 C,0,111990,111990,255,0,128 F,0,111990,112490,1,0
Sprite,Background,Centre,"sb\glow.png",174,226 S,0,112009,112009,0.5 C,0,112009,112009,255,0,128 F,0,112009,112509,1,0
Sprite,Background,Centre,"sb\glow.png",172,207 S,0,112027,112027,0.5 C,0,112027,112027,255,0,128 F,0,112027,112527,1,0
Sprite,Background,Centre,"sb\glow.png",170,189 S,0,112046,112046,0.5 C,0,112046,112046,255,0,128 F,0,112046,112546,1,0
Sprite,Background,Centre,"sb\glow.png",164,189 S,0,112065,112065,0.5 C,0,112065,112065,255,0,128 F,0,112065,112565,1,0
Sprite,Background,Centre,"sb\glow.png",161,190 S,0,112084,112084,0.5 C,0,112084,112084,255,0,128 F,0,112084,112584,1,0
Sprite,Background,Centre,"sb\glow.png",163,208 S,0,112102,112102,0.5 C,0,112102,112102,255,0,128 F,0,112102,112602,1,0
Sprite,Background,Centre,"sb\glow.png",165,226 S,0,112121,112121,0.5 C,0,112121,112121,255,0,128 F,0,112121,112621,1,0
Sprite,Background,Centre,"sb\glow.png",166,244 S,0,112140,112140,0.5 C,0,112140,112140,255,0,128 F,0,112140,112640,1,0
Sprite,Background,Centre,"sb\glow.png",171,262 S,0,112159,112159,0.5 C,0,112159,112159,255,0,128 F,0,112159,112659,1,0
Sprite,Background,Centre,"sb\glow.png",174,281 S,0,112177,112177,0.5 C,0,112177,112177,255,0,128 F,0,112177,112677,1,0
Sprite,Background,Centre,"sb\glow.png",177,299 S,0,112196,112196,0.5 C,0,112196,112196,255,0,128 F,0,112196,112696,1,0
Sprite,Background,Centre,"sb\glow.png",153,349 S,0,112215,112215,0.5 C,0,112215,112215,255,0,128 F,0,112215,112715,1,0
Sprite,Background,Centre,"sb\glow.png",141,372 S,0,112234,112234,0.5 C,0,112234,112234,255,0,128 F,0,112234,112734,1,0
Sprite,Background,Centre,"sb\glow.png",158,378 S,0,112252,112252,0.5 C,0,112252,112252,255,88,102 F,0,112252,112752,1,0
Sprite,Background,Centre,"sb\glow.png",176,384 S,0,112271,112271,0.5 C,0,112271,112271,255,88,102 F,0,112271,112771,1,0
Sprite,Background,Centre,"sb\glow.png",193,390 S,0,112290,112290,0.5 C,0,112290,112290,255,88,102 F,0,112290,112790,1,0
Sprite,Background,Centre,"sb\glow.png",211,396 S,0,112309,112309,0.5 C,0,112309,112309,255,88,102 F,0,112309,112809,1,0
Sprite,Background,Centre,"sb\glow.png",229,402 S,0,112327,112327,0.5 C,0,112327,112327,255,88,102 F,0,112327,112827,1,0
Sprite,Background,Centre,"sb\glow.png",247,407 S,0,112346,112346,0.5 C,0,112346,112346,255,88,102 F,0,112346,112846,1,0
Sprite,Background,Centre,"sb\glow.png",264,413 S,0,112365,112365,0.5 C,0,112365,112365,255,88,102 F,0,112365,112865,1,0
Sprite,Background,Centre,"sb\glow.png",282,419 S,0,112384,112384,0.5 C,0,112384,112384,255,88,102 F,0,112384,112884,1,0
Sprite,Background,Centre,"sb\glow.png",280,416 S,0,112402,112402,0.5 C,0,112402,112402,255,88,102 F,0,112402,112902,1,0
Sprite,Background,Centre,"sb\glow.png",268,403 S,0,112421,112421,0.5 C,0,112421,112421,255,88,102 F,0,112421,112921,1,0
Sprite,Background,Centre,"sb\glow.png",257,388 S,0,112440,112440,0.5 C,0,112440,112440,255,88,102 F,0,112440,112940,1,0
Sprite,Background,Centre,"sb\glow.png",249,371 S,0,112459,112459,0.5 C,0,112459,112459,255,88,102 F,0,112459,112959,1,0
Sprite,Background,Centre,"sb\glow.png",191,390 S,0,112477,112477,0.5 C,0,112477,112477,255,88,102 F,0,112477,112977,1,0
Sprite,Background,Centre,"sb\glow.png",139,409 S,0,112496,112496,0.5 C,0,112496,112496,255,88,102 F,0,112496,112996,1,0
Sprite,Background,Centre,"sb\glow.png",103,421 S,0,112515,112515,0.5 C,0,112515,112515,255,88,102 F,0,112515,113015,1,0
Sprite,Background,Centre,"sb\glow.png",90,426 S,0,112534,112534,0.5 C,0,112534,112534,255,88,102 F,0,112534,113034,1,0
Sprite,Background,Centre,"sb\glow.png",98,407 S,0,112552,112552,0.5 C,0,112552,112552,255,0,255 F,0,112552,113052,1,0
Sprite,Background,Centre,"sb\glow.png",110,390 S,0,112571,112571,0.5 C,0,112571,112571,255,0,255 F,0,112571,113071,1,0
Sprite,Background,Centre,"sb\glow.png",131,385 S,0,112590,112590,0.5 C,0,112590,112590,255,0,255 F,0,112590,113090,1,0
Sprite,Background,Centre,"sb\glow.png",152,380 S,0,112609,112609,0.5 C,0,112609,112609,255,0,255 F,0,112609,113109,1,0
Sprite,Background,Centre,"sb\glow.png",173,376 S,0,112627,112627,0.5 C,0,112627,112627,255,0,255 F,0,112627,113127,1,0
Sprite,Background,Centre,"sb\glow.png",195,371 S,0,112646,112646,0.5 C,0,112646,112646,255,0,255 F,0,112646,113146,1,0
Sprite,Background,Centre,"sb\glow.png",216,370 S,0,112665,112665,0.5 C,0,112665,112665,255,0,255 F,0,112665,113165,1,0
Sprite,Background,Centre,"sb\glow.png",238,367 S,0,112684,112684,0.5 C,0,112684,112684,255,0,255 F,0,112684,113184,1,0
Sprite,Background,Centre,"sb\glow.png",259,363 S,0,112702,112702,0.5 C,0,112702,112702,255,0,255 F,0,112702,113202,1,0
Sprite,Background,Centre,"sb\glow.png",281,359 S,0,112721,112721,0.5 C,0,112721,112721,255,0,255 F,0,112721,113221,1,0
Sprite,Background,Centre,"sb\glow.png",302,355 S,0,112740,112740,0.5 C,0,112740,112740,255,0,255 F,0,112740,113240,1,0
Sprite,Background,Centre,"sb\glow.png",324,351 S,0,112759,112759,0.5 C,0,112759,112759,255,0,255 F,0,112759,113259,1,0
Sprite,Background,Centre,"sb\glow.png",398,363 S,0,112777,112777,0.5 C,0,112777,112777,255,0,255 F,0,112777,113277,1,0
Sprite,Background,Centre,"sb\glow.png",464,375 S,0,112796,112796,0.5 C,0,112796,112796,255,0,255 F,0,112796,113296,1,0
Sprite,Background,Centre,"sb\glow.png",509,383 S,0,112815,112815,0.5 C,0,112815,112815,255,0,255 F,0,112815,113315,1,0
Sprite,Background,Centre,"sb\glow.png",526,386 S,0,112834,112834,0.5 C,0,112834,112834,255,0,255 F,0,112834,113334,1,0
Sprite,Background,Centre,"sb\glow.png",522,408 S,0,112852,112852,0.5 C,0,112852,112852,255,128,192 F,0,112852,113352,1,0
Sprite,Background,Centre,"sb\glow.png",518,431 S,0,112871,112871,0.5 C,0,112871,112871,255,128,192 F,0,112871,113371,1,0
Sprite,Background,Centre,"sb\glow.png",522,410 S,0,112890,112890,0.5 C,0,112890,112890,255,128,192 F,0,112890,113390,1,0
Sprite,Background,Centre,"sb\glow.png",526,387 S,0,112909,112909,0.5 C,0,112909,112909,255,128,192 F,0,112909,113409,1,0
Sprite,Background,Centre,"sb\glow.png",522,408 S,0,112927,112927,0.5 C,0,112927,112927,255,128,192 F,0,112927,113427,1,0
Sprite,Background,Centre,"sb\glow.png",518,431 S,0,112946,112946,0.5 C,0,112946,112946,255,128,192 F,0,112946,113446,1,0
Sprite,Background,Centre,"sb\glow.png",522,410 S,0,112965,112965,0.5 C,0,112965,112965,255,128,192 F,0,112965,113465,1,0
Sprite,Background,Centre,"sb\glow.png",526,387 S,0,112984,112984,0.5 C,0,112984,112984,255,128,192 F,0,112984,113484,1,0
Sprite,Background,Centre,"sb\glow.png",522,408 S,0,113002,113002,0.5 C,0,113002,113002,255,128,192 F,0,113002,113502,1,0
Sprite,Background,Centre,"sb\glow.png",518,431 S,0,113021,113021,0.5 C,0,113021,113021,255,128,192 F,0,113021,113521,1,0
Sprite,Background,Centre,"sb\glow.png",522,410 S,0,113040,113040,0.5 C,0,113040,113040,255,128,192 F,0,113040,113540,1,0
Sprite,Background,Centre,"sb\glow.png",526,387 S,0,113059,113059,0.5 C,0,113059,113059,255,128,192 F,0,113059,113559,1,0
Sprite,Background,Centre,"sb\glow.png",497,384 S,0,113077,113077,0.5 C,0,113077,113077,255,128,192 F,0,113077,113577,1,0
Sprite,Background,Centre,"sb\glow.png",471,383 S,0,113096,113096,0.5 C,0,113096,113096,255,128,192 F,0,113096,113596,1,0
Sprite,Background,Centre,"sb\glow.png",453,381 S,0,113115,113115,0.5 C,0,113115,113115,255,128,192 F,0,113115,113615,1,0
Sprite,Background,Centre,"sb\glow.png",446,381 S,0,113134,113134,0.5 C,0,113134,113134,255,128,192 F,0,113134,113634,1,0
Sprite,Background,Centre,"sb\glow.png",443,398 S,0,113152,113152,0.5 C,0,113152,113152,255,0,128 F,0,113152,113652,1,0
Sprite,Background,Centre,"sb\glow.png",440,417 S,0,113171,113171,0.5 C,0,113171,113171,255,0,128 F,0,113171,113671,1,0
Sprite,Background,Centre,"sb\glow.png",443,400 S,0,113190,113190,0.5 C,0,113190,113190,255,0,128 F,0,113190,113690,1,0
Sprite,Background,Centre,"sb\glow.png",446,382 S,0,113209,113209,0.5 C,0,113209,113209,255,0,128 F,0,113209,113709,1,0
Sprite,Background,Centre,"sb\glow.png",443,398 S,0,113227,113227,0.5 C,0,113227,113227,255,0,128 F,0,113227,113727,1,0
Sprite,Background,Centre,"sb\glow.png",440,417 S,0,113246,113246,0.5 C,0,113246,113246,255,0,128 F,0,113246,113746,1,0
Sprite,Background,Centre,"sb\glow.png",443,400 S,0,113265,113265,0.5 C,0,113265,113265,255,0,128 F,0,113265,113765,1,0
Sprite,Background,Centre,"sb\glow.png",446,382 S,0,113284,113284,0.5 C,0,113284,113284,255,0,128 F,0,113284,113784,1,0
Sprite,Background,Centre,"sb\glow.png",443,398 S,0,113302,113302,0.5 C,0,113302,113302,255,0,128 F,0,113302,113802,1,0
Sprite,Background,Centre,"sb\glow.png",440,417 S,0,113321,113321,0.5 C,0,113321,113321,255,0,128 F,0,113321,113821,1,0
Sprite,Background,Centre,"sb\glow.png",443,400 S,0,113340,113340,0.5 C,0,113340,113340,255,0,128 F,0,113340,113840,1,0
Sprite,Background,Centre,"sb\glow.png",446,382 S,0,113359,113359,0.5 C,0,113359,113359,255,0,128 F,0,113359,113859,1,0
Sprite,Background,Centre,"sb\glow.png",479,330 S,0,113377,113377,0.5 C,0,113377,113377,255,0,128 F,0,113377,113877,1,0
Sprite,Background,Centre,"sb\glow.png",510,283 S,0,113396,113396,0.5 C,0,113396,113396,255,0,128 F,0,113396,113896,1,0
Sprite,Background,Centre,"sb\glow.png",530,252 S,0,113415,113415,0.5 C,0,113415,113415,255,0,128 F,0,113415,113915,1,0
Sprite,Background,Centre,"sb\glow.png",538,240 S,0,113434,113434,0.5 C,0,113434,113434,255,0,128 F,0,113434,113934,1,0
Sprite,Background,Centre,"sb\glow.png",529,229 S,0,113452,113452,0.5 C,0,113452,113452,255,88,102 F,0,113452,113952,1,0
Sprite,Background,Centre,"sb\glow.png",516,220 S,0,113471,113471,0.5 C,0,113471,113471,255,88,102 F,0,113471,113971,1,0
Sprite,Background,Centre,"sb\glow.png",502,215 S,0,113490,113490,0.5 C,0,113490,113490,255,88,102 F,0,113490,113990,1,0
Sprite,Background,Centre,"sb\glow.png",486,215 S,0,113509,113509,0.5 C,0,113509,113509,255,88,102 F,0,113509,114009,1,0
Sprite,Background,Centre,"sb\glow.png",465,247 S,0,113527,113527,0.5 C,0,113527,113527,255,88,102 F,0,113527,114027,1,0
Sprite,Background,Centre,"sb\glow.png",446,276 S,0,113546,113546,0.5 C,0,113546,113546,255,88,102 F,0,113546,114046,1,0
Sprite,Background,Centre,"sb\glow.png",433,296 S,0,113565,113565,0.5 C,0,113565,113565,255,88,102 F,0,113565,114065,1,0
Sprite,Background,Centre,"sb\glow.png",428,303 S,0,113584,113584,0.5 C,0,113584,113584,255,88,102 F,0,113584,114084,1,0
Sprite,Background,Centre,"sb\glow.png",414,305 S,0,113602,113602,0.5 C,0,113602,113602,255,88,102 F,0,113602,114102,1,0
Sprite,Background,Centre,"sb\glow.png",399,311 S,0,113621,113621,0.5 C,0,113621,113621,255,88,102 F,0,113621,114121,1,0
Sprite,Background,Centre,"sb\glow.png",388,321 S,0,113640,113640,0.5 C,0,113640,113640,255,88,102 F,0,113640,114140,1,0
Sprite,Background,Centre,"sb\glow.png",380,334 S,0,113659,113659,0.5 C,0,113659,113659,255,88,102 F,0,113659,114159,1,0
Sprite,Background,Centre,"sb\glow.png",443,303 S,0,113677,113677,0.5 C,0,113677,113677,255,88,102 F,0,113677,114177,1,0
Sprite,Background,Centre,"sb\glow.png",500,275 S,0,113696,113696,0.5 C,0,113696,113696,255,88,102 F,0,113696,114196,1,0
Sprite,Background,Centre,"sb\glow.png",539,255 S,0,113715,113715,0.5 C,0,113715,113715,255,88,102 F,0,113715,114215,1,0
Sprite,Background,Centre,"sb\glow.png",554,248 S,0,113734,113734,0.5 C,0,113734,113734,255,88,102 F,0,113734,114234,1,0
Sprite,Background,Centre,"sb\glow.png",544,259 S,0,113752,113752,0.5 C,0,113752,113752,255,0,255 F,0,113752,114252,1,0
Sprite,Background,Centre,"sb\glow.png",532,268 S,0,113771,113771,0.5 C,0,113771,113771,255,0,255 F,0,113771,114271,1,0
Sprite,Background,Centre,"sb\glow.png",517,273 S,0,113790,113790,0.5 C,0,113790,113790,255,0,255 F,0,113790,114290,1,0
Sprite,Background,Centre,"sb\glow.png",502,273 S,0,113809,113809,0.5 C,0,113809,113809,255,0,255 F,0,113809,114309,1,0
Sprite,Background,Centre,"sb\glow.png",466,248 S,0,113827,113827,0.5 C,0,113827,113827,255,0,255 F,0,113827,114327,1,0
Sprite,Background,Centre,"sb\glow.png",434,226 S,0,113846,113846,0.5 C,0,113846,113846,255,0,255 F,0,113846,114346,1,0
Sprite,Background,Centre,"sb\glow.png",412,211 S,0,113865,113865,0.5 C,0,113865,113865,255,0,255 F,0,113865,114365,1,0
Sprite,Background,Centre,"sb\glow.png",404,205 S,0,113884,113884,0.5 C,0,113884,113884,255,0,255 F,0,113884,114384,1,0
Sprite,Background,Centre,"sb\glow.png",399,191 S,0,113902,113902,0.5 C,0,113902,113902,255,0,255 F,0,113902,114402,1,0
Sprite,Background,Centre,"sb\glow.png",397,176 S,0,113921,113921,0.5 C,0,113921,113921,255,0,255 F,0,113921,114421,1,0
Sprite,Background,Centre,"sb\glow.png",399,161 S,0,113940,113940,0.5 C,0,113940,113940,255,0,255 F,0,113940,114440,1,0
Sprite,Background,Centre,"sb\glow.png",407,148 S,0,113959,113959,0.5 C,0,113959,113959,255,0,255 F,0,113959,114459,1,0
Sprite,Background,Centre,"sb\glow.png",462,132 S,0,113977,113977,0.5 C,0,113977,113977,255,0,255 F,0,113977,114477,1,0
Sprite,Background,Centre,"sb\glow.png",512,118 S,0,113996,113996,0.5 C,0,113996,113996,255,0,255 F,0,113996,114496,1,0
Sprite,Background,Centre,"sb\glow.png",545,109 S,0,114015,114015,0.5 C,0,114015,114015,255,0,255 F,0,114015,114515,1,0
Sprite,Background,Centre,"sb\glow.png",558,105 S,0,114034,114034,0.5 C,0,114034,114034,255,0,255 F,0,114034,114534,1,0
Sprite,Background,Centre,"sb\glow.png",558,105 S,0,114052,114052,0.5 C,0,114052,114052,255,128,192 F,0,114052,114552,1,0
Sprite,Background,Centre,"sb\glow.png",558,105 S,0,114071,114071,0.5 C,0,114071,114071,255,128,192 F,0,114071,114571,1,0
Sprite,Background,Centre,"sb\glow.png",558,105 S,0,114090,114090,0.5 C,0,114090,114090,255,128,192 F,0,114090,114590,1,0
Sprite,Background,Centre,"sb\glow.png",558,105 S,0,114109,114109,0.5 C,0,114109,114109,255,128,192 F,0,114109,114609,1,0
Sprite,Background,Centre,"sb\glow.png",558,105 S,0,114127,114127,0.5 C,0,114127,114127,255,128,192 F,0,114127,114627,1,0
Sprite,Background,Centre,"sb\glow.png",558,105 S,0,114146,114146,0.5 C,0,114146,114146,255,128,192 F,0,114146,114646,1,0
Sprite,Background,Centre,"sb\glow.png",558,105 S,0,114165,114165,0.5 C,0,114165,114165,255,128,192 F,0,114165,114665,1,0
Sprite,Background,Centre,"sb\glow.png",558,105 S,0,114184,114184,0.5 C,0,114184,114184,255,128,192 F,0,114184,114684,1,0
Sprite,Background,Centre,"sb\glow.png",541,109 S,0,114202,114202,0.5 C,0,114202,114202,255,128,192 F,0,114202,114702,1,0
Sprite,Background,Centre,"sb\glow.png",522,113 S,0,114221,114221,0.5 C,0,114221,114221,255,128,192 F,0,114221,114721,1,0
Sprite,Background,Centre,"sb\glow.png",525,109 S,0,114240,114240,0.5 C,0,114240,114240,255,128,192 F,0,114240,114740,1,0
Sprite,Background,Centre,"sb\glow.png",540,99 S,0,114259,114259,0.5 C,0,114259,114259,255,128,192 F,0,114259,114759,1,0
Sprite,Background,Centre,"sb\glow.png",487,87 S,0,114277,114277,0.5 C,0,114277,114277,255,128,192 F,0,114277,114777,1,0
Sprite,Background,Centre,"sb\glow.png",438,77 S,0,114296,114296,0.5 C,0,114296,114296,255,128,192 F,0,114296,114796,1,0
Sprite,Background,Centre,"sb\glow.png",405,70 S,0,114315,114315,0.5 C,0,114315,114315,255,128,192 F,0,114315,114815,1,0
Sprite,Background,Centre,"sb\glow.png",392,67 S,0,114334,114334,0.5 C,0,114334,114334,255,128,192 F,0,114334,114834,1,0
Sprite,Background,Centre,"sb\glow.png",375,63 S,0,114352,114352,0.5 C,0,114352,114352,255,128,192 F,0,114352,114852,1,0
Sprite,Background,Centre,"sb\glow.png",356,59 S,0,114371,114371,0.5 C,0,114371,114371,255,128,192 F,0,114371,114871,1,0
Sprite,Background,Centre,"sb\glow.png",359,63 S,0,114390,114390,0.5 C,0,114390,114390,255,128,192 F,0,114390,114890,1,0
Sprite,Background,Centre,"sb\glow.png",374,73 S,0,114409,114409,0.5 C,0,114409,114409,255,128,192 F,0,114409,114909,1,0
Sprite,Background,Centre,"sb\glow.png",330,103 S,0,114427,114427,0.5 C,0,114427,114427,255,128,192 F,0,114427,114927,1,0
Sprite,Background,Centre,"sb\glow.png",290,129 S,0,114446,114446,0.5 C,0,114446,114446,255,128,192 F,0,114446,114946,1,0
Sprite,Background,Centre,"sb\glow.png",262,146 S,0,114465,114465,0.5 C,0,114465,114465,255,128,192 F,0,114465,114965,1,0
Sprite,Background,Centre,"sb\glow.png",252,153 S,0,114484,114484,0.5 C,0,114484,114484,255,128,192 F,0,114484,114984,1,0
Sprite,Background,Centre,"sb\glow.png",235,157 S,0,114502,114502,0.5 C,0,114502,114502,255,128,192 F,0,114502,115002,1,0
Sprite,Background,Centre,"sb\glow.png",216,161 S,0,114521,114521,0.5 C,0,114521,114521,255,128,192 F,0,114521,115021,1,0
Sprite,Background,Centre,"sb\glow.png",219,157 S,0,114540,114540,0.5 C,0,114540,114540,255,128,192 F,0,114540,115040,1,0
Sprite,Background,Centre,"sb\glow.png",234,147 S,0,114559,114559,0.5 C,0,114559,114559,255,128,192 F,0,114559,115059,1,0
Sprite,Background,Centre,"sb\glow.png",188,116 S,0,114577,114577,0.5 C,0,114577,114577,255,128,192 F,0,114577,115077,1,0
Sprite,Background,Centre,"sb\glow.png",146,89 S,0,114596,114596,0.5 C,0,114596,114596,255,128,192 F,0,114596,115096,1,0
Sprite,Background,Centre,"sb\glow.png",117,71 S,0,114615,114615,0.5 C,0,114615,114615,255,128,192 F,0,114615,115115,1,0
Sprite,Background,Centre,"sb\glow.png",106,64 S,0,114634,114634,0.5 C,0,114634,114634,255,128,192 F,0,114634,115134,1,0
Sprite,Background,Centre,"sb\glow.png",95,82 S,0,114652,114652,0.5 C,0,114652,114652,255,0,128 F,0,114652,115152,1,0
Sprite,Background,Centre,"sb\glow.png",97,103 S,0,114671,114671,0.5 C,0,114671,114671,255,0,128 F,0,114671,115171,1,0
Sprite,Background,Centre,"sb\glow.png",100,125 S,0,114690,114690,0.5 C,0,114690,114690,255,0,128 F,0,114690,115190,1,0
Sprite,Background,Centre,"sb\glow.png",104,146 S,0,114709,114709,0.5 C,0,114709,114709,255,0,128 F,0,114709,115209,1,0
Sprite,Background,Centre,"sb\glow.png",107,168 S,0,114727,114727,0.5 C,0,114727,114727,255,0,128 F,0,114727,115227,1,0
Sprite,Background,Centre,"sb\glow.png",111,189 S,0,114746,114746,0.5 C,0,114746,114746,255,0,128 F,0,114746,115246,1,0
Sprite,Background,Centre,"sb\glow.png",114,211 S,0,114765,114765,0.5 C,0,114765,114765,255,0,128 F,0,114765,115265,1,0
Sprite,Background,Centre,"sb\glow.png",117,233 S,0,114784,114784,0.5 C,0,114784,114784,255,0,128 F,0,114784,115284,1,0
Sprite,Background,Centre,"sb\glow.png",121,254 S,0,114802,114802,0.5 C,0,114802,114802,255,0,128 F,0,114802,115302,1,0
Sprite,Background,Centre,"sb\glow.png",124,276 S,0,114821,114821,0.5 C,0,114821,114821,255,0,128 F,0,114821,115321,1,0
Sprite,Background,Centre,"sb\glow.png",131,296 S,0,114840,114840,0.5 C,0,114840,114840,255,0,128 F,0,114840,115340,1,0
Sprite,Background,Centre,"sb\glow.png",148,308 S,0,114859,114859,0.5 C,0,114859,114859,255,0,128 F,0,114859,115359,1,0
Sprite,Background,Centre,"sb\glow.png",127,349 S,0,114877,114877,0.5 C,0,114877,114877,255,0,128 F,0,114877,115377,1,0
Sprite,Background,Centre,"sb\glow.png",107,386 S,0,114896,114896,0.5 C,0,114896,114896,255,0,128 F,0,114896,115396,1,0
Sprite,Background,Centre,"sb\glow.png",93,412 S,0,114915,114915,0.5 C,0,114915,114915,255,0,128 F,0,114915,115415,1,0
Sprite,Background,Centre,"sb\glow.png",88,421 S,0,114934,114934,0.5 C,0,114934,114934,255,0,128 F,0,114934,115434,1,0
Sprite,Background,Centre,"sb\glow.png",77,403 S,0,114952,114952,0.5 C,0,114952,114952,255,88,102 F,0,114952,115452,1,0
Sprite,Background,Centre,"sb\glow.png",79,382 S,0,114971,114971,0.5 C,0,114971,114971,255,88,102 F,0,114971,115471,1,0
Sprite,Background,Centre,"sb\glow.png",82,360 S,0,114990,114990,0.5 C,0,114990,114990,255,88,102 F,0,114990,115490,1,0
Sprite,Background,Centre,"sb\glow.png",86,339 S,0,115009,115009,0.5 C,0,115009,115009,255,88,102 F,0,115009,115509,1,0
Sprite,Background,Centre,"sb\glow.png",89,317 S,0,115027,115027,0.5 C,0,115027,115027,255,88,102 F,0,115027,115527,1,0
Sprite,Background,Centre,"sb\glow.png",93,296 S,0,115046,115046,0.5 C,0,115046,115046,255,88,102 F,0,115046,115546,1,0
Sprite,Background,Centre,"sb\glow.png",96,274 S,0,115065,115065,0.5 C,0,115065,115065,255,88,102 F,0,115065,115565,1,0
Sprite,Background,Centre,"sb\glow.png",99,252 S,0,115084,115084,0.5 C,0,115084,115084,255,88,102 F,0,115084,115584,1,0
Sprite,Background,Centre,"sb\glow.png",103,231 S,0,115102,115102,0.5 C,0,115102,115102,255,88,102 F,0,115102,115602,1,0
Sprite,Background,Centre,"sb\glow.png",106,209 S,0,115121,115121,0.5 C,0,115121,115121,255,88,102 F,0,115121,115621,1,0
Sprite,Background,Centre,"sb\glow.png",113,189 S,0,115140,115140,0.5 C,0,115140,115140,255,88,102 F,0,115140,115640,1,0
Sprite,Background,Centre,"sb\glow.png",130,177 S,0,115159,115159,0.5 C,0,115159,115159,255,88,102 F,0,115159,115659,1,0
Sprite,Background,Centre,"sb\glow.png",163,250 S,0,115177,115177,0.5 C,0,115177,115177,255,88,102 F,0,115177,115677,1,0
Sprite,Background,Centre,"sb\glow.png",192,318 S,0,115196,115196,0.5 C,0,115196,115196,255,88,102 F,0,115196,115696,1,0
Sprite,Background,Centre,"sb\glow.png",212,364 S,0,115215,115215,0.5 C,0,115215,115215,255,88,102 F,0,115215,115715,1,0
Sprite,Background,Centre,"sb\glow.png",219,381 S,0,115234,115234,0.5 C,0,115234,115234,255,88,102 F,0,115234,115734,1,0
Sprite,Background,Centre,"sb\glow.png",215,382 S,0,115252,115252,0.5 C,0,115252,115252,255,0,255 F,0,115252,115752,1,0
Sprite,Background,Centre,"sb\glow.png",212,382 S,0,115271,115271,0.5 C,0,115271,115271,255,0,255 F,0,115271,115771,1,0
Sprite,Background,Centre,"sb\glow.png",208,383 S,0,115290,115290,0.5 C,0,115290,115290,255,0,255 F,0,115290,115790,1,0
Sprite,Background,Centre,"sb\glow.png",205,384 S,0,115309,115309,0.5 C,0,115309,115309,255,0,255 F,0,115309,115809,1,0
Sprite,Background,Centre,"sb\glow.png",202,384 S,0,115327,115327,0.5 C,0,115327,115327,255,0,255 F,0,115327,115827,1,0
Sprite,Background,Centre,"sb\glow.png",201,385 S,0,115346,115346,0.5 C,0,115346,115346,255,0,255 F,0,115346,115846,1,0
Sprite,Background,Centre,"sb\glow.png",199,385 S,0,115365,115365,0.5 C,0,115365,115365,255,0,255 F,0,115365,115865,1,0
Sprite,Background,Centre,"sb\glow.png",199,385 S,0,115384,115384,0.5 C,0,115384,115384,255,0,255 F,0,115384,115884,1,0
Sprite,Background,Centre,"sb\glow.png",223,378 S,0,115402,115402,0.5 C,0,115402,115402,255,0,255 F,0,115402,115902,1,0
Sprite,Background,Centre,"sb\glow.png",247,371 S,0,115421,115421,0.5 C,0,115421,115421,255,0,255 F,0,115421,115921,1,0
Sprite,Background,Centre,"sb\glow.png",270,365 S,0,115440,115440,0.5 C,0,115440,115440,255,0,255 F,0,115440,115940,1,0
Sprite,Background,Centre,"sb\glow.png",290,359 S,0,115459,115459,0.5 C,0,115459,115459,255,0,255 F,0,115459,115959,1,0
Sprite,Background,Centre,"sb\glow.png",306,354 S,0,115477,115477,0.5 C,0,115477,115477,255,0,255 F,0,115477,115977,1,0
Sprite,Background,Centre,"sb\glow.png",319,351 S,0,115496,115496,0.5 C,0,115496,115496,255,0,255 F,0,115496,115996,1,0
Sprite,Background,Centre,"sb\glow.png",326,349 S,0,115515,115515,0.5 C,0,115515,115515,255,0,255 F,0,115515,116015,1,0
Sprite,Background,Centre,"sb\glow.png",329,348 S,0,115534,115534,0.5 C,0,115534,115534,255,0,255 F,0,115534,116034,1,0
Sprite,Background,Centre,"sb\glow.png",290,340 S,0,115552,115552,0.5 C,0,115552,115552,255,128,192 F,0,115552,116052,1,0
Sprite,Background,Centre,"sb\glow.png",250,332 S,0,115571,115571,0.5 C,0,115571,115571,255,128,192 F,0,115571,116071,1,0
Sprite,Background,Centre,"sb\glow.png",213,324 S,0,115590,115590,0.5 C,0,115590,115590,255,128,192 F,0,115590,116090,1,0
Sprite,Background,Centre,"sb\glow.png",180,318 S,0,115609,115609,0.5 C,0,115609,115609,255,128,192 F,0,115609,116109,1,0
Sprite,Background,Centre,"sb\glow.png",153,312 S,0,115627,115627,0.5 C,0,115627,115627,255,128,192 F,0,115627,116127,1,0
Sprite,Background,Centre,"sb\glow.png",133,308 S,0,115646,115646,0.5 C,0,115646,115646,255,128,192 F,0,115646,116146,1,0
Sprite,Background,Centre,"sb\glow.png",121,306 S,0,115665,115665,0.5 C,0,115665,115665,255,128,192 F,0,115665,116165,1,0
Sprite,Background,Centre,"sb\glow.png",116,305 S,0,115684,115684,0.5 C,0,115684,115684,255,128,192 F,0,115684,116184,1,0
Sprite,Background,Centre,"sb\glow.png",173,305 S,0,115702,115702,0.5 C,0,115702,115702,255,128,192 F,0,115702,116202,1,0
Sprite,Background,Centre,"sb\glow.png",231,304 S,0,115721,115721,0.5 C,0,115721,115721,255,128,192 F,0,115721,116221,1,0
Sprite,Background,Centre,"sb\glow.png",284,304 S,0,115740,115740,0.5 C,0,115740,115740,255,128,192 F,0,115740,116240,1,0
Sprite,Background,Centre,"sb\glow.png",331,304 S,0,115759,115759,0.5 C,0,115759,115759,255,128,192 F,0,115759,116259,1,0
Sprite,Background,Centre,"sb\glow.png",369,303 S,0,115777,115777,0.5 C,0,115777,115777,255,128,192 F,0,115777,116277,1,0
Sprite,Background,Centre,"sb\glow.png",398,303 S,0,115796,115796,0.5 C,0,115796,115796,255,128,192 F,0,115796,116296,1,0
Sprite,Background,Centre,"sb\glow.png",416,303 S,0,115815,115815,0.5 C,0,115815,115815,255,128,192 F,0,115815,116315,1,0
Sprite,Background,Centre,"sb\glow.png",423,303 S,0,115834,115834,0.5 C,0,115834,115834,255,128,192 F,0,115834,116334,1,0
Sprite,Background,Centre,"sb\glow.png",422,298 S,0,115852,115852,0.5 C,0,115852,115852,255,0,128 F,0,115852,116352,1,0
Sprite,Background,Centre,"sb\glow.png",421,293 S,0,115871,115871,0.5 C,0,115871,115871,255,0,128 F,0,115871,116371,1,0
Sprite,Background,Centre,"sb\glow.png",420,289 S,0,115890,115890,0.5 C,0,115890,115890,255,0,128 F,0,115890,116390,1,0
Sprite,Background,Centre,"sb\glow.png",419,285 S,0,115909,115909,0.5 C,0,115909,115909,255,0,128 F,0,115909,116409,1,0
Sprite,Background,Centre,"sb\glow.png",418,282 S,0,115927,115927,0.5 C,0,115927,115927,255,0,128 F,0,115927,116427,1,0
Sprite,Background,Centre,"sb\glow.png",417,279 S,0,115946,115946,0.5 C,0,115946,115946,255,0,128 F,0,115946,116446,1,0
Sprite,Background,Centre,"sb\glow.png",417,278 S,0,115965,115965,0.5 C,0,115965,115965,255,0,128 F,0,115965,116465,1,0
Sprite,Background,Centre,"sb\glow.png",417,277 S,0,115984,115984,0.5 C,0,115984,115984,255,0,128 F,0,115984,116484,1,0
Sprite,Background,Centre,"sb\glow.png",416,303 S,0,116002,116002,0.5 C,0,116002,116002,255,0,128 F,0,116002,116502,1,0
Sprite,Background,Centre,"sb\glow.png",416,330 S,0,116021,116021,0.5 C,0,116021,116021,255,0,128 F,0,116021,116521,1,0
Sprite,Background,Centre,"sb\glow.png",415,354 S,0,116040,116040,0.5 C,0,116040,116040,255,0,128 F,0,116040,116540,1,0
Sprite,Background,Centre,"sb\glow.png",415,376 S,0,116059,116059,0.5 C,0,116059,116059,255,0,128 F,0,116059,116559,1,0
Sprite,Background,Centre,"sb\glow.png",415,393 S,0,116077,116077,0.5 C,0,116077,116077,255,0,128 F,0,116077,116577,1,0
Sprite,Background,Centre,"sb\glow.png",414,407 S,0,116096,116096,0.5 C,0,116096,116096,255,0,128 F,0,116096,116596,1,0
Sprite,Background,Centre,"sb\glow.png",414,415 S,0,116115,116115,0.5 C,0,116115,116115,255,0,128 F,0,116115,116615,1,0
Sprite,Background,Centre,"sb\glow.png",414,418 S,0,116134,116134,0.5 C,0,116134,116134,255,0,128 F,0,116134,116634,1,0
Sprite,Background,Centre,"sb\glow.png",425,375 S,0,116152,116152,0.5 C,0,116152,116152,255,88,102 F,0,116152,116652,1,0
Sprite,Background,Centre,"sb\glow.png",435,331 S,0,116171,116171,0.5 C,0,116171,116171,255,88,102 F,0,116171,116671,1,0
Sprite,Background,Centre,"sb\glow.png",445,291 S,0,116190,116190,0.5 C,0,116190,116190,255,88,102 F,0,116190,116690,1,0
Sprite,Background,Centre,"sb\glow.png",454,255 S,0,116209,116209,0.5 C,0,116209,116209,255,88,102 F,0,116209,116709,1,0
Sprite,Background,Centre,"sb\glow.png",461,226 S,0,116227,116227,0.5 C,0,116227,116227,255,88,102 F,0,116227,116727,1,0
Sprite,Background,Centre,"sb\glow.png",466,204 S,0,116246,116246,0.5 C,0,116246,116246,255,88,102 F,0,116246,116746,1,0
Sprite,Background,Centre,"sb\glow.png",470,190 S,0,116265,116265,0.5 C,0,116265,116265,255,88,102 F,0,116265,116765,1,0
Sprite,Background,Centre,"sb\glow.png",471,185 S,0,116284,116284,0.5 C,0,116284,116284,255,88,102 F,0,116284,116784,1,0
Sprite,Background,Centre,"sb\glow.png",433,172 S,0,116302,116302,0.5 C,0,116302,116302,255,88,102 F,0,116302,116802,1,0
Sprite,Background,Centre,"sb\glow.png",394,160 S,0,116321,116321,0.5 C,0,116321,116321,255,88,102 F,0,116321,116821,1,0
Sprite,Background,Centre,"sb\glow.png",358,148 S,0,116340,116340,0.5 C,0,116340,116340,255,88,102 F,0,116340,116840,1,0
Sprite,Background,Centre,"sb\glow.png",327,137 S,0,116359,116359,0.5 C,0,116359,116359,255,88,102 F,0,116359,116859,1,0
Sprite,Background,Centre,"sb\glow.png",301,129 S,0,116377,116377,0.5 C,0,116377,116377,255,88,102 F,0,116377,116877,1,0
Sprite,Background,Centre,"sb\glow.png",282,122 S,0,116396,116396,0.5 C,0,116396,116396,255,88,102 F,0,116396,116896,1,0
Sprite,Background,Centre,"sb\glow.png",269,118 S,0,116415,116415,0.5 C,0,116415,116415,255,88,102 F,0,116415,116915,1,0
Sprite,Background,Centre,"sb\glow.png",265,117 S,0,116434,116434,0.5 C,0,116434,116434,255,88,102 F,0,116434,116934,1,0
Sprite,Background,Centre,"sb\glow.png",269,143 S,0,116452,116452,0.5 C,0,116452,116452,255,0,255 F,0,116452,116952,1,0
Sprite,Background,Centre,"sb\glow.png",284,166 S,0,116471,116471,0.5 C,0,116471,116471,255,0,255 F,0,116471,116971,1,0
Sprite,Background,Centre,"sb\glow.png",270,146 S,0,116490,116490,0.5 C,0,116490,116490,255,0,255 F,0,116490,116990,1,0
Sprite,Background,Centre,"sb\glow.png",265,118 S,0,116509,116509,0.5 C,0,116509,116509,255,0,255 F,0,116509,117009,1,0
Sprite,Background,Centre,"sb\glow.png",269,143 S,0,116527,116527,0.5 C,0,116527,116527,255,0,255 F,0,116527,117027,1,0
Sprite,Background,Centre,"sb\glow.png",284,166 S,0,116546,116546,0.5 C,0,116546,116546,255,0,255 F,0,116546,117046,1,0
Sprite,Background,Centre,"sb\glow.png",270,146 S,0,116565,116565,0.5 C,0,116565,116565,255,0,255 F,0,116565,117065,1,0
Sprite,Background,Centre,"sb\glow.png",265,118 S,0,116584,116584,0.5 C,0,116584,116584,255,0,255 F,0,116584,117084,1,0
Sprite,Background,Centre,"sb\glow.png",300,95 S,0,116602,116602,0.5 C,0,116602,116602,255,0,255 F,0,116602,117102,1,0
Sprite,Background,Centre,"sb\glow.png",331,75 S,0,116621,116621,0.5 C,0,116621,116621,255,0,255 F,0,116621,117121,1,0
Sprite,Background,Centre,"sb\glow.png",353,61 S,0,116640,116640,0.5 C,0,116640,116640,255,0,255 F,0,116640,117140,1,0
Sprite,Background,Centre,"sb\glow.png",361,56 S,0,116659,116659,0.5 C,0,116659,116659,255,0,255 F,0,116659,117159,1,0
Sprite,Background,Centre,"sb\glow.png",353,66 S,0,116677,116677,0.5 C,0,116677,116677,255,128,192 F,0,116677,117177,1,0
Sprite,Background,Centre,"sb\glow.png",346,78 S,0,116696,116696,0.5 C,0,116696,116696,255,128,192 F,0,116696,117196,1,0
Sprite,Background,Centre,"sb\glow.png",342,92 S,0,116715,116715,0.5 C,0,116715,116715,255,128,192 F,0,116715,117215,1,0
Sprite,Background,Centre,"sb\glow.png",342,106 S,0,116734,116734,0.5 C,0,116734,116734,255,128,192 F,0,116734,117234,1,0
Sprite,Background,Centre,"sb\glow.png",342,93 S,0,116752,116752,0.5 C,0,116752,116752,255,128,192 F,0,116752,117252,1,0
Sprite,Background,Centre,"sb\glow.png",345,80 S,0,116771,116771,0.5 C,0,116771,116771,255,128,192 F,0,116771,117271,1,0
Sprite,Background,Centre,"sb\glow.png",352,67 S,0,116790,116790,0.5 C,0,116790,116790,255,128,192 F,0,116790,117290,1,0
Sprite,Background,Centre,"sb\glow.png",361,57 S,0,116809,116809,0.5 C,0,116809,116809,255,128,192 F,0,116809,117309,1,0
Sprite,Background,Centre,"sb\glow.png",384,72 S,0,116827,116827,0.5 C,0,116827,116827,255,128,192 F,0,116827,117327,1,0
Sprite,Background,Centre,"sb\glow.png",405,86 S,0,116846,116846,0.5 C,0,116846,116846,255,128,192 F,0,116846,117346,1,0
Sprite,Background,Centre,"sb\glow.png",419,95 S,0,116865,116865,0.5 C,0,116865,116865,255,128,192 F,0,116865,117365,1,0
Sprite,Background,Centre,"sb\glow.png",424,99 S,0,116884,116884,0.5 C,0,116884,116884,255,128,192 F,0,116884,117384,1,0
Sprite,Background,Centre,"sb\glow.png",381,127 S,0,116902,116902,0.5 C,0,116902,116902,255,0,128 F,0,116902,117402,1,0
Sprite,Background,Centre,"sb\glow.png",337,155 S,0,116921,116921,0.5 C,0,116921,116921,255,0,128 F,0,116921,117421,1,0
Sprite,Background,Centre,"sb\glow.png",296,182 S,0,116940,116940,0.5 C,0,116940,116940,255,0,128 F,0,116940,117440,1,0
Sprite,Background,Centre,"sb\glow.png",260,205 S,0,116959,116959,0.5 C,0,116959,116959,255,0,128 F,0,116959,117459,1,0
Sprite,Background,Centre,"sb\glow.png",231,224 S,0,116977,116977,0.5 C,0,116977,116977,255,0,128 F,0,116977,117477,1,0
Sprite,Background,Centre,"sb\glow.png",209,238 S,0,116996,116996,0.5 C,0,116996,116996,255,0,128 F,0,116996,117496,1,0
Sprite,Background,Centre,"sb\glow.png",195,247 S,0,117015,117015,0.5 C,0,117015,117015,255,0,128 F,0,117015,117515,1,0
Sprite,Background,Centre,"sb\glow.png",190,250 S,0,117034,117034,0.5 C,0,117034,117034,255,0,128 F,0,117034,117534,1,0
Sprite,Background,Centre,"sb\glow.png",211,243 S,0,117052,117052,0.5 C,0,117052,117052,255,88,102 F,0,117052,117552,1,0
Sprite,Background,Centre,"sb\glow.png",233,235 S,0,117071,117071,0.5 C,0,117071,117071,255,88,102 F,0,117071,117571,1,0
Sprite,Background,Centre,"sb\glow.png",255,227 S,0,117090,117090,0.5 C,0,117090,117090,255,88,102 F,0,117090,117590,1,0
Sprite,Background,Centre,"sb\glow.png",277,220 S,0,117109,117109,0.5 C,0,117109,117109,255,88,102 F,0,117109,117609,1,0
Sprite,Background,Centre,"sb\glow.png",300,212 S,0,117127,117127,0.5 C,0,117127,117127,255,88,102 F,0,117127,117627,1,0
Sprite,Background,Centre,"sb\glow.png",322,204 S,0,117146,117146,0.5 C,0,117146,117146,255,88,102 F,0,117146,117646,1,0
Sprite,Background,Centre,"sb\glow.png",344,197 S,0,117165,117165,0.5 C,0,117165,117165,255,88,102 F,0,117165,117665,1,0
Sprite,Background,Centre,"sb\glow.png",366,189 S,0,117184,117184,0.5 C,0,117184,117184,255,88,102 F,0,117184,117684,1,0
Sprite,Background,Centre,"sb\glow.png",362,195 S,0,117202,117202,0.5 C,0,117202,117202,255,88,102 F,0,117202,117702,1,0
Sprite,Background,Centre,"sb\glow.png",345,211 S,0,117221,117221,0.5 C,0,117221,117221,255,88,102 F,0,117221,117721,1,0
Sprite,Background,Centre,"sb\glow.png",331,230 S,0,117240,117240,0.5 C,0,117240,117240,255,88,102 F,0,117240,117740,1,0
Sprite,Background,Centre,"sb\glow.png",321,251 S,0,117259,117259,0.5 C,0,117259,117259,255,88,102 F,0,117259,117759,1,0
Sprite,Background,Centre,"sb\glow.png",360,296 S,0,117277,117277,0.5 C,0,117277,117277,255,88,102 F,0,117277,117777,1,0
Sprite,Background,Centre,"sb\glow.png",396,336 S,0,117296,117296,0.5 C,0,117296,117296,255,88,102 F,0,117296,117796,1,0
Sprite,Background,Centre,"sb\glow.png",421,364 S,0,117315,117315,0.5 C,0,117315,117315,255,88,102 F,0,117315,117815,1,0
Sprite,Background,Centre,"sb\glow.png",430,374 S,0,117334,117334,0.5 C,0,117334,117334,255,88,102 F,0,117334,117834,1,0
Sprite,Background,Centre,"sb\glow.png",415,371 S,0,117352,117352,0.5 C,0,117352,117352,255,0,255 F,0,117352,117852,1,0
Sprite,Background,Centre,"sb\glow.png",400,369 S,0,117371,117371,0.5 C,0,117371,117371,255,0,255 F,0,117371,117871,1,0
Sprite,Background,Centre,"sb\glow.png",385,366 S,0,117390,117390,0.5 C,0,117390,117390,255,0,255 F,0,117390,117890,1,0
Sprite,Background,Centre,"sb\glow.png",369,363 S,0,117409,117409,0.5 C,0,117409,117409,255,0,255 F,0,117409,117909,1,0
Sprite,Background,Centre,"sb\glow.png",354,361 S,0,117427,117427,0.5 C,0,117427,117427,255,0,255 F,0,117427,117927,1,0
Sprite,Background,Centre,"sb\glow.png",340,354 S,0,117446,117446,0.5 C,0,117446,117446,255,0,255 F,0,117446,117946,1,0
Sprite,Background,Centre,"sb\glow.png",325,351 S,0,117465,117465,0.5 C,0,117465,117465,255,0,255 F,0,117465,117965,1,0
Sprite,Background,Centre,"sb\glow.png",310,348 S,0,117484,117484,0.5 C,0,117484,117484,255,0,255 F,0,117484,117984,1,0
Sprite,Background,Centre,"sb\glow.png",294,345 S,0,117502,117502,0.5 C,0,117502,117502,255,0,255 F,0,117502,118002,1,0
Sprite,Background,Centre,"sb\glow.png",279,342 S,0,117521,117521,0.5 C,0,117521,117521,255,0,255 F,0,117521,118021,1,0
Sprite,Background,Centre,"sb\glow.png",264,339 S,0,117540,117540,0.5 C,0,117540,117540,255,0,255 F,0,117540,118040,1,0
Sprite,Background,Centre,"sb\glow.png",248,336 S,0,117559,117559,0.5 C,0,117559,117559,255,0,255 F,0,117559,118059,1,0
Sprite,Background,Centre,"sb\glow.png",197,301 S,0,117577,117577,0.5 C,0,117577,117577,255,0,255 F,0,117577,118077,1,0
Sprite,Background,Centre,"sb\glow.png",151,269 S,0,117596,117596,0.5 C,0,117596,117596,255,0,255 F,0,117596,118096,1,0
Sprite,Background,Centre,"sb\glow.png",120,247 S,0,117615,117615,0.5 C,0,117615,117615,255,0,255 F,0,117615,118115,1,0
Sprite,Background,Centre,"sb\glow.png",108,239 S,0,117634,117634,0.5 C,0,117634,117634,255,0,255 F,0,117634,118134,1,0
Sprite,Background,Centre,"sb\glow.png",103,259 S,0,117652,117652,0.5 C,0,117652,117652,255,128,192 F,0,117652,118152,1,0
Sprite,Background,Centre,"sb\glow.png",97,280 S,0,117671,117671,0.5 C,0,117671,117671,255,128,192 F,0,117671,118171,1,0
Sprite,Background,Centre,"sb\glow.png",92,301 S,0,117690,117690,0.5 C,0,117690,117690,255,128,192 F,0,117690,118190,1,0
Sprite,Background,Centre,"sb\glow.png",87,323 S,0,117709,117709,0.5 C,0,117709,117709,255,128,192 F,0,117709,118209,1,0
Sprite,Background,Centre,"sb\glow.png",85,343 S,0,117727,117727,0.5 C,0,117727,117727,255,128,192 F,0,117727,118227,1,0
Sprite,Background,Centre,"sb\glow.png",100,358 S,0,117746,117746,0.5 C,0,117746,117746,255,128,192 F,0,117746,118246,1,0
Sprite,Background,Centre,"sb\glow.png",117,372 S,0,117765,117765,0.5 C,0,117765,117765,255,128,192 F,0,117765,118265,1,0
Sprite,Background,Centre,"sb\glow.png",133,387 S,0,117784,117784,0.5 C,0,117784,117784,255,128,192 F,0,117784,118284,1,0
Sprite,Background,Centre,"sb\glow.png",135,378 S,0,117802,117802,0.5 C,0,117802,117802,255,128,192 F,0,117802,118302,1,0
Sprite,Background,Centre,"sb\glow.png",130,357 S,0,117821,117821,0.5 C,0,117821,117821,255,128,192 F,0,117821,118321,1,0
Sprite,Background,Centre,"sb\glow.png",125,336 S,0,117840,117840,0.5 C,0,117840,117840,255,128,192 F,0,117840,118340,1,0
Sprite,Background,Centre,"sb\glow.png",120,315 S,0,117859,117859,0.5 C,0,117859,117859,255,128,192 F,0,117859,118359,1,0
Sprite,Background,Centre,"sb\glow.png",99,254 S,0,117877,117877,0.5 C,0,117877,117877,255,128,192 F,0,117877,118377,1,0
Sprite,Background,Centre,"sb\glow.png",81,200 S,0,117896,117896,0.5 C,0,117896,117896,255,128,192 F,0,117896,118396,1,0
Sprite,Background,Centre,"sb\glow.png",69,163 S,0,117915,117915,0.5 C,0,117915,117915,255,128,192 F,0,117915,118415,1,0
Sprite,Background,Centre,"sb\glow.png",64,149 S,0,117934,117934,0.5 C,0,117934,117934,255,128,192 F,0,117934,118434,1,0
Sprite,Background,Centre,"sb\glow.png",82,146 S,0,117952,117952,0.5 C,0,117952,117952,255,0,128 F,0,117952,118452,1,0
Sprite,Background,Centre,"sb\glow.png",100,143 S,0,117971,117971,0.5 C,0,117971,117971,255,0,128 F,0,117971,118471,1,0
Sprite,Background,Centre,"sb\glow.png",119,140 S,0,117990,117990,0.5 C,0,117990,117990,255,0,128 F,0,117990,118490,1,0
Sprite,Background,Centre,"sb\glow.png",137,139 S,0,118009,118009,0.5 C,0,118009,118009,255,0,128 F,0,118009,118509,1,0
Sprite,Background,Centre,"sb\glow.png",155,139 S,0,118027,118027,0.5 C,0,118027,118027,255,0,128 F,0,118027,118527,1,0
Sprite,Background,Centre,"sb\glow.png",174,136 S,0,118046,118046,0.5 C,0,118046,118046,255,0,128 F,0,118046,118546,1,0
Sprite,Background,Centre,"sb\glow.png",192,133 S,0,118065,118065,0.5 C,0,118065,118065,255,0,128 F,0,118065,118565,1,0
Sprite,Background,Centre,"sb\glow.png",210,129 S,0,118084,118084,0.5 C,0,118084,118084,255,0,128 F,0,118084,118584,1,0
Sprite,Background,Centre,"sb\glow.png",228,124 S,0,118102,118102,0.5 C,0,118102,118102,255,0,128 F,0,118102,118602,1,0
Sprite,Background,Centre,"sb\glow.png",246,121 S,0,118121,118121,0.5 C,0,118121,118121,255,0,128 F,0,118121,118621,1,0
Sprite,Background,Centre,"sb\glow.png",265,118 S,0,118140,118140,0.5 C,0,118140,118140,255,0,128 F,0,118140,118640,1,0
Sprite,Background,Centre,"sb\glow.png",283,116 S,0,118159,118159,0.5 C,0,118159,118159,255,0,128 F,0,118159,118659,1,0
Sprite,Background,Centre,"sb\glow.png",289,120 S,0,118177,118177,0.5 C,0,118177,118177,255,0,128 F,0,118177,118677,1,0
Sprite,Background,Centre,"sb\glow.png",293,123 S,0,118196,118196,0.5 C,0,118196,118196,255,0,128 F,0,118196,118696,1,0
Sprite,Background,Centre,"sb\glow.png",296,125 S,0,118215,118215,0.5 C,0,118215,118215,255,0,128 F,0,118215,118715,1,0
Sprite,Background,Centre,"sb\glow.png",297,126 S,0,118234,118234,0.5 C,0,118234,118234,255,0,128 F,0,118234,118734,1,0
Sprite,Background,Centre,"sb\glow.png",309,113 S,0,118252,118252,0.5 C,0,118252,118252,255,0,128 F,0,118252,118752,1,0
Sprite,Background,Centre,"sb\glow.png",320,99 S,0,118271,118271,0.5 C,0,118271,118271,255,0,128 F,0,118271,118771,1,0
Sprite,Background,Centre,"sb\glow.png",315,81 S,0,118290,118290,0.5 C,0,118290,118290,255,0,128 F,0,118290,118790,1,0
Sprite,Background,Centre,"sb\glow.png",310,63 S,0,118309,118309,0.5 C,0,118309,118309,255,0,128 F,0,118309,118809,1,0
Sprite,Background,Centre,"sb\glow.png",301,121 S,0,118327,118327,0.5 C,0,118327,118327,255,0,128 F,0,118327,118827,1,0
Sprite,Background,Centre,"sb\glow.png",293,173 S,0,118346,118346,0.5 C,0,118346,118346,255,0,128 F,0,118346,118846,1,0
Sprite,Background,Centre,"sb\glow.png",288,209 S,0,118365,118365,0.5 C,0,118365,118365,255,0,128 F,0,118365,118865,1,0
Sprite,Background,Centre,"sb\glow.png",286,223 S,0,118384,118384,0.5 C,0,118384,118384,255,0,128 F,0,118384,118884,1,0
Sprite,Background,Centre,"sb\glow.png",340,223 S,0,118402,118402,0.5 C,0,118402,118402,255,0,128 F,0,118402,118902,1,0
Sprite,Background,Centre,"sb\glow.png",394,222 S,0,118421,118421,0.5 C,0,118421,118421,255,0,128 F,0,118421,118921,1,0
Sprite,Background,Centre,"sb\glow.png",445,222 S,0,118440,118440,0.5 C,0,118440,118440,255,0,128 F,0,118440,118940,1,0
Sprite,Background,Centre,"sb\glow.png",489,222 S,0,118459,118459,0.5 C,0,118459,118459,255,0,128 F,0,118459,118959,1,0
Sprite,Background,Centre,"sb\glow.png",525,221 S,0,118477,118477,0.5 C,0,118477,118477,255,0,128 F,0,118477,118977,1,0
Sprite,Background,Centre,"sb\glow.png",553,221 S,0,118496,118496,0.5 C,0,118496,118496,255,0,128 F,0,118496,118996,1,0
Sprite,Background,Centre,"sb\glow.png",570,221 S,0,118515,118515,0.5 C,0,118515,118515,255,0,128 F,0,118515,119015,1,0
Sprite,Background,Centre,"sb\glow.png",576,221 S,0,118534,118534,0.5 C,0,118534,118534,255,0,128 F,0,118534,119034,1,0
Sprite,Background,Centre,"sb\glow.png",566,207 S,0,118552,118552,0.5 C,0,118552,118552,255,88,102 F,0,118552,119052,1,0
Sprite,Background,Centre,"sb\glow.png",550,199 S,0,118571,118571,0.5 C,0,118571,118571,255,88,102 F,0,118571,119071,1,0
Sprite,Background,Centre,"sb\glow.png",532,196 S,0,118590,118590,0.5 C,0,118590,118590,255,88,102 F,0,118590,119090,1,0
Sprite,Background,Centre,"sb\glow.png",513,193 S,0,118609,118609,0.5 C,0,118609,118609,255,88,102 F,0,118609,119109,1,0
Sprite,Background,Centre,"sb\glow.png",495,191 S,0,118627,118627,0.5 C,0,118627,118627,255,88,102 F,0,118627,119127,1,0
Sprite,Background,Centre,"sb\glow.png",476,188 S,0,118646,118646,0.5 C,0,118646,118646,255,88,102 F,0,118646,119146,1,0
Sprite,Background,Centre,"sb\glow.png",458,186 S,0,118665,118665,0.5 C,0,118665,118665,255,88,102 F,0,118665,119165,1,0
Sprite,Background,Centre,"sb\glow.png",439,183 S,0,118684,118684,0.5 C,0,118684,118684,255,88,102 F,0,118684,119184,1,0
Sprite,Background,Centre,"sb\glow.png",420,181 S,0,118702,118702,0.5 C,0,118702,118702,255,88,102 F,0,118702,119202,1,0
Sprite,Background,Centre,"sb\glow.png",402,178 S,0,118721,118721,0.5 C,0,118721,118721,255,88,102 F,0,118721,119221,1,0
Sprite,Background,Centre,"sb\glow.png",384,179 S,0,118740,118740,0.5 C,0,118740,118740,255,88,102 F,0,118740,119240,1,0
Sprite,Background,Centre,"sb\glow.png",369,190 S,0,118759,118759,0.5 C,0,118759,118759,255,88,102 F,0,118759,119259,1,0
Sprite,Background,Centre,"sb\glow.png",365,190 S,0,118777,118777,0.5 C,0,118777,118777,255,88,102 F,0,118777,119277,1,0
Sprite,Background,Centre,"sb\glow.png",362,190 S,0,118796,118796,0.5 C,0,118796,118796,255,88,102 F,0,118796,119296,1,0
Sprite,Background,Centre,"sb\glow.png",360,189 S,0,118815,118815,0.5 C,0,118815,118815,255,88,102 F,0,118815,119315,1,0
Sprite,Background,Centre,"sb\glow.png",359,189 S,0,118834,118834,0.5 C,0,118834,118834,255,88,102 F,0,118834,119334,1,0
Sprite,Background,Centre,"sb\glow.png",366,233 S,0,118852,118852,0.5 C,0,118852,118852,255,0,255 F,0,118852,119352,1,0
Sprite,Background,Centre,"sb\glow.png",373,277 S,0,118871,118871,0.5 C,0,118871,118871,255,0,255 F,0,118871,119371,1,0
Sprite,Background,Centre,"sb\glow.png",379,319 S,0,118890,118890,0.5 C,0,118890,118890,255,0,255 F,0,118890,119390,1,0
Sprite,Background,Centre,"sb\glow.png",385,355 S,0,118909,118909,0.5 C,0,118909,118909,255,0,255 F,0,118909,119409,1,0
Sprite,Background,Centre,"sb\glow.png",390,385 S,0,118927,118927,0.5 C,0,118927,118927,255,0,255 F,0,118927,119427,1,0
Sprite,Background,Centre,"sb\glow.png",393,407 S,0,118946,118946,0.5 C,0,118946,118946,255,0,255 F,0,118946,119446,1,0
Sprite,Background,Centre,"sb\glow.png",395,421 S,0,118965,118965,0.5 C,0,118965,118965,255,0,255 F,0,118965,119465,1,0
Sprite,Background,Centre,"sb\glow.png",396,426 S,0,118984,118984,0.5 C,0,118984,118984,255,0,255 F,0,118984,119484,1,0
Sprite,Background,Centre,"sb\glow.png",429,421 S,0,119002,119002,0.5 C,0,119002,119002,255,0,255 F,0,119002,119502,1,0
Sprite,Background,Centre,"sb\glow.png",462,416 S,0,119021,119021,0.5 C,0,119021,119021,255,0,255 F,0,119021,119521,1,0
Sprite,Background,Centre,"sb\glow.png",493,411 S,0,119040,119040,0.5 C,0,119040,119040,255,0,255 F,0,119040,119540,1,0
Sprite,Background,Centre,"sb\glow.png",521,406 S,0,119059,119059,0.5 C,0,119059,119059,255,0,255 F,0,119059,119559,1,0
Sprite,Background,Centre,"sb\glow.png",543,403 S,0,119077,119077,0.5 C,0,119077,119077,255,0,255 F,0,119077,119577,1,0
Sprite,Background,Centre,"sb\glow.png",560,400 S,0,119096,119096,0.5 C,0,119096,119096,255,0,255 F,0,119096,119596,1,0
Sprite,Background,Centre,"sb\glow.png",570,399 S,0,119115,119115,0.5 C,0,119115,119115,255,0,255 F,0,119115,119615,1,0
Sprite,Background,Centre,"sb\glow.png",574,398 S,0,119134,119134,0.5 C,0,119134,119134,255,0,255 F,0,119134,119634,1,0
Sprite,Background,Centre,"sb\glow.png",556,400 S,0,119152,119152,0.5 C,0,119152,119152,255,128,192 F,0,119152,119652,1,0
Sprite,Background,Centre,"sb\glow.png",538,400 S,0,119171,119171,0.5 C,0,119171,119171,255,128,192 F,0,119171,119671,1,0
Sprite,Background,Centre,"sb\glow.png",519,397 S,0,119190,119190,0.5 C,0,119190,119190,255,128,192 F,0,119190,119690,1,0
Sprite,Background,Centre,"sb\glow.png",502,389 S,0,119209,119209,0.5 C,0,119209,119209,255,128,192 F,0,119209,119709,1,0
Sprite,Background,Centre,"sb\glow.png",487,378 S,0,119227,119227,0.5 C,0,119227,119227,255,128,192 F,0,119227,119727,1,0
Sprite,Background,Centre,"sb\glow.png",473,365 S,0,119246,119246,0.5 C,0,119246,119246,255,128,192 F,0,119246,119746,1,0
Sprite,Background,Centre,"sb\glow.png",459,353 S,0,119265,119265,0.5 C,0,119265,119265,255,128,192 F,0,119265,119765,1,0
Sprite,Background,Centre,"sb\glow.png",444,342 S,0,119284,119284,0.5 C,0,119284,119284,255,128,192 F,0,119284,119784,1,0
Sprite,Background,Centre,"sb\glow.png",427,335 S,0,119302,119302,0.5 C,0,119302,119302,255,128,192 F,0,119302,119802,1,0
Sprite,Background,Centre,"sb\glow.png",408,331 S,0,119321,119321,0.5 C,0,119321,119321,255,128,192 F,0,119321,119821,1,0
Sprite,Background,Centre,"sb\glow.png",390,329 S,0,119340,119340,0.5 C,0,119340,119340,255,128,192 F,0,119340,119840,1,0
Sprite,Background,Centre,"sb\glow.png",371,329 S,0,119359,119359,0.5 C,0,119359,119359,255,128,192 F,0,119359,119859,1,0
Sprite,Background,Centre,"sb\glow.png",270,348 S,0,119377,119377,0.5 C,0,119377,119377,255,128,192 F,0,119377,119877,1,0
Sprite,Background,Centre,"sb\glow.png",179,365 S,0,119396,119396,0.5 C,0,119396,119396,255,128,192 F,0,119396,119896,1,0
Sprite,Background,Centre,"sb\glow.png",117,377 S,0,119415,119415,0.5 C,0,119415,119415,255,128,192 F,0,119415,119915,1,0
Sprite,Background,Centre,"sb\glow.png",94,381 S,0,119434,119434,0.5 C,0,119434,119434,255,128,192 F,0,119434,119934,1,0
Sprite,Background,Centre,"sb\glow.png",104,395 S,0,119452,119452,0.5 C,0,119452,119452,255,128,192 F,0,119452,119952,1,0
Sprite,Background,Centre,"sb\glow.png",120,403 S,0,119471,119471,0.5 C,0,119471,119471,255,128,192 F,0,119471,119971,1,0
Sprite,Background,Centre,"sb\glow.png",138,406 S,0,119490,119490,0.5 C,0,119490,119490,255,128,192 F,0,119490,119990,1,0
Sprite,Background,Centre,"sb\glow.png",157,409 S,0,119509,119509,0.5 C,0,119509,119509,255,128,192 F,0,119509,120009,1,0
Sprite,Background,Centre,"sb\glow.png",175,411 S,0,119527,119527,0.5 C,0,119527,119527,255,128,192 F,0,119527,120027,1,0
Sprite,Background,Centre,"sb\glow.png",194,414 S,0,119546,119546,0.5 C,0,119546,119546,255,128,192 F,0,119546,120046,1,0
Sprite,Background,Centre,"sb\glow.png",212,416 S,0,119565,119565,0.5 C,0,119565,119565,255,128,192 F,0,119565,120065,1,0
Sprite,Background,Centre,"sb\glow.png",231,419 S,0,119584,119584,0.5 C,0,119584,119584,255,128,192 F,0,119584,120084,1,0
Sprite,Background,Centre,"sb\glow.png",250,421 S,0,119602,119602,0.5 C,0,119602,119602,255,128,192 F,0,119602,120102,1,0
Sprite,Background,Centre,"sb\glow.png",268,424 S,0,119621,119621,0.5 C,0,119621,119621,255,128,192 F,0,119621,120121,1,0
Sprite,Background,Centre,"sb\glow.png",286,423 S,0,119640,119640,0.5 C,0,119640,119640,255,128,192 F,0,119640,120140,1,0
Sprite,Background,Centre,"sb\glow.png",300,412 S,0,119659,119659,0.5 C,0,119659,119659,255,128,192 F,0,119659,120159,1,0
Sprite,Background,Centre,"sb\glow.png",285,333 S,0,119677,119677,0.5 C,0,119677,119677,255,128,192 F,0,119677,120177,1,0
Sprite,Background,Centre,"sb\glow.png",271,261 S,0,119696,119696,0.5 C,0,119696,119696,255,128,192 F,0,119696,120196,1,0
Sprite,Background,Centre,"sb\glow.png",262,213 S,0,119715,119715,0.5 C,0,119715,119715,255,128,192 F,0,119715,120215,1,0
Sprite,Background,Centre,"sb\glow.png",258,195 S,0,119734,119734,0.5 C,0,119734,119734,255,128,192 F,0,119734,120234,1,0
Sprite,Background,Centre,"sb\glow.png",250,211 S,0,119752,119752,0.5 C,0,119752,119752,255,128,192 F,0,119752,120252,1,0
Sprite,Background,Centre,"sb\glow.png",242,228 S,0,119771,119771,0.5 C,0,119771,119771,255,128,192 F,0,119771,120271,1,0
Sprite,Background,Centre,"sb\glow.png",234,245 S,0,119790,119790,0.5 C,0,119790,119790,255,128,192 F,0,119790,120290,1,0
Sprite,Background,Centre,"sb\glow.png",227,262 S,0,119809,119809,0.5 C,0,119809,119809,255,128,192 F,0,119809,120309,1,0
Sprite,Background,Centre,"sb\glow.png",220,280 S,0,119827,119827,0.5 C,0,119827,119827,255,128,192 F,0,119827,120327,1,0
Sprite,Background,Centre,"sb\glow.png",214,297 S,0,119846,119846,0.5 C,0,119846,119846,255,128,192 F,0,119846,120346,1,0
Sprite,Background,Centre,"sb\glow.png",209,315 S,0,119865,119865,0.5 C,0,119865,119865,255,128,192 F,0,119865,120365,1,0
Sprite,Background,Centre,"sb\glow.png",203,333 S,0,119884,119884,0.5 C,0,119884,119884,255,128,192 F,0,119884,120384,1,0
Sprite,Background,Centre,"sb\glow.png",181,304 S,0,119902,119902,0.5 C,0,119902,119902,255,128,192 F,0,119902,120402,1,0
Sprite,Background,Centre,"sb\glow.png",159,272 S,0,119921,119921,0.5 C,0,119921,119921,255,128,192 F,0,119921,120421,1,0
Sprite,Background,Centre,"sb\glow.png",139,243 S,0,119940,119940,0.5 C,0,119940,119940,255,128,192 F,0,119940,120440,1,0
Sprite,Background,Centre,"sb\glow.png",121,218 S,0,119959,119959,0.5 C,0,119959,119959,255,128,192 F,0,119959,120459,1,0
Sprite,Background,Centre,"sb\glow.png",106,197 S,0,119977,119977,0.5 C,0,119977,119977,255,128,192 F,0,119977,120477,1,0
Sprite,Background,Centre,"sb\glow.png",95,181 S,0,119996,119996,0.5 C,0,119996,119996,255,128,192 F,0,119996,120496,1,0
Sprite,Background,Centre,"sb\glow.png",88,172 S,0,120015,120015,0.5 C,0,120015,120015,255,128,192 F,0,120015,120515,1,0
Sprite,Background,Centre,"sb\glow.png",86,168 S,0,120034,120034,0.5 C,0,120034,120034,255,128,192 F,0,120034,120534,1,0
Sprite,Background,Centre,"sb\glow.png",103,171 S,0,120052,120052,0.5 C,0,120052,120052,255,0,128 F,0,120052,120552,1,0
Sprite,Background,Centre,"sb\glow.png",121,169 S,0,120071,120071,0.5 C,0,120071,120071,255,0,128 F,0,120071,120571,1,0
Sprite,Background,Centre,"sb\glow.png",138,160 S,0,120090,120090,0.5 C,0,120090,120090,255,0,128 F,0,120090,120590,1,0
Sprite,Background,Centre,"sb\glow.png",150,146 S,0,120109,120109,0.5 C,0,120109,120109,255,0,128 F,0,120109,120609,1,0
Sprite,Background,Centre,"sb\glow.png",187,133 S,0,120127,120127,0.5 C,0,120127,120127,255,0,128 F,0,120127,120627,1,0
Sprite,Background,Centre,"sb\glow.png",219,121 S,0,120146,120146,0.5 C,0,120146,120146,255,0,128 F,0,120146,120646,1,0
Sprite,Background,Centre,"sb\glow.png",242,113 S,0,120165,120165,0.5 C,0,120165,120165,255,0,128 F,0,120165,120665,1,0
Sprite,Background,Centre,"sb\glow.png",250,110 S,0,120184,120184,0.5 C,0,120184,120184,255,0,128 F,0,120184,120684,1,0
Sprite,Background,Centre,"sb\glow.png",267,107 S,0,120202,120202,0.5 C,0,120202,120202,255,0,128 F,0,120202,120702,1,0
Sprite,Background,Centre,"sb\glow.png",285,109 S,0,120221,120221,0.5 C,0,120221,120221,255,0,128 F,0,120221,120721,1,0
Sprite,Background,Centre,"sb\glow.png",302,118 S,0,120240,120240,0.5 C,0,120240,120240,255,0,128 F,0,120240,120740,1,0
Sprite,Background,Centre,"sb\glow.png",314,132 S,0,120259,120259,0.5 C,0,120259,120259,255,0,128 F,0,120259,120759,1,0
Sprite,Background,Centre,"sb\glow.png",392,137 S,0,120277,120277,0.5 C,0,120277,120277,255,0,128 F,0,120277,120777,1,0
Sprite,Background,Centre,"sb\glow.png",462,142 S,0,120296,120296,0.5 C,0,120296,120296,255,0,128 F,0,120296,120796,1,0
Sprite,Background,Centre,"sb\glow.png",510,145 S,0,120315,120315,0.5 C,0,120315,120315,255,0,128 F,0,120315,120815,1,0
Sprite,Background,Centre,"sb\glow.png",528,146 S,0,120334,120334,0.5 C,0,120334,120334,255,0,128 F,0,120334,120834,1,0
Sprite,Background,Centre,"sb\glow.png",514,157 S,0,120352,120352,0.5 C,0,120352,120352,255,0,128 F,0,120352,120852,1,0
Sprite,Background,Centre,"sb\glow.png",499,168 S,0,120371,120371,0.5 C,0,120371,120371,255,0,128 F,0,120371,120871,1,0
Sprite,Background,Centre,"sb\glow.png",484,179 S,0,120390,120390,0.5 C,0,120390,120390,255,0,128 F,0,120390,120890,1,0
Sprite,Background,Centre,"sb\glow.png",468,190 S,0,120409,120409,0.5 C,0,120409,120409,255,0,128 F,0,120409,120909,1,0
Sprite,Background,Centre,"sb\glow.png",458,176 S,0,120427,120427,0.5 C,0,120427,120427,255,0,128 F,0,120427,120927,1,0
Sprite,Background,Centre,"sb\glow.png",449,160 S,0,120446,120446,0.5 C,0,120446,120446,255,0,128 F,0,120446,120946,1,0
Sprite,Background,Centre,"sb\glow.png",440,144 S,0,120465,120465,0.5 C,0,120465,120465,255,0,128 F,0,120465,120965,1,0
Sprite,Background,Centre,"sb\glow.png",430,128 S,0,120484,120484,0.5 C,0,120484,120484,255,0,128 F,0,120484,120984,1,0
Sprite,Background,Centre,"sb\glow.png",440,117 S,0,120502,120502,0.5 C,0,120502,120502,255,0,128 F,0,120502,121002,1,0
Sprite,Background,Centre,"sb\glow.png",451,106 S,0,120521,120521,0.5 C,0,120521,120521,255,0,128 F,0,120521,121021,1,0
Sprite,Background,Centre,"sb\glow.png",462,96 S,0,120540,120540,0.5 C,0,120540,120540,255,0,128 F,0,120540,121040,1,0
Sprite,Background,Centre,"sb\glow.png",470,88 S,0,120559,120559,0.5 C,0,120559,120559,255,0,128 F,0,120559,121059,1,0
Sprite,Background,Centre,"sb\glow.png",478,81 S,0,120577,120577,0.5 C,0,120577,120577,255,0,128 F,0,120577,121077,1,0
Sprite,Background,Centre,"sb\glow.png",483,75 S,0,120596,120596,0.5 C,0,120596,120596,255,0,128 F,0,120596,121096,1,0
Sprite,Background,Centre,"sb\glow.png",487,72 S,0,120615,120615,0.5 C,0,120615,120615,255,0,128 F,0,120615,121115,1,0
Sprite,Background,Centre,"sb\glow.png",488,71 S,0,120634,120634,0.5 C,0,120634,120634,255,0,128 F,0,120634,121134,1,0
Sprite,Background,Centre,"sb\glow.png",467,103 S,0,120652,120652,0.5 C,0,120652,120652,255,88,102 F,0,120652,121152,1,0
Sprite,Background,Centre,"sb\glow.png",447,135 S,0,120671,120671,0.5 C,0,120671,120671,255,88,102 F,0,120671,121171,1,0
Sprite,Background,Centre,"sb\glow.png",427,165 S,0,120690,120690,0.5 C,0,120690,120690,255,88,102 F,0,120690,121190,1,0
Sprite,Background,Centre,"sb\glow.png",410,191 S,0,120709,120709,0.5 C,0,120709,120709,255,88,102 F,0,120709,121209,1,0
Sprite,Background,Centre,"sb\glow.png",396,213 S,0,120727,120727,0.5 C,0,120727,120727,255,88,102 F,0,120727,121227,1,0
Sprite,Background,Centre,"sb\glow.png",386,229 S,0,120746,120746,0.5 C,0,120746,120746,255,88,102 F,0,120746,121246,1,0
Sprite,Background,Centre,"sb\glow.png",379,239 S,0,120765,120765,0.5 C,0,120765,120765,255,88,102 F,0,120765,121265,1,0
Sprite,Background,Centre,"sb\glow.png",377,243 S,0,120784,120784,0.5 C,0,120784,120784,255,88,102 F,0,120784,121284,1,0
Sprite,Background,Centre,"sb\glow.png",414,258 S,0,120802,120802,0.5 C,0,120802,120802,255,88,102 F,0,120802,121302,1,0
Sprite,Background,Centre,"sb\glow.png",451,273 S,0,120821,120821,0.5 C,0,120821,120821,255,88,102 F,0,120821,121321,1,0
Sprite,Background,Centre,"sb\glow.png",486,287 S,0,120840,120840,0.5 C,0,120840,120840,255,88,102 F,0,120840,121340,1,0
Sprite,Background,Centre,"sb\glow.png",516,299 S,0,120859,120859,0.5 C,0,120859,120859,255,88,102 F,0,120859,121359,1,0
Sprite,Background,Centre,"sb\glow.png",541,309 S,0,120877,120877,0.5 C,0,120877,120877,255,88,102 F,0,120877,121377,1,0
Sprite,Background,Centre,"sb\glow.png",560,317 S,0,120896,120896,0.5 C,0,120896,120896,255,88,102 F,0,120896,121396,1,0
Sprite,Background,Centre,"sb\glow.png",572,321 S,0,120915,120915,0.5 C,0,120915,120915,255,88,102 F,0,120915,121415,1,0
Sprite,Background,Centre,"sb\glow.png",576,323 S,0,120934,120934,0.5 C,0,120934,120934,255,88,102 F,0,120934,121434,1,0
Sprite,Background,Centre,"sb\glow.png",558,326 S,0,120952,120952,0.5 C,0,120952,120952,255,0,255 F,0,120952,121452,1,0
Sprite,Background,Centre,"sb\glow.png",540,328 S,0,120971,120971,0.5 C,0,120971,120971,255,0,255 F,0,120971,121471,1,0
Sprite,Background,Centre,"sb\glow.png",521,331 S,0,120990,120990,0.5 C,0,120990,120990,255,0,255 F,0,120990,121490,1,0
Sprite,Background,Centre,"sb\glow.png",503,334 S,0,121009,121009,0.5 C,0,121009,121009,255,0,255 F,0,121009,121509,1,0
Sprite,Background,Centre,"sb\glow.png",485,340 S,0,121027,121027,0.5 C,0,121027,121027,255,0,255 F,0,121027,121527,1,0
Sprite,Background,Centre,"sb\glow.png",467,343 S,0,121046,121046,0.5 C,0,121046,121046,255,0,255 F,0,121046,121546,1,0
Sprite,Background,Centre,"sb\glow.png",448,346 S,0,121065,121065,0.5 C,0,121065,121065,255,0,255 F,0,121065,121565,1,0
Sprite,Background,Centre,"sb\glow.png",430,349 S,0,121084,121084,0.5 C,0,121084,121084,255,0,255 F,0,121084,121584,1,0
Sprite,Background,Centre,"sb\glow.png",411,351 S,0,121102,121102,0.5 C,0,121102,121102,255,0,255 F,0,121102,121602,1,0
Sprite,Background,Centre,"sb\glow.png",393,354 S,0,121121,121121,0.5 C,0,121121,121121,255,0,255 F,0,121121,121621,1,0
Sprite,Background,Centre,"sb\glow.png",374,357 S,0,121140,121140,0.5 C,0,121140,121140,255,0,255 F,0,121140,121640,1,0
Sprite,Background,Centre,"sb\glow.png",356,359 S,0,121159,121159,0.5 C,0,121159,121159,255,0,255 F,0,121159,121659,1,0
Sprite,Background,Centre,"sb\glow.png",336,386 S,0,121177,121177,0.5 C,0,121177,121177,255,0,255 F,0,121177,121677,1,0
Sprite,Background,Centre,"sb\glow.png",320,410 S,0,121196,121196,0.5 C,0,121196,121196,255,0,255 F,0,121196,121696,1,0
Sprite,Background,Centre,"sb\glow.png",308,426 S,0,121215,121215,0.5 C,0,121215,121215,255,0,255 F,0,121215,121715,1,0
Sprite,Background,Centre,"sb\glow.png",304,432 S,0,121234,121234,0.5 C,0,121234,121234,255,0,255 F,0,121234,121734,1,0
Sprite,Background,Centre,"sb\glow.png",292,419 S,0,121252,121252,0.5 C,0,121252,121252,255,0,255 F,0,121252,121752,1,0
Sprite,Background,Centre,"sb\glow.png",279,405 S,0,121271,121271,0.5 C,0,121271,121271,255,0,255 F,0,121271,121771,1,0
Sprite,Background,Centre,"sb\glow.png",266,392 S,0,121290,121290,0.5 C,0,121290,121290,255,0,255 F,0,121290,121790,1,0
Sprite,Background,Centre,"sb\glow.png",254,378 S,0,121309,121309,0.5 C,0,121309,121309,255,0,255 F,0,121309,121809,1,0
Sprite,Background,Centre,"sb\glow.png",260,361 S,0,121327,121327,0.5 C,0,121327,121327,255,0,255 F,0,121327,121827,1,0
Sprite,Background,Centre,"sb\glow.png",268,344 S,0,121346,121346,0.5 C,0,121346,121346,255,0,255 F,0,121346,121846,1,0
Sprite,Background,Centre,"sb\glow.png",275,327 S,0,121365,121365,0.5 C,0,121365,121365,255,0,255 F,0,121365,121865,1,0
Sprite,Background,Centre,"sb\glow.png",282,309 S,0,121384,121384,0.5 C,0,121384,121384,255,0,255 F,0,121384,121884,1,0
Sprite,Background,Centre,"sb\glow.png",255,278 S,0,121402,121402,0.5 C,0,121402,121402,255,0,255 F,0,121402,121902,1,0
Sprite,Background,Centre,"sb\glow.png",226,247 S,0,121421,121421,0.5 C,0,121421,121421,255,0,255 F,0,121421,121921,1,0
Sprite,Background,Centre,"sb\glow.png",199,219 S,0,121440,121440,0.5 C,0,121440,121440,255,0,255 F,0,121440,121940,1,0
Sprite,Background,Centre,"sb\glow.png",176,193 S,0,121459,121459,0.5 C,0,121459,121459,255,0,255 F,0,121459,121959,1,0
Sprite,Background,Centre,"sb\glow.png",157,173 S,0,121477,121477,0.5 C,0,121477,121477,255,0,255 F,0,121477,121977,1,0
Sprite,Background,Centre,"sb\glow.png",142,157 S,0,121496,121496,0.5 C,0,121496,121496,255,0,255 F,0,121496,121996,1,0
Sprite,Background,Centre,"sb\glow.png",133,148 S,0,121515,121515,0.5 C,0,121515,121515,255,0,255 F,0,121515,122015,1,0
Sprite,Background,Centre,"sb\glow.png",130,144 S,0,121534,121534,0.5 C,0,121534,121534,255,0,255 F,0,121534,122034,1,0
Sprite,Background,Centre,"sb\glow.png",101,140 S,0,121552,121552,0.5 C,0,121552,121552,255,128,192 F,0,121552,122052,1,0
Sprite,Background,Centre,"sb\glow.png",70,136 S,0,121571,121571,0.5 C,0,121571,121571,255,128,192 F,0,121571,122071,1,0
Sprite,Background,Centre,"sb\glow.png",97,140 S,0,121590,121590,0.5 C,0,121590,121590,255,128,192 F,0,121590,122090,1,0
Sprite,Background,Centre,"sb\glow.png",128,144 S,0,121609,121609,0.5 C,0,121609,121609,255,128,192 F,0,121609,122109,1,0
Sprite,Background,Centre,"sb\glow.png",101,140 S,0,121627,121627,0.5 C,0,121627,121627,255,128,192 F,0,121627,122127,1,0
Sprite,Background,Centre,"sb\glow.png",70,136 S,0,121646,121646,0.5 C,0,121646,121646,255,128,192 F,0,121646,122146,1,0
Sprite,Background,Centre,"sb\glow.png",97,140 S,0,121665,121665,0.5 C,0,121665,121665,255,128,192 F,0,121665,122165,1,0
Sprite,Background,Centre,"sb\glow.png",128,144 S,0,121684,121684,0.5 C,0,121684,121684,255,128,192 F,0,121684,122184,1,0
Sprite,Background,Centre,"sb\glow.png",101,140 S,0,121702,121702,0.5 C,0,121702,121702,255,128,192 F,0,121702,122202,1,0
Sprite,Background,Centre,"sb\glow.png",70,136 S,0,121721,121721,0.5 C,0,121721,121721,255,128,192 F,0,121721,122221,1,0
Sprite,Background,Centre,"sb\glow.png",97,140 S,0,121740,121740,0.5 C,0,121740,121740,255,128,192 F,0,121740,122240,1,0
Sprite,Background,Centre,"sb\glow.png",128,144 S,0,121759,121759,0.5 C,0,121759,121759,255,128,192 F,0,121759,122259,1,0
Sprite,Background,Centre,"sb\glow.png",156,123 S,0,121777,121777,0.5 C,0,121777,121777,255,128,192 F,0,121777,122277,1,0
Sprite,Background,Centre,"sb\glow.png",180,105 S,0,121796,121796,0.5 C,0,121796,121796,255,128,192 F,0,121796,122296,1,0
Sprite,Background,Centre,"sb\glow.png",196,92 S,0,121815,121815,0.5 C,0,121815,121815,255,128,192 F,0,121815,122315,1,0
Sprite,Background,Centre,"sb\glow.png",202,87 S,0,121834,121834,0.5 C,0,121834,121834,255,128,192 F,0,121834,122334,1,0
Sprite,Background,Centre,"sb\glow.png",190,100 S,0,121852,121852,0.5 C,0,121852,121852,255,0,128 F,0,121852,122352,1,0
Sprite,Background,Centre,"sb\glow.png",177,114 S,0,121871,121871,0.5 C,0,121871,121871,255,0,128 F,0,121871,122371,1,0
Sprite,Background,Centre,"sb\glow.png",164,127 S,0,121890,121890,0.5 C,0,121890,121890,255,0,128 F,0,121890,122390,1,0
Sprite,Background,Centre,"sb\glow.png",152,141 S,0,121909,121909,0.5 C,0,121909,121909,255,0,128 F,0,121909,122409,1,0
Sprite,Background,Centre,"sb\glow.png",158,158 S,0,121927,121927,0.5 C,0,121927,121927,255,0,128 F,0,121927,122427,1,0
Sprite,Background,Centre,"sb\glow.png",166,175 S,0,121946,121946,0.5 C,0,121946,121946,255,0,128 F,0,121946,122446,1,0
Sprite,Background,Centre,"sb\glow.png",173,192 S,0,121965,121965,0.5 C,0,121965,121965,255,0,128 F,0,121965,122465,1,0
Sprite,Background,Centre,"sb\glow.png",181,209 S,0,121984,121984,0.5 C,0,121984,121984,255,0,128 F,0,121984,122484,1,0
Sprite,Background,Centre,"sb\glow.png",174,251 S,0,122002,122002,0.5 C,0,122002,122002,255,0,128 F,0,122002,122502,1,0
Sprite,Background,Centre,"sb\glow.png",167,292 S,0,122021,122021,0.5 C,0,122021,122021,255,0,128 F,0,122021,122521,1,0
Sprite,Background,Centre,"sb\glow.png",161,331 S,0,122040,122040,0.5 C,0,122040,122040,255,0,128 F,0,122040,122540,1,0
Sprite,Background,Centre,"sb\glow.png",155,365 S,0,122059,122059,0.5 C,0,122059,122059,255,0,128 F,0,122059,122559,1,0
Sprite,Background,Centre,"sb\glow.png",150,392 S,0,122077,122077,0.5 C,0,122077,122077,255,0,128 F,0,122077,122577,1,0
Sprite,Background,Centre,"sb\glow.png",147,413 S,0,122096,122096,0.5 C,0,122096,122096,255,0,128 F,0,122096,122596,1,0
Sprite,Background,Centre,"sb\glow.png",145,426 S,0,122115,122115,0.5 C,0,122115,122115,255,0,128 F,0,122115,122615,1,0
Sprite,Background,Centre,"sb\glow.png",144,431 S,0,122134,122134,0.5 C,0,122134,122134,255,0,128 F,0,122134,122634,1,0
Sprite,Background,Centre,"sb\glow.png",147,413 S,0,122152,122152,0.5 C,0,122152,122152,255,0,128 F,0,122152,122652,1,0
Sprite,Background,Centre,"sb\glow.png",149,395 S,0,122171,122171,0.5 C,0,122171,122171,255,0,128 F,0,122171,122671,1,0
Sprite,Background,Centre,"sb\glow.png",152,376 S,0,122190,122190,0.5 C,0,122190,122190,255,0,128 F,0,122190,122690,1,0
Sprite,Background,Centre,"sb\glow.png",155,358 S,0,122209,122209,0.5 C,0,122209,122209,255,0,128 F,0,122209,122709,1,0
Sprite,Background,Centre,"sb\glow.png",161,340 S,0,122227,122227,0.5 C,0,122227,122227,255,0,128 F,0,122227,122727,1,0
Sprite,Background,Centre,"sb\glow.png",164,322 S,0,122246,122246,0.5 C,0,122246,122246,255,0,128 F,0,122246,122746,1,0
Sprite,Background,Centre,"sb\glow.png",167,303 S,0,122265,122265,0.5 C,0,122265,122265,255,0,128 F,0,122265,122765,1,0
Sprite,Background,Centre,"sb\glow.png",170,285 S,0,122284,122284,0.5 C,0,122284,122284,255,0,128 F,0,122284,122784,1,0
Sprite,Background,Centre,"sb\glow.png",172,266 S,0,122302,122302,0.5 C,0,122302,122302,255,0,128 F,0,122302,122802,1,0
Sprite,Background,Centre,"sb\glow.png",175,248 S,0,122321,122321,0.5 C,0,122321,122321,255,0,128 F,0,122321,122821,1,0
Sprite,Background,Centre,"sb\glow.png",178,229 S,0,122340,122340,0.5 C,0,122340,122340,255,0,128 F,0,122340,122840,1,0
Sprite,Background,Centre,"sb\glow.png",180,211 S,0,122359,122359,0.5 C,0,122359,122359,255,0,128 F,0,122359,122859,1,0
Sprite,Background,Centre,"sb\glow.png",213,193 S,0,122377,122377,0.5 C,0,122377,122377,255,0,128 F,0,122377,122877,1,0
Sprite,Background,Centre,"sb\glow.png",243,177 S,0,122396,122396,0.5 C,0,122396,122396,255,0,128 F,0,122396,122896,1,0
Sprite,Background,Centre,"sb\glow.png",263,167 S,0,122415,122415,0.5 C,0,122415,122415,255,0,128 F,0,122415,122915,1,0
Sprite,Background,Centre,"sb\glow.png",271,163 S,0,122434,122434,0.5 C,0,122434,122434,255,0,128 F,0,122434,122934,1,0
Sprite,Background,Centre,"sb\glow.png",289,164 S,0,122452,122452,0.5 C,0,122452,122452,255,88,102 F,0,122452,122952,1,0
Sprite,Background,Centre,"sb\glow.png",307,167 S,0,122471,122471,0.5 C,0,122471,122471,255,88,102 F,0,122471,122971,1,0
Sprite,Background,Centre,"sb\glow.png",325,173 S,0,122490,122490,0.5 C,0,122490,122490,255,88,102 F,0,122490,122990,1,0
Sprite,Background,Centre,"sb\glow.png",341,183 S,0,122509,122509,0.5 C,0,122509,122509,255,88,102 F,0,122509,123009,1,0
Sprite,Background,Centre,"sb\glow.png",354,196 S,0,122527,122527,0.5 C,0,122527,122527,255,88,102 F,0,122527,123027,1,0
Sprite,Background,Centre,"sb\glow.png",365,211 S,0,122546,122546,0.5 C,0,122546,122546,255,88,102 F,0,122546,123046,1,0
Sprite,Background,Centre,"sb\glow.png",377,226 S,0,122565,122565,0.5 C,0,122565,122565,255,88,102 F,0,122565,123065,1,0
Sprite,Background,Centre,"sb\glow.png",391,238 S,0,122584,122584,0.5 C,0,122584,122584,255,88,102 F,0,122584,123084,1,0
Sprite,Background,Centre,"sb\glow.png",407,248 S,0,122602,122602,0.5 C,0,122602,122602,255,88,102 F,0,122602,123102,1,0
Sprite,Background,Centre,"sb\glow.png",424,255 S,0,122621,122621,0.5 C,0,122621,122621,255,88,102 F,0,122621,123121,1,0
Sprite,Background,Centre,"sb\glow.png",442,259 S,0,122640,122640,0.5 C,0,122640,122640,255,88,102 F,0,122640,123140,1,0
Sprite,Background,Centre,"sb\glow.png",461,262 S,0,122659,122659,0.5 C,0,122659,122659,255,88,102 F,0,122659,123159,1,0
Sprite,Background,Centre,"sb\glow.png",484,319 S,0,122677,122677,0.5 C,0,122677,122677,255,88,102 F,0,122677,123177,1,0
Sprite,Background,Centre,"sb\glow.png",504,370 S,0,122696,122696,0.5 C,0,122696,122696,255,88,102 F,0,122696,123196,1,0
Sprite,Background,Centre,"sb\glow.png",517,405 S,0,122715,122715,0.5 C,0,122715,122715,255,88,102 F,0,122715,123215,1,0
Sprite,Background,Centre,"sb\glow.png",522,418 S,0,122734,122734,0.5 C,0,122734,122734,255,88,102 F,0,122734,123234,1,0
Sprite,Background,Centre,"sb\glow.png",530,402 S,0,122752,122752,0.5 C,0,122752,122752,255,88,102 F,0,122752,123252,1,0
Sprite,Background,Centre,"sb\glow.png",541,387 S,0,122771,122771,0.5 C,0,122771,122771,255,88,102 F,0,122771,123271,1,0
Sprite,Background,Centre,"sb\glow.png",555,375 S,0,122790,122790,0.5 C,0,122790,122790,255,88,102 F,0,122790,123290,1,0
Sprite,Background,Centre,"sb\glow.png",571,364 S,0,122809,122809,0.5 C,0,122809,122809,255,88,102 F,0,122809,123309,1,0
Sprite,Background,Centre,"sb\glow.png",556,368 S,0,122827,122827,0.5 C,0,122827,122827,255,88,102 F,0,122827,123327,1,0
Sprite,Background,Centre,"sb\glow.png",538,373 S,0,122846,122846,0.5 C,0,122846,122846,255,88,102 F,0,122846,123346,1,0
Sprite,Background,Centre,"sb\glow.png",520,379 S,0,122865,122865,0.5 C,0,122865,122865,255,88,102 F,0,122865,123365,1,0
Sprite,Background,Centre,"sb\glow.png",502,384 S,0,122884,122884,0.5 C,0,122884,122884,255,88,102 F,0,122884,123384,1,0
Sprite,Background,Centre,"sb\glow.png",484,390 S,0,122902,122902,0.5 C,0,122902,122902,255,88,102 F,0,122902,123402,1,0
Sprite,Background,Centre,"sb\glow.png",466,395 S,0,122921,122921,0.5 C,0,122921,122921,255,88,102 F,0,122921,123421,1,0
Sprite,Background,Centre,"sb\glow.png",448,400 S,0,122940,122940,0.5 C,0,122940,122940,255,88,102 F,0,122940,123440,1,0
Sprite,Background,Centre,"sb\glow.png",430,406 S,0,122959,122959,0.5 C,0,122959,122959,255,88,102 F,0,122959,123459,1,0
Sprite,Background,Centre,"sb\glow.png",427,412 S,0,122977,122977,0.5 C,0,122977,122977,255,88,102 F,0,122977,123477,1,0
Sprite,Background,Centre,"sb\glow.png",426,417 S,0,122996,122996,0.5 C,0,122996,122996,255,88,102 F,0,122996,123496,1,0
Sprite,Background,Centre,"sb\glow.png",424,421 S,0,123015,123015,0.5 C,0,123015,123015,255,88,102 F,0,123015,123515,1,0
Sprite,Background,Centre,"sb\glow.png",424,422 S,0,123034,123034,0.5 C,0,123034,123034,255,88,102 F,0,123034,123534,1,0
Sprite,Background,Centre,"sb\glow.png",414,408 S,0,123052,123052,0.5 C,0,123052,123052,255,88,102 F,0,123052,123552,1,0
Sprite,Background,Centre,"sb\glow.png",398,397 S,0,123071,123071,0.5 C,0,123071,123071,255,88,102 F,0,123071,123571,1,0
Sprite,Background,Centre,"sb\glow.png",380,393 S,0,123090,123090,0.5 C,0,123090,123090,255,88,102 F,0,123090,123590,1,0
Sprite,Background,Centre,"sb\glow.png",362,396 S,0,123109,123109,0.5 C,0,123109,123109,255,88,102 F,0,123109,123609,1,0
Sprite,Background,Centre,"sb\glow.png",439,354 S,0,123127,123127,0.5 C,0,123127,123127,255,88,102 F,0,123127,123627,1,0
Sprite,Background,Centre,"sb\glow.png",510,316 S,0,123146,123146,0.5 C,0,123146,123146,255,88,102 F,0,123146,123646,1,0
Sprite,Background,Centre,"sb\glow.png",558,291 S,0,123165,123165,0.5 C,0,123165,123165,255,88,102 F,0,123165,123665,1,0
Sprite,Background,Centre,"sb\glow.png",576,281 S,0,123184,123184,0.5 C,0,123184,123184,255,88,102 F,0,123184,123684,1,0
Sprite,Background,Centre,"sb\glow.png",566,244 S,0,123202,123202,0.5 C,0,123202,123202,255,88,102 F,0,123202,123702,1,0
Sprite,Background,Centre,"sb\glow.png",557,206 S,0,123221,123221,0.5 C,0,123221,123221,255,88,102 F,0,123221,123721,1,0
Sprite,Background,Centre,"sb\glow.png",548,171 S,0,123240,123240,0.5 C,0,123240,123240,255,88,102 F,0,123240,123740,1,0
Sprite,Background,Centre,"sb\glow.png",540,140 S,0,123259,123259,0.5 C,0,123259,123259,255,88,102 F,0,123259,123759,1,0
Sprite,Background,Centre,"sb\glow.png",533,115 S,0,123277,123277,0.5 C,0,123277,123277,255,88,102 F,0,123277,123777,1,0
Sprite,Background,Centre,"sb\glow.png",528,96 S,0,123296,123296,0.5 C,0,123296,123296,255,88,102 F,0,123296,123796,1,0
Sprite,Background,Centre,"sb\glow.png",525,84 S,0,123315,123315,0.5 C,0,123315,123315,255,88,102 F,0,123315,123815,1,0
Sprite,Background,Centre,"sb\glow.png",524,80 S,0,123334,123334,0.5 C,0,123334,123334,255,88,102 F,0,123334,123834,1,0
Sprite,Background,Centre,"sb\glow.png",521,98 S,0,123352,123352,0.5 C,0,123352,123352,255,0,255 F,0,123352,123852,1,0
Sprite,Background,Centre,"sb\glow.png",519,116 S,0,123371,123371,0.5 C,0,123371,123371,255,0,255 F,0,123371,123871,1,0
Sprite,Background,Centre,"sb\glow.png",516,135 S,0,123390,123390,0.5 C,0,123390,123390,255,0,255 F,0,123390,123890,1,0
Sprite,Background,Centre,"sb\glow.png",513,153 S,0,123409,123409,0.5 C,0,123409,123409,255,0,255 F,0,123409,123909,1,0
Sprite,Background,Centre,"sb\glow.png",510,172 S,0,123427,123427,0.5 C,0,123427,123427,255,0,255 F,0,123427,123927,1,0
Sprite,Background,Centre,"sb\glow.png",500,187 S,0,123446,123446,0.5 C,0,123446,123446,255,0,255 F,0,123446,123946,1,0
Sprite,Background,Centre,"sb\glow.png",494,204 S,0,123465,123465,0.5 C,0,123465,123465,255,0,255 F,0,123465,123965,1,0
Sprite,Background,Centre,"sb\glow.png",492,223 S,0,123484,123484,0.5 C,0,123484,123484,255,0,255 F,0,123484,123984,1,0
Sprite,Background,Centre,"sb\glow.png",489,241 S,0,123502,123502,0.5 C,0,123502,123502,255,0,255 F,0,123502,124002,1,0
Sprite,Background,Centre,"sb\glow.png",487,260 S,0,123521,123521,0.5 C,0,123521,123521,255,0,255 F,0,123521,124021,1,0
Sprite,Background,Centre,"sb\glow.png",484,278 S,0,123540,123540,0.5 C,0,123540,123540,255,0,255 F,0,123540,124040,1,0
Sprite,Background,Centre,"sb\glow.png",482,297 S,0,123559,123559,0.5 C,0,123559,123559,255,0,255 F,0,123559,124059,1,0
Sprite,Background,Centre,"sb\glow.png",485,302 S,0,123577,123577,0.5 C,0,123577,123577,255,0,255 F,0,123577,124077,1,0
Sprite,Background,Centre,"sb\glow.png",487,306 S,0,123596,123596,0.5 C,0,123596,123596,255,0,255 F,0,123596,124096,1,0
Sprite,Background,Centre,"sb\glow.png",489,309 S,0,123615,123615,0.5 C,0,123615,123615,255,0,255 F,0,123615,124115,1,0
Sprite,Background,Centre,"sb\glow.png",490,310 S,0,123634,123634,0.5 C,0,123634,123634,255,0,255 F,0,123634,124134,1,0
Sprite,Background,Centre,"sb\glow.png",479,272 S,0,123652,123652,0.5 C,0,123652,123652,255,0,255 F,0,123652,124152,1,0
Sprite,Background,Centre,"sb\glow.png",468,233 S,0,123671,123671,0.5 C,0,123671,123671,255,0,255 F,0,123671,124171,1,0
Sprite,Background,Centre,"sb\glow.png",458,197 S,0,123690,123690,0.5 C,0,123690,123690,255,0,255 F,0,123690,124190,1,0
Sprite,Background,Centre,"sb\glow.png",449,165 S,0,123709,123709,0.5 C,0,123709,123709,255,0,255 F,0,123709,124209,1,0
Sprite,Background,Centre,"sb\glow.png",442,139 S,0,123727,123727,0.5 C,0,123727,123727,255,0,255 F,0,123727,124227,1,0
Sprite,Background,Centre,"sb\glow.png",437,120 S,0,123746,123746,0.5 C,0,123746,123746,255,0,255 F,0,123746,124246,1,0
Sprite,Background,Centre,"sb\glow.png",433,107 S,0,123765,123765,0.5 C,0,123765,123765,255,0,255 F,0,123765,124265,1,0
Sprite,Background,Centre,"sb\glow.png",432,103 S,0,123784,123784,0.5 C,0,123784,123784,255,0,255 F,0,123784,124284,1,0
Sprite,Background,Centre,"sb\glow.png",414,127 S,0,123802,123802,0.5 C,0,123802,123802,255,0,255 F,0,123802,124302,1,0
Sprite,Background,Centre,"sb\glow.png",395,152 S,0,123821,123821,0.5 C,0,123821,123821,255,0,255 F,0,123821,124321,1,0
Sprite,Background,Centre,"sb\glow.png",378,175 S,0,123840,123840,0.5 C,0,123840,123840,255,0,255 F,0,123840,124340,1,0
Sprite,Background,Centre,"sb\glow.png",363,195 S,0,123859,123859,0.5 C,0,123859,123859,255,0,255 F,0,123859,124359,1,0
Sprite,Background,Centre,"sb\glow.png",350,211 S,0,123877,123877,0.5 C,0,123877,123877,255,0,255 F,0,123877,124377,1,0
Sprite,Background,Centre,"sb\glow.png",341,223 S,0,123896,123896,0.5 C,0,123896,123896,255,0,255 F,0,123896,124396,1,0
Sprite,Background,Centre,"sb\glow.png",335,231 S,0,123915,123915,0.5 C,0,123915,123915,255,0,255 F,0,123915,124415,1,0
Sprite,Background,Centre,"sb\glow.png",333,234 S,0,123934,123934,0.5 C,0,123934,123934,255,0,255 F,0,123934,124434,1,0
Sprite,Background,Centre,"sb\glow.png",316,237 S,0,123952,123952,0.5 C,0,123952,123952,255,128,192 F,0,123952,124452,1,0
Sprite,Background,Centre,"sb\glow.png",297,240 S,0,123971,123971,0.5 C,0,123971,123971,255,128,192 F,0,123971,124471,1,0
Sprite,Background,Centre,"sb\glow.png",279,243 S,0,123990,123990,0.5 C,0,123990,123990,255,128,192 F,0,123990,124490,1,0
Sprite,Background,Centre,"sb\glow.png",260,247 S,0,124009,124009,0.5 C,0,124009,124009,255,128,192 F,0,124009,124509,1,0
Sprite,Background,Centre,"sb\glow.png",245,257 S,0,124027,124027,0.5 C,0,124027,124027,255,128,192 F,0,124027,124527,1,0
Sprite,Background,Centre,"sb\glow.png",229,263 S,0,124046,124046,0.5 C,0,124046,124046,255,128,192 F,0,124046,124546,1,0
Sprite,Background,Centre,"sb\glow.png",211,259 S,0,124065,124065,0.5 C,0,124065,124065,255,128,192 F,0,124065,124565,1,0
Sprite,Background,Centre,"sb\glow.png",192,259 S,0,124084,124084,0.5 C,0,124084,124084,255,128,192 F,0,124084,124584,1,0
Sprite,Background,Centre,"sb\glow.png",174,261 S,0,124102,124102,0.5 C,0,124102,124102,255,128,192 F,0,124102,124602,1,0
Sprite,Background,Centre,"sb\glow.png",155,264 S,0,124121,124121,0.5 C,0,124121,124121,255,128,192 F,0,124121,124621,1,0
Sprite,Background,Centre,"sb\glow.png",137,267 S,0,124140,124140,0.5 C,0,124140,124140,255,128,192 F,0,124140,124640,1,0
Sprite,Background,Centre,"sb\glow.png",118,269 S,0,124159,124159,0.5 C,0,124159,124159,255,128,192 F,0,124159,124659,1,0
Sprite,Background,Centre,"sb\glow.png",138,210 S,0,124177,124177,0.5 C,0,124177,124177,255,128,192 F,0,124177,124677,1,0
Sprite,Background,Centre,"sb\glow.png",156,156 S,0,124196,124196,0.5 C,0,124196,124196,255,128,192 F,0,124196,124696,1,0
Sprite,Background,Centre,"sb\glow.png",169,120 S,0,124215,124215,0.5 C,0,124215,124215,255,128,192 F,0,124215,124715,1,0
Sprite,Background,Centre,"sb\glow.png",174,106 S,0,124234,124234,0.5 C,0,124234,124234,255,128,192 F,0,124234,124734,1,0
Sprite,Background,Centre,"sb\glow.png",169,89 S,0,124252,124252,0.5 C,0,124252,124252,255,128,192 F,0,124252,124752,1,0
Sprite,Background,Centre,"sb\glow.png",159,73 S,0,124271,124271,0.5 C,0,124271,124271,255,128,192 F,0,124271,124771,1,0
Sprite,Background,Centre,"sb\glow.png",145,61 S,0,124290,124290,0.5 C,0,124290,124290,255,128,192 F,0,124290,124790,1,0
Sprite,Background,Centre,"sb\glow.png",153,61 S,0,124309,124309,0.5 C,0,124309,124309,255,128,192 F,0,124309,124809,1,0
Sprite,Background,Centre,"sb\glow.png",170,67 S,0,124327,124327,0.5 C,0,124327,124327,255,128,192 F,0,124327,124827,1,0
Sprite,Background,Centre,"sb\glow.png",186,77 S,0,124346,124346,0.5 C,0,124346,124346,255,128,192 F,0,124346,124846,1,0
Sprite,Background,Centre,"sb\glow.png",199,90 S,0,124365,124365,0.5 C,0,124365,124365,255,128,192 F,0,124365,124865,1,0
Sprite,Background,Centre,"sb\glow.png",210,105 S,0,124384,124384,0.5 C,0,124384,124384,255,128,192 F,0,124384,124884,1,0
Sprite,Background,Centre,"sb\glow.png",218,122 S,0,124402,124402,0.5 C,0,124402,124402,255,128,192 F,0,124402,124902,1,0
Sprite,Background,Centre,"sb\glow.png",222,141 S,0,124421,124421,0.5 C,0,124421,124421,255,128,192 F,0,124421,124921,1,0
Sprite,Background,Centre,"sb\glow.png",223,159 S,0,124440,124440,0.5 C,0,124440,124440,255,128,192 F,0,124440,124940,1,0
Sprite,Background,Centre,"sb\glow.png",220,178 S,0,124459,124459,0.5 C,0,124459,124459,255,128,192 F,0,124459,124959,1,0
Sprite,Background,Centre,"sb\glow.png",164,259 S,0,124477,124477,0.5 C,0,124477,124477,255,128,192 F,0,124477,124977,1,0
Sprite,Background,Centre,"sb\glow.png",113,331 S,0,124496,124496,0.5 C,0,124496,124496,255,128,192 F,0,124496,124996,1,0
Sprite,Background,Centre,"sb\glow.png",78,380 S,0,124515,124515,0.5 C,0,124515,124515,255,128,192 F,0,124515,125015,1,0
Sprite,Background,Centre,"sb\glow.png",65,399 S,0,124534,124534,0.5 C,0,124534,124534,255,128,192 F,0,124534,125034,1,0
Sprite,Background,Centre,"sb\glow.png",73,383 S,0,124552,124552,0.5 C,0,124552,124552,255,128,192 F,0,124552,125052,1,0
Sprite,Background,Centre,"sb\glow.png",84,368 S,0,124571,124571,0.5 C,0,124571,124571,255,128,192 F,0,124571,125071,1,0
Sprite,Background,Centre,"sb\glow.png",99,357 S,0,124590,124590,0.5 C,0,124590,124590,255,128,192 F,0,124590,125090,1,0
Sprite,Background,Centre,"sb\glow.png",115,348 S,0,124609,124609,0.5 C,0,124609,124609,255,128,192 F,0,124609,125109,1,0
Sprite,Background,Centre,"sb\glow.png",133,345 S,0,124627,124627,0.5 C,0,124627,124627,255,128,192 F,0,124627,125127,1,0
Sprite,Background,Centre,"sb\glow.png",152,345 S,0,124646,124646,0.5 C,0,124646,124646,255,128,192 F,0,124646,125146,1,0
Sprite,Background,Centre,"sb\glow.png",170,350 S,0,124665,124665,0.5 C,0,124665,124665,255,128,192 F,0,124665,125165,1,0
Sprite,Background,Centre,"sb\glow.png",186,359 S,0,124684,124684,0.5 C,0,124684,124684,255,128,192 F,0,124684,125184,1,0
Sprite,Background,Centre,"sb\glow.png",213,374 S,0,124702,124702,0.5 C,0,124702,124702,255,128,192 F,0,124702,125202,1,0
Sprite,Background,Centre,"sb\glow.png",239,389 S,0,124721,124721,0.5 C,0,124721,124721,255,128,192 F,0,124721,125221,1,0
Sprite,Background,Centre,"sb\glow.png",264,403 S,0,124740,124740,0.5 C,0,124740,124740,255,128,192 F,0,124740,125240,1,0
Sprite,Background,Centre,"sb\glow.png",285,416 S,0,124759,124759,0.5 C,0,124759,124759,255,128,192 F,0,124759,125259,1,0
Sprite,Background,Centre,"sb\glow.png",303,426 S,0,124777,124777,0.5 C,0,124777,124777,255,128,192 F,0,124777,125277,1,0
Sprite,Background,Centre,"sb\glow.png",316,434 S,0,124796,124796,0.5 C,0,124796,124796,255,128,192 F,0,124796,125296,1,0
Sprite,Background,Centre,"sb\glow.png",324,438 S,0,124815,124815,0.5 C,0,124815,124815,255,128,192 F,0,124815,125315,1,0
Sprite,Background,Centre,"sb\glow.png",327,440 S,0,124834,124834,0.5 C,0,124834,124834,255,128,192 F,0,124834,125334,1,0
Sprite,Background,Centre,"sb\glow.png",339,427 S,0,124852,124852,0.5 C,0,124852,124852,255,0,128 F,0,124852,125352,1,0
Sprite,Background,Centre,"sb\glow.png",348,412 S,0,124871,124871,0.5 C,0,124871,124871,255,0,128 F,0,124871,125371,1,0
Sprite,Background,Centre,"sb\glow.png",345,393 S,0,124890,124890,0.5 C,0,124890,124890,255,0,128 F,0,124890,125390,1,0
Sprite,Background,Centre,"sb\glow.png",341,375 S,0,124909,124909,0.5 C,0,124909,124909,255,0,128 F,0,124909,125409,1,0
Sprite,Background,Centre,"sb\glow.png",398,311 S,0,124927,124927,0.5 C,0,124927,124927,255,0,128 F,0,124927,125427,1,0
Sprite,Background,Centre,"sb\glow.png",450,254 S,0,124946,124946,0.5 C,0,124946,124946,255,0,128 F,0,124946,125446,1,0
Sprite,Background,Centre,"sb\glow.png",486,216 S,0,124965,124965,0.5 C,0,124965,124965,255,0,128 F,0,124965,125465,1,0
Sprite,Background,Centre,"sb\glow.png",499,201 S,0,124984,124984,0.5 C,0,124984,124984,255,0,128 F,0,124984,125484,1,0
Sprite,Background,Centre,"sb\glow.png",511,214 S,0,125002,125002,0.5 C,0,125002,125002,255,0,128 F,0,125002,125502,1,0
Sprite,Background,Centre,"sb\glow.png",520,229 S,0,125021,125021,0.5 C,0,125021,125021,255,0,128 F,0,125021,125521,1,0
Sprite,Background,Centre,"sb\glow.png",517,248 S,0,125040,125040,0.5 C,0,125040,125040,255,0,128 F,0,125040,125540,1,0
Sprite,Background,Centre,"sb\glow.png",513,266 S,0,125059,125059,0.5 C,0,125059,125059,255,0,128 F,0,125059,125559,1,0
Sprite,Background,Centre,"sb\glow.png",531,301 S,0,125077,125077,0.5 C,0,125077,125077,255,0,128 F,0,125077,125577,1,0
Sprite,Background,Centre,"sb\glow.png",547,333 S,0,125096,125096,0.5 C,0,125096,125096,255,0,128 F,0,125096,125596,1,0
Sprite,Background,Centre,"sb\glow.png",558,354 S,0,125115,125115,0.5 C,0,125115,125115,255,0,128 F,0,125115,125615,1,0
Sprite,Background,Centre,"sb\glow.png",562,362 S,0,125134,125134,0.5 C,0,125134,125134,255,0,128 F,0,125134,125634,1,0
Sprite,Background,Centre,"sb\glow.png",544,359 S,0,125152,125152,0.5 C,0,125152,125152,255,88,102 F,0,125152,125652,1,0
Sprite,Background,Centre,"sb\glow.png",526,357 S,0,125171,125171,0.5 C,0,125171,125171,255,88,102 F,0,125171,125671,1,0
Sprite,Background,Centre,"sb\glow.png",507,354 S,0,125190,125190,0.5 C,0,125190,125190,255,88,102 F,0,125190,125690,1,0
Sprite,Background,Centre,"sb\glow.png",489,350 S,0,125209,125209,0.5 C,0,125209,125209,255,88,102 F,0,125209,125709,1,0
Sprite,Background,Centre,"sb\glow.png",472,345 S,0,125227,125227,0.5 C,0,125227,125227,255,88,102 F,0,125227,125727,1,0
Sprite,Background,Centre,"sb\glow.png",453,342 S,0,125246,125246,0.5 C,0,125246,125246,255,88,102 F,0,125246,125746,1,0
Sprite,Background,Centre,"sb\glow.png",435,339 S,0,125265,125265,0.5 C,0,125265,125265,255,88,102 F,0,125265,125765,1,0
Sprite,Background,Centre,"sb\glow.png",416,336 S,0,125284,125284,0.5 C,0,125284,125284,255,88,102 F,0,125284,125784,1,0
Sprite,Background,Centre,"sb\glow.png",423,354 S,0,125302,125302,0.5 C,0,125302,125302,255,88,102 F,0,125302,125802,1,0
Sprite,Background,Centre,"sb\glow.png",431,372 S,0,125321,125321,0.5 C,0,125321,125321,255,88,102 F,0,125321,125821,1,0
Sprite,Background,Centre,"sb\glow.png",439,389 S,0,125340,125340,0.5 C,0,125340,125340,255,88,102 F,0,125340,125840,1,0
Sprite,Background,Centre,"sb\glow.png",445,403 S,0,125359,125359,0.5 C,0,125359,125359,255,88,102 F,0,125359,125859,1,0
Sprite,Background,Centre,"sb\glow.png",451,415 S,0,125377,125377,0.5 C,0,125377,125377,255,88,102 F,0,125377,125877,1,0
Sprite,Background,Centre,"sb\glow.png",455,424 S,0,125396,125396,0.5 C,0,125396,125396,255,88,102 F,0,125396,125896,1,0
Sprite,Background,Centre,"sb\glow.png",457,430 S,0,125415,125415,0.5 C,0,125415,125415,255,88,102 F,0,125415,125915,1,0
Sprite,Background,Centre,"sb\glow.png",458,432 S,0,125434,125434,0.5 C,0,125434,125434,255,88,102 F,0,125434,125934,1,0
Sprite,Background,Centre,"sb\glow.png",474,402 S,0,125452,125452,0.5 C,0,125452,125452,255,0,255 F,0,125452,125952,1,0
Sprite,Background,Centre,"sb\glow.png",491,372 S,0,125471,125471,0.5 C,0,125471,125471,255,0,255 F,0,125471,125971,1,0
Sprite,Background,Centre,"sb\glow.png",507,344 S,0,125490,125490,0.5 C,0,125490,125490,255,0,255 F,0,125490,125990,1,0
Sprite,Background,Centre,"sb\glow.png",520,319 S,0,125509,125509,0.5 C,0,125509,125509,255,0,255 F,0,125509,126009,1,0
Sprite,Background,Centre,"sb\glow.png",531,299 S,0,125527,125527,0.5 C,0,125527,125527,255,0,255 F,0,125527,126027,1,0
Sprite,Background,Centre,"sb\glow.png",540,284 S,0,125546,125546,0.5 C,0,125546,125546,255,0,255 F,0,125546,126046,1,0
Sprite,Background,Centre,"sb\glow.png",545,274 S,0,125565,125565,0.5 C,0,125565,125565,255,0,255 F,0,125565,126065,1,0
Sprite,Background,Centre,"sb\glow.png",547,271 S,0,125584,125584,0.5 C,0,125584,125584,255,0,255 F,0,125584,126084,1,0
Sprite,Background,Centre,"sb\glow.png",511,253 S,0,125602,125602,0.5 C,0,125602,125602,255,0,255 F,0,125602,126102,1,0
Sprite,Background,Centre,"sb\glow.png",475,234 S,0,125621,125621,0.5 C,0,125621,125621,255,0,255 F,0,125621,126121,1,0
Sprite,Background,Centre,"sb\glow.png",441,217 S,0,125640,125640,0.5 C,0,125640,125640,255,0,255 F,0,125640,126140,1,0
Sprite,Background,Centre,"sb\glow.png",411,202 S,0,125659,125659,0.5 C,0,125659,125659,255,0,255 F,0,125659,126159,1,0
Sprite,Background,Centre,"sb\glow.png",387,189 S,0,125677,125677,0.5 C,0,125677,125677,255,0,255 F,0,125677,126177,1,0
Sprite,Background,Centre,"sb\glow.png",369,180 S,0,125696,125696,0.5 C,0,125696,125696,255,0,255 F,0,125696,126196,1,0
Sprite,Background,Centre,"sb\glow.png",357,174 S,0,125715,125715,0.5 C,0,125715,125715,255,0,255 F,0,125715,126215,1,0
Sprite,Background,Centre,"sb\glow.png",353,172 S,0,125734,125734,0.5 C,0,125734,125734,255,0,255 F,0,125734,126234,1,0
Sprite,Background,Centre,"sb\glow.png",366,184 S,0,125752,125752,0.5 C,0,125752,125752,255,128,192 F,0,125752,126252,1,0
Sprite,Background,Centre,"sb\glow.png",382,190 S,0,125771,125771,0.5 C,0,125771,125771,255,128,192 F,0,125771,126271,1,0
Sprite,Background,Centre,"sb\glow.png",401,188 S,0,125790,125790,0.5 C,0,125790,125790,255,128,192 F,0,125790,126290,1,0
Sprite,Background,Centre,"sb\glow.png",420,185 S,0,125809,125809,0.5 C,0,125809,125809,255,128,192 F,0,125809,126309,1,0
Sprite,Background,Centre,"sb\glow.png",438,183 S,0,125827,125827,0.5 C,0,125827,125827,255,128,192 F,0,125827,126327,1,0
Sprite,Background,Centre,"sb\glow.png",457,180 S,0,125846,125846,0.5 C,0,125846,125846,255,128,192 F,0,125846,126346,1,0
Sprite,Background,Centre,"sb\glow.png",475,178 S,0,125865,125865,0.5 C,0,125865,125865,255,128,192 F,0,125865,126365,1,0
Sprite,Background,Centre,"sb\glow.png",494,175 S,0,125884,125884,0.5 C,0,125884,125884,255,128,192 F,0,125884,126384,1,0
Sprite,Background,Centre,"sb\glow.png",512,173 S,0,125902,125902,0.5 C,0,125902,125902,255,128,192 F,0,125902,126402,1,0
Sprite,Background,Centre,"sb\glow.png",531,170 S,0,125921,125921,0.5 C,0,125921,125921,255,128,192 F,0,125921,126421,1,0
Sprite,Background,Centre,"sb\glow.png",545,160 S,0,125940,125940,0.5 C,0,125940,125940,255,128,192 F,0,125940,126440,1,0
Sprite,Background,Centre,"sb\glow.png",557,146 S,0,125959,125959,0.5 C,0,125959,125959,255,128,192 F,0,125959,126459,1,0
Sprite,Background,Centre,"sb\glow.png",561,140 S,0,125977,125977,0.5 C,0,125977,125977,255,128,192 F,0,125977,126477,1,0
Sprite,Background,Centre,"sb\glow.png",563,135 S,0,125996,125996,0.5 C,0,125996,125996,255,128,192 F,0,125996,126496,1,0
Sprite,Background,Centre,"sb\glow.png",565,132 S,0,126015,126015,0.5 C,0,126015,126015,255,128,192 F,0,126015,126515,1,0
Sprite,Background,Centre,"sb\glow.png",566,131 S,0,126034,126034,0.5 C,0,126034,126034,255,128,192 F,0,126034,126534,1,0
Sprite,Background,Centre,"sb\glow.png",562,153 S,0,126052,126052,0.5 C,0,126052,126052,255,0,128 F,0,126052,126552,1,0
Sprite,Background,Centre,"sb\glow.png",558,176 S,0,126071,126071,0.5 C,0,126071,126071,255,0,128 F,0,126071,126571,1,0
Sprite,Background,Centre,"sb\glow.png",554,197 S,0,126090,126090,0.5 C,0,126090,126090,255,0,128 F,0,126090,126590,1,0
Sprite,Background,Centre,"sb\glow.png",551,216 S,0,126109,126109,0.5 C,0,126109,126109,255,0,128 F,0,126109,126609,1,0
Sprite,Background,Centre,"sb\glow.png",548,231 S,0,126127,126127,0.5 C,0,126127,126127,255,0,128 F,0,126127,126627,1,0
Sprite,Background,Centre,"sb\glow.png",546,242 S,0,126146,126146,0.5 C,0,126146,126146,255,0,128 F,0,126146,126646,1,0
Sprite,Background,Centre,"sb\glow.png",544,249 S,0,126165,126165,0.5 C,0,126165,126165,255,0,128 F,0,126165,126665,1,0
Sprite,Background,Centre,"sb\glow.png",544,252 S,0,126184,126184,0.5 C,0,126184,126184,255,0,128 F,0,126184,126684,1,0
Sprite,Background,Centre,"sb\glow.png",514,279 S,0,126202,126202,0.5 C,0,126202,126202,255,0,128 F,0,126202,126702,1,0
Sprite,Background,Centre,"sb\glow.png",482,306 S,0,126221,126221,0.5 C,0,126221,126221,255,0,128 F,0,126221,126721,1,0
Sprite,Background,Centre,"sb\glow.png",454,331 S,0,126240,126240,0.5 C,0,126240,126240,255,0,128 F,0,126240,126740,1,0
Sprite,Background,Centre,"sb\glow.png",429,353 S,0,126259,126259,0.5 C,0,126259,126259,255,0,128 F,0,126259,126759,1,0
Sprite,Background,Centre,"sb\glow.png",408,371 S,0,126277,126277,0.5 C,0,126277,126277,255,0,128 F,0,126277,126777,1,0
Sprite,Background,Centre,"sb\glow.png",392,384 S,0,126296,126296,0.5 C,0,126296,126296,255,0,128 F,0,126296,126796,1,0
Sprite,Background,Centre,"sb\glow.png",383,393 S,0,126315,126315,0.5 C,0,126315,126315,255,0,128 F,0,126315,126815,1,0
Sprite,Background,Centre,"sb\glow.png",379,396 S,0,126334,126334,0.5 C,0,126334,126334,255,0,128 F,0,126334,126834,1,0
Sprite,Background,Centre,"sb\glow.png",375,374 S,0,126352,126352,0.5 C,0,126352,126352,255,88,102 F,0,126352,126852,1,0
Sprite,Background,Centre,"sb\glow.png",371,351 S,0,126371,126371,0.5 C,0,126371,126371,255,88,102 F,0,126371,126871,1,0
Sprite,Background,Centre,"sb\glow.png",367,330 S,0,126390,126390,0.5 C,0,126390,126390,255,88,102 F,0,126390,126890,1,0
Sprite,Background,Centre,"sb\glow.png",364,311 S,0,126409,126409,0.5 C,0,126409,126409,255,88,102 F,0,126409,126909,1,0
Sprite,Background,Centre,"sb\glow.png",361,296 S,0,126427,126427,0.5 C,0,126427,126427,255,88,102 F,0,126427,126927,1,0
Sprite,Background,Centre,"sb\glow.png",359,285 S,0,126446,126446,0.5 C,0,126446,126446,255,88,102 F,0,126446,126946,1,0
Sprite,Background,Centre,"sb\glow.png",357,278 S,0,126465,126465,0.5 C,0,126465,126465,255,88,102 F,0,126465,126965,1,0
Sprite,Background,Centre,"sb\glow.png",357,275 S,0,126484,126484,0.5 C,0,126484,126484,255,88,102 F,0,126484,126984,1,0
Sprite,Background,Centre,"sb\glow.png",334,242 S,0,126502,126502,0.5 C,0,126502,126502,255,88,102 F,0,126502,127002,1,0
Sprite,Background,Centre,"sb\glow.png",311,208 S,0,126521,126521,0.5 C,0,126521,126521,255,88,102 F,0,126521,127021,1,0
Sprite,Background,Centre,"sb\glow.png",290,177 S,0,126540,126540,0.5 C,0,126540,126540,255,88,102 F,0,126540,127040,1,0
Sprite,Background,Centre,"sb\glow.png",271,150 S,0,126559,126559,0.5 C,0,126559,126559,255,88,102 F,0,126559,127059,1,0
Sprite,Background,Centre,"sb\glow.png",255,127 S,0,126577,126577,0.5 C,0,126577,126577,255,88,102 F,0,126577,127077,1,0
Sprite,Background,Centre,"sb\glow.png",244,110 S,0,126596,126596,0.5 C,0,126596,126596,255,88,102 F,0,126596,127096,1,0
Sprite,Background,Centre,"sb\glow.png",237,100 S,0,126615,126615,0.5 C,0,126615,126615,255,88,102 F,0,126615,127115,1,0
Sprite,Background,Centre,"sb\glow.png",234,96 S,0,126634,126634,0.5 C,0,126634,126634,255,88,102 F,0,126634,127134,1,0
Sprite,Background,Centre,"sb\glow.png",244,81 S,0,126652,126652,0.5 C,0,126652,126652,255,0,255 F,0,126652,127152,1,0
Sprite,Background,Centre,"sb\glow.png",248,63 S,0,126671,126671,0.5 C,0,126671,126671,255,0,255 F,0,126671,127171,1,0
Sprite,Background,Centre,"sb\glow.png",245,51 S,0,126690,126690,0.5 C,0,126690,126690,255,0,255 F,0,126690,127190,1,0
Sprite,Background,Centre,"sb\glow.png",241,67 S,0,126709,126709,0.5 C,0,126709,126709,255,0,255 F,0,126709,127209,1,0
Sprite,Background,Centre,"sb\glow.png",240,114 S,0,126727,126727,0.5 C,0,126727,126727,255,0,255 F,0,126727,127227,1,0
Sprite,Background,Centre,"sb\glow.png",240,155 S,0,126746,126746,0.5 C,0,126746,126746,255,0,255 F,0,126746,127246,1,0
Sprite,Background,Centre,"sb\glow.png",240,183 S,0,126765,126765,0.5 C,0,126765,126765,255,0,255 F,0,126765,127265,1,0
Sprite,Background,Centre,"sb\glow.png",240,194 S,0,126784,126784,0.5 C,0,126784,126784,255,0,255 F,0,126784,127284,1,0
Sprite,Background,Centre,"sb\glow.png",247,210 S,0,126802,126802,0.5 C,0,126802,126802,255,0,255 F,0,126802,127302,1,0
Sprite,Background,Centre,"sb\glow.png",261,222 S,0,126821,126821,0.5 C,0,126821,126821,255,0,255 F,0,126821,127321,1,0
Sprite,Background,Centre,"sb\glow.png",274,227 S,0,126840,126840,0.5 C,0,126840,126840,255,0,255 F,0,126840,127340,1,0
Sprite,Background,Centre,"sb\glow.png",261,215 S,0,126859,126859,0.5 C,0,126859,126859,255,0,255 F,0,126859,127359,1,0
Sprite,Background,Centre,"sb\glow.png",220,191 S,0,126877,126877,0.5 C,0,126877,126877,255,0,255 F,0,126877,127377,1,0
Sprite,Background,Centre,"sb\glow.png",184,171 S,0,126896,126896,0.5 C,0,126896,126896,255,0,255 F,0,126896,127396,1,0
Sprite,Background,Centre,"sb\glow.png",159,156 S,0,126915,126915,0.5 C,0,126915,126915,255,0,255 F,0,126915,127415,1,0
Sprite,Background,Centre,"sb\glow.png",150,151 S,0,126934,126934,0.5 C,0,126934,126934,255,0,255 F,0,126934,127434,1,0
Sprite,Background,Centre,"sb\glow.png",132,149 S,0,126952,126952,0.5 C,0,126952,126952,255,0,255 F,0,126952,127452,1,0
Sprite,Background,Centre,"sb\glow.png",115,154 S,0,126971,126971,0.5 C,0,126971,126971,255,0,255 F,0,126971,127471,1,0
Sprite,Background,Centre,"sb\glow.png",103,164 S,0,126990,126990,0.5 C,0,126990,126990,255,0,255 F,0,126990,127490,1,0
Sprite,Background,Centre,"sb\glow.png",119,159 S,0,127009,127009,0.5 C,0,127009,127009,255,0,255 F,0,127009,127509,1,0
Sprite,Background,Centre,"sb\glow.png",138,199 S,0,127027,127027,0.5 C,0,127027,127027,255,0,255 F,0,127027,127527,1,0
Sprite,Background,Centre,"sb\glow.png",155,235 S,0,127046,127046,0.5 C,0,127046,127046,255,0,255 F,0,127046,127546,1,0
Sprite,Background,Centre,"sb\glow.png",166,260 S,0,127065,127065,0.5 C,0,127065,127065,255,0,255 F,0,127065,127565,1,0
Sprite,Background,Centre,"sb\glow.png",170,269 S,0,127084,127084,0.5 C,0,127084,127084,255,0,255 F,0,127084,127584,1,0
Sprite,Background,Centre,"sb\glow.png",170,269 S,0,127102,127102,0.5 C,0,127102,127102,255,128,192 F,0,127102,127602,1,0
Sprite,Background,Centre,"sb\glow.png",170,269 S,0,127121,127121,0.5 C,0,127121,127121,255,128,192 F,0,127121,127621,1,0
Sprite,Background,Centre,"sb\glow.png",170,269 S,0,127140,127140,0.5 C,0,127140,127140,255,128,192 F,0,127140,127640,1,0
Sprite,Background,Centre,"sb\glow.png",170,269 S,0,127159,127159,0.5 C,0,127159,127159,255,128,192 F,0,127159,127659,1,0
Sprite,Background,Centre,"sb\glow.png",170,269 S,0,127177,127177,0.5 C,0,127177,127177,255,128,192 F,0,127177,127677,1,0
Sprite,Background,Centre,"sb\glow.png",170,269 S,0,127196,127196,0.5 C,0,127196,127196,255,128,192 F,0,127196,127696,1,0
Sprite,Background,Centre,"sb\glow.png",170,269 S,0,127215,127215,0.5 C,0,127215,127215,255,128,192 F,0,127215,127715,1,0
Sprite,Background,Centre,"sb\glow.png",170,269 S,0,127234,127234,0.5 C,0,127234,127234,255,128,192 F,0,127234,127734,1,0
Sprite,Background,Centre,"sb\glow.png",169,272 S,0,127252,127252,0.5 C,0,127252,127252,255,128,192 F,0,127252,127752,1,0
Sprite,Background,Centre,"sb\glow.png",169,275 S,0,127271,127271,0.5 C,0,127271,127271,255,128,192 F,0,127271,127771,1,0
Sprite,Background,Centre,"sb\glow.png",168,278 S,0,127290,127290,0.5 C,0,127290,127290,255,128,192 F,0,127290,127790,1,0
Sprite,Background,Centre,"sb\glow.png",168,281 S,0,127309,127309,0.5 C,0,127309,127309,255,128,192 F,0,127309,127809,1,0
Sprite,Background,Centre,"sb\glow.png",167,284 S,0,127327,127327,0.5 C,0,127327,127327,255,128,192 F,0,127327,127827,1,0
Sprite,Background,Centre,"sb\glow.png",166,287 S,0,127346,127346,0.5 C,0,127346,127346,255,128,192 F,0,127346,127846,1,0
Sprite,Background,Centre,"sb\glow.png",166,290 S,0,127365,127365,0.5 C,0,127365,127365,255,128,192 F,0,127365,127865,1,0
Sprite,Background,Centre,"sb\glow.png",165,293 S,0,127384,127384,0.5 C,0,127384,127384,255,128,192 F,0,127384,127884,1,0
Sprite,Background,Centre,"sb\glow.png",165,296 S,0,127402,127402,0.5 C,0,127402,127402,255,128,192 F,0,127402,127902,1,0
Sprite,Background,Centre,"sb\glow.png",164,299 S,0,127421,127421,0.5 C,0,127421,127421,255,128,192 F,0,127421,127921,1,0
Sprite,Background,Centre,"sb\glow.png",163,303 S,0,127440,127440,0.5 C,0,127440,127440,255,128,192 F,0,127440,127940,1,0
Sprite,Background,Centre,"sb\glow.png",163,306 S,0,127459,127459,0.5 C,0,127459,127459,255,128,192 F,0,127459,127959,1,0
Sprite,Background,Centre,"sb\glow.png",177,342 S,0,127477,127477,0.5 C,0,127477,127477,255,128,192 F,0,127477,127977,1,0
Sprite,Background,Centre,"sb\glow.png",191,374 S,0,127496,127496,0.5 C,0,127496,127496,255,128,192 F,0,127496,127996,1,0
Sprite,Background,Centre,"sb\glow.png",200,397 S,0,127515,127515,0.5 C,0,127515,127515,255,128,192 F,0,127515,128015,1,0
Sprite,Background,Centre,"sb\glow.png",203,405 S,0,127534,127534,0.5 C,0,127534,127534,255,128,192 F,0,127534,128034,1,0
Sprite,Background,Centre,"sb\glow.png",190,420 S,0,127552,127552,0.5 C,0,127552,127552,255,0,128 F,0,127552,128052,1,0
Sprite,Background,Centre,"sb\glow.png",171,432 S,0,127571,127571,0.5 C,0,127571,127571,255,0,128 F,0,127571,128071,1,0
Sprite,Background,Centre,"sb\glow.png",150,435 S,0,127590,127590,0.5 C,0,127590,127590,255,0,128 F,0,127590,128090,1,0
Sprite,Background,Centre,"sb\glow.png",129,431 S,0,127609,127609,0.5 C,0,127609,127609,255,0,128 F,0,127609,128109,1,0
Sprite,Background,Centre,"sb\glow.png",110,420 S,0,127627,127627,0.5 C,0,127627,127627,255,0,128 F,0,127627,128127,1,0
Sprite,Background,Centre,"sb\glow.png",97,403 S,0,127646,127646,0.5 C,0,127646,127646,255,0,128 F,0,127646,128146,1,0
Sprite,Background,Centre,"sb\glow.png",91,382 S,0,127665,127665,0.5 C,0,127665,127665,255,0,128 F,0,127665,128165,1,0
Sprite,Background,Centre,"sb\glow.png",93,360 S,0,127684,127684,0.5 C,0,127684,127684,255,0,128 F,0,127684,128184,1,0
Sprite,Background,Centre,"sb\glow.png",102,341 S,0,127702,127702,0.5 C,0,127702,127702,255,0,128 F,0,127702,128202,1,0
Sprite,Background,Centre,"sb\glow.png",117,326 S,0,127721,127721,0.5 C,0,127721,127721,255,0,128 F,0,127721,128221,1,0
Sprite,Background,Centre,"sb\glow.png",137,318 S,0,127740,127740,0.5 C,0,127740,127740,255,0,128 F,0,127740,128240,1,0
Sprite,Background,Centre,"sb\glow.png",159,317 S,0,127759,127759,0.5 C,0,127759,127759,255,0,128 F,0,127759,128259,1,0
Sprite,Background,Centre,"sb\glow.png",213,287 S,0,127777,127777,0.5 C,0,127777,127777,255,0,128 F,0,127777,128277,1,0
Sprite,Background,Centre,"sb\glow.png",262,259 S,0,127796,127796,0.5 C,0,127796,127796,255,0,128 F,0,127796,128296,1,0
Sprite,Background,Centre,"sb\glow.png",295,241 S,0,127815,127815,0.5 C,0,127815,127815,255,0,128 F,0,127815,128315,1,0
Sprite,Background,Centre,"sb\glow.png",307,234 S,0,127834,127834,0.5 C,0,127834,127834,255,0,128 F,0,127834,128334,1,0
Sprite,Background,Centre,"sb\glow.png",317,219 S,0,127852,127852,0.5 C,0,127852,127852,255,88,102 F,0,127852,128352,1,0
Sprite,Background,Centre,"sb\glow.png",327,203 S,0,127871,127871,0.5 C,0,127871,127871,255,88,102 F,0,127871,128371,1,0
Sprite,Background,Centre,"sb\glow.png",324,185 S,0,127890,127890,0.5 C,0,127890,127890,255,88,102 F,0,127890,128390,1,0
Sprite,Background,Centre,"sb\glow.png",321,167 S,0,127909,127909,0.5 C,0,127909,127909,255,88,102 F,0,127909,128409,1,0
Sprite,Background,Centre,"sb\glow.png",291,160 S,0,127927,127927,0.5 C,0,127927,127927,255,88,102 F,0,127927,128427,1,0
Sprite,Background,Centre,"sb\glow.png",263,155 S,0,127946,127946,0.5 C,0,127946,127946,255,88,102 F,0,127946,128446,1,0
Sprite,Background,Centre,"sb\glow.png",245,151 S,0,127965,127965,0.5 C,0,127965,127965,255,88,102 F,0,127965,128465,1,0
Sprite,Background,Centre,"sb\glow.png",238,150 S,0,127984,127984,0.5 C,0,127984,127984,255,88,102 F,0,127984,128484,1,0
Sprite,Background,Centre,"sb\glow.png",228,165 S,0,128002,128002,0.5 C,0,128002,128002,255,88,102 F,0,128002,128502,1,0
Sprite,Background,Centre,"sb\glow.png",218,181 S,0,128021,128021,0.5 C,0,128021,128021,255,88,102 F,0,128021,128521,1,0
Sprite,Background,Centre,"sb\glow.png",221,199 S,0,128040,128040,0.5 C,0,128040,128040,255,88,102 F,0,128040,128540,1,0
Sprite,Background,Centre,"sb\glow.png",224,217 S,0,128059,128059,0.5 C,0,128059,128059,255,88,102 F,0,128059,128559,1,0
Sprite,Background,Centre,"sb\glow.png",236,260 S,0,128077,128077,0.5 C,0,128077,128077,255,88,102 F,0,128077,128577,1,0
Sprite,Background,Centre,"sb\glow.png",246,298 S,0,128096,128096,0.5 C,0,128096,128096,255,88,102 F,0,128096,128596,1,0
Sprite,Background,Centre,"sb\glow.png",253,324 S,0,128115,128115,0.5 C,0,128115,128115,255,88,102 F,0,128115,128615,1,0
Sprite,Background,Centre,"sb\glow.png",256,334 S,0,128134,128134,0.5 C,0,128134,128134,255,88,102 F,0,128134,128634,1,0
Sprite,Background,Centre,"sb\glow.png",274,331 S,0,128152,128152,0.5 C,0,128152,128152,255,0,255 F,0,128152,128652,1,0
Sprite,Background,Centre,"sb\glow.png",292,328 S,0,128171,128171,0.5 C,0,128171,128171,255,0,255 F,0,128171,128671,1,0
Sprite,Background,Centre,"sb\glow.png",311,325 S,0,128190,128190,0.5 C,0,128190,128190,255,0,255 F,0,128190,128690,1,0
Sprite,Background,Centre,"sb\glow.png",329,322 S,0,128209,128209,0.5 C,0,128209,128209,255,0,255 F,0,128209,128709,1,0
Sprite,Background,Centre,"sb\glow.png",355,247 S,0,128227,128227,0.5 C,0,128227,128227,255,0,255 F,0,128227,128727,1,0
Sprite,Background,Centre,"sb\glow.png",377,179 S,0,128246,128246,0.5 C,0,128246,128246,255,0,255 F,0,128246,128746,1,0
Sprite,Background,Centre,"sb\glow.png",392,133 S,0,128265,128265,0.5 C,0,128265,128265,255,0,255 F,0,128265,128765,1,0
Sprite,Background,Centre,"sb\glow.png",398,116 S,0,128284,128284,0.5 C,0,128284,128284,255,0,255 F,0,128284,128784,1,0
Sprite,Background,Centre,"sb\glow.png",416,119 S,0,128302,128302,0.5 C,0,128302,128302,255,0,255 F,0,128302,128802,1,0
Sprite,Background,Centre,"sb\glow.png",434,122 S,0,128321,128321,0.5 C,0,128321,128321,255,0,255 F,0,128321,128821,1,0
Sprite,Background,Centre,"sb\glow.png",453,125 S,0,128340,128340,0.5 C,0,128340,128340,255,0,255 F,0,128340,128840,1,0
Sprite,Background,Centre,"sb\glow.png",471,128 S,0,128359,128359,0.5 C,0,128359,128359,255,0,255 F,0,128359,128859,1,0
Sprite,Background,Centre,"sb\glow.png",496,223 S,0,128377,128377,0.5 C,0,128377,128377,255,0,255 F,0,128377,128877,1,0
Sprite,Background,Centre,"sb\glow.png",518,309 S,0,128396,128396,0.5 C,0,128396,128396,255,0,255 F,0,128396,128896,1,0
Sprite,Background,Centre,"sb\glow.png",532,367 S,0,128415,128415,0.5 C,0,128415,128415,255,0,255 F,0,128415,128915,1,0
Sprite,Background,Centre,"sb\glow.png",538,389 S,0,128434,128434,0.5 C,0,128434,128434,255,0,255 F,0,128434,128934,1,0
Sprite,Background,Centre,"sb\glow.png",535,372 S,0,128452,128452,0.5 C,0,128452,128452,255,128,192 F,0,128452,128952,1,0
Sprite,Background,Centre,"sb\glow.png",532,353 S,0,128471,128471,0.5 C,0,128471,128471,255,128,192 F,0,128471,128971,1,0
Sprite,Background,Centre,"sb\glow.png",528,335 S,0,128490,128490,0.5 C,0,128490,128490,255,128,192 F,0,128490,128990,1,0
Sprite,Background,Centre,"sb\glow.png",525,316 S,0,128509,128509,0.5 C,0,128509,128509,255,128,192 F,0,128509,129009,1,0
Sprite,Background,Centre,"sb\glow.png",522,298 S,0,128527,128527,0.5 C,0,128527,128527,255,128,192 F,0,128527,129027,1,0
Sprite,Background,Centre,"sb\glow.png",518,279 S,0,128546,128546,0.5 C,0,128546,128546,255,128,192 F,0,128546,129046,1,0
Sprite,Background,Centre,"sb\glow.png",515,261 S,0,128565,128565,0.5 C,0,128565,128565,255,128,192 F,0,128565,129065,1,0
Sprite,Background,Centre,"sb\glow.png",511,249 S,0,128584,128584,0.5 C,0,128584,128584,255,128,192 F,0,128584,129084,1,0
Sprite,Background,Centre,"sb\glow.png",504,265 S,0,128602,128602,0.5 C,0,128602,128602,255,128,192 F,0,128602,129102,1,0
Sprite,Background,Centre,"sb\glow.png",497,282 S,0,128621,128621,0.5 C,0,128621,128621,255,128,192 F,0,128621,129121,1,0
Sprite,Background,Centre,"sb\glow.png",491,300 S,0,128640,128640,0.5 C,0,128640,128640,255,128,192 F,0,128640,129140,1,0
Sprite,Background,Centre,"sb\glow.png",484,317 S,0,128659,128659,0.5 C,0,128659,128659,255,128,192 F,0,128659,129159,1,0
Sprite,Background,Centre,"sb\glow.png",479,320 S,0,128677,128677,0.5 C,0,128677,128677,255,128,192 F,0,128677,129177,1,0
Sprite,Background,Centre,"sb\glow.png",475,322 S,0,128696,128696,0.5 C,0,128696,128696,255,128,192 F,0,128696,129196,1,0
Sprite,Background,Centre,"sb\glow.png",472,324 S,0,128715,128715,0.5 C,0,128715,128715,255,128,192 F,0,128715,129215,1,0
Sprite,Background,Centre,"sb\glow.png",471,324 S,0,128734,128734,0.5 C,0,128734,128734,255,128,192 F,0,128734,129234,1,0
Sprite,Background,Centre,"sb\glow.png",455,316 S,0,128752,128752,0.5 C,0,128752,128752,255,128,192 F,0,128752,129252,1,0
Sprite,Background,Centre,"sb\glow.png",445,309 S,0,128771,128771,0.5 C,0,128771,128771,255,128,192 F,0,128771,129271,1,0
Sprite,Background,Centre,"sb\glow.png",462,313 S,0,128790,128790,0.5 C,0,128790,128790,255,128,192 F,0,128790,129290,1,0
Sprite,Background,Centre,"sb\glow.png",480,317 S,0,128809,128809,0.5 C,0,128809,128809,255,128,192 F,0,128809,129309,1,0
Sprite,Background,Centre,"sb\glow.png",511,266 S,0,128827,128827,0.5 C,0,128827,128827,255,128,192 F,0,128827,129327,1,0
Sprite,Background,Centre,"sb\glow.png",538,221 S,0,128846,128846,0.5 C,0,128846,128846,255,128,192 F,0,128846,129346,1,0
Sprite,Background,Centre,"sb\glow.png",556,190 S,0,128865,128865,0.5 C,0,128865,128865,255,128,192 F,0,128865,129365,1,0
Sprite,Background,Centre,"sb\glow.png",563,178 S,0,128884,128884,0.5 C,0,128884,128884,255,128,192 F,0,128884,129384,1,0
Sprite,Background,Centre,"sb\glow.png",579,169 S,0,128902,128902,0.5 C,0,128902,128902,255,128,192 F,0,128902,129402,1,0
Sprite,Background,Centre,"sb\glow.png",587,163 S,0,128921,128921,0.5 C,0,128921,128921,255,128,192 F,0,128921,129421,1,0
Sprite,Background,Centre,"sb\glow.png",570,167 S,0,128940,128940,0.5 C,0,128940,128940,255,128,192 F,0,128940,129440,1,0
Sprite,Background,Centre,"sb\glow.png",552,171 S,0,128959,128959,0.5 C,0,128959,128959,255,128,192 F,0,128959,129459,1,0
Sprite,Background,Centre,"sb\glow.png",503,161 S,0,128977,128977,0.5 C,0,128977,128977,255,128,192 F,0,128977,129477,1,0
Sprite,Background,Centre,"sb\glow.png",459,152 S,0,128996,128996,0.5 C,0,128996,128996,255,128,192 F,0,128996,129496,1,0
Sprite,Background,Centre,"sb\glow.png",429,145 S,0,129015,129015,0.5 C,0,129015,129015,255,128,192 F,0,129015,129515,1,0
Sprite,Background,Centre,"sb\glow.png",418,143 S,0,129034,129034,0.5 C,0,129034,129034,255,128,192 F,0,129034,129534,1,0
Sprite,Background,Centre,"sb\glow.png",400,145 S,0,129052,129052,0.5 C,0,129052,129052,255,0,128 F,0,129052,129552,1,0
Sprite,Background,Centre,"sb\glow.png",382,145 S,0,129071,129071,0.5 C,0,129071,129071,255,0,128 F,0,129071,129571,1,0
Sprite,Background,Centre,"sb\glow.png",363,141 S,0,129090,129090,0.5 C,0,129090,129090,255,0,128 F,0,129090,129590,1,0
Sprite,Background,Centre,"sb\glow.png",346,134 S,0,129109,129109,0.5 C,0,129109,129109,255,0,128 F,0,129109,129609,1,0
Sprite,Background,Centre,"sb\glow.png",331,123 S,0,129127,129127,0.5 C,0,129127,129127,255,0,128 F,0,129127,129627,1,0
Sprite,Background,Centre,"sb\glow.png",317,110 S,0,129146,129146,0.5 C,0,129146,129146,255,0,128 F,0,129146,129646,1,0
Sprite,Background,Centre,"sb\glow.png",303,98 S,0,129165,129165,0.5 C,0,129165,129165,255,0,128 F,0,129165,129665,1,0
Sprite,Background,Centre,"sb\glow.png",287,89 S,0,129184,129184,0.5 C,0,129184,129184,255,0,128 F,0,129184,129684,1,0
Sprite,Background,Centre,"sb\glow.png",269,83 S,0,129202,129202,0.5 C,0,129202,129202,255,0,128 F,0,129202,129702,1,0
Sprite,Background,Centre,"sb\glow.png",250,81 S,0,129221,129221,0.5 C,0,129221,129221,255,0,128 F,0,129221,129721,1,0
Sprite,Background,Centre,"sb\glow.png",232,81 S,0,129240,129240,0.5 C,0,129240,129240,255,0,128 F,0,129240,129740,1,0
Sprite,Background,Centre,"sb\glow.png",213,82 S,0,129259,129259,0.5 C,0,129259,129259,255,0,128 F,0,129259,129759,1,0
Sprite,Background,Centre,"sb\glow.png",208,80 S,0,129277,129277,0.5 C,0,129277,129277,255,0,128 F,0,129277,129777,1,0
Sprite,Background,Centre,"sb\glow.png",204,78 S,0,129296,129296,0.5 C,0,129296,129296,255,0,128 F,0,129296,129796,1,0
Sprite,Background,Centre,"sb\glow.png",202,77 S,0,129315,129315,0.5 C,0,129315,129315,255,0,128 F,0,129315,129815,1,0
Sprite,Background,Centre,"sb\glow.png",201,76 S,0,129334,129334,0.5 C,0,129334,129334,255,0,128 F,0,129334,129834,1,0
Sprite,Background,Centre,"sb\glow.png",191,91 S,0,129352,129352,0.5 C,0,129352,129352,255,0,128 F,0,129352,129852,1,0
Sprite,Background,Centre,"sb\glow.png",187,107 S,0,129371,129371,0.5 C,0,129371,129371,255,0,128 F,0,129371,129871,1,0
Sprite,Background,Centre,"sb\glow.png",191,126 S,0,129390,129390,0.5 C,0,129390,129390,255,0,128 F,0,129390,129890,1,0
Sprite,Background,Centre,"sb\glow.png",194,144 S,0,129409,129409,0.5 C,0,129409,129409,255,0,128 F,0,129409,129909,1,0
Sprite,Background,Centre,"sb\glow.png",174,196 S,0,129427,129427,0.5 C,0,129427,129427,255,0,128 F,0,129427,129927,1,0
Sprite,Background,Centre,"sb\glow.png",155,242 S,0,129446,129446,0.5 C,0,129446,129446,255,0,128 F,0,129446,129946,1,0
Sprite,Background,Centre,"sb\glow.png",142,273 S,0,129465,129465,0.5 C,0,129465,129465,255,0,128 F,0,129465,129965,1,0
Sprite,Background,Centre,"sb\glow.png",137,285 S,0,129484,129484,0.5 C,0,129484,129484,255,0,128 F,0,129484,129984,1,0
Sprite,Background,Centre,"sb\glow.png",137,285 S,0,129502,129502,0.5 C,0,129502,129502,255,88,102 F,0,129502,130002,1,0
Sprite,Background,Centre,"sb\glow.png",137,285 S,0,129521,129521,0.5 C,0,129521,129521,255,88,102 F,0,129521,130021,1,0
Sprite,Background,Centre,"sb\glow.png",137,285 S,0,129540,129540,0.5 C,0,129540,129540,255,88,102 F,0,129540,130040,1,0
Sprite,Background,Centre,"sb\glow.png",137,285 S,0,129559,129559,0.5 C,0,129559,129559,255,88,102 F,0,129559,130059,1,0
Sprite,Background,Centre,"sb\glow.png",137,285 S,0,129577,129577,0.5 C,0,129577,129577,255,88,102 F,0,129577,130077,1,0
Sprite,Background,Centre,"sb\glow.png",137,285 S,0,129596,129596,0.5 C,0,129596,129596,255,88,102 F,0,129596,130096,1,0
Sprite,Background,Centre,"sb\glow.png",137,285 S,0,129615,129615,0.5 C,0,129615,129615,255,88,102 F,0,129615,130115,1,0
Sprite,Background,Centre,"sb\glow.png",137,285 S,0,129634,129634,0.5 C,0,129634,129634,255,88,102 F,0,129634,130134,1,0
Sprite,Background,Centre,"sb\glow.png",125,272 S,0,129652,129652,0.5 C,0,129652,129652,255,88,102 F,0,129652,130152,1,0
Sprite,Background,Centre,"sb\glow.png",112,258 S,0,129671,129671,0.5 C,0,129671,129671,255,88,102 F,0,129671,130171,1,0
Sprite,Background,Centre,"sb\glow.png",99,245 S,0,129690,129690,0.5 C,0,129690,129690,255,88,102 F,0,129690,130190,1,0
Sprite,Background,Centre,"sb\glow.png",87,231 S,0,129709,129709,0.5 C,0,129709,129709,255,88,102 F,0,129709,130209,1,0
Sprite,Background,Centre,"sb\glow.png",99,232 S,0,129727,129727,0.5 C,0,129727,129727,255,88,102 F,0,129727,130227,1,0
Sprite,Background,Centre,"sb\glow.png",116,238 S,0,129746,129746,0.5 C,0,129746,129746,255,88,102 F,0,129746,130246,1,0
Sprite,Background,Centre,"sb\glow.png",134,243 S,0,129765,129765,0.5 C,0,129765,129765,255,88,102 F,0,129765,130265,1,0
Sprite,Background,Centre,"sb\glow.png",152,248 S,0,129784,129784,0.5 C,0,129784,129784,255,88,102 F,0,129784,130284,1,0
Sprite,Background,Centre,"sb\glow.png",170,254 S,0,129802,129802,0.5 C,0,129802,129802,255,88,102 F,0,129802,130302,1,0
Sprite,Background,Centre,"sb\glow.png",188,259 S,0,129821,129821,0.5 C,0,129821,129821,255,88,102 F,0,129821,130321,1,0
Sprite,Background,Centre,"sb\glow.png",206,264 S,0,129840,129840,0.5 C,0,129840,129840,255,88,102 F,0,129840,130340,1,0
Sprite,Background,Centre,"sb\glow.png",224,270 S,0,129859,129859,0.5 C,0,129859,129859,255,88,102 F,0,129859,130359,1,0
Sprite,Background,Centre,"sb\glow.png",221,327 S,0,129877,129877,0.5 C,0,129877,129877,255,88,102 F,0,129877,130377,1,0
Sprite,Background,Centre,"sb\glow.png",217,378 S,0,129896,129896,0.5 C,0,129896,129896,255,88,102 F,0,129896,130396,1,0
Sprite,Background,Centre,"sb\glow.png",215,413 S,0,129915,129915,0.5 C,0,129915,129915,255,88,102 F,0,129915,130415,1,0
Sprite,Background,Centre,"sb\glow.png",214,426 S,0,129934,129934,0.5 C,0,129934,129934,255,88,102 F,0,129934,130434,1,0
Sprite,Background,Centre,"sb\glow.png",210,409 S,0,129952,129952,0.5 C,0,129952,129952,255,0,255 F,0,129952,130452,1,0
Sprite,Background,Centre,"sb\glow.png",205,391 S,0,129971,129971,0.5 C,0,129971,129971,255,0,255 F,0,129971,130471,1,0
Sprite,Background,Centre,"sb\glow.png",199,373 S,0,129990,129990,0.5 C,0,129990,129990,255,0,255 F,0,129990,130490,1,0
Sprite,Background,Centre,"sb\glow.png",192,356 S,0,130009,130009,0.5 C,0,130009,130009,255,0,255 F,0,130009,130509,1,0
Sprite,Background,Centre,"sb\glow.png",266,320 S,0,130027,130027,0.5 C,0,130027,130027,255,0,255 F,0,130027,130527,1,0
Sprite,Background,Centre,"sb\glow.png",333,288 S,0,130046,130046,0.5 C,0,130046,130046,255,0,255 F,0,130046,130546,1,0
Sprite,Background,Centre,"sb\glow.png",379,266 S,0,130065,130065,0.5 C,0,130065,130065,255,0,255 F,0,130065,130565,1,0
Sprite,Background,Centre,"sb\glow.png",396,258 S,0,130084,130084,0.5 C,0,130084,130084,255,0,255 F,0,130084,130584,1,0
Sprite,Background,Centre,"sb\glow.png",399,241 S,0,130102,130102,0.5 C,0,130102,130102,255,0,255 F,0,130102,130602,1,0
Sprite,Background,Centre,"sb\glow.png",404,222 S,0,130121,130121,0.5 C,0,130121,130121,255,0,255 F,0,130121,130621,1,0
Sprite,Background,Centre,"sb\glow.png",410,205 S,0,130140,130140,0.5 C,0,130140,130140,255,0,255 F,0,130140,130640,1,0
Sprite,Background,Centre,"sb\glow.png",417,187 S,0,130159,130159,0.5 C,0,130159,130159,255,0,255 F,0,130159,130659,1,0
Sprite,Background,Centre,"sb\glow.png",368,144 S,0,130177,130177,0.5 C,0,130177,130177,255,0,255 F,0,130177,130677,1,0
Sprite,Background,Centre,"sb\glow.png",322,105 S,0,130196,130196,0.5 C,0,130196,130196,255,0,255 F,0,130196,130696,1,0
Sprite,Background,Centre,"sb\glow.png",292,78 S,0,130215,130215,0.5 C,0,130215,130215,255,0,255 F,0,130215,130715,1,0
Sprite,Background,Centre,"sb\glow.png",280,68 S,0,130234,130234,0.5 C,0,130234,130234,255,0,255 F,0,130234,130734,1,0
Sprite,Background,Centre,"sb\glow.png",282,86 S,0,130252,130252,0.5 C,0,130252,130252,255,128,192 F,0,130252,130752,1,0
Sprite,Background,Centre,"sb\glow.png",285,104 S,0,130271,130271,0.5 C,0,130271,130271,255,128,192 F,0,130271,130771,1,0
Sprite,Background,Centre,"sb\glow.png",288,123 S,0,130290,130290,0.5 C,0,130290,130290,255,128,192 F,0,130290,130790,1,0
Sprite,Background,Centre,"sb\glow.png",290,141 S,0,130309,130309,0.5 C,0,130309,130309,255,128,192 F,0,130309,130809,1,0
Sprite,Background,Centre,"sb\glow.png",295,174 S,0,130327,130327,0.5 C,0,130327,130327,255,128,192 F,0,130327,130827,1,0
Sprite,Background,Centre,"sb\glow.png",299,202 S,0,130346,130346,0.5 C,0,130346,130346,255,128,192 F,0,130346,130846,1,0
Sprite,Background,Centre,"sb\glow.png",302,222 S,0,130365,130365,0.5 C,0,130365,130365,255,128,192 F,0,130365,130865,1,0
Sprite,Background,Centre,"sb\glow.png",303,229 S,0,130384,130384,0.5 C,0,130384,130384,255,128,192 F,0,130384,130884,1,0
Sprite,Background,Centre,"sb\glow.png",305,247 S,0,130402,130402,0.5 C,0,130402,130402,255,128,192 F,0,130402,130902,1,0
Sprite,Background,Centre,"sb\glow.png",308,265 S,0,130421,130421,0.5 C,0,130421,130421,255,128,192 F,0,130421,130921,1,0
Sprite,Background,Centre,"sb\glow.png",311,284 S,0,130440,130440,0.5 C,0,130440,130440,255,128,192 F,0,130440,130940,1,0
Sprite,Background,Centre,"sb\glow.png",313,302 S,0,130459,130459,0.5 C,0,130459,130459,255,128,192 F,0,130459,130959,1,0
Sprite,Background,Centre,"sb\glow.png",401,348 S,0,130477,130477,0.5 C,0,130477,130477,255,128,192 F,0,130477,130977,1,0
Sprite,Background,Centre,"sb\glow.png",480,388 S,0,130496,130496,0.5 C,0,130496,130496,255,128,192 F,0,130496,130996,1,0
Sprite,Background,Centre,"sb\glow.png",534,415 S,0,130515,130515,0.5 C,0,130515,130515,255,128,192 F,0,130515,131015,1,0
Sprite,Background,Centre,"sb\glow.png",554,425 S,0,130534,130534,0.5 C,0,130534,130534,255,128,192 F,0,130534,131034,1,0
Sprite,Background,Centre,"sb\glow.png",543,411 S,0,130552,130552,0.5 C,0,130552,130552,255,0,128 F,0,130552,131052,1,0
Sprite,Background,Centre,"sb\glow.png",530,400 S,0,130571,130571,0.5 C,0,130571,130571,255,0,128 F,0,130571,131071,1,0
Sprite,Background,Centre,"sb\glow.png",511,397 S,0,130590,130590,0.5 C,0,130590,130590,255,0,128 F,0,130590,131090,1,0
Sprite,Background,Centre,"sb\glow.png",493,394 S,0,130609,130609,0.5 C,0,130609,130609,255,0,128 F,0,130609,131109,1,0
Sprite,Background,Centre,"sb\glow.png",474,392 S,0,130627,130627,0.5 C,0,130627,130627,255,0,128 F,0,130627,131127,1,0
Sprite,Background,Centre,"sb\glow.png",456,389 S,0,130646,130646,0.5 C,0,130646,130646,255,0,128 F,0,130646,131146,1,0
Sprite,Background,Centre,"sb\glow.png",437,387 S,0,130665,130665,0.5 C,0,130665,130665,255,0,128 F,0,130665,131165,1,0
Sprite,Background,Centre,"sb\glow.png",418,384 S,0,130684,130684,0.5 C,0,130684,130684,255,0,128 F,0,130684,131184,1,0
Sprite,Background,Centre,"sb\glow.png",400,382 S,0,130702,130702,0.5 C,0,130702,130702,255,0,128 F,0,130702,131202,1,0
Sprite,Background,Centre,"sb\glow.png",381,379 S,0,130721,130721,0.5 C,0,130721,130721,255,0,128 F,0,130721,131221,1,0
Sprite,Background,Centre,"sb\glow.png",365,384 S,0,130740,130740,0.5 C,0,130740,130740,255,0,128 F,0,130740,131240,1,0
Sprite,Background,Centre,"sb\glow.png",350,396 S,0,130759,130759,0.5 C,0,130759,130759,255,0,128 F,0,130759,131259,1,0
Sprite,Background,Centre,"sb\glow.png",319,390 S,0,130777,130777,0.5 C,0,130777,130777,255,0,128 F,0,130777,131277,1,0
Sprite,Background,Centre,"sb\glow.png",292,385 S,0,130796,130796,0.5 C,0,130796,130796,255,0,128 F,0,130796,131296,1,0
Sprite,Background,Centre,"sb\glow.png",273,381 S,0,130815,130815,0.5 C,0,130815,130815,255,0,128 F,0,130815,131315,1,0
Sprite,Background,Centre,"sb\glow.png",266,380 S,0,130834,130834,0.5 C,0,130834,130834,255,0,128 F,0,130834,131334,1,0
Sprite,Background,Centre,"sb\glow.png",249,383 S,0,130852,130852,0.5 C,0,130852,130852,255,0,128 F,0,130852,131352,1,0
Sprite,Background,Centre,"sb\glow.png",230,387 S,0,130871,130871,0.5 C,0,130871,130871,255,0,128 F,0,130871,131371,1,0
Sprite,Background,Centre,"sb\glow.png",213,392 S,0,130890,130890,0.5 C,0,130890,130890,255,0,128 F,0,130890,131390,1,0
Sprite,Background,Centre,"sb\glow.png",195,394 S,0,130909,130909,0.5 C,0,130909,130909,255,0,128 F,0,130909,131409,1,0
Sprite,Background,Centre,"sb\glow.png",176,397 S,0,130927,130927,0.5 C,0,130927,130927,255,0,128 F,0,130927,131427,1,0
Sprite,Background,Centre,"sb\glow.png",158,401 S,0,130946,130946,0.5 C,0,130946,130946,255,0,128 F,0,130946,131446,1,0
Sprite,Background,Centre,"sb\glow.png",140,404 S,0,130965,130965,0.5 C,0,130965,130965,255,0,128 F,0,130965,131465,1,0
Sprite,Background,Centre,"sb\glow.png",121,407 S,0,130984,130984,0.5 C,0,130984,130984,255,0,128 F,0,130984,131484,1,0
Sprite,Background,Centre,"sb\glow.png",161,358 S,0,131002,131002,0.5 C,0,131002,131002,255,0,128 F,0,131002,131502,1,0
Sprite,Background,Centre,"sb\glow.png",204,308 S,0,131021,131021,0.5 C,0,131021,131021,255,0,128 F,0,131021,131521,1,0
Sprite,Background,Centre,"sb\glow.png",243,261 S,0,131040,131040,0.5 C,0,131040,131040,255,0,128 F,0,131040,131540,1,0
Sprite,Background,Centre,"sb\glow.png",277,220 S,0,131059,131059,0.5 C,0,131059,131059,255,0,128 F,0,131059,131559,1,0
Sprite,Background,Centre,"sb\glow.png",305,187 S,0,131077,131077,0.5 C,0,131077,131077,255,0,128 F,0,131077,131577,1,0
Sprite,Background,Centre,"sb\glow.png",326,161 S,0,131096,131096,0.5 C,0,131096,131096,255,0,128 F,0,131096,131596,1,0
Sprite,Background,Centre,"sb\glow.png",339,146 S,0,131115,131115,0.5 C,0,131115,131115,255,0,128 F,0,131115,131615,1,0
Sprite,Background,Centre,"sb\glow.png",344,140 S,0,131134,131134,0.5 C,0,131134,131134,255,0,128 F,0,131134,131634,1,0
Sprite,Background,Centre,"sb\glow.png",348,111 S,0,131152,131152,0.5 C,0,131152,131152,255,88,102 F,0,131152,131652,1,0
Sprite,Background,Centre,"sb\glow.png",352,80 S,0,131171,131171,0.5 C,0,131171,131171,255,88,102 F,0,131171,131671,1,0
Sprite,Background,Centre,"sb\glow.png",348,107 S,0,131190,131190,0.5 C,0,131190,131190,255,88,102 F,0,131190,131690,1,0
Sprite,Background,Centre,"sb\glow.png",344,138 S,0,131209,131209,0.5 C,0,131209,131209,255,88,102 F,0,131209,131709,1,0
Sprite,Background,Centre,"sb\glow.png",348,111 S,0,131227,131227,0.5 C,0,131227,131227,255,88,102 F,0,131227,131727,1,0
Sprite,Background,Centre,"sb\glow.png",352,80 S,0,131246,131246,0.5 C,0,131246,131246,255,88,102 F,0,131246,131746,1,0
Sprite,Background,Centre,"sb\glow.png",348,107 S,0,131265,131265,0.5 C,0,131265,131265,255,88,102 F,0,131265,131765,1,0
Sprite,Background,Centre,"sb\glow.png",344,138 S,0,131284,131284,0.5 C,0,131284,131284,255,88,102 F,0,131284,131784,1,0
Sprite,Background,Centre,"sb\glow.png",348,111 S,0,131302,131302,0.5 C,0,131302,131302,255,88,102 F,0,131302,131802,1,0
Sprite,Background,Centre,"sb\glow.png",352,80 S,0,131321,131321,0.5 C,0,131321,131321,255,88,102 F,0,131321,131821,1,0
Sprite,Background,Centre,"sb\glow.png",348,107 S,0,131340,131340,0.5 C,0,131340,131340,255,88,102 F,0,131340,131840,1,0
Sprite,Background,Centre,"sb\glow.png",344,138 S,0,131359,131359,0.5 C,0,131359,131359,255,88,102 F,0,131359,131859,1,0
Sprite,Background,Centre,"sb\glow.png",369,158 S,0,131377,131377,0.5 C,0,131377,131377,255,88,102 F,0,131377,131877,1,0
Sprite,Background,Centre,"sb\glow.png",391,175 S,0,131396,131396,0.5 C,0,131396,131396,255,88,102 F,0,131396,131896,1,0
Sprite,Background,Centre,"sb\glow.png",406,186 S,0,131415,131415,0.5 C,0,131415,131415,255,88,102 F,0,131415,131915,1,0
Sprite,Background,Centre,"sb\glow.png",412,190 S,0,131434,131434,0.5 C,0,131434,131434,255,88,102 F,0,131434,131934,1,0
Sprite,Background,Centre,"sb\glow.png",395,187 S,0,131452,131452,0.5 C,0,131452,131452,255,88,102 F,0,131452,131952,1,0
Sprite,Background,Centre,"sb\glow.png",376,183 S,0,131471,131471,0.5 C,0,131471,131471,255,88,102 F,0,131471,131971,1,0
Sprite,Background,Centre,"sb\glow.png",359,178 S,0,131490,131490,0.5 C,0,131490,131490,255,88,102 F,0,131490,131990,1,0
Sprite,Background,Centre,"sb\glow.png",341,176 S,0,131509,131509,0.5 C,0,131509,131509,255,88,102 F,0,131509,132009,1,0
Sprite,Background,Centre,"sb\glow.png",322,173 S,0,131527,131527,0.5 C,0,131527,131527,255,88,102 F,0,131527,132027,1,0
Sprite,Background,Centre,"sb\glow.png",304,169 S,0,131546,131546,0.5 C,0,131546,131546,255,88,102 F,0,131546,132046,1,0
Sprite,Background,Centre,"sb\glow.png",286,166 S,0,131565,131565,0.5 C,0,131565,131565,255,88,102 F,0,131565,132065,1,0
Sprite,Background,Centre,"sb\glow.png",267,163 S,0,131584,131584,0.5 C,0,131584,131584,255,88,102 F,0,131584,132084,1,0
Sprite,Background,Centre,"sb\glow.png",308,148 S,0,131602,131602,0.5 C,0,131602,131602,255,88,102 F,0,131602,132102,1,0
Sprite,Background,Centre,"sb\glow.png",351,134 S,0,131621,131621,0.5 C,0,131621,131621,255,88,102 F,0,131621,132121,1,0
Sprite,Background,Centre,"sb\glow.png",390,120 S,0,131640,131640,0.5 C,0,131640,131640,255,88,102 F,0,131640,132140,1,0
Sprite,Background,Centre,"sb\glow.png",425,108 S,0,131659,131659,0.5 C,0,131659,131659,255,88,102 F,0,131659,132159,1,0
Sprite,Background,Centre,"sb\glow.png",453,99 S,0,131677,131677,0.5 C,0,131677,131677,255,88,102 F,0,131677,132177,1,0
Sprite,Background,Centre,"sb\glow.png",475,91 S,0,131696,131696,0.5 C,0,131696,131696,255,88,102 F,0,131696,132196,1,0
Sprite,Background,Centre,"sb\glow.png",488,87 S,0,131715,131715,0.5 C,0,131715,131715,255,88,102 F,0,131715,132215,1,0
Sprite,Background,Centre,"sb\glow.png",493,85 S,0,131734,131734,0.5 C,0,131734,131734,255,88,102 F,0,131734,132234,1,0
Sprite,Background,Centre,"sb\glow.png",507,96 S,0,131752,131752,0.5 C,0,131752,131752,255,0,255 F,0,131752,132252,1,0
Sprite,Background,Centre,"sb\glow.png",518,109 S,0,131771,131771,0.5 C,0,131771,131771,255,0,255 F,0,131771,132271,1,0
Sprite,Background,Centre,"sb\glow.png",521,128 S,0,131790,131790,0.5 C,0,131790,131790,255,0,255 F,0,131790,132290,1,0
Sprite,Background,Centre,"sb\glow.png",524,146 S,0,131809,131809,0.5 C,0,131809,131809,255,0,255 F,0,131809,132309,1,0
Sprite,Background,Centre,"sb\glow.png",526,165 S,0,131827,131827,0.5 C,0,131827,131827,255,0,255 F,0,131827,132327,1,0
Sprite,Background,Centre,"sb\glow.png",529,183 S,0,131846,131846,0.5 C,0,131846,131846,255,0,255 F,0,131846,132346,1,0
Sprite,Background,Centre,"sb\glow.png",531,202 S,0,131865,131865,0.5 C,0,131865,131865,255,0,255 F,0,131865,132365,1,0
Sprite,Background,Centre,"sb\glow.png",534,221 S,0,131884,131884,0.5 C,0,131884,131884,255,0,255 F,0,131884,132384,1,0
Sprite,Background,Centre,"sb\glow.png",536,239 S,0,131902,131902,0.5 C,0,131902,131902,255,0,255 F,0,131902,132402,1,0
Sprite,Background,Centre,"sb\glow.png",539,258 S,0,131921,131921,0.5 C,0,131921,131921,255,0,255 F,0,131921,132421,1,0
Sprite,Background,Centre,"sb\glow.png",534,274 S,0,131940,131940,0.5 C,0,131940,131940,255,0,255 F,0,131940,132440,1,0
Sprite,Background,Centre,"sb\glow.png",522,289 S,0,131959,131959,0.5 C,0,131959,131959,255,0,255 F,0,131959,132459,1,0
Sprite,Background,Centre,"sb\glow.png",513,323 S,0,131977,131977,0.5 C,0,131977,131977,255,0,255 F,0,131977,132477,1,0
Sprite,Background,Centre,"sb\glow.png",505,353 S,0,131996,131996,0.5 C,0,131996,131996,255,0,255 F,0,131996,132496,1,0
Sprite,Background,Centre,"sb\glow.png",499,373 S,0,132015,132015,0.5 C,0,132015,132015,255,0,255 F,0,132015,132515,1,0
Sprite,Background,Centre,"sb\glow.png",497,381 S,0,132034,132034,0.5 C,0,132034,132034,255,0,255 F,0,132034,132534,1,0
Sprite,Background,Centre,"sb\glow.png",480,384 S,0,132052,132052,0.5 C,0,132052,132052,255,128,192 F,0,132052,132552,1,0
Sprite,Background,Centre,"sb\glow.png",461,388 S,0,132071,132071,0.5 C,0,132071,132071,255,128,192 F,0,132071,132571,1,0
Sprite,Background,Centre,"sb\glow.png",443,392 S,0,132090,132090,0.5 C,0,132090,132090,255,128,192 F,0,132090,132590,1,0
Sprite,Background,Centre,"sb\glow.png",426,398 S,0,132109,132109,0.5 C,0,132109,132109,255,128,192 F,0,132109,132609,1,0
Sprite,Background,Centre,"sb\glow.png",411,409 S,0,132127,132127,0.5 C,0,132127,132127,255,128,192 F,0,132127,132627,1,0
Sprite,Background,Centre,"sb\glow.png",393,404 S,0,132146,132146,0.5 C,0,132146,132146,255,128,192 F,0,132146,132646,1,0
Sprite,Background,Centre,"sb\glow.png",376,397 S,0,132165,132165,0.5 C,0,132165,132165,255,128,192 F,0,132165,132665,1,0
Sprite,Background,Centre,"sb\glow.png",360,405 S,0,132184,132184,0.5 C,0,132184,132184,255,128,192 F,0,132184,132684,1,0
Sprite,Background,Centre,"sb\glow.png",344,414 S,0,132202,132202,0.5 C,0,132202,132202,255,128,192 F,0,132202,132702,1,0
Sprite,Background,Centre,"sb\glow.png",326,417 S,0,132221,132221,0.5 C,0,132221,132221,255,128,192 F,0,132221,132721,1,0
Sprite,Background,Centre,"sb\glow.png",307,419 S,0,132240,132240,0.5 C,0,132240,132240,255,128,192 F,0,132240,132740,1,0
Sprite,Background,Centre,"sb\glow.png",289,422 S,0,132259,132259,0.5 C,0,132259,132259,255,128,192 F,0,132259,132759,1,0
Sprite,Background,Centre,"sb\glow.png",284,426 S,0,132277,132277,0.5 C,0,132277,132277,255,128,192 F,0,132277,132777,1,0
Sprite,Background,Centre,"sb\glow.png",281,430 S,0,132296,132296,0.5 C,0,132296,132296,255,128,192 F,0,132296,132796,1,0
Sprite,Background,Centre,"sb\glow.png",279,432 S,0,132315,132315,0.5 C,0,132315,132315,255,128,192 F,0,132315,132815,1,0
Sprite,Background,Centre,"sb\glow.png",278,433 S,0,132334,132334,0.5 C,0,132334,132334,255,128,192 F,0,132334,132834,1,0
Sprite,Background,Centre,"sb\glow.png",266,420 S,0,132352,132352,0.5 C,0,132352,132352,255,128,192 F,0,132352,132852,1,0
Sprite,Background,Centre,"sb\glow.png",256,405 S,0,132371,132371,0.5 C,0,132371,132371,255,128,192 F,0,132371,132871,1,0
Sprite,Background,Centre,"sb\glow.png",259,387 S,0,132390,132390,0.5 C,0,132390,132390,255,128,192 F,0,132390,132890,1,0
Sprite,Background,Centre,"sb\glow.png",262,369 S,0,132409,132409,0.5 C,0,132409,132409,255,128,192 F,0,132409,132909,1,0
Sprite,Background,Centre,"sb\glow.png",231,313 S,0,132427,132427,0.5 C,0,132427,132427,255,128,192 F,0,132427,132927,1,0
Sprite,Background,Centre,"sb\glow.png",203,264 S,0,132446,132446,0.5 C,0,132446,132446,255,128,192 F,0,132446,132946,1,0
Sprite,Background,Centre,"sb\glow.png",183,231 S,0,132465,132465,0.5 C,0,132465,132465,255,128,192 F,0,132465,132965,1,0
Sprite,Background,Centre,"sb\glow.png",176,218 S,0,132484,132484,0.5 C,0,132484,132484,255,128,192 F,0,132484,132984,1,0
Sprite,Background,Centre,"sb\glow.png",176,218 S,0,132502,132502,0.5 C,0,132502,132502,255,0,128 F,0,132502,133002,1,0
Sprite,Background,Centre,"sb\glow.png",176,218 S,0,132521,132521,0.5 C,0,132521,132521,255,0,128 F,0,132521,133021,1,0
Sprite,Background,Centre,"sb\glow.png",176,218 S,0,132540,132540,0.5 C,0,132540,132540,255,0,128 F,0,132540,133040,1,0
Sprite,Background,Centre,"sb\glow.png",176,218 S,0,132559,132559,0.5 C,0,132559,132559,255,0,128 F,0,132559,133059,1,0
Sprite,Background,Centre,"sb\glow.png",176,218 S,0,132577,132577,0.5 C,0,132577,132577,255,0,128 F,0,132577,133077,1,0
Sprite,Background,Centre,"sb\glow.png",176,218 S,0,132596,132596,0.5 C,0,132596,132596,255,0,128 F,0,132596,133096,1,0
Sprite,Background,Centre,"sb\glow.png",176,218 S,0,132615,132615,0.5 C,0,132615,132615,255,0,128 F,0,132615,133115,1,0
Sprite,Background,Centre,"sb\glow.png",176,218 S,0,132634,132634,0.5 C,0,132634,132634,255,0,128 F,0,132634,133134,1,0
Sprite,Background,Centre,"sb\glow.png",161,209 S,0,132652,132652,0.5 C,0,132652,132652,255,0,128 F,0,132652,133152,1,0
Sprite,Background,Centre,"sb\glow.png",146,197 S,0,132671,132671,0.5 C,0,132671,132671,255,0,128 F,0,132671,133171,1,0
Sprite,Background,Centre,"sb\glow.png",133,184 S,0,132690,132690,0.5 C,0,132690,132690,255,0,128 F,0,132690,133190,1,0
Sprite,Background,Centre,"sb\glow.png",121,170 S,0,132709,132709,0.5 C,0,132709,132709,255,0,128 F,0,132709,133209,1,0
Sprite,Background,Centre,"sb\glow.png",120,180 S,0,132727,132727,0.5 C,0,132727,132727,255,0,128 F,0,132727,133227,1,0
Sprite,Background,Centre,"sb\glow.png",122,199 S,0,132746,132746,0.5 C,0,132746,132746,255,0,128 F,0,132746,133246,1,0
Sprite,Background,Centre,"sb\glow.png",125,217 S,0,132765,132765,0.5 C,0,132765,132765,255,0,128 F,0,132765,133265,1,0
Sprite,Background,Centre,"sb\glow.png",127,236 S,0,132784,132784,0.5 C,0,132784,132784,255,0,128 F,0,132784,133284,1,0
Sprite,Background,Centre,"sb\glow.png",130,254 S,0,132802,132802,0.5 C,0,132802,132802,255,0,128 F,0,132802,133302,1,0
Sprite,Background,Centre,"sb\glow.png",132,273 S,0,132821,132821,0.5 C,0,132821,132821,255,0,128 F,0,132821,133321,1,0
Sprite,Background,Centre,"sb\glow.png",135,292 S,0,132840,132840,0.5 C,0,132840,132840,255,0,128 F,0,132840,133340,1,0
Sprite,Background,Centre,"sb\glow.png",137,310 S,0,132859,132859,0.5 C,0,132859,132859,255,0,128 F,0,132859,133359,1,0
Sprite,Background,Centre,"sb\glow.png",139,319 S,0,132877,132877,0.5 C,0,132877,132877,255,0,128 F,0,132877,133377,1,0
Sprite,Background,Centre,"sb\glow.png",140,326 S,0,132896,132896,0.5 C,0,132896,132896,255,0,128 F,0,132896,133396,1,0
Sprite,Background,Centre,"sb\glow.png",141,330 S,0,132915,132915,0.5 C,0,132915,132915,255,0,128 F,0,132915,133415,1,0
Sprite,Background,Centre,"sb\glow.png",141,332 S,0,132934,132934,0.5 C,0,132934,132934,255,0,128 F,0,132934,133434,1,0
Sprite,Background,Centre,"sb\glow.png",158,330 S,0,132952,132952,0.5 C,0,132952,132952,255,88,102 F,0,132952,133452,1,0
Sprite,Background,Centre,"sb\glow.png",176,334 S,0,132971,132971,0.5 C,0,132971,132971,255,88,102 F,0,132971,133471,1,0
Sprite,Background,Centre,"sb\glow.png",192,344 S,0,132990,132990,0.5 C,0,132990,132990,255,88,102 F,0,132990,133490,1,0
Sprite,Background,Centre,"sb\glow.png",202,358 S,0,133009,133009,0.5 C,0,133009,133009,255,88,102 F,0,133009,133509,1,0
Sprite,Background,Centre,"sb\glow.png",239,318 S,0,133027,133027,0.5 C,0,133027,133027,255,88,102 F,0,133027,133527,1,0
Sprite,Background,Centre,"sb\glow.png",272,281 S,0,133046,133046,0.5 C,0,133046,133046,255,88,102 F,0,133046,133546,1,0
Sprite,Background,Centre,"sb\glow.png",295,256 S,0,133065,133065,0.5 C,0,133065,133065,255,88,102 F,0,133065,133565,1,0
Sprite,Background,Centre,"sb\glow.png",303,246 S,0,133084,133084,0.5 C,0,133084,133084,255,88,102 F,0,133084,133584,1,0
Sprite,Background,Centre,"sb\glow.png",286,243 S,0,133102,133102,0.5 C,0,133102,133102,255,88,102 F,0,133102,133602,1,0
Sprite,Background,Centre,"sb\glow.png",268,246 S,0,133121,133121,0.5 C,0,133121,133121,255,88,102 F,0,133121,133621,1,0
Sprite,Background,Centre,"sb\glow.png",252,256 S,0,133140,133140,0.5 C,0,133140,133140,255,88,102 F,0,133140,133640,1,0
Sprite,Background,Centre,"sb\glow.png",241,271 S,0,133159,133159,0.5 C,0,133159,133159,255,88,102 F,0,133159,133659,1,0
Sprite,Background,Centre,"sb\glow.png",205,323 S,0,133177,133177,0.5 C,0,133177,133177,255,88,102 F,0,133177,133677,1,0
Sprite,Background,Centre,"sb\glow.png",174,369 S,0,133196,133196,0.5 C,0,133196,133196,255,88,102 F,0,133196,133696,1,0
Sprite,Background,Centre,"sb\glow.png",152,401 S,0,133215,133215,0.5 C,0,133215,133215,255,88,102 F,0,133215,133715,1,0
Sprite,Background,Centre,"sb\glow.png",144,413 S,0,133234,133234,0.5 C,0,133234,133234,255,88,102 F,0,133234,133734,1,0
Sprite,Background,Centre,"sb\glow.png",142,415 S,0,133252,133252,0.5 C,0,133252,133252,255,0,255 F,0,133252,133752,1,0
Sprite,Background,Centre,"sb\glow.png",140,417 S,0,133271,133271,0.5 C,0,133271,133271,255,0,255 F,0,133271,133771,1,0
Sprite,Background,Centre,"sb\glow.png",138,418 S,0,133290,133290,0.5 C,0,133290,133290,255,0,255 F,0,133290,133790,1,0
Sprite,Background,Centre,"sb\glow.png",136,420 S,0,133309,133309,0.5 C,0,133309,133309,255,0,255 F,0,133309,133809,1,0
Sprite,Background,Centre,"sb\glow.png",135,421 S,0,133327,133327,0.5 C,0,133327,133327,255,0,255 F,0,133327,133827,1,0
Sprite,Background,Centre,"sb\glow.png",134,422 S,0,133346,133346,0.5 C,0,133346,133346,255,0,255 F,0,133346,133846,1,0
Sprite,Background,Centre,"sb\glow.png",133,423 S,0,133365,133365,0.5 C,0,133365,133365,255,0,255 F,0,133365,133865,1,0
Sprite,Background,Centre,"sb\glow.png",133,423 S,0,133384,133384,0.5 C,0,133384,133384,255,0,255 F,0,133384,133884,1,0
Sprite,Background,Centre,"sb\glow.png",141,385 S,0,133402,133402,0.5 C,0,133402,133402,255,0,255 F,0,133402,133902,1,0
Sprite,Background,Centre,"sb\glow.png",149,347 S,0,133421,133421,0.5 C,0,133421,133421,255,0,255 F,0,133421,133921,1,0
Sprite,Background,Centre,"sb\glow.png",157,311 S,0,133440,133440,0.5 C,0,133440,133440,255,0,255 F,0,133440,133940,1,0
Sprite,Background,Centre,"sb\glow.png",163,280 S,0,133459,133459,0.5 C,0,133459,133459,255,0,255 F,0,133459,133959,1,0
Sprite,Background,Centre,"sb\glow.png",169,254 S,0,133477,133477,0.5 C,0,133477,133477,255,0,255 F,0,133477,133977,1,0
Sprite,Background,Centre,"sb\glow.png",173,234 S,0,133496,133496,0.5 C,0,133496,133496,255,0,255 F,0,133496,133996,1,0
Sprite,Background,Centre,"sb\glow.png",175,222 S,0,133515,133515,0.5 C,0,133515,133515,255,0,255 F,0,133515,134015,1,0
Sprite,Background,Centre,"sb\glow.png",176,218 S,0,133534,133534,0.5 C,0,133534,133534,255,0,255 F,0,133534,134034,1,0
Sprite,Background,Centre,"sb\glow.png",198,240 S,0,133552,133552,0.5 C,0,133552,133552,255,0,255 F,0,133552,134052,1,0
Sprite,Background,Centre,"sb\glow.png",221,263 S,0,133571,133571,0.5 C,0,133571,133571,255,0,255 F,0,133571,134071,1,0
Sprite,Background,Centre,"sb\glow.png",242,284 S,0,133590,133590,0.5 C,0,133590,133590,255,0,255 F,0,133590,134090,1,0
Sprite,Background,Centre,"sb\glow.png",260,303 S,0,133609,133609,0.5 C,0,133609,133609,255,0,255 F,0,133609,134109,1,0
Sprite,Background,Centre,"sb\glow.png",275,318 S,0,133627,133627,0.5 C,0,133627,133627,255,0,255 F,0,133627,134127,1,0
Sprite,Background,Centre,"sb\glow.png",286,329 S,0,133646,133646,0.5 C,0,133646,133646,255,0,255 F,0,133646,134146,1,0
Sprite,Background,Centre,"sb\glow.png",293,336 S,0,133665,133665,0.5 C,0,133665,133665,255,0,255 F,0,133665,134165,1,0
Sprite,Background,Centre,"sb\glow.png",296,339 S,0,133684,133684,0.5 C,0,133684,133684,255,0,255 F,0,133684,134184,1,0
Sprite,Background,Centre,"sb\glow.png",296,339 S,0,133702,133702,0.5 C,0,133702,133702,255,128,192 F,0,133702,134202,1,0
Sprite,Background,Centre,"sb\glow.png",296,339 S,0,133721,133721,0.5 C,0,133721,133721,255,128,192 F,0,133721,134221,1,0
Sprite,Background,Centre,"sb\glow.png",296,339 S,0,133740,133740,0.5 C,0,133740,133740,255,128,192 F,0,133740,134240,1,0
Sprite,Background,Centre,"sb\glow.png",296,339 S,0,133759,133759,0.5 C,0,133759,133759,255,128,192 F,0,133759,134259,1,0
Sprite,Background,Centre,"sb\glow.png",296,339 S,0,133777,133777,0.5 C,0,133777,133777,255,128,192 F,0,133777,134277,1,0
Sprite,Background,Centre,"sb\glow.png",296,339 S,0,133796,133796,0.5 C,0,133796,133796,255,128,192 F,0,133796,134296,1,0
Sprite,Background,Centre,"sb\glow.png",296,339 S,0,133815,133815,0.5 C,0,133815,133815,255,128,192 F,0,133815,134315,1,0
Sprite,Background,Centre,"sb\glow.png",296,339 S,0,133834,133834,0.5 C,0,133834,133834,255,128,192 F,0,133834,134334,1,0
Sprite,Background,Centre,"sb\glow.png",308,340 S,0,133852,133852,0.5 C,0,133852,133852,255,128,192 F,0,133852,134352,1,0
Sprite,Background,Centre,"sb\glow.png",320,342 S,0,133871,133871,0.5 C,0,133871,133871,255,128,192 F,0,133871,134371,1,0
Sprite,Background,Centre,"sb\glow.png",332,345 S,0,133890,133890,0.5 C,0,133890,133890,255,128,192 F,0,133890,134390,1,0
Sprite,Background,Centre,"sb\glow.png",344,350 S,0,133909,133909,0.5 C,0,133909,133909,255,128,192 F,0,133909,134409,1,0
Sprite,Background,Centre,"sb\glow.png",354,357 S,0,133927,133927,0.5 C,0,133927,133927,255,128,192 F,0,133927,134427,1,0
Sprite,Background,Centre,"sb\glow.png",362,366 S,0,133946,133946,0.5 C,0,133946,133946,255,128,192 F,0,133946,134446,1,0
Sprite,Background,Centre,"sb\glow.png",371,375 S,0,133965,133965,0.5 C,0,133965,133965,255,128,192 F,0,133965,134465,1,0
Sprite,Background,Centre,"sb\glow.png",382,382 S,0,133984,133984,0.5 C,0,133984,133984,255,128,192 F,0,133984,134484,1,0
Sprite,Background,Centre,"sb\glow.png",393,387 S,0,134002,134002,0.5 C,0,134002,134002,255,128,192 F,0,134002,134502,1,0
Sprite,Background,Centre,"sb\glow.png",405,390 S,0,134021,134021,0.5 C,0,134021,134021,255,128,192 F,0,134021,134521,1,0
Sprite,Background,Centre,"sb\glow.png",418,392 S,0,134040,134040,0.5 C,0,134040,134040,255,128,192 F,0,134040,134540,1,0
Sprite,Background,Centre,"sb\glow.png",430,394 S,0,134059,134059,0.5 C,0,134059,134059,255,128,192 F,0,134059,134559,1,0
Sprite,Background,Centre,"sb\glow.png",419,392 S,0,134077,134077,0.5 C,0,134077,134077,255,128,192 F,0,134077,134577,1,0
Sprite,Background,Centre,"sb\glow.png",407,390 S,0,134096,134096,0.5 C,0,134096,134096,255,128,192 F,0,134096,134596,1,0
Sprite,Background,Centre,"sb\glow.png",395,387 S,0,134115,134115,0.5 C,0,134115,134115,255,128,192 F,0,134115,134615,1,0
Sprite,Background,Centre,"sb\glow.png",383,382 S,0,134134,134134,0.5 C,0,134134,134134,255,128,192 F,0,134134,134634,1,0
Sprite,Background,Centre,"sb\glow.png",373,376 S,0,134152,134152,0.5 C,0,134152,134152,255,128,192 F,0,134152,134652,1,0
Sprite,Background,Centre,"sb\glow.png",363,367 S,0,134171,134171,0.5 C,0,134171,134171,255,128,192 F,0,134171,134671,1,0
Sprite,Background,Centre,"sb\glow.png",355,358 S,0,134190,134190,0.5 C,0,134190,134190,255,128,192 F,0,134190,134690,1,0
Sprite,Background,Centre,"sb\glow.png",345,351 S,0,134209,134209,0.5 C,0,134209,134209,255,128,192 F,0,134209,134709,1,0
Sprite,Background,Centre,"sb\glow.png",333,346 S,0,134227,134227,0.5 C,0,134227,134227,255,128,192 F,0,134227,134727,1,0
Sprite,Background,Centre,"sb\glow.png",321,342 S,0,134246,134246,0.5 C,0,134246,134246,255,128,192 F,0,134246,134746,1,0
Sprite,Background,Centre,"sb\glow.png",309,340 S,0,134265,134265,0.5 C,0,134265,134265,255,128,192 F,0,134265,134765,1,0
Sprite,Background,Centre,"sb\glow.png",297,339 S,0,134284,134284,0.5 C,0,134284,134284,255,128,192 F,0,134284,134784,1,0
Sprite,Background,Centre,"sb\glow.png",318,325 S,0,134302,134302,0.5 C,0,134302,134302,255,128,192 F,0,134302,134802,1,0
Sprite,Background,Centre,"sb\glow.png",341,310 S,0,134321,134321,0.5 C,0,134321,134321,255,128,192 F,0,134321,134821,1,0
Sprite,Background,Centre,"sb\glow.png",362,297 S,0,134340,134340,0.5 C,0,134340,134340,255,128,192 F,0,134340,134840,1,0
Sprite,Background,Centre,"sb\glow.png",381,285 S,0,134359,134359,0.5 C,0,134359,134359,255,128,192 F,0,134359,134859,1,0
Sprite,Background,Centre,"sb\glow.png",396,275 S,0,134377,134377,0.5 C,0,134377,134377,255,128,192 F,0,134377,134877,1,0
Sprite,Background,Centre,"sb\glow.png",407,268 S,0,134396,134396,0.5 C,0,134396,134396,255,128,192 F,0,134396,134896,1,0
Sprite,Background,Centre,"sb\glow.png",414,264 S,0,134415,134415,0.5 C,0,134415,134415,255,128,192 F,0,134415,134915,1,0
Sprite,Background,Centre,"sb\glow.png",417,262 S,0,134434,134434,0.5 C,0,134434,134434,255,128,192 F,0,134434,134934,1,0
Sprite,Background,Centre,"sb\glow.png",419,274 S,0,134452,134452,0.5 C,0,134452,134452,255,0,128 F,0,134452,134952,1,0
Sprite,Background,Centre,"sb\glow.png",420,286 S,0,134471,134471,0.5 C,0,134471,134471,255,0,128 F,0,134471,134971,1,0
Sprite,Background,Centre,"sb\glow.png",422,298 S,0,134490,134490,0.5 C,0,134490,134490,255,0,128 F,0,134490,134990,1,0
Sprite,Background,Centre,"sb\glow.png",424,311 S,0,134509,134509,0.5 C,0,134509,134509,255,0,128 F,0,134509,135009,1,0
Sprite,Background,Centre,"sb\glow.png",450,290 S,0,134527,134527,0.5 C,0,134527,134527,255,0,128 F,0,134527,135027,1,0
Sprite,Background,Centre,"sb\glow.png",475,270 S,0,134546,134546,0.5 C,0,134546,134546,255,0,128 F,0,134546,135046,1,0
Sprite,Background,Centre,"sb\glow.png",491,256 S,0,134565,134565,0.5 C,0,134565,134565,255,0,128 F,0,134565,135065,1,0
Sprite,Background,Centre,"sb\glow.png",497,251 S,0,134584,134584,0.5 C,0,134584,134584,255,0,128 F,0,134584,135084,1,0
Sprite,Background,Centre,"sb\glow.png",499,263 S,0,134602,134602,0.5 C,0,134602,134602,255,0,128 F,0,134602,135102,1,0
Sprite,Background,Centre,"sb\glow.png",500,275 S,0,134621,134621,0.5 C,0,134621,134621,255,0,128 F,0,134621,135121,1,0
Sprite,Background,Centre,"sb\glow.png",502,287 S,0,134640,134640,0.5 C,0,134640,134640,255,0,128 F,0,134640,135140,1,0
Sprite,Background,Centre,"sb\glow.png",504,300 S,0,134659,134659,0.5 C,0,134659,134659,255,0,128 F,0,134659,135159,1,0
Sprite,Background,Centre,"sb\glow.png",412,250 S,0,134677,134677,0.5 C,0,134677,134677,255,0,128 F,0,134677,135177,1,0
Sprite,Background,Centre,"sb\glow.png",330,205 S,0,134696,134696,0.5 C,0,134696,134696,255,0,128 F,0,134696,135196,1,0
Sprite,Background,Centre,"sb\glow.png",273,174 S,0,134715,134715,0.5 C,0,134715,134715,255,0,128 F,0,134715,135215,1,0
Sprite,Background,Centre,"sb\glow.png",252,162 S,0,134734,134734,0.5 C,0,134734,134734,255,0,128 F,0,134734,135234,1,0
Sprite,Background,Centre,"sb\glow.png",254,147 S,0,134752,134752,0.5 C,0,134752,134752,255,88,102 F,0,134752,135252,1,0
Sprite,Background,Centre,"sb\glow.png",256,132 S,0,134771,134771,0.5 C,0,134771,134771,255,88,102 F,0,134771,135271,1,0
Sprite,Background,Centre,"sb\glow.png",258,116 S,0,134790,134790,0.5 C,0,134790,134790,255,88,102 F,0,134790,135290,1,0
Sprite,Background,Centre,"sb\glow.png",260,101 S,0,134809,134809,0.5 C,0,134809,134809,255,88,102 F,0,134809,135309,1,0
Sprite,Background,Centre,"sb\glow.png",289,127 S,0,134827,134827,0.5 C,0,134827,134827,255,88,102 F,0,134827,135327,1,0
Sprite,Background,Centre,"sb\glow.png",315,151 S,0,134846,134846,0.5 C,0,134846,134846,255,88,102 F,0,134846,135346,1,0
Sprite,Background,Centre,"sb\glow.png",333,168 S,0,134865,134865,0.5 C,0,134865,134865,255,88,102 F,0,134865,135365,1,0
Sprite,Background,Centre,"sb\glow.png",340,174 S,0,134884,134884,0.5 C,0,134884,134884,255,88,102 F,0,134884,135384,1,0
Sprite,Background,Centre,"sb\glow.png",342,159 S,0,134902,134902,0.5 C,0,134902,134902,255,88,102 F,0,134902,135402,1,0
Sprite,Background,Centre,"sb\glow.png",344,144 S,0,134921,134921,0.5 C,0,134921,134921,255,88,102 F,0,134921,135421,1,0
Sprite,Background,Centre,"sb\glow.png",346,128 S,0,134940,134940,0.5 C,0,134940,134940,255,88,102 F,0,134940,135440,1,0
Sprite,Background,Centre,"sb\glow.png",348,113 S,0,134959,134959,0.5 C,0,134959,134959,255,88,102 F,0,134959,135459,1,0
Sprite,Background,Centre,"sb\glow.png",324,187 S,0,134977,134977,0.5 C,0,134977,134977,255,88,102 F,0,134977,135477,1,0
Sprite,Background,Centre,"sb\glow.png",303,255 S,0,134996,134996,0.5 C,0,134996,134996,255,88,102 F,0,134996,135496,1,0
Sprite,Background,Centre,"sb\glow.png",288,301 S,0,135015,135015,0.5 C,0,135015,135015,255,88,102 F,0,135015,135515,1,0
Sprite,Background,Centre,"sb\glow.png",283,318 S,0,135034,135034,0.5 C,0,135034,135034,255,88,102 F,0,135034,135534,1,0
Sprite,Background,Centre,"sb\glow.png",266,321 S,0,135052,135052,0.5 C,0,135052,135052,255,0,255 F,0,135052,135552,1,0
Sprite,Background,Centre,"sb\glow.png",249,320 S,0,135071,135071,0.5 C,0,135071,135071,255,0,255 F,0,135071,135571,1,0
Sprite,Background,Centre,"sb\glow.png",233,327 S,0,135090,135090,0.5 C,0,135090,135090,255,0,255 F,0,135090,135590,1,0
Sprite,Background,Centre,"sb\glow.png",214,330 S,0,135109,135109,0.5 C,0,135109,135109,255,0,255 F,0,135109,135609,1,0
Sprite,Background,Centre,"sb\glow.png",252,356 S,0,135127,135127,0.5 C,0,135127,135127,255,0,255 F,0,135127,135627,1,0
Sprite,Background,Centre,"sb\glow.png",286,380 S,0,135146,135146,0.5 C,0,135146,135146,255,0,255 F,0,135146,135646,1,0
Sprite,Background,Centre,"sb\glow.png",310,396 S,0,135165,135165,0.5 C,0,135165,135165,255,0,255 F,0,135165,135665,1,0
Sprite,Background,Centre,"sb\glow.png",319,402 S,0,135184,135184,0.5 C,0,135184,135184,255,0,255 F,0,135184,135684,1,0
Sprite,Background,Centre,"sb\glow.png",336,405 S,0,135202,135202,0.5 C,0,135202,135202,255,0,255 F,0,135202,135702,1,0
Sprite,Background,Centre,"sb\glow.png",353,405 S,0,135221,135221,0.5 C,0,135221,135221,255,0,255 F,0,135221,135721,1,0
Sprite,Background,Centre,"sb\glow.png",369,411 S,0,135240,135240,0.5 C,0,135240,135240,255,0,255 F,0,135240,135740,1,0
Sprite,Background,Centre,"sb\glow.png",388,414 S,0,135259,135259,0.5 C,0,135259,135259,255,0,255 F,0,135259,135759,1,0
Sprite,Background,Centre,"sb\glow.png",293,423 S,0,135277,135277,0.5 C,0,135277,135277,255,0,255 F,0,135277,135777,1,0
Sprite,Background,Centre,"sb\glow.png",207,432 S,0,135296,135296,0.5 C,0,135296,135296,255,0,255 F,0,135296,135796,1,0
Sprite,Background,Centre,"sb\glow.png",148,438 S,0,135315,135315,0.5 C,0,135315,135315,255,0,255 F,0,135315,135815,1,0
Sprite,Background,Centre,"sb\glow.png",126,440 S,0,135334,135334,0.5 C,0,135334,135334,255,0,255 F,0,135334,135834,1,0
Sprite,Background,Centre,"sb\glow.png",129,420 S,0,135352,135352,0.5 C,0,135352,135352,255,128,192 F,0,135352,135852,1,0
Sprite,Background,Centre,"sb\glow.png",130,401 S,0,135371,135371,0.5 C,0,135371,135371,255,128,192 F,0,135371,135871,1,0
Sprite,Background,Centre,"sb\glow.png",135,381 S,0,135390,135390,0.5 C,0,135390,135390,255,128,192 F,0,135390,135890,1,0
Sprite,Background,Centre,"sb\glow.png",139,360 S,0,135409,135409,0.5 C,0,135409,135409,255,128,192 F,0,135409,135909,1,0
Sprite,Background,Centre,"sb\glow.png",233,322 S,0,135427,135427,0.5 C,0,135427,135427,255,128,192 F,0,135427,135927,1,0
Sprite,Background,Centre,"sb\glow.png",319,288 S,0,135446,135446,0.5 C,0,135446,135446,255,128,192 F,0,135446,135946,1,0
Sprite,Background,Centre,"sb\glow.png",377,265 S,0,135465,135465,0.5 C,0,135465,135465,255,128,192 F,0,135465,135965,1,0
Sprite,Background,Centre,"sb\glow.png",399,256 S,0,135484,135484,0.5 C,0,135484,135484,255,128,192 F,0,135484,135984,1,0
Sprite,Background,Centre,"sb\glow.png",395,236 S,0,135502,135502,0.5 C,0,135502,135502,255,128,192 F,0,135502,136002,1,0
Sprite,Background,Centre,"sb\glow.png",394,217 S,0,135521,135521,0.5 C,0,135521,135521,255,128,192 F,0,135521,136021,1,0
Sprite,Background,Centre,"sb\glow.png",389,197 S,0,135540,135540,0.5 C,0,135540,135540,255,128,192 F,0,135540,136040,1,0
Sprite,Background,Centre,"sb\glow.png",385,176 S,0,135559,135559,0.5 C,0,135559,135559,255,128,192 F,0,135559,136059,1,0
Sprite,Background,Centre,"sb\glow.png",328,138 S,0,135577,135577,0.5 C,0,135577,135577,255,128,192 F,0,135577,136077,1,0
Sprite,Background,Centre,"sb\glow.png",276,104 S,0,135596,135596,0.5 C,0,135596,135596,255,128,192 F,0,135596,136096,1,0
Sprite,Background,Centre,"sb\glow.png",241,81 S,0,135615,135615,0.5 C,0,135615,135615,255,128,192 F,0,135615,136115,1,0
Sprite,Background,Centre,"sb\glow.png",228,72 S,0,135634,135634,0.5 C,0,135634,135634,255,128,192 F,0,135634,136134,1,0
Sprite,Background,Centre,"sb\glow.png",218,92 S,0,135652,135652,0.5 C,0,135652,135652,255,0,128 F,0,135652,136152,1,0
Sprite,Background,Centre,"sb\glow.png",208,113 S,0,135671,135671,0.5 C,0,135671,135671,255,0,128 F,0,135671,136171,1,0
Sprite,Background,Centre,"sb\glow.png",197,134 S,0,135690,135690,0.5 C,0,135690,135690,255,0,128 F,0,135690,136190,1,0
Sprite,Background,Centre,"sb\glow.png",187,155 S,0,135709,135709,0.5 C,0,135709,135709,255,0,128 F,0,135709,136209,1,0
Sprite,Background,Centre,"sb\glow.png",202,171 S,0,135727,135727,0.5 C,0,135727,135727,255,0,128 F,0,135727,136227,1,0
Sprite,Background,Centre,"sb\glow.png",218,188 S,0,135746,135746,0.5 C,0,135746,135746,255,0,128 F,0,135746,136246,1,0
Sprite,Background,Centre,"sb\glow.png",235,204 S,0,135765,135765,0.5 C,0,135765,135765,255,0,128 F,0,135765,136265,1,0
Sprite,Background,Centre,"sb\glow.png",252,221 S,0,135784,135784,0.5 C,0,135784,135784,255,0,128 F,0,135784,136284,1,0
Sprite,Background,Centre,"sb\glow.png",252,221 S,0,135802,135802,0.5 C,0,135802,135802,255,0,128 F,0,135802,136302,1,0
Sprite,Background,Centre,"sb\glow.png",252,221 S,0,135821,135821,0.5 C,0,135821,135821,255,0,128 F,0,135821,136321,1,0
Sprite,Background,Centre,"sb\glow.png",252,221 S,0,135840,135840,0.5 C,0,135840,135840,255,0,128 F,0,135840,136340,1,0
Sprite,Background,Centre,"sb\glow.png",252,221 S,0,135859,135859,0.5 C,0,135859,135859,255,0,128 F,0,135859,136359,1,0
Sprite,Background,Centre,"sb\glow.png",262,201 S,0,135877,135877,0.5 C,0,135877,135877,255,0,128 F,0,135877,136377,1,0
Sprite,Background,Centre,"sb\glow.png",272,180 S,0,135896,135896,0.5 C,0,135896,135896,255,0,128 F,0,135896,136396,1,0
Sprite,Background,Centre,"sb\glow.png",283,159 S,0,135915,135915,0.5 C,0,135915,135915,255,0,128 F,0,135915,136415,1,0
Sprite,Background,Centre,"sb\glow.png",293,138 S,0,135934,135934,0.5 C,0,135934,135934,255,0,128 F,0,135934,136434,1,0
Sprite,Background,Centre,"sb\glow.png",278,122 S,0,135952,135952,0.5 C,0,135952,135952,255,0,128 F,0,135952,136452,1,0
Sprite,Background,Centre,"sb\glow.png",262,105 S,0,135971,135971,0.5 C,0,135971,135971,255,0,128 F,0,135971,136471,1,0
Sprite,Background,Centre,"sb\glow.png",245,89 S,0,135990,135990,0.5 C,0,135990,135990,255,0,128 F,0,135990,136490,1,0
Sprite,Background,Centre,"sb\glow.png",228,72 S,0,136009,136009,0.5 C,0,136009,136009,255,0,128 F,0,136009,136509,1,0
Sprite,Background,Centre,"sb\glow.png",227,71 S,0,136027,136027,0.5 C,0,136027,136027,255,0,128 F,0,136027,136527,1,0
Sprite,Background,Centre,"sb\glow.png",227,71 S,0,136046,136046,0.5 C,0,136046,136046,255,0,128 F,0,136046,136546,1,0
Sprite,Background,Centre,"sb\glow.png",227,71 S,0,136065,136065,0.5 C,0,136065,136065,255,0,128 F,0,136065,136565,1,0
Sprite,Background,Centre,"sb\glow.png",227,71 S,0,136084,136084,0.5 C,0,136084,136084,255,0,128 F,0,136084,136584,1,0
Sprite,Background,Centre,"sb\glow.png",233,116 S,0,136102,136102,0.5 C,0,136102,136102,255,0,128 F,0,136102,136602,1,0
Sprite,Background,Centre,"sb\glow.png",240,162 S,0,136121,136121,0.5 C,0,136121,136121,255,0,128 F,0,136121,136621,1,0
Sprite,Background,Centre,"sb\glow.png",246,205 S,0,136140,136140,0.5 C,0,136140,136140,255,0,128 F,0,136140,136640,1,0
Sprite,Background,Centre,"sb\glow.png",251,242 S,0,136159,136159,0.5 C,0,136159,136159,255,0,128 F,0,136159,136659,1,0
Sprite,Background,Centre,"sb\glow.png",255,273 S,0,136177,136177,0.5 C,0,136177,136177,255,0,128 F,0,136177,136677,1,0
Sprite,Background,Centre,"sb\glow.png",258,296 S,0,136196,136196,0.5 C,0,136196,136196,255,0,128 F,0,136196,136696,1,0
Sprite,Background,Centre,"sb\glow.png",260,311 S,0,136215,136215,0.5 C,0,136215,136215,255,0,128 F,0,136215,136715,1,0
Sprite,Background,Centre,"sb\glow.png",261,316 S,0,136234,136234,0.5 C,0,136234,136234,255,0,128 F,0,136234,136734,1,0
Sprite,Background,Centre,"sb\glow.png",283,312 S,0,136252,136252,0.5 C,0,136252,136252,255,88,102 F,0,136252,136752,1,0
Sprite,Background,Centre,"sb\glow.png",304,303 S,0,136271,136271,0.5 C,0,136271,136271,255,88,102 F,0,136271,136771,1,0
Sprite,Background,Centre,"sb\glow.png",322,288 S,0,136290,136290,0.5 C,0,136290,136290,255,88,102 F,0,136290,136790,1,0
Sprite,Background,Centre,"sb\glow.png",344,281 S,0,136309,136309,0.5 C,0,136309,136309,255,88,102 F,0,136309,136809,1,0
Sprite,Background,Centre,"sb\glow.png",411,300 S,0,136327,136327,0.5 C,0,136327,136327,255,88,102 F,0,136327,136827,1,0
Sprite,Background,Centre,"sb\glow.png",470,317 S,0,136346,136346,0.5 C,0,136346,136346,255,88,102 F,0,136346,136846,1,0 C,0,136835,136835,0,0,0
Sprite,Background,Centre,"sb\glow.png",511,329 S,0,136365,136365,0.5 C,0,136365,136365,255,88,102 F,0,136365,136865,1,0 C,0,136835,136835,0,0,0
Sprite,Background,Centre,"sb\glow.png",526,333 S,0,136384,136384,0.5 C,0,136384,136384,255,88,102 F,0,136384,136884,1,0 C,0,136835,136835,0,0,0
Sprite,Background,Centre,"sb\glow.png",526,333 S,0,136402,136402,0.5 C,0,136402,136402,255,0,255 F,0,136402,136902,1,0 C,0,136835,136835,0,0,0
Sprite,Background,Centre,"sb\glow.png",526,333 S,0,136421,136421,0.5 C,0,136421,136421,255,0,255 F,0,136421,136921,1,0 C,0,136835,136835,0,0,0
Sprite,Background,Centre,"sb\glow.png",526,333 S,0,136440,136440,0.5 C,0,136440,136440,255,0,255 F,0,136440,136940,1,0 C,0,136835,136835,0,0,0
Sprite,Background,Centre,"sb\glow.png",526,333 S,0,136459,136459,0.5 C,0,136459,136459,255,0,255 F,0,136459,136959,1,0 C,0,136835,136835,0,0,0
Sprite,Background,Centre,"sb\glow.png",526,333 S,0,136477,136477,0.5 C,0,136477,136477,255,0,255 F,0,136477,136977,1,0 C,0,136835,136835,0,0,0
Sprite,Background,Centre,"sb\glow.png",526,333 S,0,136496,136496,0.5 C,0,136496,136496,255,0,255 F,0,136496,136996,1,0 C,0,136835,136835,0,0,0
Sprite,Background,Centre,"sb\glow.png",526,333 S,0,136515,136515,0.5 C,0,136515,136515,255,0,255 F,0,136515,137015,1,0 C,0,136835,136835,0,0,0
Sprite,Background,Centre,"sb\glow.png",526,333 S,0,136534,136534,0.5 C,0,136534,136534,255,0,255 F,0,136534,137034,1,0 C,0,136835,136835,0,0,0
Sprite,Background,Centre,"sb\glow.png",525,343 S,0,136552,136552,0.5 C,0,136552,136552,255,0,255 F,0,136552,137052,1,0 C,0,136835,136835,0,0,0
Sprite,Background,Centre,"sb\glow.png",524,354 S,0,136571,136571,0.5 C,0,136571,136571,255,0,255 F,0,136571,137071,1,0 C,0,136835,136835,0,0,0
Sprite,Background,Centre,"sb\glow.png",522,365 S,0,136590,136590,0.5 C,0,136590,136590,255,0,255 F,0,136590,137090,1,0 C,0,136835,136835,0,0,0
Sprite,Background,Centre,"sb\glow.png",521,376 S,0,136609,136609,0.5 C,0,136609,136609,255,0,255 F,0,136609,137109,1,0 C,0,136835,136835,0,0,0
Sprite,Background,Centre,"sb\glow.png",488,317 S,0,136627,136627,0.5 C,0,136627,136627,255,0,255 F,0,136627,137127,1,0 C,0,136835,136835,0,0,0
Sprite,Background,Centre,"sb\glow.png",458,263 S,0,136646,136646,0.5 C,0,136646,136646,255,0,255 F,0,136646,137146,1,0 C,0,136835,136835,0,0,0
Sprite,Background,Centre,"sb\glow.png",438,227 S,0,136665,136665,0.5 C,0,136665,136665,255,0,255 F,0,136665,137165,1,0 C,0,136835,136835,0,0,0
Sprite,Background,Centre,"sb\glow.png",430,213 S,0,136684,136684,0.5 C,0,136684,136684,255,0,255 F,0,136684,137184,1,0 C,0,136835,136835,0,0,0
Sprite,Background,Centre,"sb\glow.png",431,223 S,0,136702,136702,0.5 C,0,136702,136702,255,0,255 F,0,136702,137202,1,0 C,0,136835,136835,0,0,0
Sprite,Background,Centre,"sb\glow.png",432,234 S,0,136721,136721,0.5 C,0,136721,136721,255,0,255 F,0,136721,137221,1,0 C,0,136835,136835,0,0,0
Sprite,Background,Centre,"sb\glow.png",433,245 S,0,136740,136740,0.5 C,0,136740,136740,255,0,255 F,0,136740,137240,1,0 C,0,136835,136835,0,0,0
Sprite,Background,Centre,"sb\glow.png",434,255 S,0,136759,136759,0.5 C,0,136759,136759,255,0,255 F,0,136759,137259,1,0 C,0,136835,136835,0,0,0
Sprite,Background,Centre,"sb\glow.png",478,205 S,0,136777,136777,0.5 C,0,136777,136777,255,0,255 F,0,136777,137277,1,0 C,0,136835,136835,0,0,0
Sprite,Background,Centre,"sb\glow.png",518,159 S,0,136796,136796,0.5 C,0,136796,136796,255,0,255 F,0,136796,137296,1,0 C,0,136835,136835,0,0,0
Sprite,Background,Centre,"sb\glow.png",545,128 S,0,136815,136815,0.5 C,0,136815,136815,255,0,255 F,0,136815,137315,1,0 C,0,136835,136835,0,0,0
Sprite,Background,Centre,"sb\glow.png",555,116 S,0,136834,136834,0.5 C,0,136834,136834,255,0,255 F,0,136834,137334,1,0 C,0,136835,136835,0,0,0
//Storyboard Layer 1 (Fail)
//Storyboard Layer 2 (Pass)
//Storyboard Layer 3 (Foreground)
Sprite,Foreground,Centre,"SB\Pixel.jpg",0,0 F,0,15635,15635,0.3674484 S,0,15635,15635,12 M,19,15635,16334,350,158,413,211 M,18,16334,16834,413,211,553,336
Sprite,Foreground,Centre,"SB\Pixel.jpg",0,0 F,0,15635,15635,0.4932649 S,0,15635,15635,12 M,19,15635,16334,350,158,431,146 M,18,16334,16834,431,146,553,336
Sprite,Foreground,Centre,"SB\Pixel.jpg",0,0 F,0,15635,15635,0.3408536 S,0,15635,15635,19 M,19,15635,16334,350,158,343,184 M,18,16334,16834,343,184,553,336
Sprite,Foreground,Centre,"SB\Pixel.jpg",0,0 F,0,15635,15635,0.4031543 S,0,15635,15635,13 M,19,15635,16334,350,158,422,257 M,18,16334,16834,422,257,553,336
Sprite,Foreground,Centre,"SB\Pixel.jpg",0,0 F,0,15635,15635,0.2097876 S,0,15635,15635,16 M,19,15635,16334,350,158,419,256 M,18,16334,16834,419,256,553,336
Sprite,Foreground,Centre,"SB\Pixel.jpg",0,0 F,0,15635,15635,0.3640446 S,0,15635,15635,10 M,19,15635,16334,350,158,436,195 M,18,16334,16834,436,195,553,336
Sprite,Foreground,Centre,"SB\Pixel.jpg",0,0 F,0,15635,15635,0.4965631 S,0,15635,15635,16 M,19,15635,16334,350,158,340,117 M,18,16334,16834,340,117,553,336
Sprite,Foreground,Centre,"SB\Pixel.jpg",0,0 F,0,15635,15635,0.3029425 S,0,15635,15635,19 M,19,15635,16334,350,158,256,134 M,18,16334,16834,256,134,553,336
Sprite,Foreground,Centre,"SB\Pixel.jpg",0,0 F,0,15635,15635,0.2820354 S,0,15635,15635,19 M,19,15635,16334,350,158,393,81 M,18,16334,16834,393,81,553,336
Sprite,Foreground,Centre,"SB\Pixel.jpg",0,0 F,0,15635,15635,0.2440475 S,0,15635,15635,12 M,19,15635,16334,350,158,317,149 M,18,16334,16834,317,149,553,336
Sprite,Foreground,Centre,"SB\Pixel.jpg",0,0 F,0,15635,15635,0.3463904 S,0,15635,15635,11 M,19,15635,16334,350,158,393,181 M,18,16334,16834,393,181,553,336
Sprite,Foreground,Centre,"SB\Pixel.jpg",0,0 F,0,15635,15635,0.4574658 S,0,15635,15635,16 M,19,15635,16334,350,158,415,205 M,18,16334,16834,415,205,553,336
Sprite,Foreground,Centre,"SB\Pixel.jpg",0,0 F,0,15635,15635,0.4689319 S,0,15635,15635,10 M,19,15635,16334,350,158,293,237 M,18,16334,16834,293,237,553,336
Sprite,Foreground,Centre,"SB\Pixel.jpg",0,0 F,0,15635,15635,0.4480443 S,0,15635,15635,12 M,19,15635,16334,350,158,284,186 M,18,16334,16834,284,186,553,336
Sprite,Foreground,Centre,"SB\Pixel.jpg",0,0 F,0,15635,15635,0.4159178 S,0,15635,15635,18 M,19,15635,16334,350,158,346,188 M,18,16334,16834,346,188,553,336
Sprite,Foreground,Centre,"SB\Pixel.jpg",0,0 F,0,15635,15635,0.2376582 S,0,15635,15635,19 M,19,15635,16334,350,158,395,201 M,18,16334,16834,395,201,553,336
Sprite,Foreground,Centre,"SB\Pixel.jpg",0,0 F,0,15635,15635,0.2976502 S,0,15635,15635,16 M,19,15635,16334,350,158,345,166 M,18,16334,16834,345,166,553,336
Sprite,Foreground,Centre,"SB\Pixel.jpg",0,0 F,0,15635,15635,0.4380891 S,0,15635,15635,17 M,19,15635,16334,350,158,416,219 M,18,16334,16834,416,219,553,336
Sprite,Foreground,Centre,"SB\Pixel.jpg",0,0 F,0,15635,15635,0.3990178 S,0,15635,15635,13 M,19,15635,16334,350,158,308,162 M,18,16334,16834,308,162,553,336
Sprite,Foreground,Centre,"SB\Pixel.jpg",0,0 F,0,15635,15635,0.2560615 S,0,15635,15635,10 M,19,15635,16334,350,158,414,102 M,18,16334,16834,414,102,553,336
Sprite,Foreground,Centre,"SB\Pixel.jpg",0,0 F,0,15635,15635,0.4782912 S,0,15635,15635,12 M,19,15635,16334,350,158,388,184 M,18,16334,16834,388,184,553,336
Sprite,Foreground,Centre,"SB\Pixel.jpg",0,0 F,0,15635,15635,0.4035516 S,0,15635,15635,10 M,19,15635,16334,350,158,263,238 M,18,16334,16834,263,238,553,336
Sprite,Foreground,Centre,"SB\Pixel.jpg",0,0 F,0,15635,15635,0.4859129 S,0,15635,15635,14 M,19,15635,16334,350,158,271,179 M,18,16334,16834,271,179,553,336
Sprite,Foreground,Centre,"SB\Pixel.jpg",0,0 F,0,15635,15635,0.267621 S,0,15635,15635,16 M,19,15635,16334,350,158,385,171 M,18,16334,16834,385,171,553,336
Sprite,Foreground,Centre,"SB\Pixel.jpg",0,0 F,0,15635,15635,0.2186925 S,0,15635,15635,12 M,19,15635,16334,350,158,322,228 M,18,16334,16834,322,228,553,336
Sprite,Foreground,Centre,"SB\Pixel.jpg",0,0 F,0,15635,15635,0.3161411 S,0,15635,15635,15 M,19,15635,16334,350,158,441,255 M,18,16334,16834,441,255,553,336
Sprite,Foreground,Centre,"SB\Pixel.jpg",0,0 F,0,15635,15635,0.2171025 S,0,15635,15635,12 M,19,15635,16334,350,158,351,164 M,18,16334,16834,351,164,553,336
Sprite,Foreground,Centre,"SB\Pixel.jpg",0,0 F,0,15635,15635,0.2312476 S,0,15635,15635,17 M,19,15635,16334,350,158,419,180 M,18,16334,16834,419,180,553,336
Sprite,Foreground,Centre,"SB\Pixel.jpg",0,0 F,0,15635,15635,0.4098957 S,0,15635,15635,16 M,19,15635,16334,350,158,436,84 M,18,16334,16834,436,84,553,336
Sprite,Foreground,Centre,"SB\Pixel.jpg",0,0 F,0,15635,15635,0.2518303 S,0,15635,15635,11 M,19,15635,16334,350,158,387,171 M,18,16334,16834,387,171,553,336
Sprite,Foreground,Centre,"SB\Pixel.jpg",0,0 F,0,15635,15635,0.3706068 S,0,15635,15635,10 M,19,15635,16334,350,158,300,257 M,18,16334,16834,300,257,553,336
Sprite,Foreground,Centre,"SB\Pixel.jpg",0,0 F,0,15635,15635,0.393797 S,0,15635,15635,15 M,19,15635,16334,350,158,418,171 M,18,16334,16834,418,171,553,336
Sprite,Foreground,Centre,"SB\Pixel.jpg",0,0 F,0,15635,15635,0.2467296 S,0,15635,15635,18 M,19,15635,16334,350,158,265,160 M,18,16334,16834,265,160,553,336
Sprite,Foreground,Centre,"SB\Pixel.jpg",0,0 F,0,15635,15635,0.4017467 S,0,15635,15635,19 M,19,15635,16334,350,158,365,168 M,18,16334,16834,365,168,553,336
Sprite,Foreground,Centre,"SB\Pixel.jpg",0,0 F,0,15635,15635,0.3449222 S,0,15635,15635,12 M,19,15635,16334,350,158,262,151 M,18,16334,16834,262,151,553,336
Sprite,Foreground,Centre,"SB\Pixel.jpg",0,0 F,0,20434,20434,0.3166514 S,0,20434,20434,18 M,19,20434,21135,165,337,155,240 M,18,21135,21635,155,240,70,358
Sprite,Foreground,Centre,"SB\Pixel.jpg",0,0 F,0,20434,20434,0.3528384 S,0,20434,20434,19 M,19,20434,21135,165,337,247,242 M,18,21135,21635,247,242,70,358
Sprite,Foreground,Centre,"SB\Pixel.jpg",0,0 F,0,20434,20434,0.2834989 S,0,20434,20434,19 M,19,20434,21135,165,337,68,367 M,18,21135,21635,68,367,70,358
Sprite,Foreground,Centre,"SB\Pixel.jpg",0,0 F,0,20434,20434,0.3261276 S,0,20434,20434,19 M,19,20434,21135,165,337,219,301 M,18,21135,21635,219,301,70,358
Sprite,Foreground,Centre,"SB\Pixel.jpg",0,0 F,0,20434,20434,0.2396794 S,0,20434,20434,18 M,19,20434,21135,165,337,259,288 M,18,21135,21635,259,288,70,358
Sprite,Foreground,Centre,"SB\Pixel.jpg",0,0 F,0,20434,20434,0.4355136 S,0,20434,20434,15 M,19,20434,21135,165,337,241,345 M,18,21135,21635,241,345,70,358
Sprite,Foreground,Centre,"SB\Pixel.jpg",0,0 F,0,20434,20434,0.4075182 S,0,20434,20434,11 M,19,20434,21135,165,337,263,243 M,18,21135,21635,263,243,70,358
Sprite,Foreground,Centre,"SB\Pixel.jpg",0,0 F,0,20434,20434,0.2784993 S,0,20434,20434,13 M,19,20434,21135,165,337,164,353 M,18,21135,21635,164,353,70,358
Sprite,Foreground,Centre,"SB\Pixel.jpg",0,0 F,0,20434,20434,0.3837511 S,0,20434,20434,15 M,19,20434,21135,165,337,221,263 M,18,21135,21635,221,263,70,358
Sprite,Foreground,Centre,"SB\Pixel.jpg",0,0 F,0,20434,20434,0.2291858 S,0,20434,20434,18 M,19,20434,21135,165,337,133,241 M,18,21135,21635,133,241,70,358
Sprite,Foreground,Centre,"SB\Pixel.jpg",0,0 F,0,20434,20434,0.2765923 S,0,20434,20434,12 M,19,20434,21135,165,337,243,367 M,18,21135,21635,243,367,70,358
Sprite,Foreground,Centre,"SB\Pixel.jpg",0,0 F,0,20434,20434,0.3474754 S,0,20434,20434,16 M,19,20434,21135,165,337,104,414 M,18,21135,21635,104,414,70,358
Sprite,Foreground,Centre,"SB\Pixel.jpg",0,0 F,0,20434,20434,0.4986262 S,0,20434,20434,16 M,19,20434,21135,165,337,138,285 M,18,21135,21635,138,285,70,358
Sprite,Foreground,Centre,"SB\Pixel.jpg",0,0 F,0,20434,20434,0.247143 S,0,20434,20434,17 M,19,20434,21135,165,337,261,429 M,18,21135,21635,261,429,70,358
Sprite,Foreground,Centre,"SB\Pixel.jpg",0,0 F,0,20434,20434,0.2330186 S,0,20434,20434,17 M,19,20434,21135,165,337,103,249 M,18,21135,21635,103,249,70,358
Sprite,Foreground,Centre,"SB\Pixel.jpg",0,0 F,0,20434,20434,0.3718924 S,0,20434,20434,12 M,19,20434,21135,165,337,232,365 M,18,21135,21635,232,365,70,358
Sprite,Foreground,Centre,"SB\Pixel.jpg",0,0 F,0,20434,20434,0.4721404 S,0,20434,20434,18 M,19,20434,21135,165,337,236,326 M,18,21135,21635,236,326,70,358
Sprite,Foreground,Centre,"SB\Pixel.jpg",0,0 F,0,20434,20434,0.3280683 S,0,20434,20434,16 M,19,20434,21135,165,337,133,392 M,18,21135,21635,133,392,70,358
Sprite,Foreground,Centre,"SB\Pixel.jpg",0,0 F,0,20434,20434,0.3871523 S,0,20434,20434,19 M,19,20434,21135,165,337,186,254 M,18,21135,21635,186,254,70,358
Sprite,Foreground,Centre,"SB\Pixel.jpg",0,0 F,0,20434,20434,0.2005993 S,0,20434,20434,15 M,19,20434,21135,165,337,172,264 M,18,21135,21635,172,264,70,358
Sprite,Foreground,Centre,"SB\Pixel.jpg",0,0 F,0,20434,20434,0.2975087 S,0,20434,20434,17 M,19,20434,21135,165,337,140,410 M,18,21135,21635,140,410,70,358
Sprite,Foreground,Centre,"SB\Pixel.jpg",0,0 F,0,20434,20434,0.3567532 S,0,20434,20434,11 M,19,20434,21135,165,337,230,345 M,18,21135,21635,230,345,70,358
Sprite,Foreground,Centre,"SB\Pixel.jpg",0,0 F,0,20434,20434,0.2749852 S,0,20434,20434,18 M,19,20434,21135,165,337,175,299 M,18,21135,21635,175,299,70,358
Sprite,Foreground,Centre,"SB\Pixel.jpg",0,0 F,0,20434,20434,0.2576757 S,0,20434,20434,11 M,19,20434,21135,165,337,249,304 M,18,21135,21635,249,304,70,358
Sprite,Foreground,Centre,"SB\Pixel.jpg",0,0 F,0,20434,20434,0.352991 S,0,20434,20434,17 M,19,20434,21135,165,337,106,343 M,18,21135,21635,106,343,70,358
Sprite,Foreground,Centre,"SB\Pixel.jpg",0,0 F,0,20434,20434,0.2358233 S,0,20434,20434,18 M,19,20434,21135,165,337,85,324 M,18,21135,21635,85,324,70,358
Sprite,Foreground,Centre,"SB\Pixel.jpg",0,0 F,0,20434,20434,0.2046528 S,0,20434,20434,15 M,19,20434,21135,165,337,205,365 M,18,21135,21635,205,365,70,358
Sprite,Foreground,Centre,"SB\Pixel.jpg",0,0 F,0,20434,20434,0.2361499 S,0,20434,20434,12 M,19,20434,21135,165,337,263,261 M,18,21135,21635,263,261,70,358
Sprite,Foreground,Centre,"SB\Pixel.jpg",0,0 F,0,20434,20434,0.2791955 S,0,20434,20434,10 M,19,20434,21135,165,337,224,288 M,18,21135,21635,224,288,70,358
Sprite,Foreground,Centre,"SB\Pixel.jpg",0,0 F,0,20434,20434,0.4469632 S,0,20434,20434,15 M,19,20434,21135,165,337,123,404 M,18,21135,21635,123,404,70,358
Sprite,Foreground,Centre,"SB\Pixel.jpg",0,0 F,0,20434,20434,0.4555207 S,0,20434,20434,18 M,19,20434,21135,165,337,105,426 M,18,21135,21635,105,426,70,358
Sprite,Foreground,Centre,"SB\Pixel.jpg",0,0 F,0,20434,20434,0.3655334 S,0,20434,20434,13 M,19,20434,21135,165,337,233,308 M,18,21135,21635,233,308,70,358
Sprite,Foreground,Centre,"SB\Pixel.jpg",0,0 F,0,20434,20434,0.3988633 S,0,20434,20434,16 M,19,20434,21135,165,337,143,321 M,18,21135,21635,143,321,70,358
Sprite,Foreground,Centre,"SB\Pixel.jpg",0,0 F,0,20434,20434,0.4041527 S,0,20434,20434,13 M,19,20434,21135,165,337,247,296 M,18,21135,21635,247,296,70,358
Sprite,Foreground,Centre,"SB\Pixel.jpg",0,0 F,0,20434,20434,0.4727132 S,0,20434,20434,15 M,19,20434,21135,165,337,224,280 M,18,21135,21635,224,280,70,358
Sprite,Foreground,Centre,"SB\Pixel.jpg",0,0 F,0,20434,20434,0.3490945 S,0,20434,20434,13 M,19,20434,21135,165,337,254,291 M,18,21135,21635,254,291,70,358
Sprite,Foreground,Centre,"SB\Pixel.jpg",0,0 F,0,30034,30034,0.2358157 S,0,30034,30034,11 M,19,30034,30735,568,158,619,215 M,18,30735,31235,619,215,130,422
Sprite,Foreground,Centre,"SB\Pixel.jpg",0,0 F,0,30034,30034,0.4448625 S,0,30034,30034,18 M,19,30034,30735,568,158,595,172 M,18,30735,31235,595,172,130,422
Sprite,Foreground,Centre,"SB\Pixel.jpg",0,0 F,0,30034,30034,0.3990368 S,0,30034,30034,10 M,19,30034,30735,568,158,543,176 M,18,30735,31235,543,176,130,422
Sprite,Foreground,Centre,"SB\Pixel.jpg",0,0 F,0,30034,30034,0.3441612 S,0,30034,30034,10 M,19,30034,30735,568,158,667,89 M,18,30735,31235,667,89,130,422
Sprite,Foreground,Centre,"SB\Pixel.jpg",0,0 F,0,30034,30034,0.2996246 S,0,30034,30034,10 M,19,30034,30735,568,158,665,65 M,18,30735,31235,665,65,130,422
Sprite,Foreground,Centre,"SB\Pixel.jpg",0,0 F,0,30034,30034,0.2672896 S,0,30034,30034,11 M,19,30034,30735,568,158,582,229 M,18,30735,31235,582,229,130,422
Sprite,Foreground,Centre,"SB\Pixel.jpg",0,0 F,0,30034,30034,0.4264424 S,0,30034,30034,12 M,19,30034,30735,568,158,623,224 M,18,30735,31235,623,224,130,422
Sprite,Foreground,Centre,"SB\Pixel.jpg",0,0 F,0,30034,30034,0.3733906 S,0,30034,30034,17 M,19,30034,30735,568,158,492,93 M,18,30735,31235,492,93,130,422
Sprite,Foreground,Centre,"SB\Pixel.jpg",0,0 F,0,30034,30034,0.2133764 S,0,30034,30034,12 M,19,30034,30735,568,158,513,138 M,18,30735,31235,513,138,130,422
Sprite,Foreground,Centre,"SB\Pixel.jpg",0,0 F,0,30034,30034,0.3247973 S,0,30034,30034,17 M,19,30034,30735,568,158,539,179 M,18,30735,31235,539,179,130,422
Sprite,Foreground,Centre,"SB\Pixel.jpg",0,0 F,0,30034,30034,0.3575272 S,0,30034,30034,17 M,19,30034,30735,568,158,488,84 M,18,30735,31235,488,84,130,422
Sprite,Foreground,Centre,"SB\Pixel.jpg",0,0 F,0,30034,30034,0.2255972 S,0,30034,30034,15 M,19,30034,30735,568,158,612,149 M,18,30735,31235,612,149,130,422
Sprite,Foreground,Centre,"SB\Pixel.jpg",0,0 F,0,30034,30034,0.4099815 S,0,30034,30034,17 M,19,30034,30735,568,158,623,127 M,18,30735,31235,623,127,130,422
Sprite,Foreground,Centre,"SB\Pixel.jpg",0,0 F,0,30034,30034,0.3269479 S,0,30034,30034,19 M,19,30034,30735,568,158,576,225 M,18,30735,31235,576,225,130,422
Sprite,Foreground,Centre,"SB\Pixel.jpg",0,0 F,0,30034,30034,0.4254443 S,0,30034,30034,12 M,19,30034,30735,568,158,631,174 M,18,30735,31235,631,174,130,422
Sprite,Foreground,Centre,"SB\Pixel.jpg",0,0 F,0,30034,30034,0.2156184 S,0,30034,30034,15 M,19,30034,30735,568,158,584,256 M,18,30735,31235,584,256,130,422
Sprite,Foreground,Centre,"SB\Pixel.jpg",0,0 F,0,30034,30034,0.3290091 S,0,30034,30034,19 M,19,30034,30735,568,158,661,146 M,18,30735,31235,661,146,130,422
Sprite,Foreground,Centre,"SB\Pixel.jpg",0,0 F,0,30034,30034,0.4997129 S,0,30034,30034,18 M,19,30034,30735,568,158,596,119 M,18,30735,31235,596,119,130,422
Sprite,Foreground,Centre,"SB\Pixel.jpg",0,0 F,0,30034,30034,0.4977987 S,0,30034,30034,16 M,19,30034,30735,568,158,601,76 M,18,30735,31235,601,76,130,422
Sprite,Foreground,Centre,"SB\Pixel.jpg",0,0 F,0,30034,30034,0.3012295 S,0,30034,30034,18 M,19,30034,30735,568,158,644,198 M,18,30735,31235,644,198,130,422
Sprite,Foreground,Centre,"SB\Pixel.jpg",0,0 F,0,30034,30034,0.3530591 S,0,30034,30034,13 M,19,30034,30735,568,158,571,94 M,18,30735,31235,571,94,130,422
Sprite,Foreground,Centre,"SB\Pixel.jpg",0,0 F,0,30034,30034,0.287238 S,0,30034,30034,18 M,19,30034,30735,568,158,572,134 M,18,30735,31235,572,134,130,422
Sprite,Foreground,Centre,"SB\Pixel.jpg",0,0 F,0,30034,30034,0.3607502 S,0,30034,30034,14 M,19,30034,30735,568,158,613,138 M,18,30735,31235,613,138,130,422
Sprite,Foreground,Centre,"SB\Pixel.jpg",0,0 F,0,30034,30034,0.4329405 S,0,30034,30034,16 M,19,30034,30735,568,158,534,241 M,18,30735,31235,534,241,130,422
Sprite,Foreground,Centre,"SB\Pixel.jpg",0,0 F,0,30034,30034,0.367354 S,0,30034,30034,14 M,19,30034,30735,568,158,515,225 M,18,30735,31235,515,225,130,422
Sprite,Foreground,Centre,"SB\Pixel.jpg",0,0 F,0,30034,30034,0.2187841 S,0,30034,30034,11 M,19,30034,30735,568,158,612,175 M,18,30735,31235,612,175,130,422
Sprite,Foreground,Centre,"SB\Pixel.jpg",0,0 F,0,30034,30034,0.270845 S,0,30034,30034,16 M,19,30034,30735,568,158,644,188 M,18,30735,31235,644,188,130,422
Sprite,Foreground,Centre,"SB\Pixel.jpg",0,0 F,0,30034,30034,0.2136048 S,0,30034,30034,15 M,19,30034,30735,568,158,624,244 M,18,30735,31235,624,244,130,422
Sprite,Foreground,Centre,"SB\Pixel.jpg",0,0 F,0,30034,30034,0.2500668 S,0,30034,30034,10 M,19,30034,30735,568,158,519,61 M,18,30735,31235,519,61,130,422
Sprite,Foreground,Centre,"SB\Pixel.jpg",0,0 F,0,30034,30034,0.3703012 S,0,30034,30034,16 M,19,30034,30735,568,158,520,169 M,18,30735,31235,520,169,130,422
Sprite,Foreground,Centre,"SB\Pixel.jpg",0,0 F,0,30034,30034,0.4056099 S,0,30034,30034,19 M,19,30034,30735,568,158,661,242 M,18,30735,31235,661,242,130,422
Sprite,Foreground,Centre,"SB\Pixel.jpg",0,0 F,0,30034,30034,0.2177424 S,0,30034,30034,16 M,19,30034,30735,568,158,604,183 M,18,30735,31235,604,183,130,422
Sprite,Foreground,Centre,"SB\Pixel.jpg",0,0 F,0,30034,30034,0.2324001 S,0,30034,30034,17 M,19,30034,30735,568,158,654,122 M,18,30735,31235,654,122,130,422
Sprite,Foreground,Centre,"SB\Pixel.jpg",0,0 F,0,30034,30034,0.4778979 S,0,30034,30034,17 M,19,30034,30735,568,158,482,91 M,18,30735,31235,482,91,130,422
Sprite,Foreground,Centre,"SB\Pixel.jpg",0,0 F,0,30034,30034,0.2690876 S,0,30034,30034,11 M,19,30034,30735,568,158,548,232 M,18,30735,31235,548,232,130,422
Sprite,Foreground,Centre,"SB\Pixel.jpg",0,0 F,0,30034,30034,0.3448871 S,0,30034,30034,17 M,19,30034,30735,568,158,511,192 M,18,30735,31235,511,192,130,422
Sprite,Foreground,Centre,"SB\Pixel.jpg",0,0 F,0,30034,30034,0.3343889 S,0,30034,30034,14 M,19,30034,30735,568,158,500,62 M,18,30735,31235,500,62,130,422
Sprite,Foreground,Centre,"SB\Pixel.jpg",0,0 F,0,39634,39634,0.3210461 S,0,39634,39634,18 M,19,39634,40334,476,301,407,375 M,18,40334,40834,407,375,411,80
Sprite,Foreground,Centre,"SB\Pixel.jpg",0,0 F,0,39634,39634,0.3127754 S,0,39634,39634,11 M,19,39634,40334,476,301,563,382 M,18,40334,40834,563,382,411,80
Sprite,Foreground,Centre,"SB\Pixel.jpg",0,0 F,0,39634,39634,0.4352037 S,0,39634,39634,13 M,19,39634,40334,476,301,394,327 M,18,40334,40834,394,327,411,80
Sprite,Foreground,Centre,"SB\Pixel.jpg",0,0 F,0,39634,39634,0.3702384 S,0,39634,39634,14 M,19,39634,40334,476,301,395,339 M,18,40334,40834,395,339,411,80
Sprite,Foreground,Centre,"SB\Pixel.jpg",0,0 F,0,39634,39634,0.3002365 S,0,39634,39634,11 M,19,39634,40334,476,301,377,229 M,18,40334,40834,377,229,411,80
Sprite,Foreground,Centre,"SB\Pixel.jpg",0,0 F,0,39634,39634,0.3925813 S,0,39634,39634,17 M,19,39634,40334,476,301,558,375 M,18,40334,40834,558,375,411,80
Sprite,Foreground,Centre,"SB\Pixel.jpg",0,0 F,0,39634,39634,0.206006 S,0,39634,39634,18 M,19,39634,40334,476,301,397,385 M,18,40334,40834,397,385,411,80
Sprite,Foreground,Centre,"SB\Pixel.jpg",0,0 F,0,39634,39634,0.3020881 S,0,39634,39634,15 M,19,39634,40334,476,301,481,294 M,18,40334,40834,481,294,411,80
Sprite,Foreground,Centre,"SB\Pixel.jpg",0,0 F,0,39634,39634,0.294404 S,0,39634,39634,10 M,19,39634,40334,476,301,438,260 M,18,40334,40834,438,260,411,80
Sprite,Foreground,Centre,"SB\Pixel.jpg",0,0 F,0,39634,39634,0.237756 S,0,39634,39634,11 M,19,39634,40334,476,301,482,248 M,18,40334,40834,482,248,411,80
Sprite,Foreground,Centre,"SB\Pixel.jpg",0,0 F,0,39634,39634,0.445295 S,0,39634,39634,14 M,19,39634,40334,476,301,429,281 M,18,40334,40834,429,281,411,80
Sprite,Foreground,Centre,"SB\Pixel.jpg",0,0 F,0,39634,39634,0.2727409 S,0,39634,39634,13 M,19,39634,40334,476,301,378,308 M,18,40334,40834,378,308,411,80
Sprite,Foreground,Centre,"SB\Pixel.jpg",0,0 F,0,39634,39634,0.3979812 S,0,39634,39634,12 M,19,39634,40334,476,301,388,254 M,18,40334,40834,388,254,411,80
Sprite,Foreground,Centre,"SB\Pixel.jpg",0,0 F,0,39634,39634,0.4884808 S,0,39634,39634,11 M,19,39634,40334,476,301,409,323 M,18,40334,40834,409,323,411,80
Sprite,Foreground,Centre,"SB\Pixel.jpg",0,0 F,0,39634,39634,0.2154199 S,0,39634,39634,17 M,19,39634,40334,476,301,501,271 M,18,40334,40834,501,271,411,80
Sprite,Foreground,Centre,"SB\Pixel.jpg",0,0 F,0,39634,39634,0.2782276 S,0,39634,39634,17 M,19,39634,40334,476,301,518,366 M,18,40334,40834,518,366,411,80
Sprite,Foreground,Centre,"SB\Pixel.jpg",0,0 F,0,39634,39634,0.3472579 S,0,39634,39634,17 M,19,39634,40334,476,301,510,350 M,18,40334,40834,510,350,411,80
Sprite,Foreground,Centre,"SB\Pixel.jpg",0,0 F,0,39634,39634,0.3791448 S,0,39634,39634,18 M,19,39634,40334,476,301,516,222 M,18,40334,40834,516,222,411,80
Sprite,Foreground,Centre,"SB\Pixel.jpg",0,0 F,0,39634,39634,0.4831749 S,0,39634,39634,18 M,19,39634,40334,476,301,573,245 M,18,40334,40834,573,245,411,80
Sprite,Foreground,Centre,"SB\Pixel.jpg",0,0 F,0,39634,39634,0.2280465 S,0,39634,39634,15 M,19,39634,40334,476,301,384,328 M,18,40334,40834,384,328,411,80
Sprite,Foreground,Centre,"SB\Pixel.jpg",0,0 F,0,39634,39634,0.4823172 S,0,39634,39634,13 M,19,39634,40334,476,301,559,256 M,18,40334,40834,559,256,411,80
Sprite,Foreground,Centre,"SB\Pixel.jpg",0,0 F,0,39634,39634,0.2064582 S,0,39634,39634,12 M,19,39634,40334,476,301,558,271 M,18,40334,40834,558,271,411,80
Sprite,Foreground,Centre,"SB\Pixel.jpg",0,0 F,0,39634,39634,0.3406901 S,0,39634,39634,14 M,19,39634,40334,476,301,412,256 M,18,40334,40834,412,256,411,80
Sprite,Foreground,Centre,"SB\Pixel.jpg",0,0 F,0,39634,39634,0.4770921 S,0,39634,39634,15 M,19,39634,40334,476,301,439,356 M,18,40334,40834,439,356,411,80
Sprite,Foreground,Centre,"SB\Pixel.jpg",0,0 F,0,39634,39634,0.2277088 S,0,39634,39634,10 M,19,39634,40334,476,301,388,204 M,18,40334,40834,388,204,411,80
Sprite,Foreground,Centre,"SB\Pixel.jpg",0,0 F,0,39634,39634,0.2677425 S,0,39634,39634,12 M,19,39634,40334,476,301,456,282 M,18,40334,40834,456,282,411,80
Sprite,Foreground,Centre,"SB\Pixel.jpg",0,0 F,0,39634,39634,0.4200889 S,0,39634,39634,15 M,19,39634,40334,476,301,391,348 M,18,40334,40834,391,348,411,80
Sprite,Foreground,Centre,"SB\Pixel.jpg",0,0 F,0,39634,39634,0.2380723 S,0,39634,39634,13 M,19,39634,40334,476,301,455,362 M,18,40334,40834,455,362,411,80
Sprite,Foreground,Centre,"SB\Pixel.jpg",0,0 F,0,39634,39634,0.3040893 S,0,39634,39634,16 M,19,39634,40334,476,301,446,218 M,18,40334,40834,446,218,411,80
Sprite,Foreground,Centre,"SB\Pixel.jpg",0,0 F,0,39634,39634,0.3532496 S,0,39634,39634,18 M,19,39634,40334,476,301,517,352 M,18,40334,40834,517,352,411,80
Sprite,Foreground,Centre,"SB\Pixel.jpg",0,0 F,0,39634,39634,0.3661534 S,0,39634,39634,16 M,19,39634,40334,476,301,429,343 M,18,40334,40834,429,343,411,80
Sprite,Foreground,Centre,"SB\Pixel.jpg",0,0 F,0,39634,39634,0.4645524 S,0,39634,39634,15 M,19,39634,40334,476,301,556,237 M,18,40334,40834,556,237,411,80
Sprite,Foreground,Centre,"SB\Pixel.jpg",0,0 F,0,39634,39634,0.4375608 S,0,39634,39634,11 M,19,39634,40334,476,301,476,225 M,18,40334,40834,476,225,411,80
Sprite,Foreground,Centre,"SB\Pixel.jpg",0,0 F,0,49235,49235,0.3617361 S,0,49235,49235,17 M,19,49235,49935,508,408,510,437 M,18,49935,50435,510,437,252,255
Sprite,Foreground,Centre,"SB\Pixel.jpg",0,0 F,0,49235,49235,0.3392907 S,0,49235,49235,11 M,19,49235,49935,508,408,603,441 M,18,49935,50435,603,441,252,255
Sprite,Foreground,Centre,"SB\Pixel.jpg",0,0 F,0,49235,49235,0.324874 S,0,49235,49235,19 M,19,49235,49935,508,408,537,487 M,18,49935,50435,537,487,252,255
Sprite,Foreground,Centre,"SB\Pixel.jpg",0,0 F,0,49235,49235,0.2146424 S,0,49235,49235,13 M,19,49235,49935,508,408,480,344 M,18,49935,50435,480,344,252,255
Sprite,Foreground,Centre,"SB\Pixel.jpg",0,0 F,0,49235,49235,0.3685962 S,0,49235,49235,14 M,19,49235,49935,508,408,451,492 M,18,49935,50435,451,492,252,255
Sprite,Foreground,Centre,"SB\Pixel.jpg",0,0 F,0,49235,49235,0.2677377 S,0,49235,49235,14 M,19,49235,49935,508,408,453,366 M,18,49935,50435,453,366,252,255
Sprite,Foreground,Centre,"SB\Pixel.jpg",0,0 F,0,49235,49235,0.2368772 S,0,49235,49235,11 M,19,49235,49935,508,408,440,476 M,18,49935,50435,440,476,252,255
Sprite,Foreground,Centre,"SB\Pixel.jpg",0,0 F,0,49235,49235,0.4351726 S,0,49235,49235,11 M,19,49235,49935,508,408,531,342 M,18,49935,50435,531,342,252,255
Sprite,Foreground,Centre,"SB\Pixel.jpg",0,0 F,0,49235,49235,0.4295851 S,0,49235,49235,14 M,19,49235,49935,508,408,454,451 M,18,49935,50435,454,451,252,255
Sprite,Foreground,Centre,"SB\Pixel.jpg",0,0 F,0,49235,49235,0.4436534 S,0,49235,49235,12 M,19,49235,49935,508,408,528,449 M,18,49935,50435,528,449,252,255
Sprite,Foreground,Centre,"SB\Pixel.jpg",0,0 F,0,49235,49235,0.3554184 S,0,49235,49235,12 M,19,49235,49935,508,408,461,407 M,18,49935,50435,461,407,252,255
Sprite,Foreground,Centre,"SB\Pixel.jpg",0,0 F,0,49235,49235,0.2310197 S,0,49235,49235,15 M,19,49235,49935,508,408,525,325 M,18,49935,50435,525,325,252,255
Sprite,Foreground,Centre,"SB\Pixel.jpg",0,0 F,0,49235,49235,0.2004746 S,0,49235,49235,16 M,19,49235,49935,508,408,544,396 M,18,49935,50435,544,396,252,255
Sprite,Foreground,Centre,"SB\Pixel.jpg",0,0 F,0,49235,49235,0.2670805 S,0,49235,49235,12 M,19,49235,49935,508,408,569,463 M,18,49935,50435,569,463,252,255
Sprite,Foreground,Centre,"SB\Pixel.jpg",0,0 F,0,49235,49235,0.4557389 S,0,49235,49235,12 M,19,49235,49935,508,408,445,387 M,18,49935,50435,445,387,252,255
Sprite,Foreground,Centre,"SB\Pixel.jpg",0,0 F,0,49235,49235,0.2261035 S,0,49235,49235,11 M,19,49235,49935,508,408,507,339 M,18,49935,50435,507,339,252,255
Sprite,Foreground,Centre,"SB\Pixel.jpg",0,0 F,0,49235,49235,0.4898539 S,0,49235,49235,16 M,19,49235,49935,508,408,512,404 M,18,49935,50435,512,404,252,255
Sprite,Foreground,Centre,"SB\Pixel.jpg",0,0 F,0,49235,49235,0.463141 S,0,49235,49235,17 M,19,49235,49935,508,408,541,372 M,18,49935,50435,541,372,252,255
Sprite,Foreground,Centre,"SB\Pixel.jpg",0,0 F,0,49235,49235,0.2844862 S,0,49235,49235,19 M,19,49235,49935,508,408,514,321 M,18,49935,50435,514,321,252,255
Sprite,Foreground,Centre,"SB\Pixel.jpg",0,0 F,0,49235,49235,0.2431358 S,0,49235,49235,15 M,19,49235,49935,508,408,566,451 M,18,49935,50435,566,451,252,255
Sprite,Foreground,Centre,"SB\Pixel.jpg",0,0 F,0,49235,49235,0.3715704 S,0,49235,49235,10 M,19,49235,49935,508,408,573,404 M,18,49935,50435,573,404,252,255
Sprite,Foreground,Centre,"SB\Pixel.jpg",0,0 F,0,49235,49235,0.2912144 S,0,49235,49235,13 M,19,49235,49935,508,408,581,436 M,18,49935,50435,581,436,252,255
Sprite,Foreground,Centre,"SB\Pixel.jpg",0,0 F,0,49235,49235,0.4908385 S,0,49235,49235,18 M,19,49235,49935,508,408,493,308 M,18,49935,50435,493,308,252,255
Sprite,Foreground,Centre,"SB\Pixel.jpg",0,0 F,0,49235,49235,0.3022618 S,0,49235,49235,13 M,19,49235,49935,508,408,447,403 M,18,49935,50435,447,403,252,255
Sprite,Foreground,Centre,"SB\Pixel.jpg",0,0 F,0,49235,49235,0.3295181 S,0,49235,49235,10 M,19,49235,49935,508,408,504,487 M,18,49935,50435,504,487,252,255
Sprite,Foreground,Centre,"SB\Pixel.jpg",0,0 F,0,49235,49235,0.4745153 S,0,49235,49235,17 M,19,49235,49935,508,408,431,331 M,18,49935,50435,431,331,252,255
Sprite,Foreground,Centre,"SB\Pixel.jpg",0,0 F,0,49235,49235,0.3614812 S,0,49235,49235,16 M,19,49235,49935,508,408,564,311 M,18,49935,50435,564,311,252,255
Sprite,Foreground,Centre,"SB\Pixel.jpg",0,0 F,0,49235,49235,0.4849945 S,0,49235,49235,10 M,19,49235,49935,508,408,415,489 M,18,49935,50435,415,489,252,255
Sprite,Foreground,Centre,"SB\Pixel.jpg",0,0 F,0,49235,49235,0.3615533 S,0,49235,49235,18 M,19,49235,49935,508,408,412,311 M,18,49935,50435,412,311,252,255
Sprite,Foreground,Centre,"SB\Pixel.jpg",0,0 F,0,49235,49235,0.3331605 S,0,49235,49235,11 M,19,49235,49935,508,408,514,328 M,18,49935,50435,514,328,252,255
Sprite,Foreground,Centre,"SB\Pixel.jpg",0,0 F,0,49235,49235,0.4253693 S,0,49235,49235,12 M,19,49235,49935,508,408,471,383 M,18,49935,50435,471,383,252,255
Sprite,Foreground,Centre,"SB\Pixel.jpg",0,0 F,0,58834,58834,0.3772795 S,0,58834,58834,12 M,19,58834,59534,348,410,398,455 M,18,59534,60034,398,455,320,248
Sprite,Foreground,Centre,"SB\Pixel.jpg",0,0 F,0,58834,58834,0.2995103 S,0,58834,58834,10 M,19,58834,59534,348,410,330,402 M,18,59534,60034,330,402,320,248
Sprite,Foreground,Centre,"SB\Pixel.jpg",0,0 F,0,58834,58834,0.2876709 S,0,58834,58834,10 M,19,58834,59534,348,410,306,415 M,18,59534,60034,306,415,320,248
Sprite,Foreground,Centre,"SB\Pixel.jpg",0,0 F,0,58834,58834,0.362942 S,0,58834,58834,13 M,19,58834,59534,348,410,340,382 M,18,59534,60034,340,382,320,248
Sprite,Foreground,Centre,"SB\Pixel.jpg",0,0 F,0,58834,58834,0.4145207 S,0,58834,58834,14 M,19,58834,59534,348,410,251,444 M,18,59534,60034,251,444,320,248
Sprite,Foreground,Centre,"SB\Pixel.jpg",0,0 F,0,58834,58834,0.2745867 S,0,58834,58834,16 M,19,58834,59534,348,410,328,362 M,18,59534,60034,328,362,320,248
Sprite,Foreground,Centre,"SB\Pixel.jpg",0,0 F,0,58834,58834,0.3939133 S,0,58834,58834,15 M,19,58834,59534,348,410,444,395 M,18,59534,60034,444,395,320,248
Sprite,Foreground,Centre,"SB\Pixel.jpg",0,0 F,0,58834,58834,0.2943176 S,0,58834,58834,17 M,19,58834,59534,348,410,306,395 M,18,59534,60034,306,395,320,248
Sprite,Foreground,Centre,"SB\Pixel.jpg",0,0 F,0,58834,58834,0.3330694 S,0,58834,58834,14 M,19,58834,59534,348,410,261,463 M,18,59534,60034,261,463,320,248
Sprite,Foreground,Centre,"SB\Pixel.jpg",0,0 F,0,58834,58834,0.4157211 S,0,58834,58834,10 M,19,58834,59534,348,410,406,326 M,18,59534,60034,406,326,320,248
Sprite,Foreground,Centre,"SB\Pixel.jpg",0,0 F,0,58834,58834,0.2367855 S,0,58834,58834,11 M,19,58834,59534,348,410,361,411 M,18,59534,60034,361,411,320,248
Sprite,Foreground,Centre,"SB\Pixel.jpg",0,0 F,0,58834,58834,0.2536432 S,0,58834,58834,14 M,19,58834,59534,348,410,264,312 M,18,59534,60034,264,312,320,248
Sprite,Foreground,Centre,"SB\Pixel.jpg",0,0 F,0,58834,58834,0.4123574 S,0,58834,58834,10 M,19,58834,59534,348,410,277,352 M,18,59534,60034,277,352,320,248
Sprite,Foreground,Centre,"SB\Pixel.jpg",0,0 F,0,58834,58834,0.4207174 S,0,58834,58834,14 M,19,58834,59534,348,410,420,485 M,18,59534,60034,420,485,320,248
Sprite,Foreground,Centre,"SB\Pixel.jpg",0,0 F,0,58834,58834,0.4332319 S,0,58834,58834,10 M,19,58834,59534,348,410,254,319 M,18,59534,60034,254,319,320,248
Sprite,Foreground,Centre,"SB\Pixel.jpg",0,0 F,0,58834,58834,0.2646362 S,0,58834,58834,14 M,19,58834,59534,348,410,298,355 M,18,59534,60034,298,355,320,248
Sprite,Foreground,Centre,"SB\Pixel.jpg",0,0 F,0,58834,58834,0.2585095 S,0,58834,58834,10 M,19,58834,59534,348,410,312,418 M,18,59534,60034,312,418,320,248
Sprite,Foreground,Centre,"SB\Pixel.jpg",0,0 F,0,58834,58834,0.3574575 S,0,58834,58834,10 M,19,58834,59534,348,410,342,370 M,18,59534,60034,342,370,320,248
Sprite,Foreground,Centre,"SB\Pixel.jpg",0,0 F,0,58834,58834,0.466475 S,0,58834,58834,10 M,19,58834,59534,348,410,303,359 M,18,59534,60034,303,359,320,248
Sprite,Foreground,Centre,"SB\Pixel.jpg",0,0 F,0,58834,58834,0.3057531 S,0,58834,58834,17 M,19,58834,59534,348,410,419,322 M,18,59534,60034,419,322,320,248
Sprite,Foreground,Centre,"SB\Pixel.jpg",0,0 F,0,58834,58834,0.2884119 S,0,58834,58834,11 M,19,58834,59534,348,410,430,379 M,18,59534,60034,430,379,320,248
Sprite,Foreground,Centre,"SB\Pixel.jpg",0,0 F,0,58834,58834,0.2220172 S,0,58834,58834,10 M,19,58834,59534,348,410,352,456 M,18,59534,60034,352,456,320,248
Sprite,Foreground,Centre,"SB\Pixel.jpg",0,0 F,0,58834,58834,0.4332686 S,0,58834,58834,14 M,19,58834,59534,348,410,418,469 M,18,59534,60034,418,469,320,248
Sprite,Foreground,Centre,"SB\Pixel.jpg",0,0 F,0,58834,58834,0.390492 S,0,58834,58834,17 M,19,58834,59534,348,410,368,313 M,18,59534,60034,368,313,320,248
Sprite,Foreground,Centre,"SB\Pixel.jpg",0,0 F,0,58834,58834,0.3955762 S,0,58834,58834,18 M,19,58834,59534,348,410,360,380 M,18,59534,60034,360,380,320,248
Sprite,Foreground,Centre,"SB\Pixel.jpg",0,0 F,0,58834,58834,0.4191301 S,0,58834,58834,18 M,19,58834,59534,348,410,405,341 M,18,59534,60034,405,341,320,248
Sprite,Foreground,Centre,"SB\Pixel.jpg",0,0 F,0,58834,58834,0.3295564 S,0,58834,58834,12 M,19,58834,59534,348,410,285,485 M,18,59534,60034,285,485,320,248
Sprite,Foreground,Centre,"SB\Pixel.jpg",0,0 F,0,58834,58834,0.2250552 S,0,58834,58834,15 M,19,58834,59534,348,410,442,360 M,18,59534,60034,442,360,320,248
Sprite,Foreground,Centre,"SB\Pixel.jpg",0,0 F,0,58834,58834,0.3550864 S,0,58834,58834,18 M,19,58834,59534,348,410,396,355 M,18,59534,60034,396,355,320,248
Sprite,Foreground,Centre,"SB\Pixel.jpg",0,0 F,0,58834,58834,0.3409091 S,0,58834,58834,16 M,19,58834,59534,348,410,344,404 M,18,59534,60034,344,404,320,248
Sprite,Foreground,Centre,"SB\Pixel.jpg",0,0 F,0,58834,58834,0.3808647 S,0,58834,58834,15 M,19,58834,59534,348,410,415,395 M,18,59534,60034,415,395,320,248
Sprite,Foreground,Centre,"SB\Pixel.jpg",0,0 F,0,58834,58834,0.319287 S,0,58834,58834,14 M,19,58834,59534,348,410,359,449 M,18,59534,60034,359,449,320,248
Sprite,Foreground,Centre,"SB\Pixel.jpg",0,0 F,0,58834,58834,0.2564355 S,0,58834,58834,17 M,19,58834,59534,348,410,320,310 M,18,59534,60034,320,310,320,248
Sprite,Foreground,Centre,"SB\Pixel.jpg",0,0 F,0,82834,82834,0.3062088 S,0,82834,82834,19 M,19,82834,83535,331,284,295,269 M,18,83535,84035,295,269,87,304
Sprite,Foreground,Centre,"SB\Pixel.jpg",0,0 F,0,82834,82834,0.2999552 S,0,82834,82834,18 M,19,82834,83535,331,284,417,283 M,18,83535,84035,417,283,87,304
Sprite,Foreground,Centre,"SB\Pixel.jpg",0,0 F,0,82834,82834,0.2939119 S,0,82834,82834,16 M,19,82834,83535,331,284,275,220 M,18,83535,84035,275,220,87,304
Sprite,Foreground,Centre,"SB\Pixel.jpg",0,0 F,0,82834,82834,0.4290864 S,0,82834,82834,12 M,19,82834,83535,331,284,296,268 M,18,83535,84035,296,268,87,304
Sprite,Foreground,Centre,"SB\Pixel.jpg",0,0 F,0,82834,82834,0.2826934 S,0,82834,82834,18 M,19,82834,83535,331,284,365,292 M,18,83535,84035,365,292,87,304
Sprite,Foreground,Centre,"SB\Pixel.jpg",0,0 F,0,82834,82834,0.4222845 S,0,82834,82834,10 M,19,82834,83535,331,284,396,275 M,18,83535,84035,396,275,87,304
Sprite,Foreground,Centre,"SB\Pixel.jpg",0,0 F,0,82834,82834,0.2344358 S,0,82834,82834,19 M,19,82834,83535,331,284,396,323 M,18,83535,84035,396,323,87,304
Sprite,Foreground,Centre,"SB\Pixel.jpg",0,0 F,0,82834,82834,0.4705382 S,0,82834,82834,13 M,19,82834,83535,331,284,275,225 M,18,83535,84035,275,225,87,304
Sprite,Foreground,Centre,"SB\Pixel.jpg",0,0 F,0,82834,82834,0.4153286 S,0,82834,82834,19 M,19,82834,83535,331,284,239,234 M,18,83535,84035,239,234,87,304
Sprite,Foreground,Centre,"SB\Pixel.jpg",0,0 F,0,82834,82834,0.4028195 S,0,82834,82834,19 M,19,82834,83535,331,284,284,267 M,18,83535,84035,284,267,87,304
Sprite,Foreground,Centre,"SB\Pixel.jpg",0,0 F,0,82834,82834,0.4108606 S,0,82834,82834,14 M,19,82834,83535,331,284,296,237 M,18,83535,84035,296,237,87,304
Sprite,Foreground,Centre,"SB\Pixel.jpg",0,0 F,0,82834,82834,0.3504877 S,0,82834,82834,13 M,19,82834,83535,331,284,387,214 M,18,83535,84035,387,214,87,304
Sprite,Foreground,Centre,"SB\Pixel.jpg",0,0 F,0,82834,82834,0.2876368 S,0,82834,82834,10 M,19,82834,83535,331,284,325,335 M,18,83535,84035,325,335,87,304
Sprite,Foreground,Centre,"SB\Pixel.jpg",0,0 F,0,82834,82834,0.3089889 S,0,82834,82834,15 M,19,82834,83535,331,284,335,197 M,18,83535,84035,335,197,87,304
Sprite,Foreground,Centre,"SB\Pixel.jpg",0,0 F,0,82834,82834,0.3248236 S,0,82834,82834,16 M,19,82834,83535,331,284,254,288 M,18,83535,84035,254,288,87,304
Sprite,Foreground,Centre,"SB\Pixel.jpg",0,0 F,0,82834,82834,0.3108656 S,0,82834,82834,16 M,19,82834,83535,331,284,315,348 M,18,83535,84035,315,348,87,304
Sprite,Foreground,Centre,"SB\Pixel.jpg",0,0 F,0,82834,82834,0.4463456 S,0,82834,82834,11 M,19,82834,83535,331,284,312,339 M,18,83535,84035,312,339,87,304
Sprite,Foreground,Centre,"SB\Pixel.jpg",0,0 F,0,82834,82834,0.3912801 S,0,82834,82834,10 M,19,82834,83535,331,284,343,383 M,18,83535,84035,343,383,87,304
Sprite,Foreground,Centre,"SB\Pixel.jpg",0,0 F,0,82834,82834,0.3803026 S,0,82834,82834,10 M,19,82834,83535,331,284,245,324 M,18,83535,84035,245,324,87,304
Sprite,Foreground,Centre,"SB\Pixel.jpg",0,0 F,0,82834,82834,0.3942281 S,0,82834,82834,19 M,19,82834,83535,331,284,288,375 M,18,83535,84035,288,375,87,304
Sprite,Foreground,Centre,"SB\Pixel.jpg",0,0 F,0,82834,82834,0.2408418 S,0,82834,82834,10 M,19,82834,83535,331,284,271,194 M,18,83535,84035,271,194,87,304
Sprite,Foreground,Centre,"SB\Pixel.jpg",0,0 F,0,82834,82834,0.2307763 S,0,82834,82834,16 M,19,82834,83535,331,284,392,354 M,18,83535,84035,392,354,87,304
Sprite,Foreground,Centre,"SB\Pixel.jpg",0,0 F,0,82834,82834,0.4475131 S,0,82834,82834,19 M,19,82834,83535,331,284,422,340 M,18,83535,84035,422,340,87,304
Sprite,Foreground,Centre,"SB\Pixel.jpg",0,0 F,0,82834,82834,0.2341419 S,0,82834,82834,16 M,19,82834,83535,331,284,370,371 M,18,83535,84035,370,371,87,304
Sprite,Foreground,Centre,"SB\Pixel.jpg",0,0 F,0,82834,82834,0.2792209 S,0,82834,82834,11 M,19,82834,83535,331,284,336,269 M,18,83535,84035,336,269,87,304
Sprite,Foreground,Centre,"SB\Pixel.jpg",0,0 F,0,82834,82834,0.2965411 S,0,82834,82834,14 M,19,82834,83535,331,284,314,367 M,18,83535,84035,314,367,87,304
Sprite,Foreground,Centre,"SB\Pixel.jpg",0,0 F,0,82834,82834,0.3273524 S,0,82834,82834,10 M,19,82834,83535,331,284,323,219 M,18,83535,84035,323,219,87,304
Sprite,Foreground,Centre,"SB\Pixel.jpg",0,0 F,0,82834,82834,0.4283687 S,0,82834,82834,14 M,19,82834,83535,331,284,301,312 M,18,83535,84035,301,312,87,304
Sprite,Foreground,Centre,"SB\Pixel.jpg",0,0 F,0,82834,82834,0.2018397 S,0,82834,82834,16 M,19,82834,83535,331,284,372,362 M,18,83535,84035,372,362,87,304
Sprite,Foreground,Centre,"SB\Pixel.jpg",0,0 F,0,82834,82834,0.3996482 S,0,82834,82834,12 M,19,82834,83535,331,284,288,359 M,18,83535,84035,288,359,87,304
Sprite,Foreground,Centre,"SB\Pixel.jpg",0,0 F,0,82834,82834,0.2051823 S,0,82834,82834,15 M,19,82834,83535,331,284,300,352 M,18,83535,84035,300,352,87,304
Sprite,Foreground,Centre,"SB\Pixel.jpg",0,0 F,0,82834,82834,0.4891983 S,0,82834,82834,12 M,19,82834,83535,331,284,385,342 M,18,83535,84035,385,342,87,304
Sprite,Foreground,Centre,"SB\Pixel.jpg",0,0 F,0,82834,82834,0.4101789 S,0,82834,82834,10 M,19,82834,83535,331,284,408,290 M,18,83535,84035,408,290,87,304
Sprite,Foreground,Centre,"SB\Pixel.jpg",0,0 F,0,82834,82834,0.4405315 S,0,82834,82834,17 M,19,82834,83535,331,284,387,255 M,18,83535,84035,387,255,87,304
Sprite,Foreground,Centre,"SB\Pixel.jpg",0,0 F,0,82834,82834,0.4036192 S,0,82834,82834,19 M,19,82834,83535,331,284,241,219 M,18,83535,84035,241,219,87,304
Sprite,Foreground,Centre,"SB\Pixel.jpg",0,0 F,0,82834,82834,0.3782049 S,0,82834,82834,17 M,19,82834,83535,331,284,357,268 M,18,83535,84035,357,268,87,304
Sprite,Foreground,Centre,"SB\Pixel.jpg",0,0 F,0,82834,82834,0.2221703 S,0,82834,82834,18 M,19,82834,83535,331,284,338,234 M,18,83535,84035,338,234,87,304
Sprite,Foreground,Centre,"SB\Pixel.jpg",0,0 F,0,87635,87635,0.3682922 S,0,87635,87635,16 M,19,87635,88334,423,322,502,299 M,18,88334,88834,502,299,444,133
Sprite,Foreground,Centre,"SB\Pixel.jpg",0,0 F,0,87635,87635,0.2529537 S,0,87635,87635,11 M,19,87635,88334,423,322,344,370 M,18,88334,88834,344,370,444,133
Sprite,Foreground,Centre,"SB\Pixel.jpg",0,0 F,0,87635,87635,0.4799196 S,0,87635,87635,10 M,19,87635,88334,423,322,463,348 M,18,88334,88834,463,348,444,133
Sprite,Foreground,Centre,"SB\Pixel.jpg",0,0 F,0,87635,87635,0.2523157 S,0,87635,87635,11 M,19,87635,88334,423,322,473,312 M,18,88334,88834,473,312,444,133
Sprite,Foreground,Centre,"SB\Pixel.jpg",0,0 F,0,87635,87635,0.3057951 S,0,87635,87635,11 M,19,87635,88334,423,322,493,320 M,18,88334,88834,493,320,444,133
Sprite,Foreground,Centre,"SB\Pixel.jpg",0,0 F,0,87635,87635,0.3903862 S,0,87635,87635,14 M,19,87635,88334,423,322,477,380 M,18,88334,88834,477,380,444,133
Sprite,Foreground,Centre,"SB\Pixel.jpg",0,0 F,0,87635,87635,0.3865956 S,0,87635,87635,14 M,19,87635,88334,423,322,495,291 M,18,88334,88834,495,291,444,133
Sprite,Foreground,Centre,"SB\Pixel.jpg",0,0 F,0,87635,87635,0.3117694 S,0,87635,87635,16 M,19,87635,88334,423,322,400,408 M,18,88334,88834,400,408,444,133
Sprite,Foreground,Centre,"SB\Pixel.jpg",0,0 F,0,87635,87635,0.3317067 S,0,87635,87635,14 M,19,87635,88334,423,322,373,325 M,18,88334,88834,373,325,444,133
Sprite,Foreground,Centre,"SB\Pixel.jpg",0,0 F,0,87635,87635,0.3375897 S,0,87635,87635,13 M,19,87635,88334,423,322,349,335 M,18,88334,88834,349,335,444,133
Sprite,Foreground,Centre,"SB\Pixel.jpg",0,0 F,0,87635,87635,0.3358648 S,0,87635,87635,11 M,19,87635,88334,423,322,412,229 M,18,88334,88834,412,229,444,133
Sprite,Foreground,Centre,"SB\Pixel.jpg",0,0 F,0,87635,87635,0.3092194 S,0,87635,87635,14 M,19,87635,88334,423,322,403,228 M,18,88334,88834,403,228,444,133
Sprite,Foreground,Centre,"SB\Pixel.jpg",0,0 F,0,87635,87635,0.4158252 S,0,87635,87635,13 M,19,87635,88334,423,322,386,244 M,18,88334,88834,386,244,444,133
Sprite,Foreground,Centre,"SB\Pixel.jpg",0,0 F,0,87635,87635,0.3369413 S,0,87635,87635,11 M,19,87635,88334,423,322,394,223 M,18,88334,88834,394,223,444,133
Sprite,Foreground,Centre,"SB\Pixel.jpg",0,0 F,0,87635,87635,0.3467408 S,0,87635,87635,15 M,19,87635,88334,423,322,486,237 M,18,88334,88834,486,237,444,133
Sprite,Foreground,Centre,"SB\Pixel.jpg",0,0 F,0,87635,87635,0.4594398 S,0,87635,87635,13 M,19,87635,88334,423,322,389,233 M,18,88334,88834,389,233,444,133
Sprite,Foreground,Centre,"SB\Pixel.jpg",0,0 F,0,87635,87635,0.2819847 S,0,87635,87635,11 M,19,87635,88334,423,322,364,288 M,18,88334,88834,364,288,444,133
Sprite,Foreground,Centre,"SB\Pixel.jpg",0,0 F,0,87635,87635,0.3449519 S,0,87635,87635,14 M,19,87635,88334,423,322,488,400 M,18,88334,88834,488,400,444,133
Sprite,Foreground,Centre,"SB\Pixel.jpg",0,0 F,0,87635,87635,0.4688202 S,0,87635,87635,19 M,19,87635,88334,423,322,393,335 M,18,88334,88834,393,335,444,133
Sprite,Foreground,Centre,"SB\Pixel.jpg",0,0 F,0,87635,87635,0.2142641 S,0,87635,87635,14 M,19,87635,88334,423,322,351,381 M,18,88334,88834,351,381,444,133
Sprite,Foreground,Centre,"SB\Pixel.jpg",0,0 F,0,87635,87635,0.2860763 S,0,87635,87635,18 M,19,87635,88334,423,322,347,243 M,18,88334,88834,347,243,444,133
Sprite,Foreground,Centre,"SB\Pixel.jpg",0,0 F,0,87635,87635,0.4576358 S,0,87635,87635,13 M,19,87635,88334,423,322,396,331 M,18,88334,88834,396,331,444,133
Sprite,Foreground,Centre,"SB\Pixel.jpg",0,0 F,0,87635,87635,0.2171646 S,0,87635,87635,14 M,19,87635,88334,423,322,392,256 M,18,88334,88834,392,256,444,133
Sprite,Foreground,Centre,"SB\Pixel.jpg",0,0 F,0,87635,87635,0.3748379 S,0,87635,87635,10 M,19,87635,88334,423,322,519,389 M,18,88334,88834,519,389,444,133
Sprite,Foreground,Centre,"SB\Pixel.jpg",0,0 F,0,87635,87635,0.2027025 S,0,87635,87635,16 M,19,87635,88334,423,322,415,327 M,18,88334,88834,415,327,444,133
Sprite,Foreground,Centre,"SB\Pixel.jpg",0,0 F,0,87635,87635,0.3564549 S,0,87635,87635,13 M,19,87635,88334,423,322,373,258 M,18,88334,88834,373,258,444,133
Sprite,Foreground,Centre,"SB\Pixel.jpg",0,0 F,0,87635,87635,0.3347754 S,0,87635,87635,17 M,19,87635,88334,423,322,430,223 M,18,88334,88834,430,223,444,133
Sprite,Foreground,Centre,"SB\Pixel.jpg",0,0 F,0,87635,87635,0.3255571 S,0,87635,87635,16 M,19,87635,88334,423,322,342,231 M,18,88334,88834,342,231,444,133
Sprite,Foreground,Centre,"SB\Pixel.jpg",0,0 F,0,87635,87635,0.2335014 S,0,87635,87635,17 M,19,87635,88334,423,322,378,229 M,18,88334,88834,378,229,444,133
Sprite,Foreground,Centre,"SB\Pixel.jpg",0,0 F,0,87635,87635,0.347396 S,0,87635,87635,14 M,19,87635,88334,423,322,359,324 M,18,88334,88834,359,324,444,133
Sprite,Foreground,Centre,"SB\Pixel.jpg",0,0 F,0,87635,87635,0.2030909 S,0,87635,87635,11 M,19,87635,88334,423,322,384,264 M,18,88334,88834,384,264,444,133
Sprite,Foreground,Centre,"SB\Pixel.jpg",0,0 F,0,97235,97235,0.2558353 S,0,97235,97235,10 M,19,97235,97934,395,353,434,303 M,18,97934,98434,434,303,565,345
Sprite,Foreground,Centre,"SB\Pixel.jpg",0,0 F,0,97235,97235,0.3010307 S,0,97235,97235,17 M,19,97235,97934,395,353,444,284 M,18,97934,98434,444,284,565,345
Sprite,Foreground,Centre,"SB\Pixel.jpg",0,0 F,0,97235,97235,0.4806574 S,0,97235,97235,14 M,19,97235,97934,395,353,386,335 M,18,97934,98434,386,335,565,345
Sprite,Foreground,Centre,"SB\Pixel.jpg",0,0 F,0,97235,97235,0.327817 S,0,97235,97235,14 M,19,97235,97934,395,353,305,446 M,18,97934,98434,305,446,565,345
Sprite,Foreground,Centre,"SB\Pixel.jpg",0,0 F,0,97235,97235,0.421484 S,0,97235,97235,16 M,19,97235,97934,395,353,396,448 M,18,97934,98434,396,448,565,345
Sprite,Foreground,Centre,"SB\Pixel.jpg",0,0 F,0,97235,97235,0.2967624 S,0,97235,97235,19 M,19,97235,97934,395,353,307,316 M,18,97934,98434,307,316,565,345
Sprite,Foreground,Centre,"SB\Pixel.jpg",0,0 F,0,97235,97235,0.4991021 S,0,97235,97235,14 M,19,97235,97934,395,353,435,323 M,18,97934,98434,435,323,565,345
Sprite,Foreground,Centre,"SB\Pixel.jpg",0,0 F,0,97235,97235,0.2765221 S,0,97235,97235,15 M,19,97235,97934,395,353,372,412 M,18,97934,98434,372,412,565,345
Sprite,Foreground,Centre,"SB\Pixel.jpg",0,0 F,0,97235,97235,0.3379616 S,0,97235,97235,12 M,19,97235,97934,395,353,413,417 M,18,97934,98434,413,417,565,345
Sprite,Foreground,Centre,"SB\Pixel.jpg",0,0 F,0,97235,97235,0.4663184 S,0,97235,97235,12 M,19,97235,97934,395,353,303,320 M,18,97934,98434,303,320,565,345
Sprite,Foreground,Centre,"SB\Pixel.jpg",0,0 F,0,97235,97235,0.2553555 S,0,97235,97235,18 M,19,97235,97934,395,353,335,382 M,18,97934,98434,335,382,565,345
Sprite,Foreground,Centre,"SB\Pixel.jpg",0,0 F,0,97235,97235,0.3484295 S,0,97235,97235,19 M,19,97235,97934,395,353,439,355 M,18,97934,98434,439,355,565,345
Sprite,Foreground,Centre,"SB\Pixel.jpg",0,0 F,0,97235,97235,0.3016047 S,0,97235,97235,14 M,19,97235,97934,395,353,380,420 M,18,97934,98434,380,420,565,345
Sprite,Foreground,Centre,"SB\Pixel.jpg",0,0 F,0,97235,97235,0.3526971 S,0,97235,97235,16 M,19,97235,97934,395,353,315,336 M,18,97934,98434,315,336,565,345
Sprite,Foreground,Centre,"SB\Pixel.jpg",0,0 F,0,97235,97235,0.4734167 S,0,97235,97235,10 M,19,97235,97934,395,353,345,395 M,18,97934,98434,345,395,565,345
Sprite,Foreground,Centre,"SB\Pixel.jpg",0,0 F,0,97235,97235,0.3530047 S,0,97235,97235,16 M,19,97235,97934,395,353,431,356 M,18,97934,98434,431,356,565,345
Sprite,Foreground,Centre,"SB\Pixel.jpg",0,0 F,0,97235,97235,0.2164218 S,0,97235,97235,10 M,19,97235,97934,395,353,439,339 M,18,97934,98434,439,339,565,345
Sprite,Foreground,Centre,"SB\Pixel.jpg",0,0 F,0,97235,97235,0.2459109 S,0,97235,97235,13 M,19,97235,97934,395,353,306,286 M,18,97934,98434,306,286,565,345
Sprite,Foreground,Centre,"SB\Pixel.jpg",0,0 F,0,97235,97235,0.2885283 S,0,97235,97235,10 M,19,97235,97934,395,353,469,313 M,18,97934,98434,469,313,565,345
Sprite,Foreground,Centre,"SB\Pixel.jpg",0,0 F,0,97235,97235,0.2055946 S,0,97235,97235,16 M,19,97235,97934,395,353,446,349 M,18,97934,98434,446,349,565,345
Sprite,Foreground,Centre,"SB\Pixel.jpg",0,0 F,0,97235,97235,0.256721 S,0,97235,97235,17 M,19,97235,97934,395,353,420,419 M,18,97934,98434,420,419,565,345
Sprite,Foreground,Centre,"SB\Pixel.jpg",0,0 F,0,97235,97235,0.2408016 S,0,97235,97235,11 M,19,97235,97934,395,353,393,399 M,18,97934,98434,393,399,565,345
Sprite,Foreground,Centre,"SB\Pixel.jpg",0,0 F,0,97235,97235,0.4516623 S,0,97235,97235,19 M,19,97235,97934,395,353,336,253 M,18,97934,98434,336,253,565,345
Sprite,Foreground,Centre,"SB\Pixel.jpg",0,0 F,0,97235,97235,0.2897288 S,0,97235,97235,13 M,19,97235,97934,395,353,494,409 M,18,97934,98434,494,409,565,345
Sprite,Foreground,Centre,"SB\Pixel.jpg",0,0 F,0,97235,97235,0.2583987 S,0,97235,97235,17 M,19,97235,97934,395,353,482,305 M,18,97934,98434,482,305,565,345
Sprite,Foreground,Centre,"SB\Pixel.jpg",0,0 F,0,97235,97235,0.4564389 S,0,97235,97235,11 M,19,97235,97934,395,353,484,336 M,18,97934,98434,484,336,565,345
Sprite,Foreground,Centre,"SB\Pixel.jpg",0,0 F,0,97235,97235,0.4592479 S,0,97235,97235,17 M,19,97235,97934,395,353,335,352 M,18,97934,98434,335,352,565,345
Sprite,Foreground,Centre,"SB\Pixel.jpg",0,0 F,0,97235,97235,0.3042797 S,0,97235,97235,13 M,19,97235,97934,395,353,473,301 M,18,97934,98434,473,301,565,345
Sprite,Foreground,Centre,"SB\Pixel.jpg",0,0 F,0,97235,97235,0.4911308 S,0,97235,97235,18 M,19,97235,97934,395,353,359,259 M,18,97934,98434,359,259,565,345
Sprite,Foreground,Centre,"SB\Pixel.jpg",0,0 F,0,97235,97235,0.307149 S,0,97235,97235,13 M,19,97235,97934,395,353,469,346 M,18,97934,98434,469,346,565,345
Sprite,Foreground,Centre,"SB\Pixel.jpg",0,0 F,0,97235,97235,0.396002 S,0,97235,97235,11 M,19,97235,97934,395,353,490,289 M,18,97934,98434,490,289,565,345
Sprite,Foreground,Centre,"SB\Pixel.jpg",0,0 F,0,97235,97235,0.3458152 S,0,97235,97235,10 M,19,97235,97934,395,353,367,380 M,18,97934,98434,367,380,565,345
Sprite,Foreground,Centre,"SB\Pixel.jpg",0,0 F,0,97235,97235,0.2072563 S,0,97235,97235,12 M,19,97235,97934,395,353,310,428 M,18,97934,98434,310,428,565,345
Sprite,Foreground,Centre,"SB\Pixel.jpg",0,0 F,0,97235,97235,0.2340872 S,0,97235,97235,15 M,19,97235,97934,395,353,437,280 M,18,97934,98434,437,280,565,345
Sprite,Foreground,Centre,"SB\Pixel.jpg",0,0 F,0,97235,97235,0.4896588 S,0,97235,97235,17 M,19,97235,97934,395,353,446,339 M,18,97934,98434,446,339,565,345
Sprite,Foreground,Centre,"SB\Text\005b.png",276,260 S,0,60534,60534,0.25 C,0,60534,60534,255,255,255 F,0,60534,60634,0,1 F,0,62335,62435,1,0
Sprite,Foreground,Centre,"SB\Text\0064.png",298,260 S,0,60534,60534,0.25 C,0,60584,60584,255,255,255 F,0,60584,60684,0,1 F,0,62335,62435,1,0
Sprite,Foreground,Centre,"SB\Text\0072.png",313,260 S,0,60534,60534,0.25 C,0,60634,60634,255,255,255 F,0,60634,60734,0,1 F,0,62335,62435,1,0
Sprite,Foreground,Centre,"SB\Text\006f.png",328,260 S,0,60534,60534,0.25 C,0,60684,60684,255,255,255 F,0,60684,60784,0,1 F,0,62335,62435,1,0
Sprite,Foreground,Centre,"SB\Text\0070.png",342,260 S,0,60534,60534,0.25 C,0,60734,60734,255,255,255 F,0,60734,60834,0,1 F,0,62335,62435,1,0
Sprite,Foreground,Centre,"SB\Text\005d.png",364,260 S,0,60534,60534,0.25 C,0,60784,60784,255,255,255 F,0,60784,60884,0,1 F,0,62335,62435,1,0
//Storyboard Layer 4 (Overlay)
//Storyboard Sound Samples

[TimingPoints]
2435,300,4,2,1,70,1,0
7235,-50,4,2,2,80,0,0
10835,-58.8235294117647,4,2,3,80,0,0
11135,-71.4285714285714,4,2,1,80,0,0
11435,-100,4,2,1,80,0,0
11735,-200,4,2,1,80,0,0
12035,-71.4285714285714,4,2,2,65,0,0
12335,-71.4285714285714,4,2,1,65,0,0
12485,-100,4,2,1,65,0,0
13235,-83.3333333333333,4,2,1,75,0,0
13685,-100,4,2,1,75,0,0
14135,-66.6666666666667,4,2,1,75,0,0
14435,-62.5,4,2,1,85,0,0
14585,-100,4,2,1,85,0,0
15635,-83.3333333333333,4,2,1,85,0,0
15935,-142.857142857143,4,2,1,85,0,0
16535,-66.6666666666667,4,2,1,85,0,0
16835,-66.6666666666667,4,2,3,90,0,0
16985,-125,4,2,2,90,0,0
17285,-111.111111111111,4,2,2,90,0,0
17585,-100,4,2,2,90,0,0
17885,-90.9090909090909,4,2,2,90,0,0
18185,-83.3333333333333,4,2,2,90,0,0
18485,-76.9230769230769,4,2,2,90,0,0
18785,-71.4285714285714,4,2,2,90,0,0
19085,-66.6666666666667,4,2,2,90,0,0
19235,-83.3333333333333,4,2,3,90,0,0
19385,-83.3333333333333,4,2,2,90,0,0
19835,-83.3333333333333,4,2,3,90,0,0
19910,-83.3333333333333,4,2,9,90,0,0
19985,-83.3333333333333,4,2,9,90,0,0
20135,-142.857142857143,4,2,9,90,0,0
20435,-142.857142857143,4,2,4,90,0,0
21185,-142.857142857143,4,2,1,90,0,0
21335,-250,4,2,1,90,0,0
21635,-58.8235294117647,4,2,2,90,0,0
21935,-50,4,2,2,90,0,0
22235,-83.3333333333333,4,2,4,90,0,0
22535,-66.6666666666667,4,2,2,90,0,0
22985,-100,4,2,2,90,0,0
23435,-71.4285714285714,4,2,5,90,0,0
23735,-166.666666666667,4,2,1,90,0,0
23885,-166.666666666667,4,2,2,90,0,0
24035,-100,4,2,2,90,0,0
24185,-100,4,2,1,90,0,0
24335,-50,4,2,2,90,0,0
24635,-83.3333333333333,4,2,6,90,0,0
24785,-83.3333333333333,4,2,2,90,0,0
24935,-58.8235294117647,4,2,2,90,0,0
25235,-83.3333333333333,4,2,2,90,0,0
25385,-83.3333333333333,4,2,1,90,0,0
25535,-83.3333333333333,4,2,4,90,0,0
25835,-66.6666666666667,4,2,4,90,0,0
25985,-66.6666666666667,4,2,2,90,0,0
26435,-58.8235294117647,4,2,2,90,0,0
26735,-76.9230769230769,4,2,2,90,0,0
27035,-83.3333333333333,4,2,6,90,0,0
27185,-83.3333333333333,4,2,2,90,0,0
27335,-66.6666666666667,4,2,2,90,0,0
27635,-83.3333333333333,4,2,2,90,0,0
27935,-100,4,2,2,90,0,0
28235,-71.4285714285714,4,2,5,90,0,0
28385,-71.4285714285714,4,2,1,90,0,0
28535,-166.666666666667,4,2,2,90,0,0
28835,-66.6666666666667,4,2,1,90,0,0
29135,-83.3333333333333,4,2,1,90,0,0
29435,-58.8235294117647,4,2,5,90,0,0
29735,-76.9230769230769,4,2,2,90,0,0
30035,-142.857142857143,4,2,4,90,0,0
30935,-100,4,2,4,90,0,0
31235,-58.8235294117647,4,2,2,90,0,0
31535,-76.9230769230769,4,2,1,90,0,0
31835,-83.3333333333333,4,2,5,90,0,0
32135,-66.6666666666667,4,2,2,90,0,0
32435,-83.3333333333333,4,2,2,90,0,0
32735,-100,4,2,1,90,0,0
33035,-71.4285714285714,4,2,5,90,0,0
33335,-66.6666666666667,4,2,2,90,0,0
33785,-66.6666666666667,4,2,1,90,0,0
33935,-83.3333333333333,4,2,1,90,0,0
34235,-100,4,2,5,90,0,0
34535,-66.6666666666667,4,2,2,90,0,0
34835,-142.857142857143,4,2,1,90,0,0
35135,-55.5555555555556,4,2,1,90,0,0
35435,-66.6666666666667,4,2,6,90,0,0
35735,-83.3333333333333,4,2,1,90,0,0
36035,-58.8235294117647,4,2,6,90,0,0
36335,-76.9230769230769,4,2,1,90,0,0
36635,-83.3333333333333,4,2,5,90,0,0
36935,-66.6666666666667,4,2,2,90,0,0
37235,-83.3333333333333,4,2,1,90,0,0
37535,-100,4,2,1,90,0,0
37835,-71.4285714285714,4,2,5,90,0,0
38135,-66.6666666666667,4,2,2,90,0,0
38360,-66.6666666666667,4,2,2,90,0,0
38435,-100,4,2,1,90,0,0
39035,-76.9230769230769,4,2,6,90,0,0
39335,-76.9230769230769,4,2,2,90,0,0
39635,-76.9230769230769,4,2,2,80,0,0
39935,-100,4,2,4,80,0,0
40085,-100,4,2,1,80,0,0
40385,-100,4,2,2,80,0,0
40535,-200,4,2,2,80,0,0
40835,-58.8235294117647,4,2,2,90,0,0
41135,-142.857142857143,4,2,1,90,0,0
41435,-83.3333333333333,4,2,4,90,0,0
42635,-71.4285714285714,4,2,5,90,0,0
42935,-166.666666666667,4,2,2,90,0,0
43235,-100,4,2,2,90,0,0
43385,-100,4,2,1,90,0,0
43835,-83.3333333333333,4,2,4,90,0,0
45035,-62.5,4,2,5,90,0,0
45335,-83.3333333333333,4,2,2,90,0,0
45635,-58.8235294117647,4,2,2,90,0,0
45935,-76.9230769230769,4,2,2,90,0,0
46235,-83.3333333333333,4,2,5,90,0,0
46535,-66.6666666666667,4,2,4,90,0,0
46685,-66.6666666666667,4,2,1,90,0,0
46835,-83.3333333333333,4,2,1,90,0,0
47135,-100,4,2,2,90,0,0
47435,-71.4285714285714,4,2,5,90,0,0
47735,-166.666666666667,4,2,4,90,0,0
47885,-166.666666666667,4,2,1,90,0,0
48035,-66.6666666666667,4,2,1,90,0,0
48335,-83.3333333333333,4,2,1,90,0,0
48635,-83.3333333333333,4,2,5,90,0,0
48935,-58.8235294117647,4,2,4,90,0,0
49235,-58.8235294117647,4,2,5,90,0,0
49535,-100,4,2,2,90,0,0
50435,-58.8235294117647,4,2,2,90,0,0
50735,-142.857142857143,4,2,1,90,0,0
51035,-83.3333333333333,4,2,4,90,0,0
52235,-71.4285714285714,4,2,5,90,0,0
52535,-166.666666666667,4,2,2,90,0,0
52685,-166.666666666667,4,2,4,90,0,0
52835,-100,4,2,4,90,0,0
52985,-100,4,2,1,90,0,0
53435,-83.3333333333333,4,2,4,90,0,0
54335,-55.5555555555556,4,2,4,90,0,0
54635,-66.6666666666667,4,2,5,90,0,0
54935,-83.3333333333333,4,2,2,90,0,0
55085,-83.3333333333333,4,2,1,90,0,0
55235,-58.8235294117647,4,2,2,90,0,0
55535,-142.857142857143,4,2,2,90,0,0
55835,-83.3333333333333,4,2,5,90,0,0
56135,-83.3333333333333,4,2,2,90,0,0
56735,-71.4285714285714,4,2,4,90,0,0
57035,-62.5,4,2,4,90,0,0
57335,-83.3333333333333,4,2,4,90,0,0
57785,-83.3333333333333,4,2,2,90,0,0
58235,-142.857142857143,4,2,4,90,0,0
58385,-142.857142857143,4,2,1,90,0,0
58535,-55.5555555555556,4,2,1,90,0,0
58835,-55.5555555555556,4,2,5,90,0,0
59585,-55.5555555555556,4,2,1,90,0,0
60035,-55.5555555555556,4,2,7,80,0,0
69485,-55.5555555555556,4,2,7,5,0,0
69635,-250.000000000001,4,2,8,80,0,0
70235,-250.000000000001,4,2,4,80,0,0
73235,-166.666666666667,4,2,4,80,0,0
74435,-250.000000000001,4,2,8,80,0,0
75035,-250.000000000001,4,2,4,80,0,0
78035,-166.666666666667,4,2,4,80,0,0
78635,-83.3333333333333,4,2,4,80,0,0
78935,-142.857142857143,4,2,4,80,0,0
79235,-125,4,2,4,70,0,0
79610,-125,4,2,4,5,0,0
79685,-125,4,2,4,70,0,0
80810,-125,4,2,4,5,0,0
80885,-125,4,2,4,70,0,0
82010,-125,4,2,4,5,0,0
82085,-125,4,2,4,70,0,0
82835,-83.3333333333333,4,2,3,70,0,0
83135,-142.857142857143,4,2,2,70,0,0
83435,-83.3333333333333,4,2,2,70,0,0
83584,-83.3333333333333,4,2,1,70,0,0
83735,-66.6666666666667,4,2,1,70,0,0
84035,-66.6666666666667,4,2,9,75,0,0
84635,-250.000000000001,4,2,9,75,0,0
84785,-250.000000000001,4,2,1,75,0,0
85535,-250.000000000001,4,2,2,75,0,0
85985,-100,4,2,1,75,0,0
86735,-83.3333333333333,4,2,2,75,0,0
87035,-71.4285714285714,4,2,2,75,0,0
87184,-71.4285714285714,4,2,1,75,0,0
87335,-125,4,2,1,75,0,0
87935,-100,4,2,2,75,0,0
88235,-100,4,2,7,75,0,0
88535,-142.857142857143,4,2,2,75,0,0
88835,-142.857142857143,4,2,2,80,0,0
89885,-250,4,2,2,80,0,0
90035,-250,4,2,9,80,0,0
92435,-166.666666666667,4,2,9,80,0,0
93035,-125,4,2,9,80,0,0
93635,-125,4,2,3,85,0,0
93785,-125,4,2,2,85,0,0
94085,-111.111111111111,4,2,2,85,0,0
94385,-100,4,2,2,85,0,0
94685,-90.9090909090909,4,2,2,85,0,0
94835,-90.9090909090909,4,2,9,85,0,0
94985,-83.3333333333333,4,2,9,85,0,0
95285,-76.9230769230769,4,2,9,85,0,0
95585,-71.4285714285714,4,2,9,85,0,0
95885,-66.6666666666667,4,2,9,85,0,0
96035,-83.3333333333333,4,2,9,85,0,0
96935,-142.857142857143,4,2,9,85,0,0
97235,-142.857142857143,4,2,3,85,0,0
97535,-142.857142857143,4,2,4,85,0,0
98135,-250,4,2,10,85,0,0
98435,-58.8235294117647,4,2,2,90,0,0
98735,-66.6666666666667,4,2,4,90,0,0
99035,-83.3333333333333,4,2,4,90,0,0
99335,-83.3333333333333,4,2,6,90,0,0
99485,-83.3333333333333,4,2,1,90,0,0
99635,-71.4285714285714,4,2,1,90,0,0
99935,-83.3333333333333,4,2,6,90,0,0
100085,-83.3333333333333,4,2,1,90,0,0
100535,-83.3333333333333,4,2,6,90,0,0
100684,-83.3333333333333,4,2,2,90,0,0
100835,-166.666666666667,4,2,2,90,0,0
100985,-71.4285714285714,4,2,2,90,0,0
101135,-166.666666666667,4,2,4,90,0,0
101285,-71.4285714285714,4,2,2,90,0,0
101435,-100,4,2,2,90,0,0
101735,-100,4,2,5,90,0,0
101885,-100,4,2,2,90,0,0
102035,-125,4,2,1,90,0,0
102335,-83.3333333333333,4,2,4,90,0,0
102635,-83.3333333333333,4,2,1,90,0,0
102935,-71.4285714285714,4,2,6,90,0,0
103085,-71.4285714285714,4,2,3,90,0,0
103235,-66.6666666666667,4,2,3,90,0,0
103535,-66.6666666666667,4,2,6,90,0,0
103685,-66.6666666666667,4,2,1,90,0,0
103835,-83.3333333333333,4,2,1,90,0,0
103985,-83.3333333333333,4,2,1,90,0,0
104135,-83.3333333333333,4,2,6,90,0,0
104285,-83.3333333333333,4,2,1,90,0,0
104435,-71.4285714285714,4,2,1,90,0,0
104735,-83.3333333333333,4,2,6,90,0,0
104885,-83.3333333333333,4,2,1,90,0,0
105035,-71.4285714285714,4,2,1,90,0,0
105335,-83.3333333333333,4,2,4,90,0,0
105785,-250,4,2,4,90,0,0
106835,-71.4285714285714,4,2,4,90,0,0
106985,-71.4285714285714,4,2,2,90,0,0
107135,-62.5,4,2,4,90,0,0
107285,-62.5,4,2,2,90,0,0
107435,-100,4,2,4,90,0,0
108035,-1000,4,2,4,90,0,0
108335,-58.8235294117647,4,2,6,90,0,0
108485,-58.8235294117647,4,2,4,90,0,0
108635,-83.3333333333333,4,2,4,90,0,0
109835,-71.4285714285714,4,2,1,90,0,0
110135,-71.4285714285714,4,2,6,90,0,0
110285,-71.4285714285714,4,2,1,90,0,0
110585,-58.8235294117647,4,2,1,90,0,0
110735,-166.666666666667,4,2,6,90,0,0
110885,-58.8235294117647,4,2,4,90,0,0
111035,-83.3333333333333,4,2,4,90,0,0
111335,-71.4285714285714,4,2,4,90,0,0
111635,-125,4,2,4,90,0,0
111935,-83.3333333333333,4,2,4,90,0,0
112235,-83.3333333333333,4,2,1,90,0,0
112535,-71.4285714285714,4,2,4,90,0,0
112685,-71.4285714285714,4,2,1,90,0,0
112835,-66.6666666666667,4,2,2,90,0,0
113135,-83.3333333333333,4,2,2,90,0,0
113435,-100,4,2,11,90,0,0
113735,-100,4,2,2,90,0,0
114185,-83.3333333333333,4,2,2,90,0,0
114335,-83.3333333333333,4,2,1,90,0,0
114635,-71.4285714285714,4,2,12,90,0,0
114935,-71.4285714285714,4,2,13,90,0,0
115235,-71.4285714285714,4,2,4,90,0,0
116435,-55.5555555555556,4,2,14,90,0,0
116660,-111.111111111111,4,2,14,90,0,0
117035,-66.6666666666667,4,2,14,90,0,0
117335,-100,4,2,10,90,0,0
117635,-71.4285714285714,4,2,15,95,0,1
117785,-71.4285714285714,4,2,1,95,0,1
117935,-83.3333333333333,4,2,8,95,0,1
121535,-50,4,2,8,95,0,1
121835,-83.3333333333333,4,2,8,95,0,1
122435,-83.3333333333333,4,2,4,95,0,1
122735,-83.3333333333333,4,2,8,95,0,1
127235,-500,4,2,8,95,0,1
127535,-71.4285714285714,4,2,16,95,0,1
127685,-71.4285714285714,4,2,4,95,0,1
127835,-83.3333333333333,4,2,4,95,0,1
128135,-83.3333333333333,4,2,8,95,0,1
131135,-50,4,2,8,95,0,1
131435,-83.3333333333333,4,2,10,95,0,1
131584,-83.3333333333333,4,2,1,95,0,1
131735,-83.3333333333333,4,2,8,95,0,1
132035,-83.3333333333333,4,2,17,95,0,1
132185,-83.3333333333333,4,2,5,95,0,1
132335,-83.3333333333333,4,2,8,95,0,1
132485,-83.3333333333333,4,2,5,95,0,1
132635,-83.3333333333333,4,2,4,95,0,1
132785,-83.3333333333333,4,2,5,95,0,1
132935,-83.3333333333333,4,2,8,95,0,1
133085,-83.3333333333333,4,2,5,95,0,1
133235,-83.3333333333333,4,2,4,95,0,1
133385,-83.3333333333333,4,2,5,95,0,1
133535,-83.3333333333333,4,2,8,95,0,1
133685,-83.3333333333333,4,2,5,95,0,1
133835,-125,4,2,4,95,0,1
133985,-125,4,2,5,95,0,1
134135,-125,4,2,8,95,0,1
134285,-125,4,2,5,95,0,1
134435,-125,4,2,14,95,0,1
134735,-100,4,2,8,95,0,1
134885,-100,4,2,14,95,0,1
135035,-83.3333333333333,4,2,14,95,0,1
135335,-71.4285714285714,4,2,8,95,0,1
135485,-71.4285714285714,4,2,14,95,0,1
135635,-66.6666666666667,4,2,14,95,0,1
136235,-66.6666666666667,4,2,18,95,0,1
136385,-66.6666666666667,4,2,1,95,0,1
136535,-142.857142857143,4,2,15,95,0,1
136835,-142.857142857143,4,2,11,95,0,0

[Colours]
Combo1 : 255,128,192
Combo2 : 255,0,128
Combo3 : 255,88,102
Combo4 : 255,0,255

[HitObjects]
443,69,2435,5,4,2:0:0:0:
443,69,7235,6,0,B|427:185|427:185|423:189|423:189|405:318,1,250,4|0,3:2|0:0,0:0:0:0:
488,375,7535,1,0,0:0:0:0:
304,283,7835,5,8,2:0:0:0:
135,353,8135,5,0,0:0:0:0:
122,359,8435,1,0,0:0:0:0:
109,365,8735,1,0,0:0:0:0:
287,193,9035,5,8,2:0:0:0:
473,250,9335,5,0,0:0:0:0:
484,258,9635,1,0,0:0:0:0:
495,267,9935,1,0,0:0:0:0:
270,103,10235,5,8,2:0:0:0:
254,108,10535,1,0,0:0:0:0:
500,112,10835,6,0,B|390:95|390:95|381:85|381:85|182:52,1,318.750006079674,4|0,3:2|0:0,0:0:0:0:
36,146,11135,6,0,B|8:113|8:113|13:69,1,87.499997329712,2|0,2:0|0:0,0:0:0:0:
113,125,11285,2,0,B|117:80|117:80|89:47,1,87.499997329712,2|0,2:0|0:0,0:0:0:0:
195,243,11435,6,0,L|187:291,2,31.25,2|0|0,2:0|0:0|0:0,0:0:0:0:
156,354,11585,5,0,1:0:0:0:
156,354,11660,1,0,1:0:0:0:
156,354,11735,2,0,L|120:359,1,31.25,0|0,3:0|0:0,0:0:0:0:
266,339,11885,2,0,L|236:344,1,31.25,0|0,3:0|0:0,0:0:0:0:
461,209,12035,6,0,B|505:251|505:251|417:233|417:233|411:229|411:229|297:207,1,262.499991989136,4|0,3:2|0:0,0:0:0:0:
296,214,12335,1,8,1:2:0:0:
353,360,12485,2,0,B|344:345|344:345|356:301,1,62.5,0|0,1:0|0:0,0:0:0:0:
222,168,12635,5,8,3:2:0:0:
200,171,12710,1,0,3:0:0:0:
178,174,12785,1,0,1:0:0:0:
288,39,12935,2,0,B|279:54|279:54|291:97,1,62.5,8|0,1:2|0:0,0:0:0:0:
99,207,13085,5,0,1:0:0:0:
77,204,13160,1,0,1:0:0:0:
55,201,13235,2,0,P|48:115|170:121,1,224.999993133545,8|0,3:2|0:0,0:0:0:0:
156,118,13535,1,8,1:2:0:0:
206,19,13685,2,0,P|188:28|207:20,1,62.5,0|0,1:0|0:0,0:0:0:0:
234,159,13835,5,8,3:2:0:0:
236,175,13910,1,0,3:0:0:0:
238,190,13985,1,0,1:0:0:0:
414,138,14135,2,0,P|390:109|329:109,1,93.7500035762788,8|0,1:2|0:0,0:0:0:0:
275,270,14285,5,0,1:0:0:0:
272,296,14360,1,0,1:0:0:0:
269,320,14435,2,0,P|243:359|196:353,1,100,8|0,3:2|0:0,0:0:0:0:
27,229,14585,6,0,L|105:242,1,62.5
15,306,14735,2,0,L|76:316,1,62.5,8|0,1:2|1:2,0:0:0:0:
218,142,14885,5,0,1:0:0:0:
218,142,14960,1,0,0:0:0:0:
218,142,15035,2,0,L|140:155,1,62.5,8|0,3:2|3:0,0:0:0:0:
230,219,15185,2,0,L|168:229,1,62.5,0|0,1:0|0:0,0:0:0:0:
147,34,15335,5,8,1:2:0:0:
175,38,15410,1,0,1:2:0:0:
222,60,15485,5,0,1:0:0:0:
250,64,15560,1,0,1:2:0:0:
286,102,15635,6,0,L|293:138,6,37.4999988555909,8|0|0|0|0|0|0,3:2|0:0|0:0|0:0|0:0|0:0|0:0,0:0:0:0:
377,186,15935,6,0,P|389:172|395:162,1,21.874999332428,8|0,2:0|0:0,0:0:0:0:
403,186,16010,2,0,P|408:168|409:156,1,21.874999332428
422,179,16085,2,0,P|419:160|415:149,1,21.874999332428
439,159,16160,2,0,P|429:143|420:134,1,21.874999332428
443,146,16235,1,10,2:0:0:0:
459,72,16535,6,0,B|420:59|393:9|393:9|414:103|414:103|417:106|417:106|441:210,1,281.250010728836,10|0,2:0|0:0,0:0:0:0:
489,280,16835,5,4,2:0:0:0:
481,288,16985,2,0,L|476:328,1,25,2|0,2:0|0:0,0:0:0:0:
407,353,17135,5,0,1:0:0:0:
399,345,17285,2,0,L|394:305,1,28.1249991416931,2|0,2:0|0:0,0:0:0:0:
321,246,17435,5,0,1:0:0:0:
313,254,17585,2,0,L|308:294,1,31.25,2|0,2:0|0:0,0:0:0:0:
238,373,17735,5,0,1:0:0:0:
230,365,17885,2,0,L|225:325,1,34.3750010490418,2|0,2:0|0:0,0:0:0:0:
148,192,18035,5,0,1:0:0:0:
140,200,18185,2,0,L|135:240,1,37.4999988555909,2|0,2:0|0:0,0:0:0:0:
59,384,18335,5,0,1:0:0:0:
51,376,18485,2,0,L|46:336,1,40.6249981403352,2|0,2:0|0:0,0:0:0:0:
153,158,18635,5,0,1:0:0:0:
162,166,18785,2,0,L|167:210,1,43.749998664856,2|0,2:0|0:0,0:0:0:0:
393,290,18935,5,0,1:0:0:0:
384,282,19085,2,0,L|376:229,1,46.8750017881394,2|0,2:0|0:0,0:0:0:0:
478,24,19235,6,0,L|483:68,1,37.4999988555909,2|0,1:2|0:0,0:0:0:0:
409,131,19385,6,0,L|414:169,1,37.4999988555909,2|0,1:2|0:0,0:0:0:0:
284,100,19535,6,0,L|289:144,1,37.4999988555909,2|0,1:2|0:0,0:0:0:0:
215,207,19685,6,0,L|219:244,1,37.4999988555909,2|0,1:2|0:0,0:0:0:0:
31,76,19835,5,2,1:2:0:0:
36,101,19910,1,2,1:2:0:0:
42,127,19985,1,2,1:2:0:0:
49,153,20060,1,2,1:2:0:0:
55,179,20135,6,0,L|68:129,1,43.749998664856,2|2,1:2|1:2,0:0:0:0:
94,62,20285,2,0,L|107:12,1,43.749998664856,2|2,1:2|1:2,0:0:0:0:
101,281,20435,5,4,2:0:0:0:
101,281,21185,5,0,1:0:0:0:
101,281,21260,1,0,1:0:0:0:
101,281,21335,2,0,L|105:323,1,25,0|0,3:0|0:0,0:0:0:0:
175,271,21485,2,0,L|178:296,1,25,0|0,3:0|0:0,0:0:0:0:
6,302,21635,6,0,B|91:319|91:319|133:307|133:307|170:357|170:357|212:346|212:346|294:359,1,318.750006079674,4|0,3:2|0:0,0:0:0:0:
447,274,21935,2,0,B|457:237|501:216|501:216|289:262|289:262|342:263|363:302,1,375,10|0,2:0|0:0,0:0:0:0:
416,360,22235,6,0,B|429:335|429:335|391:169|391:169|408:126,1,224.999993133545,0|0,1:0|0:0,0:0:0:0:
492,50,22535,6,0,B|485:79|485:79|363:58,1,140.625005364418,10|0,2:0|0:0,0:0:0:0:
360,57,22685,2,0,B|353:28|353:28|231:49,1,140.625005364418,2|0,2:0|0:0,0:0:0:0:
161,67,22835,5,0,3:0:0:0:
255,183,22985,6,0,B|302:196|302:196|282:180,1,62.5,2|0,2:0|0:0,0:0:0:0:
129,234,23135,2,0,B|176:221|176:221|165:229,1,62.5,10|0,2:0|0:0,0:0:0:0:
17,156,23285,2,0,B|64:169|64:169|44:153,1,62.5,2|0,2:0|0:0,0:0:0:0:
44,371,23435,6,0,P|45:260|156:317,1,262.499991989136,2|0,1:2|0:0,0:0:0:0:
214,384,23735,6,0,L|251:378,1,37.4999988555909,10|0,2:0|0:0,0:0:0:0:
310,319,23885,2,0,L|347:313,1,37.4999988555909,2|0,2:0|0:0,0:0:0:0:
493,259,24035,6,0,B|440:292|440:292|401:234,1,125,0|2,3:0|2:0,0:0:0:0:
487,22,24335,6,0,L|477:83,6,62.5,10|0|0|0|2|0|0,2:0|0:0|0:0|0:0|2:0|0:0|0:0,0:0:0:0:
501,172,24635,6,0,P|457:173|430:139,1,74.9999977111817,2|0,1:2|0:0,0:0:0:0:
383,91,24785,2,0,P|339:90|312:124,1,74.9999977111817,2|0,2:0|0:0,0:0:0:0:
168,187,24935,6,0,L|153:81,1,106.250002026558,10|0,2:0|0:0,0:0:0:0:
233,69,25085,2,0,L|248:175,1,106.250002026558,2|0,2:0|0:0,0:0:0:0:
201,335,25235,6,0,B|71:318|156:238|7:219,1,224.999993133545,2|0,3:2|0:0,0:0:0:0:
9,231,25535,6,0,B|27:242|27:242|204:206|204:206|229:174,1,224.999993133545,10|0,2:0|0:0,0:0:0:0:
200,109,25835,6,0,P|182:111|165:141,1,46.8750017881394,0|0,1:0|0:0,0:0:0:0:
82,101,25985,2,0,P|89:84|71:54,1,46.8750017881394,2|0,2:0|0:0,0:0:0:0:
147,2,26135,2,0,P|157:16|192:16,1,46.8750017881394,10|0,2:0|0:0,0:0:0:0:
302,156,26285,2,0,P|324:155|340:138,1,46.8750017881394,2|0,2:0|0:0,0:0:0:0:
446,230,26435,6,0,B|471:258|508:260|508:260|440:275|440:275|436:280|436:280|340:303|340:303|291:318|303:385,1,318.750006079674,4|0,3:2|0:0,0:0:0:0:
199,321,26735,6,0,B|144:327|144:327|140:325|140:325|49:336,1,121.874994421006,10|0,2:0|0:0,0:0:0:0:
73,341,26885,2,0,B|134:333|134:333|138:335|138:335|193:329,1,121.874994421006,2|0,2:0|0:0,0:0:0:0:
255,248,27035,6,0,P|218:242|193:197,1,74.9999977111817,2|0,1:2|0:0,0:0:0:0:
108,64,27185,2,0,L|116:11,1,37.4999988555909,2|0,2:0|0:0,0:0:0:0:
18,175,27335,6,0,B|65:169|65:169|82:173|82:173|98:163|98:163|176:151,1,140.625005364418,10|0,2:0|0:0,0:0:0:0:
163,144,27485,2,0,B|213:137|213:137|230:141|230:141|246:131|246:131|324:119,1,140.625005364418,2|0,2:0|0:0,0:0:0:0:
413,123,27635,6,0,B|431:163|431:163|380:208|380:208|316:182|316:182|322:140,1,224.999993133545,2|0,3:2|0:0,0:0:0:0:
352,38,27935,6,0,L|356:69,1,31.25,10|0,2:0|0:0,0:0:0:0:
352,38,28085,2,0,L|346:-16,1,31.25,2|0,2:0|0:0,0:0:0:0:
512,266,28235,6,0,B|417:282|417:282|407:291|407:291|252:317,1,262.499991989136,2|0,1:2|0:0,0:0:0:0:
124,344,28535,6,0,L|118:381,1,37.4999988555909,10|0,2:0|0:0,0:0:0:0:
173,237,28685,2,0,L|179:274,1,37.4999988555909,2|0,2:0|0:0,0:0:0:0:
70,162,28835,6,0,B|51:146|51:146|6:154,6,46.8750017881394,0|0|0|0|2|0|0,3:2|0:0|0:0|0:0|2:0|0:0|0:0,0:0:0:0:
163,18,29135,6,0,B|176:29|176:29|207:23,6,37.4999988555909,8|0|0|0|0|0|0,2:0|0:0|0:0|0:0|0:0|0:0|0:0,0:0:0:0:
113,90,29435,6,0,B|189:80|189:80|196:84|196:84|306:68|306:68|310:64|310:64|433:47,1,318.750006079674,0|0,1:0|0:0,0:0:0:0:
414,190,29735,6,0,B|418:234|449:255|449:255|371:204|371:204|426:81,1,243.749988842011,10|0,2:0|0:0,0:0:0:0:
504,102,30035,6,0,L|491:201,2,87.499997329712,2|0|10,3:2|0:0|2:0,0:0:0:0:
470,353,30485,1,2,2:0:0:0:
350,302,30635,6,0,B|270:289|307:347|193:325,1,131.249995994568,2|0,1:2|0:0,0:0:0:0:
108,328,30935,6,0,L|112:358,1,31.25,10|8,2:0|2:0,0:0:0:0:
97,338,31010,2,0,L|101:368,1,31.25,8|8,2:0|2:0,0:0:0:0:
86,348,31085,6,0,L|90:317,1,31.25,10|8,2:0|2:0,0:0:0:0:
75,358,31160,2,0,L|79:327,1,31.25,8|8,2:0|2:0,0:0:0:0:
66,366,31235,6,0,B|79:346|75:323|75:323|54:186|54:186|46:181|46:181|23:39,1,318.750006079674,4|0,3:2|0:0,0:0:0:0:
128,114,31535,6,0,B|139:129|139:129|225:143|225:143|239:135,1,121.874994421006,10|0,2:0|0:0,0:0:0:0:
242,128,31685,2,0,B|227:135|227:135|142:121|142:121|130:106,1,121.874994421006,2|0,2:0|0:0,0:0:0:0:
143,17,31835,6,0,P|179:20|201:48,1,74.9999977111817,2|0,1:2|0:0,0:0:0:0:
320,184,31985,2,0,P|343:182|363:164,1,37.4999988555909,2|0,2:0|0:0,0:0:0:0:
459,1,32135,6,0,B|452:62|452:62|454:69|454:69|445:163,1,140.625005364418,10|0,2:0|0:0,0:0:0:0:
456,154,32285,2,0,B|449:215|449:215|451:222|451:222|442:316,1,140.625005364418,2|0,2:0|0:0,0:0:0:0:
476,370,32435,6,0,B|354:395|397:288|262:311,1,224.999993133545,0|0,3:0|0:0,0:0:0:0:
171,337,32735,6,0,L|162:290,1,31.25,10|0,2:0|0:0,0:0:0:0:
171,337,32885,2,0,L|180:384,1,31.25,2|0,2:0|0:0,0:0:0:0:
61,252,33035,6,0,P|53:143|156:190,1,262.499991989136,2|2,1:2|2:0,0:0:0:0:
171,35,33335,6,0,B|185:66|185:66|293:87,1,140.625005364418,10|0,2:0|0:0,0:0:0:0:
305,90,33485,2,0,B|410:110|410:110|445:83,1,140.625005364418,2|0,2:0|0:0,0:0:0:0:
390,25,33635,5,0,3:0:0:0:
465,205,33785,6,0,P|478:218|515:222,2,46.8750017881394,2|0|0,2:0|0:0|0:0,0:0:0:0:
263,310,33935,6,0,B|402:271|402:271|351:285|348:342,1,224.999993133545,10|0,2:0|0:0,0:0:0:0:
426,347,34235,6,0,L|487:357,1,62.5,2|0,1:2|0:0,0:0:0:0:
286,191,34385,2,0,L|347:201,1,62.5,2|0,2:0|0:0,0:0:0:0:
164,352,34535,6,0,L|148:259,1,93.7500035762788,10|0,2:0|0:0,0:0:0:0:
69,275,34685,2,0,L|84:367,1,93.7500035762788,2|0,2:0|0:0,0:0:0:0:
84,367,34835,6,0,P|105:352|104:316,1,43.749998664856,2|0,3:2|0:0,0:0:0:0:
35,301,34985,2,0,P|31:275|1:258,1,43.749998664856
100,142,35135,6,0,P|112:157|93:147,6,56.2499982833863,10|2|2|2|2|2|2,2:0|2:0|2:0|2:0|2:0|2:0|2:0,0:0:0:0:
139,64,35435,6,0,B|148:36|177:18|177:18|-1:54|-1:54|34:53|65:81,1,281.250010728836,2|0,1:2|0:0,0:0:0:0:
100,142,35735,6,0,B|202:160|202:160|211:168|211:168|351:194,1,224.999993133545,10|0,2:0|0:0,0:0:0:0:
498,313,36035,6,0,P|379:367|398:238,1,318.750006079674,4|0,3:2|0:0,0:0:0:0:
455,83,36335,6,0,P|474:140|485:200,1,121.874994421006,10|0,2:0|0:0,0:0:0:0:
495,191,36485,2,0,P|483:131|464:73,1,121.874994421006
434,0,36635,6,0,P|394:12|385:51,1,74.9999977111817,2|0,1:2|0:0,0:0:0:0:
273,91,36785,2,0,P|271:109|281:125,1,37.4999988555909,2|0,2:0|0:0,0:0:0:0:
289,208,36935,6,0,B|175:193|250:137|128:121,1,187.500007152558,10|2,2:0|2:0,0:0:0:0:
47,236,37160,1,2,2:0:0:0:
37,244,37235,6,0,B|27:180|27:180|23:175|23:175|11:90|11:90|13:85|13:85|6:19,1,224.999993133545,2|0,3:2|0:0,0:0:0:0:
131,121,37535,6,0,L|172:114,1,31.25,10|0,2:0|0:0,0:0:0:0:
131,121,37685,2,0,L|90:128,1,31.25,2|0,2:0|0:0,0:0:0:0:
166,295,37835,6,0,B|230:310|230:310|234:314|234:314|308:330,1,131.249995994568,2|0,1:2|0:0,0:0:0:0:
296,338,37985,2,0,B|360:353|360:353|364:357|364:357|438:373,1,131.249995994568,2|0,2:0|0:0,0:0:0:0:
493,332,38135,6,0,P|507:249|422:254,1,187.500007152558,10|2,2:0|2:0,0:0:0:0:
401,171,38360,5,2,2:0:0:0:
392,156,38435,2,0,P|407:130|407:96,1,62.5,0|0,3:0|0:0,0:0:0:0:
312,137,38585,2,0,P|312:106|326:78,1,62.5,2|0,0:0|0:0,0:0:0:0:
204,0,38735,6,0,P|218:26|218:59,1,62.5,8|0,2:0|0:0,0:0:0:0:
123,19,38885,2,0,P|123:49|137:77,1,62.5
5,182,39035,6,0,B|38:176|38:176|48:178|48:178|56:172|56:172|83:167,1,81.2499962806703,2|0,1:2|0:0,0:0:0:0:
21,264,39185,2,0,B|54:258|54:258|64:260|64:260|72:254|72:254|99:249,1,81.2499962806703,2|0,2:0|0:0,0:0:0:0:
271,384,39335,6,0,B|244:379|244:379|236:373|236:373|226:375|226:375|175:365,1,81.2499962806703,10|0,2:0|0:0,0:0:0:0:
287,302,39485,2,0,B|260:297|260:297|252:291|252:291|242:293|242:293|191:283,1,81.2499962806703,2|0,2:0|0:0,0:0:0:0:
412,245,39635,5,0,3:0:0:0:
412,245,39935,6,0,L|406:281,1,31.25,2|0,2:0|0:0,0:0:0:0:
414,290,40085,2,0,L|420:260,1,31.25,2|0,2:0|0:0,0:0:0:0:
428,275,40235,2,0,L|422:305,1,31.25,2|0,2:0|0:0,0:0:0:0:
512,188,40385,5,0,1:0:0:0:
512,188,40460,1,0,1:0:0:0:
512,188,40535,2,0,B|476:158|476:158|430:170,1,93.75,0|0,1:0|0:0,0:0:0:0:
347,24,40835,6,0,L|260:36,6,53.125001013279,4|0|0|0|0|0|0,3:2|0:0|0:0|0:0|0:0|0:0|0:0,0:0:0:0:
237,112,41135,6,0,L|215:115,6,21.874999332428,10|0|0|0|0|0|0,2:0|0:0|0:0|0:0|0:0|0:0|0:0,0:0:0:0:
112,158,41435,6,0,B|117:114|117:114|116:105|116:105|121:97|121:97|129:39,1,112.499996566773,2|0,1:2|0:0,0:0:0:0:
119,45,41585,2,0,B|112:94|112:94|107:102|107:102|108:112|108:112|103:155,1,112.499996566773,2|0,2:0|0:0,0:0:0:0:
32,236,41735,6,0,B|164:228|115:327|255:315,1,224.999993133545,10|0,2:0|0:0,0:0:0:0:
499,297,42035,6,0,B|369:289|418:388|300:377,1,224.999993133545,2|0,3:2|0:0,0:0:0:0:
289,180,42335,6,0,P|307:230|321:310,1,112.499996566773,10|0,2:0|0:0,0:0:0:0:
330,284,42485,2,0,P|318:228|300:175,1,112.499996566773,2|0,2:0|0:0,0:0:0:0:
447,56,42635,6,0,B|431:125|431:125|221:87,1,262.499991989136,2|0,1:2|0:0,0:0:0:0:
232,95,42935,6,0,P|200:82|188:55,1,37.4999988555909,10|0,2:0|0:0,0:0:0:0:
127,44,43085,2,0,P|95:57|83:84,1,37.4999988555909,2|0,2:0|0:0,0:0:0:0:
75,218,43235,6,0,B|57:256|3:267|3:267|266:218|266:218|221:227|191:285,1,437.5,0|0,3:0|0:0,0:0:0:0:
334,277,43835,6,0,P|352:330|365:384,1,112.499996566773,2|0,1:2|0:0,0:0:0:0:
372,376,43985,2,0,P|359:321|340:268,1,112.499996566773,2|0,2:0|0:0,0:0:0:0:
502,198,44135,6,0,P|483:251|470:305,1,112.499996566773,10|0,2:0|0:0,0:0:0:0:
464,297,44285,2,0,P|476:242|495:189,1,112.499996566773,2|0,2:0|0:0,0:0:0:0:
502,79,44435,6,0,B|438:90|438:90|414:104|414:104|373:90|373:90|348:107|348:107|271:122,1,224.999993133545,2|0,3:2|0:0,0:0:0:0:
200,103,44735,6,0,B|184:52|184:52|224:-27,1,112.499996566773,10|0,2:0|0:0,0:0:0:0:
201,0,44885,2,0,B|174:52|174:52|189:103,1,112.499996566773,2|0,2:0|0:0,0:0:0:0:
179,188,45035,6,0,L|169:253,1,50,2|0,1:2|0:0,0:0:0:0:
155,333,45185,2,0,L|147:382,1,50,2|0,2:0|0:0,0:0:0:0:
0,285,45335,6,0,B|64:296|64:296|88:310|88:310|129:296|129:296|154:313|154:313|231:328,1,224.999993133545,10|0,2:0|0:0,0:0:0:0:
356,325,45635,6,0,B|363:352|363:352|346:370,6,53.125001013279,4|0|0|0|0|0|0,3:2|0:0|0:0|0:0|0:0|0:0|0:0,0:0:0:0:
415,248,45935,6,0,B|409:196|409:196|410:190|410:190|402:121,1,121.874994421006,8|0,2:0|0:0,0:0:0:0:
411,132,46085,2,0,B|418:195|418:195|416:201|416:201|422:252,1,121.874994421006
511,362,46235,6,0,P|493:340|441:328,1,74.9999977111817,2|0,1:2|0:0,0:0:0:0:
319,203,46385,2,0,L|258:212,1,37.4999988555909,2|0,2:0|0:0,0:0:0:0:
486,75,46535,6,0,B|473:58|473:58|374:41|374:41|350:55,1,140.625005364418,10|0,2:0|0:0,0:0:0:0:
346,51,46685,2,0,B|333:68|333:68|234:85|234:85|214:73,1,140.625005364418,2|0,2:0|0:0,0:0:0:0:
93,56,46835,6,0,B|90:26|59:8|59:8|130:18|161:93|130:155,1,224.999993133545,0|0,3:0|0:0,0:0:0:0:
71,211,47135,6,0,L|76:242,1,31.25,10|0,2:0|0:0,0:0:0:0:
71,211,47285,2,0,L|102:206,1,31.25,2|0,2:0|0:0,0:0:0:0:
250,346,47435,6,0,B|264:374|297:386|297:386|199:371|199:371|192:366|192:366|80:349,1,262.499991989136,2|0,1:2|0:0,0:0:0:0:
17,360,47735,6,0,P|8:343|10:325,1,37.4999988555909,10|0,2:0|0:0,0:0:0:0:
93,342,47885,2,0,P|94:323|85:306,1,37.4999988555909,2|0,2:0|0:0,0:0:0:0:
211,190,48035,6,0,B|220:166|220:166|256:155,6,46.8750017881394,0|0|0|0|2|0|0,3:0|0:0|0:0|0:0|2:0|0:0|0:0,0:0:0:0:
166,93,48335,6,0,B|150:88|150:88|143:69,6,37.4999988555909,8|0|0|0|0|0|0,2:0|0:0|0:0|0:0|0:0|0:0|0:0,0:0:0:0:
220,19,48635,6,0,P|256:15|285:37,1,74.9999977111817,2|0,1:2|0:0,0:0:0:0:
341,110,48785,2,0,P|368:85|404:87,1,74.9999977111817,2|0,2:0|0:0,0:0:0:0:
493,284,48935,6,0,L|510:180,1,106.250002026558,10|0,2:0|0:0,0:0:0:0:
432,167,49085,2,0,L|415:271,1,106.250002026558
444,352,49235,5,4,3:2:0:0:
444,352,49535,6,0,L|491:340,1,31.25,8|0,2:0|0:0,0:0:0:0:
460,340,49685,2,0,L|429:347,1,31.25,8|0,2:0|0:0,0:0:0:0:
416,344,49835,2,0,L|463:332,1,31.25,8|0,2:0|0:0,0:0:0:0:
288,373,50135,6,0,L|318:380,6,31.25,8|8|8|8|8|8|8,2:0|2:0|2:0|2:0|2:0|2:0|2:0,0:0:0:0:
188,199,50435,6,0,B|186:170|186:170|201:151,6,53.125001013279,4|0|0|0|0|0|0,3:2|0:0|0:0|0:0|0:0|0:0|0:0,0:0:0:0:
230,321,50735,6,0,B|259:240|259:240|243:267|217:275,1,131.249995994568,10|0,2:0|0:0,0:0:0:0:
121,106,51035,6,0,B|66:116|66:116|62:121|62:121|12:130,1,112.499996566773,2|0,1:2|0:0,0:0:0:0:
20,138,51185,2,0,B|69:128|69:128|73:123|73:123|128:113,1,112.499996566773,2|0,2:0|0:0,0:0:0:0:
246,80,51335,6,0,B|178:67|178:67|142:78|142:78|110:49|110:49|36:35,1,224.999993133545,10|0,2:0|0:0,0:0:0:0:
101,275,51635,6,0,B|168:262|168:262|204:273|204:273|236:244|236:244|310:230,1,224.999993133545,2|0,3:2|0:0,0:0:0:0:
287,344,51935,6,0,P|342:358|396:375,1,112.499996566773,10|0,2:0|0:0,0:0:0:0:
406,369,52085,2,0,P|352:351|297:338,1,112.499996566773,2|0,2:0|0:0,0:0:0:0:
404,273,52235,6,0,P|505:233|490:341,1,262.499991989136,2|0,1:2|0:0,0:0:0:0:
481,335,52535,6,0,P|505:316|512:282,1,37.4999988555909,10|0,2:0|0:0,0:0:0:0:
474,239,52685,2,0,P|469:208|443:185,1,37.4999988555909,2|0,2:0|0:0,0:0:0:0:
510,54,52835,6,0,B|485:101|435:90|435:90|382:77|382:77|375:71|375:71|211:24|211:24|285:42|292:110,1,437.5,0|0,3:0|0:0,0:0:0:0:
217,227,53435,6,0,B|209:180|209:180|203:169|203:169|205:153|205:153|199:115,1,112.499996566773,2|0,1:2|0:0,0:0:0:0:
190,121,53585,2,0,B|194:158|194:158|193:173|193:173|199:185|199:185|206:231,1,112.499996566773,2|0,2:0|0:0,0:0:0:0:
340,330,53735,6,0,B|348:283|348:283|354:272|354:272|352:256|352:256|358:218,1,112.499996566773,10|0,2:0|0:0,0:0:0:0:
367,224,53885,2,0,B|363:261|363:261|364:276|364:276|358:288|358:288|351:334,1,112.499996566773,2|0,2:0|0:0,0:0:0:0:
230,374,54035,6,0,B|107:391|157:285|14:306,1,224.999993133545,2|0,3:2|0:0,0:0:0:0:
88,194,54335,6,0,P|96:174|79:187,6,56.2499982833863,10|0|0|0|2|0|0,2:0|0:0|0:0|0:0|2:0|0:0|0:0,0:0:0:0:
16,133,54635,6,0,B|30:102|30:102|138:81,1,140.625005364418,2|0,1:2|0:0,0:0:0:0:
150,78,54785,2,0,B|255:58|255:58|290:85,1,140.625005364418,2|0,2:0|0:0,0:0:0:0:
410,209,54935,6,0,B|358:168|371:106|371:106|351:165|270:171,1,224.999993133545,10|0,2:0|0:0,0:0:0:0:
320,253,55235,6,0,P|339:272|345:298,6,53.125001013279,4|0|0|0|0|0|0,3:2|0:0|0:0|0:0|0:0|0:0|0:0,0:0:0:0:
468,363,55535,6,0,P|464:375|454:384,6,21.874999332428,8|0|0|0|0|0|0,2:0|0:0|0:0|0:0|0:0|0:0|0:0,0:0:0:0:
503,283,55835,6,0,B|453:290|453:290|448:294|448:294|373:307,1,112.499996566773,2|0,1:2|0:0,0:0:0:0:
384,310,55985,6,0,P|375:333|377:363,1,37.4999988555909,2|0,2:0|0:0,0:0:0:0:
224,264,56135,2,0,P|208:244|181:231,1,37.4999988555909,10|0,2:0|0:0,0:0:0:0:
343,148,56285,2,0,P|367:144|392:127,1,37.4999988555909,2|0,2:0|0:0,0:0:0:0:
319,244,56435,5,2,3:2:0:0:
319,244,56585,2,0,L|307:304,1,37.4999988555909,2|0,2:0|0:0,0:0:0:0:
253,76,56735,6,0,B|235:70|206:71|206:71|367:26|367:26|342:39|329:59,1,262.499991989136,10|0,2:0|0:0,0:0:0:0:
472,249,57035,6,0,B|350:227|350:227|345:222|345:222|163:190,1,300,0|0,1:0|0:0,0:0:0:0:
61,296,57335,6,0,B|54:347|54:347|108:376|108:376|147:329|147:329|126:283,1,224.999993133545,10|0,2:0|0:0,0:0:0:0:
72,167,57635,5,0,3:0:0:0:
72,167,57785,2,0,L|64:112,2,37.4999988555909,2|0|0,2:0|0:0|0:0,0:0:0:0:
9,56,57935,6,0,B|29:43|29:43|202:74|202:74|215:95,1,224.999993133545,10|0,2:0|0:0,0:0:0:0:
381,0,58235,6,0,P|391:18|393:40,1,43.749998664856,0|0,1:0|0:0,0:0:0:0:
304,25,58385,2,0,P|306:46|316:65,1,43.749998664856,2|0,2:0|0:0,0:0:0:0:
483,155,58535,6,0,P|455:161|434:179,2,56.2499982833863,10|0|0,2:0|0:0|0:0,0:0:0:0:
318,194,58685,2,0,P|309:220|315:247,2,56.2499982833863,2|0|0,2:0|0:0|0:0,0:0:0:0:
284,354,58835,5,4,3:2:0:0:
256,192,58910,12,4,60035,2:0:0:0:
256,192,67235,12,0,69485,0:0:0:0:
375,324,69635,6,0,L|370:360,1,25,6|0,3:2|0:0,0:0:0:0:
375,324,69785,2,0,L|339:319,1,25
375,324,69935,2,0,L|380:288,1,25,10|0,2:0|0:0,0:0:0:0:
375,324,70085,2,0,L|411:329,1,25
470,191,70235,6,0,P|460:182|455:170,1,25,2|0,1:2|0:0,0:0:0:0:
378,169,70385,2,0,P|378:156|384:144,1,25
298,5,70535,6,0,P|288:13|283:25,1,25,10|0,2:0|0:0,0:0:0:0:
206,27,70685,2,0,P|206:39|212:51,1,25,8|0,2:0|0:0,0:0:0:0:
120,151,70835,6,0,L|125:187,1,25,2|0,3:2|0:0,0:0:0:0:
120,151,70985,2,0,L|156:146,1,25
120,151,71135,2,0,L|115:115,1,25,10|0,2:0|0:0,0:0:0:0:
120,151,71285,2,0,L|84:156,1,25
36,248,71435,6,0,P|49:259|54:269,1,25,2|0,1:2|0:0,0:0:0:0:
142,272,71585,2,0,P|138:288|132:298,1,25
211,383,71735,6,0,P|224:372|229:362,1,25,10|0,2:0|0:0,0:0:0:0:
317,359,71885,2,0,P|313:342|307:332,1,25,8|0,2:0|0:0,0:0:0:0:
444,256,72035,6,0,L|449:220,1,25,2|0,3:2|0:0,0:0:0:0:
444,256,72185,2,0,L|468:259,1,25
444,256,72335,2,0,L|438:291,1,25,10|0,2:0|0:0,0:0:0:0:
444,256,72485,2,0,L|419:252,1,25
383,135,72635,6,0,P|378:123|376:111,1,25,2|0,1:2|0:0,0:0:0:0:
462,113,72785,2,0,P|460:100|455:89,1,25
225,16,72935,6,0,P|220:27|218:39,1,25,10|0,2:0|0:0,0:0:0:0:
304,38,73085,2,0,P|302:50|297:61,1,25,8|0,2:0|0:0,0:0:0:0:
141,123,73235,6,0,B|89:134|89:134|79:143|79:143|16:156,1,112.499996566773,2|0,3:2|0:0,0:0:0:0:
23,159,73535,6,0,L|87:171,1,37.4999988555909,10|0,2:0|0:0,0:0:0:0:
145,250,73685,2,0,L|151:286,1,37.4999988555909
246,374,73835,6,0,P|262:360|288:360,1,37.4999988555909,2|0,1:2|0:0,0:0:0:0:
285,352,73985,2,0,P|266:347|249:353,1,37.4999988555909
308,266,74135,6,0,P|329:269|345:289,1,37.4999988555909,10|0,2:0|0:0,0:0:0:0:
349,281,74285,2,0,P|340:263|325:254,1,37.4999988555909,8|0,2:0|0:0,0:0:0:0:
444,190,74435,6,0,L|438:214,1,25,6|0,3:2|0:0,0:0:0:0:
444,190,74585,2,0,L|468:194,1,25
444,190,74735,2,0,L|448:164,1,25,10|0,2:0|0:0,0:0:0:0:
444,190,74885,2,0,L|418:184,1,25
465,13,75035,6,0,P|470:24|473:35,1,25,2|0,1:2|0:0,0:0:0:0:
377,41,75185,2,0,P|373:52|367:64,1,25
281,198,75335,6,0,P|275:186|271:174,1,25,10|0,2:0|0:0,0:0:0:0:
174,170,75485,2,0,P|177:158|183:146,1,25,8|0,2:0|0:0,0:0:0:0:
64,87,75635,6,0,L|69:111,1,25,2|0,3:2|0:0,0:0:0:0:
64,87,75785,2,0,L|39:91,1,25
64,87,75935,2,0,L|59:61,1,25,10|0,2:0|0:0,0:0:0:0:
64,87,76085,2,0,L|89:81,1,25
79,230,76235,6,0,P|68:222|57:218,1,25,2|0,1:2|0:0,0:0:0:0:
31,313,76385,2,0,P|19:317|9:324,1,25
220,359,76535,6,0,P|209:366|198:370,1,25,10|0,2:0|0:0,0:0:0:0:
174,154,76685,2,0,P|162:149|152:142,1,25,8|0,2:0|0:0,0:0:0:0:
356,264,76835,6,0,L|388:270,1,25,2|0,3:2|0:0,0:0:0:0:
356,264,76985,2,0,L|350:296,1,25
356,264,77135,2,0,L|324:258,1,25,10|0,2:0|0:0,0:0:0:0:
356,264,77285,2,0,L|362:232,1,25
452,156,77435,6,0,P|441:162|433:173,1,25,2|0,1:2|0:0,0:0:0:0:
299,123,77585,2,0,P|304:134|305:146,1,25
492,139,77735,6,0,P|479:140|467:147,1,25,10|0,2:0|0:0,0:0:0:0:
276,93,77885,2,0,P|286:100|292:111,1,25,8|0,2:0|0:0,0:0:0:0:
367,374,78035,6,0,B|362:338|362:338|365:327|365:327|362:317|362:317|353:240,1,112.499996566773,2|0,3:2|0:0,0:0:0:0:
346,253,78335,6,0,P|363:237|389:239,1,37.4999988555909,10|0,2:0|0:0,0:0:0:0:
404,155,78485,2,0,P|422:159|434:172,1,37.4999988555909
512,144,78635,6,0,B|388:153|438:50|298:63,1,224.999993133545,2|0,1:2|0:0,0:0:0:0:
152,68,78935,6,0,P|137:80|128:96,1,21.874999332428,10|0,2:0|0:0,0:0:0:0:
128,66,79010,2,0,P|120:82|119:101,1,21.874999332428
106,75,79085,2,0,P|106:93|112:111,1,21.874999332428,8|0,2:0|0:0,0:0:0:0:
89,91,79160,2,0,P|97:107|110:120,1,21.874999332428
108,117,79235,6,0,B|122:221|122:221|129:230|129:230|150:379,1,250,4|0,3:2|0:0,0:0:0:0:
141,373,79685,1,0,3:0:0:0:
141,373,80135,1,0,3:0:0:0:
386,199,80285,5,0,3:0:0:0:
386,199,80360,1,0,3:0:0:0:
386,199,80435,2,0,B|400:243|443:256|443:256|270:216,1,250,4|0,3:2|0:0,0:0:0:0:
267,228,80885,1,0,3:0:0:0:
267,228,81335,1,0,3:0:0:0:
52,100,81485,5,0,3:0:0:0:
52,100,81560,1,0,3:0:0:0:
52,100,81635,2,0,B|85:124|85:124|251:87|251:87|269:51,1,250,4|0,3:2|0:0,0:0:0:0:
263,45,82085,1,0,3:0:0:0:
263,45,82535,1,0,3:0:0:0:
267,228,82685,5,0,3:0:0:0:
267,228,82760,1,0,3:0:0:0:
267,228,82835,2,0,L|273:281,6,37.4999988555909,4|0|0|0|0|0|0,3:2|0:0|0:0|0:0|0:0|0:0|0:0,0:0:0:0:
401,298,83135,6,0,P|393:306|387:315,1,21.874999332428,2|0,2:0|0:0,0:0:0:0:
378,295,83210,2,0,P|374:305|372:316,1,21.874999332428
359,302,83285,2,0,P|360:312|363:323,1,21.874999332428,2|0,2:0|0:0,0:0:0:0:
344,323,83360,2,0,P|349:332|356:341,1,21.874999332428,2|0,2:0|0:0,0:0:0:0:
364,343,83435,6,0,B|298:355|298:355|289:362|289:362|199:376,1,149.999995422363,2|0,2:0|1:0,0:0:0:0:
208,372,83660,1,0,1:0:0:0:
197,371,83735,6,0,B|176:358|176:358|191:275,1,93.7500035762788,0|0,3:0|0:0,0:0:0:0:
26,70,83885,2,0,B|-3:107|-3:107|6:153,1,93.7500035762788,0|0,3:0|0:0,0:0:0:0:
23,248,84035,5,4,3:2:0:0:
82,377,84185,5,0,3:0:0:0:
87,352,84335,1,0,1:0:0:0:
92,327,84485,1,0,3:0:0:0:
263,168,84635,6,0,P|247:166|236:160,1,25,0|0,3:0|3:0,0:0:0:0:
168,53,84785,5,0,1:0:0:0:
173,78,84935,1,0,3:0:0:0:
178,103,85085,1,0,3:0:0:0:
354,332,85235,5,0,3:0:0:0:
354,332,85385,2,0,P|359:343|366:353,1,25,0|0,3:0|0:0,0:0:0:0:
353,332,85535,2,0,P|341:332|329:333,1,25,0|0,1:0|0:0,0:0:0:0:
354,331,85685,2,0,P|360:321|364:309,1,25,0|0,3:0|0:0,0:0:0:0:
489,198,85835,5,0,3:0:0:0:
489,198,85910,1,0,3:0:0:0:
489,198,85985,2,0,P|451:192|438:165,1,62.5,0|0,1:0|0:0,0:0:0:0:
471,9,86135,2,0,P|485:44|468:69,1,62.5,0|0,3:0|0:0,0:0:0:0:
317,120,86285,5,0,3:0:0:0:
317,120,86360,1,0,0:0:0:0:
317,120,86435,2,0,P|340:89|370:92,3,62.5,0|0|0|0,3:0|3:0|3:0|3:0,0:0:0:0:
200,110,86735,6,0,P|181:78|190:42,3,74.9999977111817,0|0|0|0,1:0|3:0|3:0|3:0,0:0:0:0:
126,214,87035,6,0,P|84:205|59:170,3,87.499997329712,0|0|0|0,3:0|3:0|1:0|3:0,0:0:0:0:
208,319,87335,6,0,L|198:389,1,50,0|0,3:0|3:0,0:0:0:0:
285,334,87485,2,0,L|275:404,1,50,0|0,3:0|3:0,0:0:0:0:
359,266,87635,5,4,3:2:0:0:
359,266,87935,6,0,L|389:269,1,31.25,0|0,1:0|0:0,0:0:0:0:
400,261,88085,2,0,L|369:257,1,31.25,0|0,1:0|0:0,0:0:0:0:
380,77,88235,6,0,L|372:41,6,31.25,2|0|0|0|0|0|0,2:0|0:0|0:0|0:0|0:0|0:0|0:0,0:0:0:0:
469,176,88535,6,0,P|464:165|457:157,1,21.874999332428,0|0,3:0|3:0,0:0:0:0:
477,154,88610,2,0,P|468:146|459:141,1,21.874999332428,0|0,3:0|3:0,0:0:0:0:
477,134,88685,2,0,P|467:131|455:130,1,21.874999332428,0|0,3:0|3:0,0:0:0:0:
462,113,88760,2,0,P|451:114|441:118,1,21.874999332428,0|0,3:0|3:0,0:0:0:0:
380,77,88835,5,12,1:2:0:0:
281,57,88985,1,8,2:0:0:0:
182,37,89135,1,8,2:0:0:0:
393,85,89285,5,8,1:2:0:0:
294,105,89435,1,8,3:2:0:0:
195,125,89585,1,8,3:2:0:0:
343,266,89735,5,8,1:2:0:0:
343,266,89885,2,0,L|349:232,1,25,8|0,3:2|3:0,0:0:0:0:
181,90,90035,5,12,1:2:0:0:
203,206,90185,1,8,2:0:0:0:
225,322,90335,1,8,2:0:0:0:
197,116,90485,5,8,1:2:0:0:
175,232,90635,1,8,3:2:0:0:
153,348,90785,1,8,3:2:0:0:
27,284,90935,5,8,1:2:0:0:
27,284,91085,2,0,L|68:277,1,25,8|0,3:2|3:0,0:0:0:0:
170,152,91235,5,12,1:2:0:0:
89,87,91385,1,8,2:0:0:0:
38,180,91535,1,8,2:0:0:0:
319,171,91685,5,8,1:2:0:0:
238,236,91835,1,8,3:2:0:0:
187,143,91985,1,8,3:2:0:0:
390,100,92135,5,8,1:2:0:0:
390,100,92285,2,0,L|401:146,1,25,8|0,3:2|3:0,0:0:0:0:
382,237,92435,6,0,P|367:221|360:202,1,37.4999988555909,12|0,1:2|0:0,0:0:0:0:
357,230,92585,2,0,P|350:210|352:189,1,37.4999988555909,8|0,2:0|0:0,0:0:0:0:
239,299,92735,6,0,P|224:316|217:335,1,37.4999988555909,8|0,2:0|0:0,0:0:0:0:
214,306,92885,2,0,P|207:327|209:348,1,37.4999988555909,8|0,1:2|0:0,0:0:0:0:
0,123,93035,6,0,P|17:148|41:160,1,50,8|0,3:2|3:0,0:0:0:0:
74,228,93185,2,0,P|104:225|126:210,1,50,8|0,3:2|0:0,0:0:0:0:
195,0,93335,6,0,P|164:2|142:17,1,50,8|0,1:2|0:0,0:0:0:0:
67,11,93485,2,0,P|53:38|55:65,1,50,8|0,3:2|3:0,0:0:0:0:
112,126,93635,5,12,1:2:0:0:
122,132,93785,2,0,L|164:127,1,25,10|0,2:0|0:0,0:0:0:0:
215,85,93935,5,8,1:2:0:0:
225,79,94085,2,0,L|267:84,1,28.1249991416931,10|0,2:0|0:0,0:0:0:0:
312,169,94235,5,8,1:2:0:0:
322,175,94385,2,0,L|364:170,1,31.25,10|0,3:2|0:0,0:0:0:0:
398,54,94535,5,8,1:2:0:0:
408,48,94685,2,0,L|450:53,1,34.3750010490418,10|0,2:0|0:0,0:0:0:0:
508,222,94835,5,12,1:2:0:0:
496,224,94985,2,0,P|487:240|488:274,1,37.4999988555909,10|0,2:0|0:0,0:0:0:0:
378,341,95135,5,8,1:2:0:0:
371,351,95285,2,0,P|377:367|404:389,1,40.6249981403352,10|0,2:0|0:0,0:0:0:0:
493,352,95435,5,8,1:2:0:0:
491,338,95585,2,0,P|475:329|440:329,1,43.749998664856,10|0,3:2|0:0,0:0:0:0:
348,250,95735,5,8,1:2:0:0:
335,241,95885,2,0,P|317:247|296:274,1,46.8750017881394,10|0,3:2|0:0,0:0:0:0:
157,371,96035,6,0,L|107:362,1,37.4999988555909,14|0,1:2|0:0,0:0:0:0:
174,267,96185,2,0,L|124:258,1,37.4999988555909,10|0,1:2|0:0,0:0:0:0:
27,194,96335,6,0,L|77:185,1,37.4999988555909,10|0,1:2|0:0,0:0:0:0:
10,90,96485,2,0,L|60:81,1,37.4999988555909,10|0,1:2|0:0,0:0:0:0:
231,45,96635,5,14,1:2:0:0:
251,82,96710,1,2,1:2:0:0:
290,105,96785,1,10,1:2:0:0:
335,105,96860,1,2,1:2:0:0:
374,84,96935,6,0,L|385:26,1,43.749998664856,10|2,1:2|1:2,0:0:0:0:
251,226,97085,2,0,L|240:168,1,43.749998664856,10|2,1:2|1:2,0:0:0:0:
331,297,97235,1,4,3:2:0:0:
331,297,98135,6,0,P|326:307|326:320,1,25,4|0,3:2|0:0,0:0:0:0:
407,312,98285,2,0,P|407:324|401:335,1,25,0|0,3:0|0:0,0:0:0:0:
501,289,98435,6,0,B|474:270|474:270|220:304|220:304|203:333,1,318.750006079674,4|0,3:2|0:0,0:0:0:0:
74,384,98735,2,0,B|108:363|97:309|97:309|86:234|86:234|82:228|82:228|63:90,1,281.250010728836,0|0,1:0|0:0,0:0:0:0:
46,37,99035,6,0,B|84:25|84:25|109:48,1,74.9999977111817,0|0,3:0|0:0,0:0:0:0:
195,151,99185,2,0,B|233:163|233:163|258:139,1,74.9999977111817,8|0,2:0|0:0,0:0:0:0:
416,73,99335,6,0,L|398:-19,1,74.9999977111817,2|0,1:2|0:0,0:0:0:0:
324,14,99485,2,0,L|342:106,1,74.9999977111817,10|0,2:0|0:0,0:0:0:0:
495,210,99635,6,0,B|374:179|374:179|406:190|419:227,1,174.999994659424,2|8,3:2|2:0,0:0:0:0:
341,250,99935,6,0,P|365:279|367:316,1,74.9999977111817,2|0,1:2|0:0,0:0:0:0:
469,303,100085,2,0,P|466:339|443:368,1,74.9999977111817,10|0,2:0|0:0,0:0:0:0:
233,285,100235,6,0,B|100:270|175:375|13:357,1,224.999993133545,2|0,3:2|0:0,0:0:0:0:
61,269,100535,6,0,B|53:197|53:197|56:191|56:191|49:120,1,149.999995422363,2|8,1:2|3:2,0:0:0:0:
152,141,100760,5,0,3:0:0:0:
147,155,100835,2,0,L|133:223,1,37.4999988555909,0|0,3:0|0:0,0:0:0:0:
0,39,100985,6,0,B|45:33|45:33|58:35|58:35|69:28|69:28|132:19,1,131.249995994568,10|0,2:0|0:0,0:0:0:0:
138,27,101135,6,0,P|159:45|182:46,1,37.4999988555909,0|0,1:0|0:0,0:0:0:0:
342,32,101285,6,0,B|347:17|371:3|371:3|281:23,1,131.249995994568,10|0,2:0|0:0,0:0:0:0:
245,98,101435,6,0,L|252:130,1,31.25,2|0,3:2|0:0,0:0:0:0:
254,216,101585,2,0,L|247:246,1,31.25,10|0,2:0|0:0,0:0:0:0:
234,377,101735,6,0,B|216:349|216:349|221:319,1,62.5,2|0,1:2|0:0,0:0:0:0:
297,300,101885,2,0,B|314:327|314:327|309:357,1,62.5,10|0,2:0|0:0,0:0:0:0:
322,369,102035,6,0,L|370:379,1,50,2|0,3:2|0:0,0:0:0:0:
472,166,102185,2,0,L|461:117,1,50,10|0,2:0|0:0,0:0:0:0:
303,189,102335,6,0,B|425:160|384:273|508:242,1,224.999993133545,2|0,1:2|0:0,0:0:0:0:
352,61,102635,6,0,B|333:75|333:75|155:41|155:41|141:10,1,224.999993133545,2|0,3:2|0:0,0:0:0:0:
14,135,102935,6,0,B|97:121|97:121|134:314,1,262.499991989136,2|0,1:2|0:0,0:0:0:0:
95,363,103235,6,0,B|44:381|44:381|77:359,1,93.7500035762788,4|0,3:2|0:0,0:0:0:0:
203,192,103385,2,0,B|254:210|254:210|221:187,1,93.7500035762788,8|0,3:2|0:0,0:0:0:0:
6,290,103535,6,0,B|30:266|60:268|60:268|135:279|135:279|140:285|140:285|306:312,1,281.250010728836,2|0,1:2|0:0,0:0:0:0:
380,322,103835,6,0,B|372:357|372:357|400:384,1,74.9999977111817,0|0,3:0|0:0,0:0:0:0:
457,295,103985,2,0,B|485:322|485:322|477:357,1,74.9999977111817,8|0,2:0|0:0,0:0:0:0:
252,216,104135,6,0,L|267:142,1,74.9999977111817,2|0,1:2|0:0,0:0:0:0:
334,235,104285,2,0,L|349:161,1,74.9999977111817,10|0,2:0|0:0,0:0:0:0:
422,65,104435,6,0,B|439:86|469:100|469:100|341:77,1,174.999994659424,2|8,3:2|2:0,0:0:0:0:
296,26,104735,6,0,P|322:0|358:2,1,74.9999977111817,2|0,1:2|0:0,0:0:0:0:
512,198,104885,2,0,P|475:200|449:174,1,74.9999977111817,10|0,2:0|0:0,0:0:0:0:
200,93,105035,6,0,B|217:213|217:213|215:220|215:220|236:354,1,262.499991989136,2|0,3:2|0:0,0:0:0:0:
121,202,105335,6,0,B|139:229|139:229|300:256|300:256|318:280,1,224.999993133545,0|0,1:0|0:0,0:0:0:0:
236,353,105635,5,2,3:2:0:0:
236,353,105785,2,0,L|198:360,1,25,8|0,2:0|0:0,0:0:0:0:
198,359,105935,2,0,L|210:322,1,25,2|0,1:2|0:0,0:0:0:0:
211,323,106085,2,0,L|236:352,1,25,8|0,2:0|0:0,0:0:0:0:
129,300,106235,6,0,L|120:255,1,25,2|0,3:2|0:0,0:0:0:0:
118,302,106385,2,0,L|109:257,1,25,8|0,2:0|0:0,0:0:0:0:
44,232,106535,6,0,L|36:268,1,25,2|0,1:2|0:0,0:0:0:0:
33,230,106684,2,0,L|28:254,1,25,10|0,3:2|3:0,0:0:0:0:
164,109,106835,6,0,B|170:52|170:52|103:19|103:19|60:75|60:75|88:128,1,262.499991989136,2|0,3:2|0:0,0:0:0:0:
170,112,107135,2,0,B|176:46|176:46|100:9|100:9|51:73|51:73|83:134,1,300,2|0,1:2|0:0,0:0:0:0:
148,201,107435,6,0,L|192:190,1,31.25,2|0,3:2|0:0,0:0:0:0:
287,120,107585,2,0,L|331:131,1,31.25
404,248,107735,6,0,L|448:237,6,31.25,10|8|8|8|8|8|8,2:0|2:0|2:0|2:0|2:0|2:0|2:0,0:0:0:0:
452,161,108035,6,0,L|455:139,1,21.875,0|0,3:0|0:0,0:0:0:0:
430,0,108335,6,0,B|415:28|415:28|431:156|431:156|435:163|435:163|459:348,1,318.750006079674,6|0,1:2|0:0,0:0:0:0:
512,373,108635,6,0,P|494:337|419:352,1,112.499996566773,2|0,3:2|0:0,0:0:0:0:
412,336,108785,2,0,P|394:372|319:357,1,112.499996566773,10|0,2:0|0:0,0:0:0:0:
278,308,108935,6,0,P|282:270|291:234,1,74.9999977111817,2|0,1:2|0:0,0:0:0:0:
94,116,109085,2,0,P|103:152|107:189,1,74.9999977111817,8|0,2:0|0:0,0:0:0:0:
41,299,109235,6,0,B|192:253|192:253|148:327,1,224.999993133545,2|0,3:2|0:0,0:0:0:0:
259,127,109535,6,0,B|250:105|250:105|264:39|264:39|293:13,1,112.499996566773,2|0,1:2|0:0,0:0:0:0:
270,22,109685,2,0,B|254:36|254:36|240:102|240:102|249:124,1,112.499996566773,10|0,2:0|0:0,0:0:0:0:
371,94,109835,6,0,B|299:81|299:81|271:65|271:65|222:81|222:81|192:61|192:61|124:48,1,262.499991989136,2|0,3:2|0:0,0:0:0:0:
38,229,110135,6,0,P|11:164|117:211,1,262.499991989136,2|0,1:2|0:0,0:0:0:0:
119,328,110435,5,0,3:0:0:0:
233,293,110585,2,0,B|253:308|253:308|291:301,2,53.125001013279,8|0|0,2:0|0:0|0:0,0:0:0:0:
109,344,110735,6,0,L|66:355,1,37.4999988555909,2|0,1:2|0:0,0:0:0:0:
352,354,110885,2,0,B|367:334|367:334|361:306,2,53.125001013279,8|0|0,2:0|0:0|0:0,0:0:0:0:
466,257,111035,6,0,L|474:190,1,37.4999988555909,2|0,3:2|0:0,0:0:0:0:
309,75,111185,2,0,L|301:8,1,37.4999988555909,10|0,2:0|0:0,0:0:0:0:
495,143,111335,6,0,B|454:132|454:132|409:163,1,87.499997329712,2|0,1:2|0:0,0:0:0:0:
336,154,111485,2,0,B|295:165|295:165|250:134,1,87.499997329712,10|0,2:0|0:0,0:0:0:0:
88,52,111635,6,0,B|84:29|84:29|98:6,1,50,2|0,3:2|0:0,0:0:0:0:
175,21,111785,2,0,B|179:44|179:44|165:67,1,50,8|0,2:0|0:0,0:0:0:0:
122,242,111935,6,0,B|115:192|115:192|110:184|110:184|111:175|111:175|106:131,1,112.499996566773,2|0,1:2|0:0,0:0:0:0:
97,134,112085,2,0,B|102:177|102:177|101:187|101:187|106:195|106:195|113:244,1,112.499996566773,10|0,2:0|0:0,0:0:0:0:
77,316,112235,6,0,B|226:366|226:366|192:347|181:300,1,224.999993133545,2|0,3:2|0:0,0:0:0:0:
26,370,112535,6,0,B|42:334|42:334|142:313|142:313|150:315|150:315|291:289,1,262.499991989136,2|0,1:2|0:0,0:0:0:0:
462,330,112835,6,0,L|454:376,6,46.8750017881394,4|0|0|0|0|0|0,3:2|0:0|0:0|0:0|0:0|0:0|0:0,0:0:0:0:
382,325,113135,6,0,L|374:371,6,37.4999988555909,8|0|0|0|0|0|0,2:0|0:0|0:0|0:0|0:0|0:0|0:0,0:0:0:0:
474,184,113435,6,0,P|454:164|411:161,1,62.5,2|0,3:2|0:0,0:0:0:0:
364,247,113585,2,0,P|336:254|312:290,1,62.5,2|0,2:0|0:0,0:0:0:0:
490,192,113735,6,0,P|467:213|437:217,1,62.5,10|0,2:0|0:0,0:0:0:0:
340,149,113885,2,0,P|332:119|344:90,1,62.5,2|0,2:0|0:0,0:0:0:0:
494,49,114035,5,2,3:2:0:0:
494,49,114185,2,0,B|451:59|451:59|480:40,1,74.9999977111817
328,11,114335,2,0,B|285:1|285:1|314:20,1,74.9999977111817,10|0,2:0|0:0,0:0:0:0:
188,97,114485,2,0,B|145:107|145:107|174:88,1,74.9999977111817,2|0,3:2|3:0,0:0:0:0:
42,8,114635,6,0,B|30:28|30:28|63:238|63:238|92:257,1,262.499991989136,6|0,3:2|0:0,0:0:0:0:
24,365,114935,2,0,B|12:345|12:345|45:135|45:135|67:120,1,262.499991989136,6|0,3:2|0:0,0:0:0:0:
155,325,115235,5,2,3:2:0:0:
135,329,115385,1,0,3:0:0:0:
265,292,115535,5,2,1:2:0:0:
52,249,115685,1,0,3:0:0:0:
359,247,115835,5,2,3:2:0:0:
353,221,115985,1,0,3:0:0:0:
350,362,116135,5,2,1:2:0:0:
407,129,116285,1,0,3:0:0:0:
201,61,116435,6,0,P|207:94|230:118,4,56.2499982833863,6|0|0|0|0,3:2|0:0|0:0|0:0|0:0,0:0:0:0:
297,0,116660,6,0,P|281:23|278:51,2,56.2499982833863,0|2|0,3:0|2:0|0:0,0:0:0:0:
360,43,116885,5,0,3:0:0:0:
126,194,117035,6,0,B|310:130|310:130|260:165|250:219,1,281.250010728836,6|0,3:2|0:0,0:0:0:0:
366,318,117335,6,0,B|285:304|285:304|277:298|277:298|165:276,1,187.5,4|0,1:2|0:0,0:0:0:0:
44,183,117635,6,0,B|18:285|18:285|75:336|75:336|55:255,1,262.499991989136,6|0,3:2|0:0,0:0:0:0:
0,93,117935,6,0,B|70:82|70:82|79:85|79:85|144:75|144:75|152:69|152:69|234:58,1,224.999993133545,2|0,1:2|0:0,0:0:0:0:
233,70,118235,2,0,B|257:45|257:45|241:-12,1,74.9999977111817,2|0,3:2|0:0,0:0:0:0:
222,167,118385,1,8,2:0:0:0:
512,165,118535,6,0,B|497:144|497:144|323:120|323:120|302:137,1,224.999993133545,2|0,1:2|0:0,0:0:0:0:
295,133,118835,5,2,3:2:0:0:
332,370,118985,1,8,2:0:0:0:
510,342,119135,6,0,B|387:360|437:258|288:275,1,224.999993133545,2|0,1:2|0:0,0:0:0:0:
30,325,119435,2,0,B|45:346|45:346|219:370|219:370|237:355,1,224.999993133545,2|0,3:2|0:0,0:0:0:0:
194,139,119735,2,0,P|164:204|138:282,1,149.999995422363,2|8,1:2|2:0,0:0:0:0:
22,112,120035,6,0,P|56:114|90:82,1,74.9999977111817,2|0,3:2|0:0,0:0:0:0:
186,54,120185,2,0,P|220:52|254:84,1,74.9999977111817,8|0,2:0|0:0,0:0:0:0:
464,90,120335,2,0,B|403:135|403:135|364:68,1,149.999995422363,2|8,1:2|2:0,0:0:0:0:
424,15,120635,5,2,3:2:0:0:
313,187,120785,1,8,2:0:0:0:
512,267,120935,6,0,B|430:279|430:279|418:285|418:285|287:304,1,224.999993133545,2|0,1:2|0:0,0:0:0:0:
240,376,121235,2,0,B|189:322|189:322|219:252,1,149.999995422363,2|8,3:2|2:0,0:0:0:0:
66,88,121535,6,0,L|-19:77,6,62.5,10|8|8|8|8|8|8,1:2|2:0|2:0|2:0|2:0|2:0|2:0,0:0:0:0:
138,31,121835,6,0,B|87:85|87:85|117:154,1,149.999995422363,2|8,3:2|2:0,0:0:0:0:
80,375,122135,2,0,B|92:293|92:293|98:281|98:281|117:150,1,224.999993133545,2|0,1:2|0:0,0:0:0:0:
207,107,122435,6,0,B|331:108|265:201|415:207,1,224.999993133545,6|0,3:2|0:0,0:0:0:0:
458,362,122735,2,0,B|472:328|508:307|508:307|365:350,1,224.999993133545,2|0,1:2|0:0,0:0:0:0:
360,366,123035,2,0,P|342:345|280:350,1,74.9999977111817,2|0,3:2|0:0,0:0:0:0:
512,225,123185,1,8,2:0:0:0:
460,24,123335,6,0,B|446:118|446:118|432:135|432:135|416:255,1,224.999993133545,2|0,1:2|0:0,0:0:0:0:
426,254,123635,1,2,3:2:0:0:
368,47,123785,1,8,2:0:0:0:
269,178,123935,6,0,B|194:191|194:191|170:209|170:209|141:201|141:201|36:216,1,224.999993133545,2|0,1:2|0:0,0:0:0:0:
110,50,124235,2,0,B|107:20|76:2|76:2|147:12|178:87|147:149,1,224.999993133545,2|0,3:2|0:0,0:0:0:0:
1,343,124535,2,0,P|44:295|132:310,1,149.999995422363,2|8,1:2|2:0,0:0:0:0:
263,384,124835,6,0,B|285:359|285:359|274:303,1,74.9999977111817,2|0,3:2|0:0,0:0:0:0:
435,145,124985,2,0,B|457:170|457:170|446:226,1,74.9999977111817,8|0,2:0|0:0,0:0:0:0:
498,306,125135,6,0,B|428:296|428:296|419:290|419:290|330:277,1,149.999995422363,2|8,1:2|2:0,0:0:0:0:
394,376,125435,5,2,3:2:0:0:
483,215,125585,1,8,2:0:0:0:
289,116,125735,6,0,B|311:135|311:135|475:113|475:113|494:88,1,224.999993133545,2|0,1:2|0:0,0:0:0:0:
502,75,126035,5,2,3:2:0:0:
480,196,126185,1,8,2:0:0:0:
315,340,126335,5,2,1:2:0:0:
293,219,126485,1,8,2:0:0:0:
170,40,126635,6,0,B|191:18|181:-9|181:-9|182:4|173:19,1,74.9999977111817,2|0,3:2|0:0,0:0:0:0:
176,138,126785,2,0,B|184:167|213:172|213:172|200:166|191:150,1,74.9999977111817,8|0,2:0|0:0,0:0:0:0:
86,95,126935,2,0,B|56:87|37:110|37:110|49:101|66:102,1,74.9999977111817,2|0,1:2|0:0,0:0:0:0:
106,213,127085,5,8,2:0:0:0:
106,213,127160,1,0,0:0:0:0:
106,213,127235,2,0,L|98:253,1,37.5,0|0,3:0|0:0,0:0:0:0:
139,349,127535,6,0,P|34:349|107:263,1,262.499991989136,6|0,1:2|0:0,0:0:0:0:
243,178,127835,6,0,B|264:146|264:146|255:103,1,74.9999977111817,2|0,3:2|0:0,0:0:0:0:
174,94,127985,2,0,B|153:126|153:126|162:169,1,74.9999977111817,8|0,2:0|0:0,0:0:0:0:
192,278,128135,6,0,L|285:263,1,74.9999977111817,2|0,1:2|0:0,0:0:0:0:
334,60,128285,2,0,L|427:75,1,74.9999977111817,8|0,2:0|0:0,0:0:0:0:
474,333,128435,6,0,B|448:189|448:189|412:282,1,224.999993133545,2|0,3:2|0:0,0:0:0:0:
407,268,128735,2,0,B|377:252|377:252|418:261,1,74.9999977111817,2|0,1:2|0:0,0:0:0:0:
499,122,128885,2,0,B|528:106|528:106|487:115,1,74.9999977111817,8|0,2:0|0:0,0:0:0:0:
354,87,129035,6,0,B|231:104|281:4|139:28,1,224.999993133545,2|0,3:2|0:0,0:0:0:0:
137,20,129335,2,0,B|121:43|121:43|138:125,1,74.9999977111817,2|0,1:2|0:0,0:0:0:0:
73,229,129485,5,8,2:0:0:0:
73,229,129560,1,8,0:2:0:0:
73,229,129635,2,0,B|20:172|20:172|184:221,1,224.999993133545,2|0,3:2|0:0,0:0:0:0:
150,370,129935,6,0,P|141:333|128:299,1,74.9999977111817,2|0,1:2|0:0,0:0:0:0:
332,202,130085,2,0,P|340:165|354:130,1,74.9999977111817,8|0,2:0|0:0,0:0:0:0:
216,12,130235,6,0,L|229:106,1,74.9999977111817,2|0,3:2|0:0,0:0:0:0:
239,173,130385,2,0,L|252:267,1,74.9999977111817,8|0,2:0|0:0,0:0:0:0:
490,369,130535,6,0,B|471:344|471:344|307:322|307:322|285:341,1,224.999993133545,2|8,1:2|0:2,0:0:0:0:
202,324,130835,2,0,B|154:333|154:333|142:340|142:340|131:338|131:338|52:352,1,149.999995422363,2|8,3:2|2:0,0:0:0:0:
280,84,131135,6,0,L|291:2,6,62.5,10|8|8|8|8|8|8,1:2|2:0|2:0|2:0|2:0|2:0|2:0,0:0:0:0:
348,134,131435,2,0,B|300:125|300:125|288:118|288:118|277:120|277:120|198:106,1,149.999995422363,2|8,3:2|2:0,0:0:0:0:
429,29,131735,6,0,B|454:48|454:48|476:212|476:212|457:234,1,224.999993133545,2|0,1:2|3:2,0:0:0:0:
433,325,132035,6,0,B|367:338|367:338|347:354|347:354|308:340|308:340|286:357|286:357|220:367,1,224.999993133545,6|0,3:2|0:0,0:0:0:0:
214,377,132335,2,0,B|191:352|191:352|200:303,1,74.9999977111817,2|0,1:2|0:0,0:0:0:0:
112,162,132485,5,8,3:2:0:0:
112,162,132560,1,0,3:0:0:0:
112,162,132635,2,0,B|78:144|54:110|54:110|77:283,1,224.999993133545,2|0,3:2|0:0,0:0:0:0:
77,276,132935,6,0,P|113:277|139:303,1,74.9999977111817,2|0,1:2|0:0,0:0:0:0:
239,190,133085,2,0,P|202:190|176:216,1,74.9999977111817,8|0,3:2|0:0,0:0:0:0:
80,357,133235,5,2,3:2:0:0:
69,367,133385,1,8,3:2:0:0:
112,162,133535,1,2,1:2:0:0:
232,283,133685,5,8,3:2:0:0:
232,283,133760,1,0,3:0:0:0:
232,283,133835,2,0,B|322:289|272:330|370:338,2,150,2|0|8,3:2|3:0|3:2,0:0:0:0:
353,206,134435,6,0,L|361:263,1,50,2|0,3:2|0:0,0:0:0:0:
433,195,134585,2,0,L|441:252,1,50,8|0,3:2|0:0,0:0:0:0:
188,106,134735,6,0,L|196:43,1,62.5,2|0,1:2|0:0,0:0:0:0:
276,118,134885,2,0,L|284:55,1,62.5,8|0,3:2|0:0,0:0:0:0:
219,262,135035,6,0,B|187:268|187:268|184:264|184:264|180:269|180:269|138:276,1,74.9999977111817,2|0,3:2|0:0,0:0:0:0:
255,346,135185,2,0,B|288:352|288:352|291:348|291:348|295:353|295:353|337:360,1,74.9999977111817,8|0,3:2|0:0,0:0:0:0:
62,384,135335,6,0,B|67:350|67:350|63:345|63:345|68:343|68:343|75:303,1,87.499997329712,2|0,1:2|0:0,0:0:0:0:
335,200,135485,2,0,B|329:166|329:166|333:161|333:161|328:159|328:159|321:119,1,87.499997329712,8|0,3:2|0:0,0:0:0:0:
164,16,135635,6,0,B|122:100|122:100|194:171,1,187.500007152558,6|0,3:2|0:0,0:0:0:0:
188,165,135860,2,0,B|230:81|230:81|158:10,1,187.500007152558,0|0,3:0|0:0,0:0:0:0:
163,15,136085,1,0,3:0:0:0:
197,260,136235,6,0,B|270:252|218:229|312:221,1,93.7500035762788,6|0,3:2|0:0,0:0:0:0:
462,277,136385,5,0,1:0:0:0:
462,277,136460,1,0,1:0:0:0:
462,277,136535,2,0,L|455:338,1,43.749998664856,10|0,1:2|0:0,0:0:0:0:
366,157,136685,2,0,L|370:200,1,43.749998664856,0|0,3:0|0:0,0:0:0:0:
491,60,136835,5,4,2:0:0:0:
